osu file format v14

[General]
AudioFilename: audio.mp3
AudioLeadIn: 0
PreviewTime: 24648
Countdown: 1
SampleSet: Normal
StackLeniency: 0.7
Mode: 0
LetterboxInBreaks: 0
WidescreenStoryboard: 0

[Editor]
Bookmarks: 8992
DistanceSpacing: 1
BeatDivisor: 4
GridSize: 4
TimelineZoom: 1.1

[Metadata]
Title:Klokken var lidt i 10
TitleUnicode:Klokken var lidt i 10
Artist:Rasmus Bjerg
ArtistUnicode:Rasmus Bjerg
Creator:Taoshi
Version:Normal
Source:Fraværskampagnen
Tags:Rasmus Bjerg Sangen Danish Fraværskampagnen Klokken var lidt i 10 Pop Parody
BeatmapID:1468682
BeatmapSetID:694164

[Difficulty]
HPDrainRate:5
CircleSize:4
OverallDifficulty:4
ApproachRate:5
SliderMultiplier:2
SliderTickRate:2

[Events]
//Background and Video events
0,0,"bgr.PNG",0,0
//Break Periods
//Storyboard Layer 0 (Background)
//Storyboard Layer 1 (Fail)
//Storyboard Layer 2 (Pass)
//Storyboard Layer 3 (Foreground)
//Storyboard Layer 4 (Overlay)
//Storyboard Sound Samples

[TimingPoints]
2082,530.973451327434,4,1,0,100,1,0
24648,-80,4,1,0,100,0,0
27568,-133.333333333333,4,1,0,100,0,0
28638,-80,4,1,0,100,0,0
31816,-133.333333333333,4,1,0,100,0,0
32882,-80,4,1,0,100,0,0
33940,-133.333333333333,4,1,0,100,0,0
35002,-80,4,1,0,100,0,0
35798,-133.333333333333,4,1,0,100,0,0
38188,-80,4,1,0,100,0,0
39781,-133.333333333333,4,1,0,100,0,0
42435,-80,4,1,0,100,0,0
42436,-80,4,1,0,100,0,1
44560,-133.333333333333,4,1,0,100,0,1
59958,-100,4,1,0,100,0,0
78276,-133.333333333333,4,1,0,100,0,0
79338,-100,4,1,0,100,0,0
82790,-133.333333333333,4,1,0,100,0,0
84250,-100,4,1,0,100,0,0
87037,-133.333333333333,4,1,0,100,0,0
88099,-100,4,1,0,100,0,0
93409,-80,4,1,0,100,0,1
97657,-133.333333333333,4,1,0,100,0,1
99250,-80,4,1,0,100,0,1
101905,-133.333333333333,4,1,0,100,0,1
104825,-80,4,1,0,100,0,1
110400,-100,4,1,0,100,0,0
116772,-133.333333333333,4,1,0,100,0,0
117834,-100,4,1,0,100,0,0
129515,-133.333333333333,4,1,0,100,0,0
130577,-100,4,1,0,100,0,0
132436,-200,4,1,0,100,0,0
133763,-133.333333333333,4,1,0,100,0,0
134825,-100,4,1,0,100,0,0
138011,-133.333333333333,4,1,0,100,0,0
139073,-100,4,1,0,100,0,0
161370,-100,4,1,0,100,0,0
186860,-80,4,1,0,100,0,1
188719,-133.333333333333,4,1,0,100,0,1
189781,-80,4,1,0,100,0,1
192967,-133.333333333333,4,1,0,100,0,1
194029,-80,4,1,0,100,0,1
197214,-133.333333333333,4,1,0,100,0,1
198276,-80,4,1,0,100,0,1
203321,-80,4,1,0,100,0,0
220843,-100,4,1,0,100,0,0

[Colours]
Combo1 : 0,128,128
Combo2 : 207,179,65
Combo3 : 128,255,0

[HitObjects]
72,216,8453,6,0,B|76:232|80:244|88:252|92:264|112:272|144:272|188:260|188:260,1,100
228,268,8984,2,0,B|242:276|253:282|264:282|276:287|295:279|318:256|341:217|341:217,1,100
364,188,9515,2,0,B|360:172|355:160|348:151|344:140|324:132|292:132|248:144|248:144,1,100
208,136,10046,2,0,B|196:112|184:88|176:84|156:72|144:72|124:68|108:72|96:80|84:96|72:112|68:120|56:132|52:156|52:172|52:172,2,200
288,136,11374,1,0,0:0:0:0:
344,208,11904,5,0,0:0:0:0:
344,208,12169,1,0,0:0:0:0:
344,208,12435,1,0,0:0:0:0:
344,208,12701,1,0,0:0:0:0:
292,272,12967,6,0,P|268:304|240:252,2,100
256,200,13763,1,0,0:0:0:0:
256,200,14029,1,0,0:0:0:0:
256,116,14294,2,0,P|168:58|115:149,2,200
256,196,15622,2,0,P|304:244|412:188,2,200,0|0|0,0:0|0:0|0:0,0:0:0:0:
256,116,16949,1,0,0:0:0:0:
184,84,17214,6,0,P|132:105|142:179,1,100
124,224,17745,1,0,0:0:0:0:
44,224,18011,2,0,P|64:280|96:300,1,100,0|0,0:0|0:0,0:0:0:0:
172,308,18542,1,0,0:0:0:0:
252,272,18807,2,0,B|256:300|288:324|312:336|332:328|372:328|408:308|400:268|400:268,2,200,0|0|0,0:0|0:0|0:0,0:0:0:0:
252,196,20135,5,0,0:0:0:0:
256,200,20400,1,0,0:0:0:0:
256,200,20666,1,0,0:0:0:0:
256,200,20931,1,0,0:0:0:0:
252,116,21197,6,0,P|288:72|320:124,2,100,0|0|0,0:0|0:0|0:0,0:0:0:0:
252,116,21993,2,0,P|216:72|184:124,2,100,0|0|0,0:0|0:0|0:0,0:0:0:0:
252,200,22790,1,0,0:0:0:0:
168,200,23321,2,0,P|256:304|340:200,1,300,0|0,0:0|0:0,0:0:0:0:
340,128,24647,5,0,0:0:0:0:
340,128,24913,1,0,0:0:0:0:
340,128,25178,1,0,0:0:0:0:
340,216,25445,2,0,L|192:300,1,125,0|0,0:0|0:0,0:0:0:0:
148,300,25975,2,0,P|88:244|92:184,1,125
96,108,26506,2,0,B|192:88|240:88|240:88,1,125,8|0,0:0|0:0,0:0:0:0:
316,80,27038,2,0,B|364:64|392:52|432:64|440:88|432:120|440:132|440:132|440:132,1,125
456,176,27568,2,0,L|456:332,2,150.000005722046,8|0|8,0:0|0:0|0:0,0:0:0:0:
420,92,28896,6,0,B|372:48|332:36|284:40|284:40|284:40,1,125
216,52,29427,2,0,B|151:63|118:88|85:118|88:116|88:116,1,125
64,192,29958,2,0,B|60:272|76:320|140:348|140:348,1,125
184,332,30489,2,0,L|328:332,1,125,0|8,0:0|0:0,0:0:0:0:
404,304,31020,2,0,P|460:228|440:172,1,125
400,136,31551,1,0,0:0:0:0:
332,80,31816,2,0,B|308:46|283:36|254:35|214:36|184:36,2,150.000005722046,8|0|8,0:0|0:0|0:0,0:0:0:0:
284,148,33144,6,0,B|233:153|193:164|170:187|142:244|140:244,1,125
120,264,33675,1,0,0:0:0:0:
72,192,33940,2,0,B|45:216|29:237|26:291|40:315|58:334|91:334,2,150.000005722046
60,80,35533,1,0,0:0:0:0:
144,40,36064,2,0,B|208:24|260:32|300:48,2,150.000005722046,8|0|8,0:0|0:0|0:0,0:0:0:0:
144,124,37391,1,0,0:0:0:0:
144,124,37657,1,0,0:0:0:0:
144,124,37922,1,0,0:0:0:0:
144,208,38188,6,0,B|144:256|160:272|184:272|224:272|256:272,1,125
252,340,38719,2,0,P|304:296|280:228,1,125
244,184,39250,1,0,0:0:0:0:
244,184,39515,1,0,0:0:0:0:
164,176,39781,2,0,L|164:24,2,150.000005722046
164,260,41108,1,0,0:0:0:0:
300,172,41639,6,0,L|372:124,2,75.0000028610231
232,216,42436,1,0,0:0:0:0:
152,216,42701,2,0,P|192:288|280:284,1,125
332,296,43232,2,0,B|408:272|372:172|336:160,1,125
316,108,43763,2,0,B|268:68|208:56|168:80,1,125
124,120,44294,1,0,0:0:0:0:
76,196,44560,6,0,L|76:300,2,75.0000028610231
76,196,45356,2,0,L|76:112,2,75.0000028610231,0|0|0,0:0|0:0|0:0,0:0:0:0:
76,288,46152,1,0,0:0:0:0:
76,288,46418,1,0,0:0:0:0:
144,296,46683,2,0,B|152:320|180:332|216:340|248:328|288:288,2,150.000005722046
140,216,48011,1,0,0:0:0:0:
208,104,48542,6,0,P|240:72|280:88,2,75.0000028610231
208,104,49338,2,0,P|176:72|136:88,2,75.0000028610231
208,192,50135,1,0,0:0:0:0:
208,280,50400,2,0,P|240:312|280:296,2,75.0000028610231
208,280,51197,2,0,P|176:312|136:296,2,75.0000028610231
208,196,51993,1,0,0:0:0:0:
296,96,52524,6,0,B|347:119|386:159|386:159,1,75.0000028610231
399,213,53055,2,8,P|415:255|424:328,2,112.500004291535
364,132,54117,1,0,0:0:0:0:
288,88,54648,2,0,L|204:88,2,75.0000028610231
256,192,55710,12,4,56772,0:0:0:0:
176,272,57303,6,0,L|88:272,4,75.0000028610231
336,272,58630,2,0,L|440:272,2,75.0000028610231
256,272,59427,1,4,0:0:0:0:
380,184,59958,6,0,P|347:138|322:186,2,100
380,268,60754,1,0,0:0:0:0:
367,269,61020,1,0,0:0:0:0:
359,269,61285,1,0,0:0:0:0:
272,272,61551,2,0,B|249:371|114:357|104:256,2,200,8|0|8,0:0|0:0|0:0,0:0:0:0:
288,200,62878,1,0,0:0:0:0:
300,192,63143,1,0,0:0:0:0:
312,192,63408,1,0,0:0:0:0:
324,200,63675,1,0,0:0:0:0:
328,264,63940,6,0,L|400:340,2,100
328,184,64737,2,0,L|408:116,2,100
244,184,65533,1,0,0:0:0:0:
160,184,65798,2,0,P|84:124|28:192,2,200,8|8|8,0:0|0:0|0:0,0:0:0:0:
160,184,67126,2,0,P|236:244|292:176,1,200
292,104,67922,1,0,0:0:0:0:
396,68,68453,6,0,L|492:24,2,100
316,108,69250,1,0,0:0:0:0:
240,64,69515,2,0,L|144:20,2,100
316,108,70312,1,0,0:0:0:0:
316,120,70577,1,0,0:0:0:0:
316,132,70843,1,0,0:0:0:0:
316,204,71108,6,0,P|366:193|388:139,2,100,0|0|0,0:0|0:0|0:0,0:0:0:0:
316,204,71905,1,0,0:0:0:0:
316,204,72170,2,0,P|265:193|243:139,2,100
312,200,72967,1,0,0:0:0:0:
392,200,73232,2,0,B|380:272|364:320|316:296|272:292|256:344|204:312|168:280|144:236|100:184,1,400
92,112,74560,2,0,P|256:52|360:116,1,300
364,188,75622,1,0,0:0:0:0:
364,200,75887,1,0,0:0:0:0:
364,208,76152,1,0,0:0:0:0:
440,224,76418,6,0,P|409:275|336:273,1,100,0|0,0:0|0:0,0:0:0:0:
296,284,76949,2,0,P|244:253|246:180,1,100
236,140,77480,1,8,0:0:0:0:
236,56,77745,2,0,L|132:56,1,100
56,56,78276,1,0,0:0:0:0:
56,144,78542,2,0,L|56:304,2,150.000005722046,8|0|8,0:0|0:0|0:0,0:0:0:0:
140,56,79870,1,0,0:0:0:0:
148,56,80136,1,0,0:0:0:0:
156,56,80401,1,0,0:0:0:0:
232,56,80666,6,0,B|280:56|312:80|312:100|312:128,1,100
312,184,81197,2,0,B|312:276|288:320|144:360|36:176,1,400
88,120,82524,1,0,0:0:0:0:
168,96,82790,2,0,L|328:96,2,150.000005722046,8|0|8,0:0|0:0|0:0,0:0:0:0:
88,120,84117,1,0,0:0:0:0:
88,132,84383,1,0,0:0:0:0:
88,140,84648,1,0,0:0:0:0:
88,216,84914,6,0,L|88:324,2,100
88,140,85710,1,0,0:0:0:0:
168,140,85975,2,0,L|276:140,2,100
92,148,86772,1,0,0:0:0:0:
92,148,87037,2,0,B|92:108|96:68|124:32|184:32,2,150.000005722046,8|0|8,0:0|0:0|0:0,0:0:0:0:
92,148,88365,1,0,0:0:0:0:
96,164,88630,1,0,0:0:0:0:
96,176,88896,1,0,0:0:0:0:
24,176,89161,6,0,B|28:215|37:226|50:237|67:247|96:248|123:245,1,100,0|0,0:0|0:0,0:0:0:0:
160,248,89692,2,0,B|208:248|228:216|232:164|232:164,1,100
232,108,90223,1,0,0:0:0:0:
308,112,90489,1,0,0:0:0:0:
384,116,90754,2,0,B|488:116|488:204|388:208|388:208|488:208|488:296|356:308,1,400,0|0,0:0|0:0,0:0:0:0:
292,312,92082,1,0,0:0:0:0:
156,312,92613,5,0,0:0:0:0:
156,232,92878,2,0,P|96:248|80:280,2,100,0|0|0,0:0|0:0|0:0,0:0:0:0:
240,232,93675,1,0,0:0:0:0:
240,144,93940,2,0,L|96:144,2,125
324,144,94737,1,0,0:0:0:0:
336,144,95002,1,0,0:0:0:0:
348,144,95268,1,0,0:0:0:0:
428,144,95533,6,0,L|428:320,2,125,0|0|0,0:0|0:0|0:0,0:0:0:0:
428,68,96329,1,0,0:0:0:0:
352,68,96595,2,0,P|208:68|208:68,1,125
132,68,97126,1,0,0:0:0:0:
68,132,97391,1,0,0:0:0:0:
44,212,97657,2,0,B|56:256|72:280|104:296|136:292|152:280|168:260|172:232|168:192,2,225.000008583069
56,132,99515,1,0,0:0:0:0:
140,128,99781,2,0,L|288:128,1,125
364,128,100312,1,0,0:0:0:0:
364,216,100577,6,0,L|216:216,1,125
144,216,101108,1,0,0:0:0:0:
144,296,101374,1,0,0:0:0:0:
256,232,101905,2,0,P|329:227|394:115,2,150.000005722046
160,208,103498,1,0,0:0:0:0:
60,196,104029,2,0,P|56:156|132:104,2,112.500004291535
92,268,105091,1,0,0:0:0:0:
256,192,105622,12,8,107745,0:0:0:0:
256,192,108276,12,8,110400,0:0:0:0:
160,128,110666,6,0,B|156:76|176:52|232:52,2,100
160,216,111462,1,0,0:0:0:0:
160,304,111728,2,0,B|168:352|216:368|256:344,2,100
224,240,112524,2,0,B|266:169|291:279|348:172|387:262|418:172,2,200,8|0|8,0:0|0:0|0:0,0:0:0:0:
160,292,113852,1,0,0:0:0:0:
160,304,114117,1,0,0:0:0:0:
160,316,114383,1,0,0:0:0:0:
240,320,114648,6,0,L|356:320,2,100
160,320,115445,1,0,0:0:0:0:
80,316,115710,2,0,B|0:316|0:288|0:232,2,100
156,320,116506,1,0,0:0:0:0:
161,237,116772,2,0,B|85:229|73:157|134:131,2,150.000005722046
248,236,118099,1,0,0:0:0:0:
404,236,118630,1,0,0:0:0:0:
404,152,119161,6,0,L|404:12,2,100
404,236,119957,1,0,0:0:0:0:
404,324,120223,2,0,B|492:324|492:276|492:240,2,100
316,324,121020,2,0,L|316:212,2,100
228,324,121816,1,0,0:0:0:0:
156,256,122347,5,0,0:0:0:0:
148,248,122613,1,0,0:0:0:0:
140,240,122878,1,0,0:0:0:0:
132,164,123144,2,0,P|80:143|28:200,2,100,0|0|0,0:0|0:0|0:0,0:0:0:0:
132,164,123940,2,0,P|183:143|235:200,2,100
132,244,124737,1,0,0:0:0:0:
116,244,125002,1,0,0:0:0:0:
40,240,125267,2,0,B|24:308|58:351|125:377|176:340|212:328|224:292|220:228,1,300
304,148,126595,5,0,0:0:0:0:
304,148,126860,1,0,0:0:0:0:
304,148,127126,1,0,0:0:0:0:
304,228,127391,2,0,B|364:228|376:188|392:144,1,100,0|0,0:0|0:0,0:0:0:0:
380,96,127922,2,0,B|380:40|344:40|296:40,1,100
232,40,128453,1,0,0:0:0:0:
112,40,128984,1,0,0:0:0:0:
112,120,129250,1,0,0:0:0:0:
112,204,129515,2,0,B|32:204|32:160|32:88,2,150.000005722046,8|0|8,0:0|0:0|0:0,0:0:0:0:
184,204,130843,5,0,0:0:0:0:
196,204,131107,1,0,0:0:0:0:
208,204,131373,1,0,0:0:0:0:
284,204,131639,2,0,L|284:312,2,100,0|0|0,0:0|0:0|0:0,0:0:0:0:
348,152,132436,2,0,B|348:124|392:124|392:156,1,50,0|0,0:0|0:0,0:0:0:0:
440,196,132967,1,0,0:0:0:0:
440,216,133232,1,0,0:0:0:0:
440,232,133498,1,0,0:0:0:0:
440,316,133763,2,0,B|384:360|336:260|284:340,2,150.000005722046,8|0|8,0:0|0:0|0:0,0:0:0:0:
436,236,135091,5,0,0:0:0:0:
436,224,135356,1,0,0:0:0:0:
436,212,135622,1,0,0:0:0:0:
436,132,135887,2,0,B|436:80|436:68|488:68,2,100,0|0|0,0:0|0:0|0:0,0:0:0:0:
372,176,136683,1,0,0:0:0:0:
312,132,136949,2,0,B|312:80|312:68|260:68,2,100
372,176,137745,1,0,0:0:0:0:
372,260,138011,2,0,B|432:256|464:232|460:140,2,150.000005722046
296,260,139338,5,0,0:0:0:0:
288,260,139604,1,0,0:0:0:0:
280,260,139869,1,0,0:0:0:0:
200,260,140135,2,0,L|200:144,2,100,0|0|0,0:0|0:0|0:0,0:0:0:0:
120,260,140931,2,0,L|120:148,2,100
44,264,141728,1,0,0:0:0:0:
324,144,143586,6,0,L|416:72,2,100
256,192,144383,1,0,0:0:0:0:
256,276,144648,2,0,B|312:276|312:264|340:208,1,100
332,140,145179,2,0,B|332:88|316:88|248:80,1,100
188,76,145710,2,0,L|72:76,1,100
36,144,146241,2,0,L|36:256,1,100
80,308,146772,1,0,0:0:0:0:
164,308,147037,2,0,B|164:344|192:344|248:344,2,100
164,224,147834,1,0,0:0:0:0:
164,140,148099,2,0,P|212:100|252:120,1,100
256,192,148630,6,0,B|256:264|280:272|320:276|352:272|400:272|432:268|448:268|448:232|448:212|452:184|452:176,2,300,8|0|8,0:0|0:0|0:0,0:0:0:0:
256,108,150489,1,0,0:0:0:0:
188,56,150754,2,0,L|72:56,2,100
268,56,151551,1,0,0:0:0:0:
348,56,151816,2,0,L|464:56,2,100
268,56,152613,1,0,0:0:0:0:
268,136,152878,2,0,B|268:224|256:268|116:232,2,200
192,52,154471,1,0,0:0:0:0:
108,52,155002,2,0,B|24:52|16:104|16:184,2,150
104,136,156064,1,0,0:0:0:0:
256,192,156595,12,4,158719,0:0:0:0:
256,192,159250,12,4,160843,0:0:0:0:
256,192,161374,6,0,L|368:192,2,100
168,192,162169,1,0,0:0:0:0:
56,192,162701,2,0,L|56:88,1,100
128,56,163232,2,0,B|288:56|376:56|380:164,1,300,0|0,0:0|0:0,0:0:0:0:
380,236,164294,1,0,0:0:0:0:
380,316,164560,2,0,L|492:316,2,100
296,316,165356,1,0,0:0:0:0:
256,192,165622,12,4,167214,0:0:0:0:
100,192,169073,6,0,L|100:80,2,100
176,192,169869,1,0,0:0:0:0:
256,192,170135,2,0,L|256:80,2,100
256,304,171197,6,0,L|124:304,2,100
340,304,171993,1,0,0:0:0:0:
420,304,172259,2,0,B|484:304|484:272|484:232,2,100
340,304,173055,1,0,0:0:0:0:
256,192,173852,12,4,175710,0:0:0:0:
256,192,176241,12,4,177834,0:0:0:0:
344,192,178099,6,0,L|344:88,2,100
344,272,178896,1,0,0:0:0:0:
344,348,179161,1,0,0:0:0:0:
208,348,179692,2,0,L|104:348,2,100
288,348,180489,1,0,0:0:0:0:
256,192,181020,12,4,184471,0:0:0:0:
256,192,184737,12,4,186860,0:0:0:0:
384,80,187126,5,0,0:0:0:0:
300,80,187391,2,0,B|236:52|192:68|120:124|140:108,1,125
156,164,187922,1,0,0:0:0:0:
72,164,188188,2,0,B|87:230|109:252|153:247|188:236|188:236,1,125
256,240,188719,2,8,L|256:64,2,150.000005722046
256,320,190046,1,0,0:0:0:0:
336,320,190312,6,0,B|424:316|444:304|452:276|456:240|416:240,1,125
444,180,190843,2,0,B|421:120|390:84|302:79,1,125
272,88,191374,1,0,0:0:0:0:
184,88,191640,2,0,B|56:88|28:152|28:344|176:344,1,375
236,340,192701,1,0,0:0:0:0:
324,336,192967,2,8,L|324:184,2,150.000005722046,8|0|8,0:0|0:0|0:0,0:0:0:0:
404,336,194294,1,0,0:0:0:0:
404,244,194560,6,0,B|492:244|496:308|476:348,2,125
404,164,195356,1,0,0:0:0:0:
404,80,195622,2,0,L|528:80,2,125
320,80,196418,1,0,0:0:0:0:
232,80,196683,2,0,P|96:80|96:80,1,125
40,140,197214,2,8,B|8:188|36:192|8:216|80:216|16:312,2,150.000005722046
128,140,198542,1,0,0:0:0:0:
216,136,198807,1,0,0:0:0:0:
225,128,199073,1,0,0:0:0:0:
234,121,199338,1,0,0:0:0:0:
296,64,199604,6,0,B|360:64|392:112|412:164,1,125,0|0,0:0|0:0,0:0:0:0:
400,212,200135,1,0,0:0:0:0:
392,296,200400,2,0,P|336:344|260:340,1,125
208,328,200931,1,0,0:0:0:0:
132,304,201197,2,0,L|132:180,2,125
48,304,201993,1,0,0:0:0:0:
44,224,202259,2,0,P|44:140|80:96,1,125
152,108,202790,1,0,0:0:0:0:
272,108,203321,6,0,B|272:44|296:36|352:36,2,125
272,192,204117,1,0,0:0:0:0:
272,276,204383,2,0,P|216:312|132:288,1,125
96,248,204914,2,0,P|68:192|96:128,1,125
148,80,205445,1,0,0:0:0:0:
236,80,205710,2,0,B|236:24|312:24|340:28,2,125
236,160,206506,1,0,0:0:0:0:
236,240,206772,2,0,L|376:240,2,125
72,240,207568,2,8,B|64:315|94:330|117:341|140:351|191:361|240:354|269:349|280:318|307:296|314:269|314:233,2,375
132,168,209427,1,4,0:0:0:0:
256,128,209958,6,0,B|264:56|352:68|388:92,2,125
260,208,210754,1,0,0:0:0:0:
256,128,211020,2,0,B|248:56|160:68|124:92,2,125
260,208,211816,1,0,0:0:0:0:
260,288,212082,1,0,0:0:0:0:
344,292,212347,2,0,B|412:288|432:232|360:160|428:132|320:88,2,250
264,292,213675,1,0,0:0:0:0:
136,292,214206,1,0,0:0:0:0:
92,220,214470,2,0,B|48:136|64:84|88:56|120:36,2,187.5
120,296,215533,1,0,0:0:0:0:
256,192,216064,12,4,218188,0:0:0:0:
256,192,218719,12,4,220843,0:0:0:0:
