osu file format v14

[General]
AudioFilename: audio.mp3
AudioLeadIn: 0
PreviewTime: 13072
Countdown: 0
SampleSet: None
StackLeniency: 0.7
Mode: 3
LetterboxInBreaks: 0
SpecialStyle: 1
WidescreenStoryboard: 1

[Editor]
DistanceSpacing: 0.8
BeatDivisor: 4
GridSize: 32
TimelineZoom: 1.2

[Metadata]
Title:Wii Doggo Shop
TitleUnicode:Wii Doggo Shop
Artist:Rapid Liquid
ArtistUnicode:Rapid Liquid
Creator:Hlimak
Version:Hard
Source:
Tags:Gabe the Dog
BeatmapID:1730793
BeatmapSetID:825202

[Difficulty]
HPDrainRate:8
CircleSize:8
OverallDifficulty:8
ApproachRate:5
SliderMultiplier:1.4
SliderTickRate:1

[Events]
//Background and Video events
0,0,"Wii Doggo Shop.png",0,0
//Break Periods
//Storyboard Layer 0 (Background)
//Storyboard Layer 1 (Fail)
//Storyboard Layer 2 (Pass)
//Storyboard Layer 3 (Foreground)
//Storyboard Sound Samples

[TimingPoints]
117,404.858299595142,4,1,0,40,1,0

[HitObjects]
160,192,117,5,0,0:0:0:0:
288,192,117,1,0,0:0:0:0:
416,192,117,1,0,0:0:0:0:
96,192,319,1,0,0:0:0:0:
224,192,319,1,0,0:0:0:0:
480,192,319,1,0,0:0:0:0:
288,192,521,1,0,0:0:0:0:
160,192,521,1,0,0:0:0:0:
416,192,521,1,0,0:0:0:0:
96,192,724,1,0,0:0:0:0:
224,192,724,1,0,0:0:0:0:
480,192,724,1,0,0:0:0:0:
160,192,926,1,0,0:0:0:0:
288,192,926,1,0,0:0:0:0:
416,192,926,1,0,0:0:0:0:
416,192,1331,5,0,0:0:0:0:
288,192,1331,1,0,0:0:0:0:
160,192,1331,1,0,0:0:0:0:
480,192,1534,1,0,0:0:0:0:
352,192,1534,1,0,0:0:0:0:
96,192,1534,1,0,0:0:0:0:
160,192,1736,1,0,0:0:0:0:
288,192,1736,1,0,0:0:0:0:
416,192,1736,1,0,0:0:0:0:
96,192,1938,1,0,0:0:0:0:
352,192,1938,1,0,0:0:0:0:
480,192,1938,1,0,0:0:0:0:
416,192,2141,1,0,0:0:0:0:
160,192,2141,1,0,0:0:0:0:
288,192,2141,1,0,0:0:0:0:
96,192,2546,1,0,0:0:0:0:
160,192,2546,1,0,0:0:0:0:
224,192,2546,1,0,0:0:0:0:
416,192,2647,1,0,0:0:0:0:
352,192,2647,1,0,0:0:0:0:
480,192,2647,1,0,0:0:0:0:
96,192,2748,1,0,0:0:0:0:
160,192,2748,1,0,0:0:0:0:
224,192,2748,1,0,0:0:0:0:
416,192,2849,1,0,0:0:0:0:
352,192,2849,1,0,0:0:0:0:
480,192,2849,1,0,0:0:0:0:
96,192,2951,1,0,0:0:0:0:
160,192,2951,1,0,0:0:0:0:
224,192,2951,1,0,0:0:0:0:
32,192,3355,1,0,0:0:0:0:
32,192,3963,1,0,0:0:0:0:
32,192,4165,1,0,0:0:0:0:
32,192,4772,1,0,0:0:0:0:
32,192,4975,1,0,0:0:0:0:
32,192,5582,5,0,0:0:0:0:
32,192,5785,1,0,0:0:0:0:
32,192,6392,1,0,0:0:0:0:
32,192,6594,1,0,0:0:0:0:
480,192,6797,1,0,0:0:0:0:
416,192,6797,1,0,0:0:0:0:
416,192,6999,1,0,0:0:0:0:
480,192,6999,1,0,0:0:0:0:
32,192,7202,1,0,0:0:0:0:
32,192,7404,1,0,0:0:0:0:
352,192,7404,1,0,0:0:0:0:
288,192,7404,1,0,0:0:0:0:
352,192,7606,1,0,0:0:0:0:
288,192,7606,1,0,0:0:0:0:
32,192,8011,1,0,0:0:0:0:
256,192,8011,1,0,0:0:0:0:
224,192,8011,1,0,0:0:0:0:
32,192,8214,1,0,0:0:0:0:
256,192,8214,1,0,0:0:0:0:
224,192,8214,1,0,0:0:0:0:
96,192,8619,1,0,0:0:0:0:
160,192,8619,1,0,0:0:0:0:
32,192,8821,1,0,0:0:0:0:
160,192,8821,1,0,0:0:0:0:
96,192,8821,1,0,0:0:0:0:
32,192,9023,1,0,0:0:0:0:
32,192,9631,1,0,0:0:0:0:
32,192,9833,1,0,0:0:0:0:
352,192,10036,1,0,0:0:0:0:
416,192,10036,1,0,0:0:0:0:
416,192,10238,1,0,0:0:0:0:
352,192,10238,1,0,0:0:0:0:
32,192,10440,1,0,0:0:0:0:
32,192,10643,1,0,0:0:0:0:
352,192,10643,1,0,0:0:0:0:
288,192,10643,1,0,0:0:0:0:
352,192,10845,1,0,0:0:0:0:
288,192,10845,1,0,0:0:0:0:
32,192,11250,1,0,0:0:0:0:
160,192,11250,1,0,0:0:0:0:
224,192,11250,1,0,0:0:0:0:
32,192,11453,1,0,0:0:0:0:
160,192,11453,1,0,0:0:0:0:
224,192,11453,1,0,0:0:0:0:
96,192,11857,1,0,0:0:0:0:
160,192,11857,1,0,0:0:0:0:
32,192,12060,1,0,0:0:0:0:
160,192,12060,1,0,0:0:0:0:
96,192,12060,1,0,0:0:0:0:
32,192,12262,1,0,0:0:0:0:
32,192,12870,1,0,0:0:0:0:
32,192,13072,1,0,0:0:0:0:
480,192,13274,1,0,0:0:0:0:
416,192,13274,1,0,0:0:0:0:
416,192,13477,1,0,0:0:0:0:
480,192,13477,1,0,0:0:0:0:
32,192,13679,1,0,0:0:0:0:
32,192,13882,1,0,0:0:0:0:
352,192,13882,1,0,0:0:0:0:
416,192,13882,1,0,0:0:0:0:
416,192,14084,1,0,0:0:0:0:
352,192,14084,1,0,0:0:0:0:
32,192,14489,1,0,0:0:0:0:
352,192,14489,1,0,0:0:0:0:
288,192,14489,1,0,0:0:0:0:
32,192,14691,1,0,0:0:0:0:
352,192,14691,1,0,0:0:0:0:
288,192,14691,1,0,0:0:0:0:
224,192,15096,1,0,0:0:0:0:
288,192,15096,1,0,0:0:0:0:
32,192,15299,1,0,0:0:0:0:
224,192,15299,1,0,0:0:0:0:
288,192,15299,1,0,0:0:0:0:
32,192,15501,1,0,0:0:0:0:
32,192,16108,1,0,0:0:0:0:
32,192,16311,1,0,0:0:0:0:
480,192,16513,1,0,0:0:0:0:
416,192,16513,1,0,0:0:0:0:
416,192,16716,1,0,0:0:0:0:
480,192,16716,1,0,0:0:0:0:
32,192,16918,1,0,0:0:0:0:
32,192,17121,1,0,0:0:0:0:
352,192,17121,1,0,0:0:0:0:
416,192,17121,1,0,0:0:0:0:
416,192,17323,1,0,0:0:0:0:
352,192,17323,1,0,0:0:0:0:
32,192,17728,1,0,0:0:0:0:
288,192,17728,1,0,0:0:0:0:
224,192,17728,1,0,0:0:0:0:
32,192,17930,1,0,0:0:0:0:
224,192,17930,1,0,0:0:0:0:
288,192,17930,1,0,0:0:0:0:
224,192,18335,1,0,0:0:0:0:
160,192,18335,1,0,0:0:0:0:
32,192,18538,1,0,0:0:0:0:
224,192,18538,1,0,0:0:0:0:
160,192,18538,1,0,0:0:0:0:
32,192,18740,1,0,0:0:0:0:
32,192,19347,1,0,0:0:0:0:
32,192,19550,1,0,0:0:0:0:
32,192,20157,1,0,0:0:0:0:
32,192,20359,1,0,0:0:0:0:
416,192,20359,1,0,0:0:0:0:
288,192,20359,1,0,0:0:0:0:
160,192,20359,1,0,0:0:0:0:
352,192,20764,1,0,0:0:0:0:
416,192,20764,1,0,0:0:0:0:
480,192,20764,1,0,0:0:0:0:
32,192,20967,1,0,0:0:0:0:
224,192,20967,1,0,0:0:0:0:
160,192,20967,1,0,0:0:0:0:
96,192,20967,1,0,0:0:0:0:
32,192,21169,1,0,0:0:0:0:
32,192,21776,1,0,0:0:0:0:
32,192,21979,1,0,0:0:0:0:
32,192,22586,1,0,0:0:0:0:
32,192,22789,1,0,0:0:0:0:
32,192,23396,1,0,0:0:0:0:
96,192,23396,1,0,0:0:0:0:
32,192,23598,1,0,0:0:0:0:
160,192,23598,1,0,0:0:0:0:
224,192,23801,1,0,0:0:0:0:
288,192,24003,1,0,0:0:0:0:
32,192,24206,1,0,0:0:0:0:
352,192,24206,1,0,0:0:0:0:
32,192,24408,1,0,0:0:0:0:
480,192,24408,1,0,0:0:0:0:
416,192,24408,1,0,0:0:0:0:
32,192,25015,1,0,0:0:0:0:
32,192,25218,1,0,0:0:0:0:
352,192,25218,1,0,0:0:0:0:
416,192,25218,1,0,0:0:0:0:
32,192,25825,1,0,0:0:0:0:
32,192,26027,1,0,0:0:0:0:
352,192,26027,1,0,0:0:0:0:
288,192,26027,1,0,0:0:0:0:
224,192,26432,1,0,0:0:0:0:
160,192,26432,1,0,0:0:0:0:
32,192,26635,1,0,0:0:0:0:
160,192,26635,1,0,0:0:0:0:
224,192,26635,1,0,0:0:0:0:
32,192,26837,1,0,0:0:0:0:
352,192,27040,1,0,0:0:0:0:
416,192,27040,1,0,0:0:0:0:
32,192,27444,1,0,0:0:0:0:
288,192,27444,1,0,0:0:0:0:
224,192,27444,1,0,0:0:0:0:
32,192,27647,1,0,0:0:0:0:
96,192,28052,1,0,0:0:0:0:
160,192,28052,1,0,0:0:0:0:
32,192,28254,1,0,0:0:0:0:
160,192,28254,1,0,0:0:0:0:
96,192,28254,1,0,0:0:0:0:
32,192,28457,1,0,0:0:0:0:
416,192,28659,1,0,0:0:0:0:
352,192,28659,1,0,0:0:0:0:
32,192,29064,1,0,0:0:0:0:
224,192,29064,1,0,0:0:0:0:
160,192,29064,1,0,0:0:0:0:
32,192,29266,1,0,0:0:0:0:
32,192,29874,1,0,0:0:0:0:
32,192,30076,1,0,0:0:0:0:
32,192,30683,1,0,0:0:0:0:
32,192,30886,1,0,0:0:0:0:
32,192,31493,5,0,0:0:0:0:
32,192,31695,1,0,0:0:0:0:
32,192,32303,1,0,0:0:0:0:
32,192,32505,5,0,0:0:0:0:
160,192,32505,5,0,0:0:0:0:
288,192,32505,1,0,0:0:0:0:
416,192,32505,1,0,0:0:0:0:
96,192,32708,1,0,0:0:0:0:
224,192,32708,1,0,0:0:0:0:
480,192,32708,1,0,0:0:0:0:
288,192,32910,1,0,0:0:0:0:
160,192,32910,1,0,0:0:0:0:
416,192,32910,1,0,0:0:0:0:
32,192,33112,1,0,0:0:0:0:
96,192,33112,1,0,0:0:0:0:
224,192,33112,1,0,0:0:0:0:
480,192,33112,1,0,0:0:0:0:
32,192,33315,1,0,0:0:0:0:
160,192,33315,1,0,0:0:0:0:
288,192,33315,1,0,0:0:0:0:
416,192,33315,1,0,0:0:0:0:
32,192,33922,1,0,0:0:0:0:
32,192,34125,1,0,0:0:0:0:
160,192,34529,5,0,0:0:0:0:
416,192,34529,1,0,0:0:0:0:
288,192,34529,1,0,0:0:0:0:
32,192,34732,1,0,0:0:0:0:
352,192,34732,1,0,0:0:0:0:
96,192,34732,1,0,0:0:0:0:
480,192,34732,1,0,0:0:0:0:
32,192,34934,1,0,0:0:0:0:
288,192,34934,1,0,0:0:0:0:
160,192,34934,1,0,0:0:0:0:
416,192,34934,1,0,0:0:0:0:
480,192,35137,1,0,0:0:0:0:
352,192,35137,1,0,0:0:0:0:
96,192,35137,1,0,0:0:0:0:
288,192,35339,1,0,0:0:0:0:
416,192,35339,1,0,0:0:0:0:
160,192,35339,1,0,0:0:0:0:
32,192,35542,1,0,0:0:0:0:
160,192,35744,5,0,0:0:0:0:
32,192,35744,1,0,0:0:0:0:
288,192,35744,1,0,0:0:0:0:
416,192,35744,1,0,0:0:0:0:
480,192,35946,1,0,0:0:0:0:
96,192,35946,1,0,0:0:0:0:
224,192,35946,1,0,0:0:0:0:
416,192,36149,1,0,0:0:0:0:
160,192,36149,1,0,0:0:0:0:
288,192,36149,1,0,0:0:0:0:
32,192,36351,1,0,0:0:0:0:
96,192,36351,1,0,0:0:0:0:
224,192,36351,1,0,0:0:0:0:
480,192,36351,1,0,0:0:0:0:
32,192,36554,1,0,0:0:0:0:
160,192,36554,1,0,0:0:0:0:
416,192,36554,1,0,0:0:0:0:
288,192,36554,1,0,0:0:0:0:
32,192,37161,1,0,0:0:0:0:
32,192,37363,1,0,0:0:0:0:
96,192,37768,1,0,0:0:0:0:
32,192,37768,1,0,0:0:0:0:
96,192,38173,1,0,0:0:0:0:
160,192,38173,1,0,0:0:0:0:
224,192,38173,1,0,0:0:0:0:
480,192,38274,1,0,0:0:0:0:
416,192,38274,1,0,0:0:0:0:
352,192,38274,1,0,0:0:0:0:
96,192,38376,1,0,0:0:0:0:
224,192,38376,1,0,0:0:0:0:
160,192,38376,1,0,0:0:0:0:
416,192,38477,1,0,0:0:0:0:
480,192,38477,1,0,0:0:0:0:
352,192,38477,1,0,0:0:0:0:
96,192,38578,1,0,0:0:0:0:
224,192,38578,1,0,0:0:0:0:
160,192,38578,1,0,0:0:0:0:
