osu file format v14

[General]
AudioFilename: Freedom Borks.mp3
AudioLeadIn: 0
PreviewTime: 124165
Countdown: 0
SampleSet: Normal
StackLeniency: 0.7
Mode: 3
LetterboxInBreaks: 0
SpecialStyle: 0
WidescreenStoryboard: 0

[Editor]
Bookmarks: 770,31086,53823,74033,94244,124559,170033,190244,233191,253402
DistanceSpacing: 2
BeatDivisor: 4
GridSize: 8
TimelineZoom: 1.8

[Metadata]
Title:Freedom Borks
TitleUnicode:Freedom Borks
Artist:Rapid Liquid
ArtistUnicode:Rapid Liquid
Creator:AnatOWJIya
Version:FOUR DIMENSIONS
Source:
Tags:bms xi freedom dive gabe dog Mage
BeatmapID:1230252
BeatmapSetID:581160

[Difficulty]
HPDrainRate:8
CircleSize:4
OverallDifficulty:8
ApproachRate:5
SliderMultiplier:1.4
SliderTickRate:1

[Events]
//Background and Video events
0,0,"BG.png",0,0
//Break Periods
//Storyboard Layer 0 (Background)
//Storyboard Layer 1 (Fail)
//Storyboard Layer 2 (Pass)
//Storyboard Layer 3 (Foreground)
//Storyboard Sound Samples

[TimingPoints]
802.427184466019,315.789473684211,4,1,0,15,1,0
74065,-100,4,1,0,15,0,1
94276,-100,4,1,0,15,0,0
124591,-100,4,1,0,15,0,1
170065,-100,4,1,0,15,0,0
190276,-100,4,1,0,15,0,1
233223,-100,4,1,0,15,0,0
253434,-100,4,1,0,15,0,1
298907,-100,4,1,0,15,0,0

[HitObjects]
448,192,802,5,0,0:0:0:0:
64,192,802,1,0,0:0:0:0:
320,192,802,1,0,0:0:0:0:
192,192,881,1,0,0:0:0:0:
320,192,960,1,0,0:0:0:0:
448,192,1039,1,0,0:0:0:0:
64,192,1118,1,0,0:0:0:0:
192,192,1118,1,0,0:0:0:0:
320,192,1197,1,0,0:0:0:0:
192,192,1276,1,0,0:0:0:0:
64,192,1355,1,0,0:0:0:0:
320,192,1434,1,0,0:0:0:0:
448,192,1434,1,0,0:0:0:0:
192,192,1512,1,0,0:0:0:0:
320,192,1591,1,0,0:0:0:0:
448,192,1670,1,0,0:0:0:0:
192,192,1749,1,0,0:0:0:0:
64,192,1749,1,0,0:0:0:0:
448,192,1828,1,0,0:0:0:0:
320,192,1907,1,0,0:0:0:0:
192,192,1986,1,0,0:0:0:0:
448,192,2065,1,0,0:0:0:0:
64,192,2065,1,0,0:0:0:0:
192,192,2144,1,0,0:0:0:0:
320,192,2223,1,0,0:0:0:0:
448,192,2302,1,0,0:0:0:0:
64,192,2381,1,0,0:0:0:0:
192,192,2381,1,0,0:0:0:0:
320,192,2460,1,0,0:0:0:0:
192,192,2539,1,0,0:0:0:0:
64,192,2618,1,0,0:0:0:0:
320,192,2697,1,0,0:0:0:0:
448,192,2697,1,0,0:0:0:0:
192,192,2776,1,0,0:0:0:0:
320,192,2855,1,0,0:0:0:0:
448,192,2934,1,0,0:0:0:0:
64,192,3012,1,0,0:0:0:0:
192,192,3012,1,0,0:0:0:0:
320,192,3091,1,0,0:0:0:0:
448,192,3170,1,0,0:0:0:0:
320,192,3249,1,0,0:0:0:0:
448,192,3328,1,0,0:0:0:0:
64,192,3328,1,0,0:0:0:0:
192,192,3328,1,0,0:0:0:0:
320,192,3407,1,0,0:0:0:0:
192,192,3486,1,0,0:0:0:0:
64,192,3565,1,0,0:0:0:0:
448,192,3644,1,0,0:0:0:0:
320,192,3644,1,0,0:0:0:0:
192,192,3723,1,0,0:0:0:0:
320,192,3802,1,0,0:0:0:0:
448,192,3881,1,0,0:0:0:0:
64,192,3960,1,0,0:0:0:0:
192,192,3960,1,0,0:0:0:0:
320,192,4039,1,0,0:0:0:0:
192,192,4118,1,0,0:0:0:0:
64,192,4197,1,0,0:0:0:0:
448,192,4276,1,0,0:0:0:0:
320,192,4276,1,0,0:0:0:0:
64,192,4355,1,0,0:0:0:0:
192,192,4434,1,0,0:0:0:0:
320,192,4512,1,0,0:0:0:0:
64,192,4591,1,0,0:0:0:0:
448,192,4591,1,0,0:0:0:0:
320,192,4670,1,0,0:0:0:0:
192,192,4749,1,0,0:0:0:0:
64,192,4828,1,0,0:0:0:0:
448,192,4907,1,0,0:0:0:0:
320,192,4907,1,0,0:0:0:0:
64,192,4986,1,0,0:0:0:0:
192,192,5065,1,0,0:0:0:0:
320,192,5144,1,0,0:0:0:0:
448,192,5223,1,0,0:0:0:0:
64,192,5223,1,0,0:0:0:0:
192,192,5302,1,0,0:0:0:0:
64,192,5381,1,0,0:0:0:0:
192,192,5460,1,0,0:0:0:0:
64,192,5539,1,0,0:0:0:0:
448,192,5539,1,0,0:0:0:0:
320,192,5618,1,0,0:0:0:0:
448,192,5697,1,0,0:0:0:0:
320,192,5776,1,0,0:0:0:0:
64,192,5855,1,0,0:0:0:0:
448,192,5855,1,0,0:0:0:0:
192,192,5855,1,0,0:0:0:0:
320,192,5934,1,0,0:0:0:0:
192,192,6012,1,0,0:0:0:0:
64,192,6091,1,0,0:0:0:0:
448,192,6170,1,0,0:0:0:0:
320,192,6170,1,0,0:0:0:0:
64,192,6249,1,0,0:0:0:0:
192,192,6328,1,0,0:0:0:0:
320,192,6407,1,0,0:0:0:0:
448,192,6486,1,0,0:0:0:0:
64,192,6486,1,0,0:0:0:0:
192,192,6565,1,0,0:0:0:0:
320,192,6644,1,0,0:0:0:0:
448,192,6723,1,0,0:0:0:0:
64,192,6802,1,0,0:0:0:0:
192,192,6802,1,0,0:0:0:0:
448,192,6881,1,0,0:0:0:0:
320,192,6960,1,0,0:0:0:0:
192,192,7039,1,0,0:0:0:0:
64,192,7118,1,0,0:0:0:0:
448,192,7118,1,0,0:0:0:0:
320,192,7197,1,0,0:0:0:0:
192,192,7276,1,0,0:0:0:0:
64,192,7355,1,0,0:0:0:0:
448,192,7434,1,0,0:0:0:0:
320,192,7434,1,0,0:0:0:0:
64,192,7512,1,0,0:0:0:0:
192,192,7591,1,0,0:0:0:0:
320,192,7670,1,0,0:0:0:0:
448,192,7749,1,0,0:0:0:0:
64,192,7749,1,0,0:0:0:0:
192,192,7828,1,0,0:0:0:0:
320,192,7907,1,0,0:0:0:0:
448,192,7986,1,0,0:0:0:0:
64,192,8065,1,0,0:0:0:0:
192,192,8065,1,0,0:0:0:0:
448,192,8144,1,0,0:0:0:0:
320,192,8223,1,0,0:0:0:0:
192,192,8302,1,0,0:0:0:0:
64,192,8381,1,0,0:0:0:0:
320,192,8381,1,0,0:0:0:0:
448,192,8381,1,0,0:0:0:0:
192,192,8460,1,0,0:0:0:0:
320,192,8539,1,0,0:0:0:0:
448,192,8618,1,0,0:0:0:0:
64,192,8697,1,0,0:0:0:0:
192,192,8697,1,0,0:0:0:0:
448,192,8776,1,0,0:0:0:0:
320,192,8855,1,0,0:0:0:0:
192,192,8934,1,0,0:0:0:0:
64,192,9012,1,0,0:0:0:0:
448,192,9012,1,0,0:0:0:0:
320,192,9012,1,0,0:0:0:0:
192,192,9091,1,0,0:0:0:0:
320,192,9170,1,0,0:0:0:0:
448,192,9249,1,0,0:0:0:0:
64,192,9328,1,0,0:0:0:0:
192,192,9328,1,0,0:0:0:0:
448,192,9407,1,0,0:0:0:0:
320,192,9486,1,0,0:0:0:0:
192,192,9565,1,0,0:0:0:0:
64,192,9644,1,0,0:0:0:0:
320,192,9644,1,0,0:0:0:0:
448,192,9644,1,0,0:0:0:0:
192,192,9723,1,0,0:0:0:0:
320,192,9802,1,0,0:0:0:0:
448,192,9881,1,0,0:0:0:0:
64,192,9960,1,0,0:0:0:0:
192,192,9960,1,0,0:0:0:0:
320,192,9960,1,0,0:0:0:0:
448,192,10039,1,0,0:0:0:0:
192,192,10118,1,0,0:0:0:0:
64,192,10197,1,0,0:0:0:0:
320,192,10276,1,0,0:0:0:0:
448,192,10276,1,0,0:0:0:0:
192,192,10276,1,0,0:0:0:0:
64,192,10355,1,0,0:0:0:0:
192,192,10434,1,0,0:0:0:0:
320,192,10512,1,0,0:0:0:0:
192,192,10591,1,0,0:0:0:0:
448,192,10591,1,0,0:0:0:0:
64,192,10591,1,0,0:0:0:0:
320,192,10670,1,0,0:0:0:0:
192,192,10749,1,0,0:0:0:0:
320,192,10828,1,0,0:0:0:0:
448,192,10907,1,0,0:0:0:0:
64,192,10907,1,0,0:0:0:0:
192,192,10907,1,0,0:0:0:0:
320,192,10986,1,0,0:0:0:0:
192,192,11065,1,0,0:0:0:0:
64,192,11144,1,0,0:0:0:0:
448,192,11223,1,0,0:0:0:0:
320,192,11223,1,0,0:0:0:0:
192,192,11302,1,0,0:0:0:0:
64,192,11381,1,0,0:0:0:0:
192,192,11460,1,0,0:0:0:0:
448,192,11539,1,0,0:0:0:0:
320,192,11539,1,0,0:0:0:0:
64,192,11618,1,0,0:0:0:0:
192,192,11697,1,0,0:0:0:0:
320,192,11776,1,0,0:0:0:0:
448,192,11855,1,0,0:0:0:0:
64,192,11855,1,0,0:0:0:0:
320,192,11934,1,0,0:0:0:0:
192,192,12012,1,0,0:0:0:0:
64,192,12091,1,0,0:0:0:0:
448,192,12170,1,0,0:0:0:0:
320,192,12170,1,0,0:0:0:0:
192,192,12249,1,0,0:0:0:0:
64,192,12328,1,0,0:0:0:0:
192,192,12407,1,0,0:0:0:0:
320,192,12486,1,0,0:0:0:0:
448,192,12486,1,0,0:0:0:0:
64,192,12565,1,0,0:0:0:0:
192,192,12644,1,0,0:0:0:0:
320,192,12723,1,0,0:0:0:0:
448,192,12802,1,0,0:0:0:0:
64,192,12802,1,0,0:0:0:0:
320,192,12881,1,0,0:0:0:0:
192,192,12960,1,0,0:0:0:0:
64,192,13039,1,0,0:0:0:0:
448,192,13118,1,0,0:0:0:0:
320,192,13118,1,0,0:0:0:0:
192,192,13197,1,0,0:0:0:0:
64,192,13276,1,0,0:0:0:0:
192,192,13355,1,0,0:0:0:0:
320,192,13434,1,0,0:0:0:0:
448,192,13434,1,0,0:0:0:0:
64,192,13434,1,0,0:0:0:0:
192,192,13512,1,0,0:0:0:0:
320,192,13591,1,0,0:0:0:0:
448,192,13670,1,0,0:0:0:0:
64,192,13749,1,0,0:0:0:0:
192,192,13749,1,0,0:0:0:0:
320,192,13828,1,0,0:0:0:0:
448,192,13907,1,0,0:0:0:0:
320,192,13986,1,0,0:0:0:0:
192,192,14065,1,0,0:0:0:0:
64,192,14065,1,0,0:0:0:0:
448,192,14144,1,0,0:0:0:0:
320,192,14223,1,0,0:0:0:0:
192,192,14302,1,0,0:0:0:0:
64,192,14381,1,0,0:0:0:0:
448,192,14381,1,0,0:0:0:0:
192,192,14460,1,0,0:0:0:0:
320,192,14539,1,0,0:0:0:0:
448,192,14618,1,0,0:0:0:0:
64,192,14697,1,0,0:0:0:0:
192,192,14697,1,0,0:0:0:0:
320,192,14776,1,0,0:0:0:0:
448,192,14855,1,0,0:0:0:0:
320,192,14934,1,0,0:0:0:0:
192,192,15012,1,0,0:0:0:0:
64,192,15012,1,0,0:0:0:0:
448,192,15012,1,0,0:0:0:0:
320,192,15091,1,0,0:0:0:0:
192,192,15170,1,0,0:0:0:0:
64,192,15249,1,0,0:0:0:0:
448,192,15328,1,0,0:0:0:0:
320,192,15328,1,0,0:0:0:0:
192,192,15328,1,0,0:0:0:0:
64,192,15407,1,0,0:0:0:0:
448,192,15486,1,0,0:0:0:0:
192,192,15565,1,0,0:0:0:0:
64,192,15565,1,0,0:0:0:0:
320,192,15565,1,0,0:0:0:0:
448,192,15644,1,0,0:0:0:0:
320,192,15723,1,0,0:0:0:0:
448,192,15802,1,0,0:0:0:0:
64,192,15802,1,0,0:0:0:0:
192,192,15802,1,0,0:0:0:0:
320,192,15881,1,0,0:0:0:0:
448,192,15960,1,0,0:0:0:0:
64,192,15960,1,0,0:0:0:0:
192,192,15960,1,0,0:0:0:0:
320,192,16039,1,0,0:0:0:0:
192,192,16118,1,0,0:0:0:0:
64,192,16197,1,0,0:0:0:0:
320,192,16276,1,0,0:0:0:0:
448,192,16276,1,0,0:0:0:0:
64,192,16355,1,0,0:0:0:0:
192,192,16434,1,0,0:0:0:0:
320,192,16512,1,0,0:0:0:0:
448,192,16591,1,0,0:0:0:0:
64,192,16591,1,0,0:0:0:0:
192,192,16670,1,0,0:0:0:0:
320,192,16749,1,0,0:0:0:0:
448,192,16828,1,0,0:0:0:0:
64,192,16907,1,0,0:0:0:0:
192,192,16907,1,0,0:0:0:0:
320,192,16907,1,0,0:0:0:0:
448,192,16986,1,0,0:0:0:0:
320,192,17065,1,0,0:0:0:0:
192,192,17065,1,0,0:0:0:0:
64,192,17065,1,0,0:0:0:0:
448,192,17144,1,0,0:0:0:0:
320,192,17223,1,0,0:0:0:0:
192,192,17223,1,0,0:0:0:0:
64,192,17302,1,0,0:0:0:0:
192,192,17381,1,0,0:0:0:0:
320,192,17381,1,0,0:0:0:0:
448,192,17381,1,0,0:0:0:0:
64,192,17460,1,0,0:0:0:0:
448,192,17539,1,0,0:0:0:0:
320,192,17539,1,0,0:0:0:0:
192,192,17539,1,0,0:0:0:0:
64,192,17618,1,0,0:0:0:0:
192,192,17697,1,0,0:0:0:0:
320,192,17776,1,0,0:0:0:0:
64,192,17855,1,0,0:0:0:0:
192,192,17855,1,0,0:0:0:0:
448,192,17855,1,0,0:0:0:0:
320,192,17934,1,0,0:0:0:0:
448,192,18012,1,0,0:0:0:0:
192,192,18012,1,0,0:0:0:0:
64,192,18012,1,0,0:0:0:0:
320,192,18091,1,0,0:0:0:0:
64,192,18170,1,0,0:0:0:0:
192,192,18170,1,0,0:0:0:0:
448,192,18170,1,0,0:0:0:0:
320,192,18249,1,0,0:0:0:0:
64,192,18328,1,0,0:0:0:0:
192,192,18407,1,0,0:0:0:0:
64,192,18486,1,0,0:0:0:0:
320,192,18486,1,0,0:0:0:0:
448,192,18486,1,0,0:0:0:0:
192,192,18565,1,0,0:0:0:0:
320,192,18644,1,0,0:0:0:0:
448,192,18723,1,0,0:0:0:0:
64,192,18802,1,0,0:0:0:0:
192,192,18802,1,0,0:0:0:0:
448,192,18881,1,0,0:0:0:0:
320,192,18960,1,0,0:0:0:0:
192,192,19039,1,0,0:0:0:0:
64,192,19118,1,0,0:0:0:0:
448,192,19118,1,0,0:0:0:0:
320,192,19118,1,0,0:0:0:0:
192,192,19197,1,0,0:0:0:0:
320,192,19276,1,0,0:0:0:0:
448,192,19355,1,0,0:0:0:0:
64,192,19434,1,0,0:0:0:0:
192,192,19434,1,0,0:0:0:0:
448,192,19512,1,0,0:0:0:0:
320,192,19591,1,0,0:0:0:0:
192,192,19670,1,0,0:0:0:0:
320,192,19749,1,0,0:0:0:0:
64,192,19749,1,0,0:0:0:0:
448,192,19749,1,0,0:0:0:0:
192,192,19828,1,0,0:0:0:0:
320,192,19907,1,0,0:0:0:0:
448,192,19986,1,0,0:0:0:0:
64,192,20065,1,0,0:0:0:0:
192,192,20065,1,0,0:0:0:0:
320,192,20065,1,0,0:0:0:0:
448,192,20144,1,0,0:0:0:0:
192,192,20223,1,0,0:0:0:0:
64,192,20302,1,0,0:0:0:0:
448,192,20381,1,0,0:0:0:0:
320,192,20381,1,0,0:0:0:0:
192,192,20381,1,0,0:0:0:0:
64,192,20460,1,0,0:0:0:0:
320,192,20539,1,0,0:0:0:0:
448,192,20618,1,0,0:0:0:0:
64,192,20697,1,0,0:0:0:0:
192,192,20697,1,0,0:0:0:0:
320,192,20697,1,0,0:0:0:0:
448,192,20776,1,0,0:0:0:0:
320,192,20855,1,0,0:0:0:0:
192,192,20934,1,0,0:0:0:0:
320,192,21012,1,0,0:0:0:0:
448,192,21012,1,0,0:0:0:0:
64,192,21012,1,0,0:0:0:0:
192,192,21091,1,0,0:0:0:0:
320,192,21170,1,0,0:0:0:0:
448,192,21249,1,0,0:0:0:0:
64,192,21328,1,0,0:0:0:0:
192,192,21328,1,0,0:0:0:0:
320,192,21407,1,0,0:0:0:0:
448,192,21486,1,0,0:0:0:0:
320,192,21565,1,0,0:0:0:0:
192,192,21644,1,0,0:0:0:0:
64,192,21644,1,0,0:0:0:0:
448,192,21723,1,0,0:0:0:0:
320,192,21802,1,0,0:0:0:0:
192,192,21881,1,0,0:0:0:0:
64,192,21960,1,0,0:0:0:0:
448,192,21960,1,0,0:0:0:0:
192,192,22039,1,0,0:0:0:0:
320,192,22118,1,0,0:0:0:0:
448,192,22197,1,0,0:0:0:0:
64,192,22276,1,0,0:0:0:0:
192,192,22276,1,0,0:0:0:0:
320,192,22355,1,0,0:0:0:0:
448,192,22434,1,0,0:0:0:0:
320,192,22512,1,0,0:0:0:0:
192,192,22591,1,0,0:0:0:0:
64,192,22591,1,0,0:0:0:0:
448,192,22670,1,0,0:0:0:0:
320,192,22749,1,0,0:0:0:0:
192,192,22828,1,0,0:0:0:0:
64,192,22907,1,0,0:0:0:0:
448,192,22907,1,0,0:0:0:0:
192,192,22986,1,0,0:0:0:0:
320,192,23065,1,0,0:0:0:0:
448,192,23144,1,0,0:0:0:0:
64,192,23223,1,0,0:0:0:0:
192,192,23223,1,0,0:0:0:0:
320,192,23302,1,0,0:0:0:0:
448,192,23381,1,0,0:0:0:0:
320,192,23460,1,0,0:0:0:0:
64,192,23539,1,0,0:0:0:0:
192,192,23539,1,0,0:0:0:0:
448,192,23539,1,0,0:0:0:0:
320,192,23618,1,0,0:0:0:0:
192,192,23697,1,0,0:0:0:0:
64,192,23776,1,0,0:0:0:0:
320,192,23855,1,0,0:0:0:0:
448,192,23855,1,0,0:0:0:0:
64,192,23934,1,0,0:0:0:0:
192,192,24012,1,0,0:0:0:0:
320,192,24091,1,0,0:0:0:0:
448,192,24170,1,0,0:0:0:0:
64,192,24170,1,0,0:0:0:0:
192,192,24249,1,0,0:0:0:0:
320,192,24328,1,0,0:0:0:0:
448,192,24407,1,0,0:0:0:0:
64,192,24486,1,0,0:0:0:0:
192,192,24486,1,0,0:0:0:0:
448,192,24565,1,0,0:0:0:0:
320,192,24644,1,0,0:0:0:0:
192,192,24723,1,0,0:0:0:0:
448,192,24802,1,0,0:0:0:0:
64,192,24802,1,0,0:0:0:0:
320,192,24881,1,0,0:0:0:0:
192,192,24960,1,0,0:0:0:0:
64,192,25039,1,0,0:0:0:0:
448,192,25118,1,0,0:0:0:0:
320,192,25118,1,0,0:0:0:0:
192,192,25118,1,0,0:0:0:0:
64,192,25197,1,0,0:0:0:0:
192,192,25276,1,0,0:0:0:0:
448,192,25355,1,0,0:0:0:0:
64,192,25434,1,0,0:0:0:0:
192,192,25434,1,0,0:0:0:0:
320,192,25434,1,0,0:0:0:0:
448,192,25512,1,0,0:0:0:0:
64,192,25591,1,0,0:0:0:0:
448,192,25670,1,0,0:0:0:0:
320,192,25670,1,0,0:0:0:0:
192,192,25670,1,0,0:0:0:0:
64,192,25749,1,0,0:0:0:0:
192,192,25828,1,0,0:0:0:0:
64,192,25907,1,0,0:0:0:0:
448,192,25907,1,0,0:0:0:0:
320,192,25907,1,0,0:0:0:0:
192,192,25986,1,0,0:0:0:0:
448,192,26065,1,0,0:0:0:0:
64,192,26065,1,0,0:0:0:0:
320,192,26065,1,0,0:0:0:0:
192,192,26144,1,0,0:0:0:0:
320,192,26223,1,0,0:0:0:0:
448,192,26302,1,0,0:0:0:0:
64,192,26381,1,0,0:0:0:0:
192,192,26381,1,0,0:0:0:0:
448,192,26460,1,0,0:0:0:0:
320,192,26539,1,0,0:0:0:0:
192,192,26618,1,0,0:0:0:0:
64,192,26697,1,0,0:0:0:0:
448,192,26697,1,0,0:0:0:0:
320,192,26776,1,0,0:0:0:0:
192,192,26855,1,0,0:0:0:0:
64,192,26934,1,0,0:0:0:0:
192,192,27012,1,0,0:0:0:0:
448,192,27012,1,0,0:0:0:0:
320,192,27012,1,0,0:0:0:0:
64,192,27091,1,0,0:0:0:0:
448,192,27170,1,0,0:0:0:0:
320,192,27170,1,0,0:0:0:0:
192,192,27170,1,0,0:0:0:0:
64,192,27249,1,0,0:0:0:0:
192,192,27328,1,0,0:0:0:0:
448,192,27407,1,0,0:0:0:0:
64,192,27486,1,0,0:0:0:0:
192,192,27486,1,0,0:0:0:0:
320,192,27486,1,0,0:0:0:0:
448,192,27565,1,0,0:0:0:0:
64,192,27644,1,0,0:0:0:0:
192,192,27644,1,0,0:0:0:0:
320,192,27644,1,0,0:0:0:0:
448,192,27723,1,0,0:0:0:0:
320,192,27802,1,0,0:0:0:0:
192,192,27881,1,0,0:0:0:0:
64,192,27960,1,0,0:0:0:0:
320,192,27960,1,0,0:0:0:0:
448,192,27960,1,0,0:0:0:0:
192,192,28039,1,0,0:0:0:0:
448,192,28118,1,0,0:0:0:0:
320,192,28118,1,0,0:0:0:0:
64,192,28118,1,0,0:0:0:0:
192,192,28197,1,0,0:0:0:0:
64,192,28276,1,0,0:0:0:0:
320,192,28276,1,0,0:0:0:0:
448,192,28276,1,0,0:0:0:0:
192,192,28355,1,0,0:0:0:0:
448,192,28434,1,0,0:0:0:0:
320,192,28512,1,0,0:0:0:0:
64,192,28591,1,0,0:0:0:0:
192,192,28591,1,0,0:0:0:0:
448,192,28591,1,0,0:0:0:0:
192,192,28749,1,0,0:0:0:0:
320,192,28749,1,0,0:0:0:0:
448,192,28907,1,0,0:0:0:0:
64,192,28907,1,0,0:0:0:0:
448,192,29065,1,0,0:0:0:0:
320,192,29065,1,0,0:0:0:0:
192,192,29223,1,0,0:0:0:0:
64,192,29223,1,0,0:0:0:0:
64,192,29381,1,0,0:0:0:0:
320,192,29381,1,0,0:0:0:0:
448,192,29539,1,0,0:0:0:0:
192,192,29539,1,0,0:0:0:0:
448,192,29697,1,0,0:0:0:0:
320,192,29697,1,0,0:0:0:0:
192,192,29855,1,0,0:0:0:0:
64,192,29855,1,0,0:0:0:0:
320,192,29855,1,0,0:0:0:0:
448,192,30012,1,0,0:0:0:0:
64,192,30012,1,0,0:0:0:0:
320,192,30170,1,0,0:0:0:0:
448,192,30170,1,0,0:0:0:0:
192,192,30170,1,0,0:0:0:0:
64,192,30328,1,0,0:0:0:0:
320,192,30328,1,0,0:0:0:0:
192,192,30486,1,0,0:0:0:0:
448,192,30486,1,0,0:0:0:0:
64,192,30486,1,0,0:0:0:0:
192,192,30644,1,0,0:0:0:0:
320,192,30644,1,0,0:0:0:0:
320,192,30802,1,0,0:0:0:0:
448,192,30802,1,0,0:0:0:0:
64,192,30802,1,0,0:0:0:0:
448,192,30960,1,0,0:0:0:0:
192,192,30960,1,0,0:0:0:0:
64,192,31118,5,0,0:0:0:0:
192,192,31197,1,0,0:0:0:0:
320,192,31276,1,0,0:0:0:0:
448,192,31355,1,0,0:0:0:0:
64,192,31434,1,0,0:0:0:0:
192,192,31512,1,0,0:0:0:0:
320,192,31591,1,0,0:0:0:0:
448,192,31670,1,0,0:0:0:0:
192,192,31749,1,0,0:0:0:0:
64,192,31828,1,0,0:0:0:0:
320,192,31907,1,0,0:0:0:0:
192,192,31986,1,0,0:0:0:0:
448,192,32065,1,0,0:0:0:0:
64,192,32144,1,0,0:0:0:0:
320,192,32223,1,0,0:0:0:0:
192,192,32302,1,0,0:0:0:0:
64,192,32381,1,0,0:0:0:0:
320,192,32460,1,0,0:0:0:0:
192,192,32539,1,0,0:0:0:0:
448,192,32618,1,0,0:0:0:0:
64,192,32697,1,0,0:0:0:0:
192,192,32776,1,0,0:0:0:0:
320,192,32855,1,0,0:0:0:0:
448,192,32934,1,0,0:0:0:0:
192,192,33012,1,0,0:0:0:0:
64,192,33091,1,0,0:0:0:0:
320,192,33170,1,0,0:0:0:0:
448,192,33249,1,0,0:0:0:0:
192,192,33328,1,0,0:0:0:0:
64,192,33407,1,0,0:0:0:0:
320,192,33486,1,0,0:0:0:0:
192,192,33565,1,0,0:0:0:0:
448,192,33644,1,0,0:0:0:0:
64,192,33723,1,0,0:0:0:0:
192,192,33802,1,0,0:0:0:0:
320,192,33881,1,0,0:0:0:0:
448,192,33960,1,0,0:0:0:0:
192,192,34039,1,0,0:0:0:0:
320,192,34118,1,0,0:0:0:0:
448,192,34197,1,0,0:0:0:0:
64,192,34276,1,0,0:0:0:0:
320,192,34355,1,0,0:0:0:0:
192,192,34434,1,0,0:0:0:0:
448,192,34512,1,0,0:0:0:0:
320,192,34591,1,0,0:0:0:0:
192,192,34670,1,0,0:0:0:0:
64,192,34749,1,0,0:0:0:0:
320,192,34828,1,0,0:0:0:0:
192,192,34907,1,0,0:0:0:0:
448,192,34986,1,0,0:0:0:0:
64,192,35065,1,0,0:0:0:0:
192,192,35144,1,0,0:0:0:0:
320,192,35223,1,0,0:0:0:0:
448,192,35302,1,0,0:0:0:0:
64,192,35381,1,0,0:0:0:0:
192,192,35460,1,0,0:0:0:0:
320,192,35539,1,0,0:0:0:0:
448,192,35539,1,0,0:0:0:0:
192,192,35697,1,0,0:0:0:0:
64,192,35697,1,0,0:0:0:0:
320,192,35855,1,0,0:0:0:0:
448,192,35855,1,0,0:0:0:0:
192,192,36012,1,0,0:0:0:0:
64,192,36012,1,0,0:0:0:0:
448,192,36170,1,0,0:0:0:0:
320,192,36170,1,0,0:0:0:0:
64,192,36249,1,0,0:0:0:0:
448,192,36328,1,0,0:0:0:0:
192,192,36407,1,0,0:0:0:0:
320,192,36407,1,0,0:0:0:0:
64,192,36486,1,0,0:0:0:0:
192,192,36565,1,0,0:0:0:0:
320,192,36644,1,0,0:0:0:0:
448,192,36644,1,0,0:0:0:0:
64,192,36723,1,0,0:0:0:0:
192,192,36723,1,0,0:0:0:0:
320,192,36802,1,0,0:0:0:0:
448,192,36802,1,0,0:0:0:0:
64,192,36881,1,0,0:0:0:0:
192,192,36881,1,0,0:0:0:0:
320,192,36960,1,0,0:0:0:0:
448,192,36960,1,0,0:0:0:0:
64,192,37118,1,0,0:0:0:0:
448,192,37118,1,0,0:0:0:0:
320,192,37197,1,0,0:0:0:0:
192,192,37197,1,0,0:0:0:0:
64,192,37276,1,0,0:0:0:0:
448,192,37276,1,0,0:0:0:0:
192,192,37434,1,0,0:0:0:0:
64,192,37434,1,0,0:0:0:0:
320,192,37512,1,0,0:0:0:0:
448,192,37512,1,0,0:0:0:0:
64,192,37591,1,0,0:0:0:0:
192,192,37591,1,0,0:0:0:0:
448,192,37749,1,0,0:0:0:0:
192,192,37749,1,0,0:0:0:0:
64,192,37828,1,0,0:0:0:0:
320,192,37828,1,0,0:0:0:0:
192,192,37907,1,0,0:0:0:0:
448,192,37907,1,0,0:0:0:0:
448,192,38065,1,0,0:0:0:0:
320,192,38065,1,0,0:0:0:0:
64,192,38144,1,0,0:0:0:0:
192,192,38144,1,0,0:0:0:0:
320,192,38223,1,0,0:0:0:0:
448,192,38223,1,0,0:0:0:0:
320,192,38381,1,0,0:0:0:0:
64,192,38381,1,0,0:0:0:0:
448,192,38460,1,0,0:0:0:0:
192,192,38460,1,0,0:0:0:0:
320,192,38539,1,0,0:0:0:0:
64,192,38539,1,0,0:0:0:0:
64,192,38697,1,0,0:0:0:0:
448,192,38697,1,0,0:0:0:0:
192,192,38776,1,0,0:0:0:0:
320,192,38776,1,0,0:0:0:0:
448,192,38855,1,0,0:0:0:0:
64,192,38855,1,0,0:0:0:0:
320,192,39012,1,0,0:0:0:0:
64,192,39012,1,0,0:0:0:0:
448,192,39091,1,0,0:0:0:0:
192,192,39091,1,0,0:0:0:0:
320,192,39170,1,0,0:0:0:0:
64,192,39170,1,0,0:0:0:0:
192,192,39328,1,0,0:0:0:0:
64,192,39328,1,0,0:0:0:0:
448,192,39407,1,0,0:0:0:0:
320,192,39407,1,0,0:0:0:0:
192,192,39486,1,0,0:0:0:0:
64,192,39486,1,0,0:0:0:0:
64,192,39644,1,0,0:0:0:0:
448,192,39644,1,0,0:0:0:0:
192,192,39723,1,0,0:0:0:0:
320,192,39723,1,0,0:0:0:0:
448,192,39802,1,0,0:0:0:0:
64,192,39802,1,0,0:0:0:0:
192,192,39960,1,0,0:0:0:0:
64,192,40039,1,0,0:0:0:0:
320,192,40118,1,0,0:0:0:0:
192,192,40197,1,0,0:0:0:0:
448,192,40276,1,0,0:0:0:0:
320,192,40355,1,0,0:0:0:0:
192,192,40434,1,0,0:0:0:0:
64,192,40512,1,0,0:0:0:0:
320,192,40591,1,0,0:0:0:0:
192,192,40670,1,0,0:0:0:0:
448,192,40749,1,0,0:0:0:0:
64,192,40828,1,0,0:0:0:0:
192,192,40907,1,0,0:0:0:0:
320,192,40986,1,0,0:0:0:0:
448,192,41065,1,0,0:0:0:0:
64,192,41144,1,0,0:0:0:0:
192,192,41223,1,0,0:0:0:0:
320,192,41223,1,0,0:0:0:0:
448,192,41381,5,0,0:0:0:0:
64,192,41381,1,0,0:0:0:0:
192,192,41539,1,0,0:0:0:0:
320,192,41539,1,0,0:0:0:0:
448,192,41697,1,0,0:0:0:0:
64,192,41697,1,0,0:0:0:0:
192,192,41855,1,0,0:0:0:0:
320,192,41855,1,0,0:0:0:0:
448,192,42012,1,0,0:0:0:0:
320,192,42012,1,0,0:0:0:0:
192,192,42170,1,0,0:0:0:0:
64,192,42170,1,0,0:0:0:0:
320,192,42328,1,0,0:0:0:0:
192,192,42328,1,0,0:0:0:0:
448,192,42486,5,0,0:0:0:0:
320,192,42585,1,0,0:0:0:0:
192,192,42703,1,0,0:0:0:0:
64,192,42802,1,0,0:0:0:0:
448,192,43118,1,0,0:0:0:0:
320,192,43118,1,0,0:0:0:0:
64,192,43276,1,0,0:0:0:0:
192,192,43276,1,0,0:0:0:0:
320,192,43434,1,0,0:0:0:0:
448,192,43434,1,0,0:0:0:0:
192,192,43591,1,0,0:0:0:0:
64,192,43591,1,0,0:0:0:0:
192,192,43749,1,0,0:0:0:0:
320,192,43749,1,0,0:0:0:0:
448,192,43749,1,0,0:0:0:0:
64,192,43907,1,0,0:0:0:0:
320,192,43907,1,0,0:0:0:0:
192,192,44065,1,0,0:0:0:0:
448,192,44065,1,0,0:0:0:0:
320,192,44223,1,0,0:0:0:0:
64,192,44223,1,0,0:0:0:0:
192,192,44381,1,0,0:0:0:0:
448,192,44381,1,0,0:0:0:0:
320,192,44539,1,0,0:0:0:0:
64,192,44539,1,0,0:0:0:0:
192,192,44697,1,0,0:0:0:0:
448,192,44697,1,0,0:0:0:0:
320,192,44855,1,0,0:0:0:0:
64,192,44855,1,0,0:0:0:0:
192,192,45012,1,0,0:0:0:0:
320,192,45091,1,0,0:0:0:0:
448,192,45170,1,0,0:0:0:0:
64,192,45170,1,0,0:0:0:0:
320,192,45328,1,0,0:0:0:0:
64,192,45407,1,0,0:0:0:0:
448,192,45486,1,0,0:0:0:0:
192,192,45486,1,0,0:0:0:0:
320,192,45644,1,0,0:0:0:0:
448,192,45723,1,0,0:0:0:0:
192,192,45802,1,0,0:0:0:0:
64,192,45802,1,0,0:0:0:0:
448,192,45960,1,0,0:0:0:0:
192,192,46039,1,0,0:0:0:0:
64,192,46118,1,0,0:0:0:0:
320,192,46118,1,0,0:0:0:0:
448,192,46276,1,0,0:0:0:0:
64,192,46276,1,0,0:0:0:0:
320,192,46355,1,0,0:0:0:0:
192,192,46434,1,0,0:0:0:0:
64,192,46512,1,0,0:0:0:0:
320,192,46591,1,0,0:0:0:0:
192,192,46670,1,0,0:0:0:0:
448,192,46749,1,0,0:0:0:0:
64,192,46828,1,0,0:0:0:0:
192,192,46907,1,0,0:0:0:0:
320,192,46986,1,0,0:0:0:0:
448,192,47065,1,0,0:0:0:0:
64,192,47144,1,0,0:0:0:0:
192,192,47223,1,0,0:0:0:0:
320,192,47302,1,0,0:0:0:0:
448,192,47381,1,0,0:0:0:0:
192,192,47381,1,0,0:0:0:0:
320,192,47460,1,0,0:0:0:0:
64,192,47539,1,0,0:0:0:0:
192,192,47539,1,0,0:0:0:0:
320,192,47618,1,0,0:0:0:0:
448,192,47697,1,0,0:0:0:0:
192,192,47776,1,0,0:0:0:0:
64,192,47855,1,0,0:0:0:0:
320,192,47934,1,0,0:0:0:0:
192,192,48012,1,0,0:0:0:0:
448,192,48091,1,0,0:0:0:0:
320,192,48170,1,0,0:0:0:0:
64,192,48170,1,0,0:0:0:0:
192,192,48249,1,0,0:0:0:0:
64,192,48328,1,0,0:0:0:0:
320,192,48407,1,0,0:0:0:0:
192,192,48486,1,0,0:0:0:0:
448,192,48565,1,0,0:0:0:0:
64,192,48644,1,0,0:0:0:0:
320,192,48723,1,0,0:0:0:0:
448,192,48802,1,0,0:0:0:0:
192,192,48802,1,0,0:0:0:0:
64,192,48881,1,0,0:0:0:0:
320,192,48960,1,0,0:0:0:0:
192,192,49039,1,0,0:0:0:0:
448,192,49118,1,0,0:0:0:0:
320,192,49197,1,0,0:0:0:0:
192,192,49276,1,0,0:0:0:0:
64,192,49355,1,0,0:0:0:0:
320,192,49434,1,0,0:0:0:0:
448,192,49434,1,0,0:0:0:0:
192,192,49512,1,0,0:0:0:0:
320,192,49591,1,0,0:0:0:0:
448,192,49670,1,0,0:0:0:0:
64,192,49749,1,0,0:0:0:0:
192,192,49749,1,0,0:0:0:0:
320,192,49828,1,0,0:0:0:0:
192,192,49907,1,0,0:0:0:0:
64,192,49986,1,0,0:0:0:0:
448,192,50065,1,0,0:0:0:0:
192,192,50065,1,0,0:0:0:0:
320,192,50144,1,0,0:0:0:0:
64,192,50223,1,0,0:0:0:0:
192,192,50381,1,0,0:0:0:0:
320,192,50381,1,0,0:0:0:0:
448,192,50460,1,0,0:0:0:0:
64,192,50539,1,0,0:0:0:0:
320,192,50697,1,0,0:0:0:0:
448,192,50697,1,0,0:0:0:0:
192,192,50776,1,0,0:0:0:0:
64,192,50855,1,0,0:0:0:0:
192,192,51012,1,0,0:0:0:0:
64,192,51012,1,0,0:0:0:0:
320,192,51091,1,0,0:0:0:0:
448,192,51170,1,0,0:0:0:0:
320,192,51328,1,0,0:0:0:0:
192,192,51328,1,0,0:0:0:0:
320,192,51486,1,0,0:0:0:0:
320,192,51644,1,0,0:0:0:0:
320,192,51802,1,0,0:0:0:0:
192,192,51881,1,0,0:0:0:0:
320,192,51960,1,0,0:0:0:0:
64,192,51960,1,0,0:0:0:0:
64,192,52118,1,0,0:0:0:0:
64,192,52276,1,0,0:0:0:0:
64,192,52434,1,0,0:0:0:0:
192,192,52512,1,0,0:0:0:0:
448,192,52591,1,0,0:0:0:0:
320,192,52591,1,0,0:0:0:0:
448,192,52749,1,0,0:0:0:0:
64,192,52828,1,0,0:0:0:0:
448,192,52907,1,0,0:0:0:0:
448,192,53065,1,0,0:0:0:0:
320,192,53144,1,0,0:0:0:0:
192,192,53223,1,0,0:0:0:0:
448,192,53223,1,0,0:0:0:0:
192,192,53381,1,0,0:0:0:0:
64,192,53460,1,0,0:0:0:0:
192,192,53539,1,0,0:0:0:0:
64,192,53855,1,0,0:0:0:0:
320,192,53855,1,0,0:0:0:0:
192,192,54012,1,0,0:0:0:0:
448,192,54170,1,0,0:0:0:0:
192,192,54170,1,0,0:0:0:0:
320,192,54170,1,0,0:0:0:0:
64,192,54328,1,0,0:0:0:0:
320,192,54486,1,0,0:0:0:0:
64,192,54486,1,0,0:0:0:0:
448,192,54644,1,0,0:0:0:0:
192,192,54802,1,0,0:0:0:0:
448,192,54802,1,0,0:0:0:0:
64,192,54802,1,0,0:0:0:0:
320,192,54960,1,0,0:0:0:0:
320,192,55118,1,0,0:0:0:0:
64,192,55118,1,0,0:0:0:0:
192,192,55276,1,0,0:0:0:0:
320,192,55434,1,0,0:0:0:0:
448,192,55434,1,0,0:0:0:0:
192,192,55434,1,0,0:0:0:0:
64,192,55591,1,0,0:0:0:0:
320,192,55749,1,0,0:0:0:0:
192,192,55749,1,0,0:0:0:0:
448,192,55907,1,0,0:0:0:0:
192,192,56065,1,0,0:0:0:0:
64,192,56065,1,0,0:0:0:0:
448,192,56065,1,0,0:0:0:0:
320,192,56223,1,0,0:0:0:0:
448,192,56381,1,0,0:0:0:0:
64,192,56381,1,0,0:0:0:0:
192,192,56539,1,0,0:0:0:0:
320,192,56697,1,0,0:0:0:0:
192,192,56697,1,0,0:0:0:0:
64,192,56697,1,0,0:0:0:0:
448,192,56855,1,0,0:0:0:0:
64,192,57012,1,0,0:0:0:0:
448,192,57012,1,0,0:0:0:0:
64,192,57170,1,0,0:0:0:0:
192,192,57328,1,0,0:0:0:0:
320,192,57328,1,0,0:0:0:0:
448,192,57328,1,0,0:0:0:0:
320,192,57486,1,0,0:0:0:0:
64,192,57644,1,0,0:0:0:0:
192,192,57644,1,0,0:0:0:0:
448,192,57802,1,0,0:0:0:0:
320,192,57960,1,0,0:0:0:0:
64,192,57960,1,0,0:0:0:0:
448,192,57960,1,0,0:0:0:0:
64,192,58118,1,0,0:0:0:0:
192,192,58276,1,0,0:0:0:0:
320,192,58276,1,0,0:0:0:0:
320,192,58434,1,0,0:0:0:0:
448,192,58591,1,0,0:0:0:0:
64,192,58591,1,0,0:0:0:0:
192,192,58591,1,0,0:0:0:0:
64,192,58749,1,0,0:0:0:0:
320,192,58907,1,0,0:0:0:0:
448,192,58907,1,0,0:0:0:0:
448,192,59065,1,0,0:0:0:0:
64,192,59223,1,0,0:0:0:0:
192,192,59223,1,0,0:0:0:0:
320,192,59223,1,0,0:0:0:0:
192,192,59381,1,0,0:0:0:0:
448,192,59539,1,0,0:0:0:0:
320,192,59539,1,0,0:0:0:0:
320,192,59697,1,0,0:0:0:0:
192,192,59855,1,0,0:0:0:0:
64,192,59855,1,0,0:0:0:0:
448,192,59855,1,0,0:0:0:0:
64,192,60012,1,0,0:0:0:0:
320,192,60170,1,0,0:0:0:0:
192,192,60170,1,0,0:0:0:0:
448,192,60328,1,0,0:0:0:0:
320,192,60486,1,0,0:0:0:0:
448,192,60486,1,0,0:0:0:0:
192,192,60486,1,0,0:0:0:0:
192,192,60644,1,0,0:0:0:0:
64,192,60802,1,0,0:0:0:0:
448,192,60802,1,0,0:0:0:0:
320,192,60960,1,0,0:0:0:0:
320,192,61118,1,0,0:0:0:0:
192,192,61118,1,0,0:0:0:0:
64,192,61118,1,0,0:0:0:0:
448,192,61276,1,0,0:0:0:0:
320,192,61434,1,0,0:0:0:0:
448,192,61434,1,0,0:0:0:0:
192,192,61591,1,0,0:0:0:0:
64,192,61749,1,0,0:0:0:0:
320,192,61749,1,0,0:0:0:0:
448,192,61749,1,0,0:0:0:0:
320,192,61907,1,0,0:0:0:0:
192,192,62065,1,0,0:0:0:0:
64,192,62065,1,0,0:0:0:0:
448,192,62223,1,0,0:0:0:0:
192,192,62381,1,0,0:0:0:0:
320,192,62381,1,0,0:0:0:0:
448,192,62381,1,0,0:0:0:0:
320,192,62539,1,0,0:0:0:0:
64,192,62697,1,0,0:0:0:0:
192,192,62697,1,0,0:0:0:0:
64,192,62855,1,0,0:0:0:0:
320,192,63012,1,0,0:0:0:0:
192,192,63012,1,0,0:0:0:0:
448,192,63012,1,0,0:0:0:0:
64,192,63170,1,0,0:0:0:0:
448,192,63328,1,0,0:0:0:0:
320,192,63328,1,0,0:0:0:0:
64,192,63328,1,0,0:0:0:0:
192,192,63486,1,0,0:0:0:0:
192,192,63644,1,0,0:0:0:0:
320,192,63644,1,0,0:0:0:0:
64,192,63644,1,0,0:0:0:0:
448,192,63802,1,0,0:0:0:0:
64,192,63960,1,0,0:0:0:0:
448,192,63960,1,0,0:0:0:0:
192,192,64118,1,0,0:0:0:0:
320,192,64276,1,0,0:0:0:0:
192,192,64276,1,0,0:0:0:0:
448,192,64276,1,0,0:0:0:0:
64,192,64434,1,0,0:0:0:0:
448,192,64591,1,0,0:0:0:0:
320,192,64591,1,0,0:0:0:0:
192,192,64749,1,0,0:0:0:0:
64,192,64907,1,0,0:0:0:0:
192,192,64907,1,0,0:0:0:0:
320,192,64907,1,0,0:0:0:0:
448,192,65065,1,0,0:0:0:0:
448,192,65223,1,0,0:0:0:0:
192,192,65223,1,0,0:0:0:0:
192,192,65381,1,0,0:0:0:0:
64,192,65539,1,0,0:0:0:0:
320,192,65539,1,0,0:0:0:0:
448,192,65539,1,0,0:0:0:0:
64,192,65697,1,0,0:0:0:0:
320,192,65855,1,0,0:0:0:0:
192,192,65855,1,0,0:0:0:0:
448,192,66012,1,0,0:0:0:0:
64,192,66170,1,0,0:0:0:0:
192,192,66170,1,0,0:0:0:0:
448,192,66170,1,0,0:0:0:0:
64,192,66328,1,0,0:0:0:0:
448,192,66486,1,0,0:0:0:0:
320,192,66486,1,0,0:0:0:0:
192,192,66644,1,0,0:0:0:0:
192,192,66802,1,0,0:0:0:0:
64,192,66802,1,0,0:0:0:0:
448,192,66802,1,0,0:0:0:0:
448,192,66960,1,0,0:0:0:0:
192,192,67118,1,0,0:0:0:0:
320,192,67118,1,0,0:0:0:0:
64,192,67276,1,0,0:0:0:0:
64,192,67434,1,0,0:0:0:0:
192,192,67434,1,0,0:0:0:0:
320,192,67434,1,0,0:0:0:0:
320,192,67591,1,0,0:0:0:0:
448,192,67749,1,0,0:0:0:0:
64,192,67749,1,0,0:0:0:0:
192,192,67907,1,0,0:0:0:0:
192,192,68065,1,0,0:0:0:0:
320,192,68065,1,0,0:0:0:0:
448,192,68065,1,0,0:0:0:0:
64,192,68223,1,0,0:0:0:0:
64,192,68381,1,0,0:0:0:0:
320,192,68381,1,0,0:0:0:0:
448,192,68539,1,0,0:0:0:0:
448,192,68697,1,0,0:0:0:0:
192,192,68697,1,0,0:0:0:0:
64,192,68697,1,0,0:0:0:0:
64,192,68855,1,0,0:0:0:0:
192,192,69012,1,0,0:0:0:0:
320,192,69012,1,0,0:0:0:0:
448,192,69170,1,0,0:0:0:0:
320,192,69328,1,0,0:0:0:0:
192,192,69328,1,0,0:0:0:0:
448,192,69328,1,0,0:0:0:0:
64,192,69486,1,0,0:0:0:0:
64,192,69644,1,0,0:0:0:0:
448,192,69644,1,0,0:0:0:0:
192,192,69802,1,0,0:0:0:0:
192,192,69960,1,0,0:0:0:0:
64,192,69960,1,0,0:0:0:0:
320,192,69960,1,0,0:0:0:0:
448,192,70118,1,0,0:0:0:0:
448,192,70276,1,0,0:0:0:0:
192,192,70276,1,0,0:0:0:0:
320,192,70434,1,0,0:0:0:0:
320,192,70591,1,0,0:0:0:0:
448,192,70591,1,0,0:0:0:0:
64,192,70591,1,0,0:0:0:0:
192,192,70749,1,0,0:0:0:0:
192,192,70907,1,0,0:0:0:0:
320,192,70907,1,0,0:0:0:0:
64,192,71065,1,0,0:0:0:0:
448,192,71223,1,0,0:0:0:0:
192,192,71223,1,0,0:0:0:0:
64,192,71223,1,0,0:0:0:0:
320,192,71381,1,0,0:0:0:0:
320,192,71539,1,0,0:0:0:0:
448,192,71539,1,0,0:0:0:0:
192,192,71697,1,0,0:0:0:0:
64,192,71697,1,0,0:0:0:0:
320,192,71855,1,0,0:0:0:0:
448,192,71855,1,0,0:0:0:0:
192,192,72012,1,0,0:0:0:0:
64,192,72012,1,0,0:0:0:0:
320,192,72091,1,0,0:0:0:0:
448,192,72091,1,0,0:0:0:0:
192,192,72170,1,0,0:0:0:0:
64,192,72170,1,0,0:0:0:0:
320,192,72328,1,0,0:0:0:0:
448,192,72328,1,0,0:0:0:0:
192,192,72486,1,0,0:0:0:0:
64,192,72486,1,0,0:0:0:0:
320,192,72644,1,0,0:0:0:0:
448,192,72644,1,0,0:0:0:0:
192,192,72723,1,0,0:0:0:0:
64,192,72723,1,0,0:0:0:0:
448,192,72802,1,0,0:0:0:0:
320,192,72802,1,0,0:0:0:0:
192,192,72881,1,0,0:0:0:0:
64,192,72881,1,0,0:0:0:0:
320,192,72960,1,0,0:0:0:0:
448,192,72960,1,0,0:0:0:0:
192,192,73039,1,0,0:0:0:0:
64,192,73039,1,0,0:0:0:0:
448,192,73118,1,0,0:0:0:0:
320,192,73118,1,0,0:0:0:0:
192,192,73197,1,0,0:0:0:0:
64,192,73197,1,0,0:0:0:0:
320,192,73276,1,0,0:0:0:0:
448,192,73276,1,0,0:0:0:0:
192,192,73355,1,0,0:0:0:0:
64,192,73355,1,0,0:0:0:0:
320,192,73434,1,0,0:0:0:0:
448,192,73434,1,0,0:0:0:0:
192,192,73512,1,0,0:0:0:0:
64,192,73512,1,0,0:0:0:0:
320,192,73591,1,0,0:0:0:0:
448,192,73591,1,0,0:0:0:0:
192,192,73670,1,0,0:0:0:0:
64,192,73670,1,0,0:0:0:0:
320,192,73749,1,0,0:0:0:0:
448,192,73749,1,0,0:0:0:0:
192,192,73828,1,0,0:0:0:0:
64,192,73828,1,0,0:0:0:0:
320,192,73907,1,0,0:0:0:0:
448,192,73907,1,0,0:0:0:0:
192,192,73986,1,0,0:0:0:0:
64,192,73986,1,0,0:0:0:0:
320,192,74065,1,0,0:0:0:0:
448,192,74065,1,0,0:0:0:0:
64,192,74144,1,0,0:0:0:0:
192,192,74223,1,0,0:0:0:0:
448,192,74223,1,0,0:0:0:0:
320,192,74302,1,0,0:0:0:0:
64,192,74381,1,0,0:0:0:0:
192,192,74381,1,0,0:0:0:0:
448,192,74381,1,0,0:0:0:0:
320,192,74460,1,0,0:0:0:0:
192,192,74539,1,0,0:0:0:0:
64,192,74539,1,0,0:0:0:0:
448,192,74618,1,0,0:0:0:0:
320,192,74697,1,0,0:0:0:0:
192,192,74697,1,0,0:0:0:0:
64,192,74776,1,0,0:0:0:0:
192,192,74855,1,0,0:0:0:0:
448,192,74855,1,0,0:0:0:0:
320,192,74934,1,0,0:0:0:0:
64,192,75012,1,0,0:0:0:0:
192,192,75012,1,0,0:0:0:0:
448,192,75012,1,0,0:0:0:0:
320,192,75091,1,0,0:0:0:0:
448,192,75170,1,0,0:0:0:0:
192,192,75170,1,0,0:0:0:0:
64,192,75170,1,0,0:0:0:0:
320,192,75249,1,0,0:0:0:0:
64,192,75328,1,0,0:0:0:0:
192,192,75328,1,0,0:0:0:0:
448,192,75328,1,0,0:0:0:0:
320,192,75407,1,0,0:0:0:0:
448,192,75486,1,0,0:0:0:0:
192,192,75486,1,0,0:0:0:0:
64,192,75565,1,0,0:0:0:0:
320,192,75644,1,0,0:0:0:0:
192,192,75644,1,0,0:0:0:0:
448,192,75644,1,0,0:0:0:0:
64,192,75723,1,0,0:0:0:0:
192,192,75802,1,0,0:0:0:0:
320,192,75802,1,0,0:0:0:0:
448,192,75881,1,0,0:0:0:0:
64,192,75960,1,0,0:0:0:0:
320,192,75960,1,0,0:0:0:0:
192,192,76039,1,0,0:0:0:0:
448,192,76118,1,0,0:0:0:0:
320,192,76118,1,0,0:0:0:0:
192,192,76197,1,0,0:0:0:0:
64,192,76276,1,0,0:0:0:0:
448,192,76276,1,0,0:0:0:0:
320,192,76276,1,0,0:0:0:0:
192,192,76355,1,0,0:0:0:0:
64,192,76434,1,0,0:0:0:0:
320,192,76434,1,0,0:0:0:0:
448,192,76434,1,0,0:0:0:0:
192,192,76512,1,0,0:0:0:0:
64,192,76591,1,0,0:0:0:0:
320,192,76591,1,0,0:0:0:0:
448,192,76591,1,0,0:0:0:0:
192,192,76670,1,0,0:0:0:0:
64,192,76749,1,0,0:0:0:0:
320,192,76749,1,0,0:0:0:0:
448,192,76828,1,0,0:0:0:0:
320,192,76907,1,0,0:0:0:0:
192,192,76907,1,0,0:0:0:0:
64,192,76907,1,0,0:0:0:0:
448,192,76986,1,0,0:0:0:0:
320,192,77065,1,0,0:0:0:0:
192,192,77065,1,0,0:0:0:0:
64,192,77144,1,0,0:0:0:0:
192,192,77223,1,0,0:0:0:0:
320,192,77223,1,0,0:0:0:0:
448,192,77223,1,0,0:0:0:0:
64,192,77302,1,0,0:0:0:0:
448,192,77381,1,0,0:0:0:0:
192,192,77381,1,0,0:0:0:0:
320,192,77460,1,0,0:0:0:0:
64,192,77539,1,0,0:0:0:0:
448,192,77539,1,0,0:0:0:0:
192,192,77539,1,0,0:0:0:0:
320,192,77618,1,0,0:0:0:0:
64,192,77697,1,0,0:0:0:0:
192,192,77697,1,0,0:0:0:0:
448,192,77697,1,0,0:0:0:0:
320,192,77776,1,0,0:0:0:0:
64,192,77855,1,0,0:0:0:0:
192,192,77855,1,0,0:0:0:0:
448,192,77855,1,0,0:0:0:0:
320,192,77934,1,0,0:0:0:0:
448,192,78012,1,0,0:0:0:0:
64,192,78012,1,0,0:0:0:0:
192,192,78091,1,0,0:0:0:0:
320,192,78170,1,0,0:0:0:0:
448,192,78170,1,0,0:0:0:0:
64,192,78170,1,0,0:0:0:0:
192,192,78249,1,0,0:0:0:0:
320,192,78328,1,0,0:0:0:0:
448,192,78328,1,0,0:0:0:0:
192,192,78407,1,0,0:0:0:0:
64,192,78486,1,0,0:0:0:0:
320,192,78486,1,0,0:0:0:0:
448,192,78565,1,0,0:0:0:0:
64,192,78644,1,0,0:0:0:0:
320,192,78644,1,0,0:0:0:0:
192,192,78723,1,0,0:0:0:0:
64,192,78802,1,0,0:0:0:0:
320,192,78802,1,0,0:0:0:0:
448,192,78881,1,0,0:0:0:0:
64,192,78960,1,0,0:0:0:0:
320,192,78960,1,0,0:0:0:0:
192,192,79039,1,0,0:0:0:0:
64,192,79118,1,0,0:0:0:0:
320,192,79118,1,0,0:0:0:0:
448,192,79118,1,0,0:0:0:0:
192,192,79197,1,0,0:0:0:0:
320,192,79276,1,0,0:0:0:0:
448,192,79276,1,0,0:0:0:0:
192,192,79355,1,0,0:0:0:0:
64,192,79434,1,0,0:0:0:0:
448,192,79434,1,0,0:0:0:0:
320,192,79434,1,0,0:0:0:0:
192,192,79512,1,0,0:0:0:0:
64,192,79591,1,0,0:0:0:0:
320,192,79591,1,0,0:0:0:0:
448,192,79670,1,0,0:0:0:0:
64,192,79749,1,0,0:0:0:0:
192,192,79749,1,0,0:0:0:0:
320,192,79828,1,0,0:0:0:0:
448,192,79828,1,0,0:0:0:0:
192,192,79907,1,0,0:0:0:0:
64,192,79907,1,0,0:0:0:0:
192,192,80065,1,0,0:0:0:0:
320,192,80065,1,0,0:0:0:0:
448,192,80144,1,0,0:0:0:0:
64,192,80144,1,0,0:0:0:0:
192,192,80223,1,0,0:0:0:0:
320,192,80223,1,0,0:0:0:0:
448,192,80381,1,0,0:0:0:0:
320,192,80381,1,0,0:0:0:0:
64,192,80460,1,0,0:0:0:0:
192,192,80460,1,0,0:0:0:0:
320,192,80539,1,0,0:0:0:0:
448,192,80539,1,0,0:0:0:0:
448,192,80697,1,0,0:0:0:0:
64,192,80697,1,0,0:0:0:0:
192,192,80776,1,0,0:0:0:0:
320,192,80776,1,0,0:0:0:0:
64,192,80855,1,0,0:0:0:0:
448,192,80855,1,0,0:0:0:0:
64,192,81012,1,0,0:0:0:0:
192,192,81012,1,0,0:0:0:0:
320,192,81091,1,0,0:0:0:0:
448,192,81091,1,0,0:0:0:0:
192,192,81170,1,0,0:0:0:0:
64,192,81170,1,0,0:0:0:0:
192,192,81328,1,0,0:0:0:0:
448,192,81328,1,0,0:0:0:0:
320,192,81407,1,0,0:0:0:0:
64,192,81407,1,0,0:0:0:0:
192,192,81486,1,0,0:0:0:0:
448,192,81486,1,0,0:0:0:0:
64,192,81644,1,0,0:0:0:0:
320,192,81644,1,0,0:0:0:0:
192,192,81723,1,0,0:0:0:0:
448,192,81723,1,0,0:0:0:0:
320,192,81802,1,0,0:0:0:0:
64,192,81802,1,0,0:0:0:0:
320,192,81960,1,0,0:0:0:0:
448,192,81960,1,0,0:0:0:0:
64,192,82039,1,0,0:0:0:0:
192,192,82039,1,0,0:0:0:0:
320,192,82118,1,0,0:0:0:0:
448,192,82118,1,0,0:0:0:0:
64,192,82276,1,0,0:0:0:0:
448,192,82276,1,0,0:0:0:0:
320,192,82355,1,0,0:0:0:0:
192,192,82355,1,0,0:0:0:0:
64,192,82434,1,0,0:0:0:0:
448,192,82434,1,0,0:0:0:0:
64,192,82591,1,0,0:0:0:0:
192,192,82591,1,0,0:0:0:0:
320,192,82670,1,0,0:0:0:0:
448,192,82670,1,0,0:0:0:0:
64,192,82749,1,0,0:0:0:0:
192,192,82749,1,0,0:0:0:0:
448,192,82907,1,0,0:0:0:0:
320,192,82907,1,0,0:0:0:0:
64,192,82907,1,0,0:0:0:0:
192,192,82986,1,0,0:0:0:0:
320,192,83065,1,0,0:0:0:0:
448,192,83065,1,0,0:0:0:0:
64,192,83144,1,0,0:0:0:0:
192,192,83223,1,0,0:0:0:0:
320,192,83223,1,0,0:0:0:0:
448,192,83223,1,0,0:0:0:0:
64,192,83302,1,0,0:0:0:0:
192,192,83381,1,0,0:0:0:0:
320,192,83381,1,0,0:0:0:0:
448,192,83460,1,0,0:0:0:0:
320,192,83539,1,0,0:0:0:0:
192,192,83539,1,0,0:0:0:0:
64,192,83539,1,0,0:0:0:0:
448,192,83618,1,0,0:0:0:0:
320,192,83697,1,0,0:0:0:0:
64,192,83697,1,0,0:0:0:0:
192,192,83776,1,0,0:0:0:0:
64,192,83855,1,0,0:0:0:0:
320,192,83855,1,0,0:0:0:0:
448,192,83855,1,0,0:0:0:0:
192,192,83934,1,0,0:0:0:0:
64,192,84012,1,0,0:0:0:0:
448,192,84012,1,0,0:0:0:0:
320,192,84091,1,0,0:0:0:0:
64,192,84170,1,0,0:0:0:0:
192,192,84170,1,0,0:0:0:0:
448,192,84170,1,0,0:0:0:0:
320,192,84249,1,0,0:0:0:0:
192,192,84328,1,0,0:0:0:0:
64,192,84328,1,0,0:0:0:0:
448,192,84486,1,0,0:0:0:0:
320,192,84486,1,0,0:0:0:0:
64,192,84565,1,0,0:0:0:0:
192,192,84644,1,0,0:0:0:0:
320,192,84644,1,0,0:0:0:0:
448,192,84802,1,0,0:0:0:0:
64,192,84802,1,0,0:0:0:0:
192,192,84881,1,0,0:0:0:0:
320,192,84960,1,0,0:0:0:0:
448,192,84960,1,0,0:0:0:0:
64,192,85118,1,0,0:0:0:0:
192,192,85118,1,0,0:0:0:0:
448,192,85197,1,0,0:0:0:0:
320,192,85276,1,0,0:0:0:0:
192,192,85276,1,0,0:0:0:0:
64,192,85434,1,0,0:0:0:0:
448,192,85434,1,0,0:0:0:0:
192,192,85539,1,0,0:0:0:0:
320,192,85644,1,0,0:0:0:0:
448,192,85749,1,0,0:0:0:0:
64,192,85749,1,0,0:0:0:0:
192,192,85749,1,0,0:0:0:0:
192,192,85907,1,0,0:0:0:0:
320,192,86065,1,0,0:0:0:0:
448,192,86065,1,0,0:0:0:0:
192,192,86144,1,0,0:0:0:0:
448,192,86223,1,0,0:0:0:0:
64,192,86223,1,0,0:0:0:0:
64,192,86381,1,0,0:0:0:0:
192,192,86381,1,0,0:0:0:0:
320,192,86460,1,0,0:0:0:0:
64,192,86539,1,0,0:0:0:0:
448,192,86539,1,0,0:0:0:0:
192,192,86697,1,0,0:0:0:0:
320,192,86697,1,0,0:0:0:0:
448,192,86776,1,0,0:0:0:0:
320,192,86855,1,0,0:0:0:0:
64,192,86855,1,0,0:0:0:0:
192,192,87012,1,0,0:0:0:0:
448,192,87012,1,0,0:0:0:0:
64,192,87091,1,0,0:0:0:0:
320,192,87170,1,0,0:0:0:0:
192,192,87170,1,0,0:0:0:0:
64,192,87328,1,0,0:0:0:0:
192,192,87328,1,0,0:0:0:0:
320,192,87407,1,0,0:0:0:0:
448,192,87486,1,0,0:0:0:0:
64,192,87486,1,0,0:0:0:0:
320,192,87644,1,0,0:0:0:0:
448,192,87644,1,0,0:0:0:0:
192,192,87723,1,0,0:0:0:0:
64,192,87802,1,0,0:0:0:0:
448,192,87802,1,0,0:0:0:0:
192,192,87960,1,0,0:0:0:0:
64,192,87960,1,0,0:0:0:0:
320,192,88039,1,0,0:0:0:0:
448,192,88039,1,0,0:0:0:0:
64,192,88118,1,0,0:0:0:0:
192,192,88118,1,0,0:0:0:0:
192,192,88276,1,0,0:0:0:0:
320,192,88276,1,0,0:0:0:0:
448,192,88355,1,0,0:0:0:0:
64,192,88355,1,0,0:0:0:0:
192,192,88434,1,0,0:0:0:0:
320,192,88434,1,0,0:0:0:0:
448,192,88591,1,0,0:0:0:0:
64,192,88591,1,0,0:0:0:0:
192,192,88670,1,0,0:0:0:0:
320,192,88670,1,0,0:0:0:0:
64,192,88749,1,0,0:0:0:0:
448,192,88749,1,0,0:0:0:0:
448,192,88907,1,0,0:0:0:0:
320,192,88907,1,0,0:0:0:0:
64,192,88986,1,0,0:0:0:0:
192,192,88986,1,0,0:0:0:0:
320,192,89065,1,0,0:0:0:0:
448,192,89065,1,0,0:0:0:0:
64,192,89223,1,0,0:0:0:0:
192,192,89223,1,0,0:0:0:0:
448,192,89302,1,0,0:0:0:0:
320,192,89381,1,0,0:0:0:0:
192,192,89381,1,0,0:0:0:0:
64,192,89460,1,0,0:0:0:0:
320,192,89539,1,0,0:0:0:0:
448,192,89539,1,0,0:0:0:0:
192,192,89539,1,0,0:0:0:0:
64,192,89618,1,0,0:0:0:0:
192,192,89697,1,0,0:0:0:0:
448,192,89697,1,0,0:0:0:0:
320,192,89776,1,0,0:0:0:0:
64,192,89855,1,0,0:0:0:0:
448,192,89855,1,0,0:0:0:0:
192,192,89934,1,0,0:0:0:0:
320,192,90012,1,0,0:0:0:0:
64,192,90012,1,0,0:0:0:0:
448,192,90091,1,0,0:0:0:0:
64,192,90170,1,0,0:0:0:0:
192,192,90170,1,0,0:0:0:0:
320,192,90170,1,0,0:0:0:0:
448,192,90249,1,0,0:0:0:0:
320,192,90328,1,0,0:0:0:0:
192,192,90328,1,0,0:0:0:0:
64,192,90407,1,0,0:0:0:0:
192,192,90486,1,0,0:0:0:0:
448,192,90486,1,0,0:0:0:0:
320,192,90565,1,0,0:0:0:0:
192,192,90644,1,0,0:0:0:0:
64,192,90644,1,0,0:0:0:0:
320,192,90723,1,0,0:0:0:0:
64,192,90802,1,0,0:0:0:0:
192,192,90802,1,0,0:0:0:0:
448,192,90802,1,0,0:0:0:0:
320,192,90881,1,0,0:0:0:0:
448,192,90960,1,0,0:0:0:0:
64,192,90960,1,0,0:0:0:0:
192,192,91039,1,0,0:0:0:0:
320,192,91118,1,0,0:0:0:0:
448,192,91118,1,0,0:0:0:0:
64,192,91197,1,0,0:0:0:0:
192,192,91276,1,0,0:0:0:0:
448,192,91276,1,0,0:0:0:0:
320,192,91355,1,0,0:0:0:0:
192,192,91434,1,0,0:0:0:0:
64,192,91434,1,0,0:0:0:0:
448,192,91434,1,0,0:0:0:0:
320,192,91512,1,0,0:0:0:0:
192,192,91591,1,0,0:0:0:0:
64,192,91591,1,0,0:0:0:0:
448,192,91670,1,0,0:0:0:0:
64,192,91749,1,0,0:0:0:0:
320,192,91749,1,0,0:0:0:0:
192,192,91828,1,0,0:0:0:0:
320,192,91907,1,0,0:0:0:0:
448,192,91907,1,0,0:0:0:0:
64,192,91986,1,0,0:0:0:0:
192,192,92065,1,0,0:0:0:0:
320,192,92065,1,0,0:0:0:0:
448,192,92065,1,0,0:0:0:0:
64,192,92144,1,0,0:0:0:0:
192,192,92223,1,0,0:0:0:0:
448,192,92223,1,0,0:0:0:0:
320,192,92302,1,0,0:0:0:0:
192,192,92381,1,0,0:0:0:0:
64,192,92381,1,0,0:0:0:0:
448,192,92460,1,0,0:0:0:0:
320,192,92539,1,0,0:0:0:0:
192,192,92539,1,0,0:0:0:0:
64,192,92618,1,0,0:0:0:0:
192,192,92697,1,0,0:0:0:0:
320,192,92697,1,0,0:0:0:0:
448,192,92697,1,0,0:0:0:0:
64,192,92776,1,0,0:0:0:0:
192,192,92855,1,0,0:0:0:0:
448,192,92855,1,0,0:0:0:0:
64,192,93012,1,0,0:0:0:0:
192,192,93012,1,0,0:0:0:0:
320,192,93091,5,0,0:0:0:0:
448,192,93091,1,0,0:0:0:0:
64,192,93170,1,0,0:0:0:0:
192,192,93170,1,0,0:0:0:0:
320,192,93328,1,0,0:0:0:0:
448,192,93328,1,0,0:0:0:0:
64,192,93328,1,0,0:0:0:0:
192,192,93407,1,0,0:0:0:0:
320,192,93486,1,0,0:0:0:0:
448,192,93486,1,0,0:0:0:0:
64,192,93644,1,0,0:0:0:0:
192,192,93644,1,0,0:0:0:0:
448,192,93644,1,0,0:0:0:0:
320,192,93723,1,0,0:0:0:0:
192,192,93802,1,0,0:0:0:0:
64,192,93802,1,0,0:0:0:0:
192,192,93960,1,0,0:0:0:0:
320,192,93960,1,0,0:0:0:0:
448,192,93960,1,0,0:0:0:0:
64,192,94039,1,0,0:0:0:0:
192,192,94118,1,0,0:0:0:0:
320,192,94118,1,0,0:0:0:0:
64,192,94276,5,0,0:0:0:0:
448,192,94276,1,0,0:0:0:0:
192,192,94434,1,0,0:0:0:0:
320,192,94591,1,0,0:0:0:0:
448,192,94749,1,0,0:0:0:0:
192,192,94907,1,0,0:0:0:0:
64,192,94907,1,0,0:0:0:0:
320,192,95065,1,0,0:0:0:0:
448,192,95223,1,0,0:0:0:0:
192,192,95381,1,0,0:0:0:0:
64,192,95539,1,0,0:0:0:0:
320,192,95539,1,0,0:0:0:0:
448,192,95697,1,0,0:0:0:0:
192,192,95855,1,0,0:0:0:0:
64,192,96012,1,0,0:0:0:0:
448,192,96170,1,0,0:0:0:0:
320,192,96170,1,0,0:0:0:0:
192,192,96328,1,0,0:0:0:0:
64,192,96486,1,0,0:0:0:0:
320,192,96486,1,0,0:0:0:0:
448,192,96644,1,0,0:0:0:0:
320,192,96802,1,0,0:0:0:0:
192,192,96802,1,0,0:0:0:0:
64,192,96960,1,0,0:0:0:0:
448,192,97118,1,0,0:0:0:0:
192,192,97276,1,0,0:0:0:0:
320,192,97434,1,0,0:0:0:0:
448,192,97434,1,0,0:0:0:0:
64,192,97591,1,0,0:0:0:0:
192,192,97749,1,0,0:0:0:0:
320,192,97907,1,0,0:0:0:0:
64,192,98065,1,0,0:0:0:0:
448,192,98065,1,0,0:0:0:0:
192,192,98223,1,0,0:0:0:0:
448,192,98381,1,0,0:0:0:0:
320,192,98381,1,0,0:0:0:0:
192,192,98539,1,0,0:0:0:0:
64,192,98539,1,0,0:0:0:0:
320,192,98697,1,0,0:0:0:0:
448,192,98697,1,0,0:0:0:0:
192,192,98855,1,0,0:0:0:0:
64,192,98934,1,0,0:0:0:0:
320,192,99012,1,0,0:0:0:0:
192,192,99170,1,0,0:0:0:0:
448,192,99170,1,0,0:0:0:0:
320,192,99328,1,0,0:0:0:0:
64,192,99328,1,0,0:0:0:0:
448,192,99486,1,0,0:0:0:0:
320,192,99644,1,0,0:0:0:0:
192,192,99802,1,0,0:0:0:0:
448,192,99960,1,0,0:0:0:0:
64,192,99960,1,0,0:0:0:0:
320,192,100118,1,0,0:0:0:0:
64,192,100276,1,0,0:0:0:0:
192,192,100434,1,0,0:0:0:0:
320,192,100591,1,0,0:0:0:0:
448,192,100591,1,0,0:0:0:0:
64,192,100749,1,0,0:0:0:0:
192,192,100907,1,0,0:0:0:0:
320,192,101065,1,0,0:0:0:0:
64,192,101223,1,0,0:0:0:0:
448,192,101223,1,0,0:0:0:0:
320,192,101381,1,0,0:0:0:0:
64,192,101539,1,0,0:0:0:0:
192,192,101539,1,0,0:0:0:0:
320,192,101697,1,0,0:0:0:0:
448,192,101855,1,0,0:0:0:0:
192,192,101855,1,0,0:0:0:0:
64,192,102012,1,0,0:0:0:0:
320,192,102170,1,0,0:0:0:0:
448,192,102328,1,0,0:0:0:0:
320,192,102486,1,0,0:0:0:0:
64,192,102486,1,0,0:0:0:0:
192,192,102644,1,0,0:0:0:0:
448,192,102802,1,0,0:0:0:0:
64,192,102960,1,0,0:0:0:0:
192,192,103118,1,0,0:0:0:0:
448,192,103118,1,0,0:0:0:0:
320,192,103276,1,0,0:0:0:0:
64,192,103434,1,0,0:0:0:0:
448,192,103434,1,0,0:0:0:0:
192,192,103591,1,0,0:0:0:0:
320,192,103591,1,0,0:0:0:0:
320,192,103749,1,0,0:0:0:0:
448,192,103749,1,0,0:0:0:0:
64,192,103986,1,0,0:0:0:0:
448,192,104065,1,0,0:0:0:0:
320,192,104065,1,0,0:0:0:0:
192,192,104223,1,0,0:0:0:0:
64,192,104381,1,0,0:0:0:0:
320,192,104381,1,0,0:0:0:0:
448,192,104381,1,0,0:0:0:0:
448,192,104539,1,0,0:0:0:0:
192,192,104539,1,0,0:0:0:0:
64,192,104697,1,0,0:0:0:0:
320,192,104855,1,0,0:0:0:0:
448,192,104855,1,0,0:0:0:0:
192,192,105012,1,0,0:0:0:0:
64,192,105170,1,0,0:0:0:0:
320,192,105170,1,0,0:0:0:0:
448,192,105328,1,0,0:0:0:0:
64,192,105486,1,0,0:0:0:0:
192,192,105486,1,0,0:0:0:0:
448,192,105644,1,0,0:0:0:0:
320,192,105802,1,0,0:0:0:0:
192,192,105802,1,0,0:0:0:0:
64,192,105960,1,0,0:0:0:0:
192,192,106118,1,0,0:0:0:0:
448,192,106118,1,0,0:0:0:0:
320,192,106276,1,0,0:0:0:0:
64,192,106276,1,0,0:0:0:0:
448,192,106434,1,0,0:0:0:0:
192,192,106434,1,0,0:0:0:0:
320,192,106591,1,0,0:0:0:0:
64,192,106591,1,0,0:0:0:0:
448,192,106749,1,0,0:0:0:0:
192,192,106749,1,0,0:0:0:0:
192,192,106907,1,0,0:0:0:0:
64,192,106907,1,0,0:0:0:0:
320,192,106907,1,0,0:0:0:0:
448,192,107065,1,0,0:0:0:0:
64,192,107065,1,0,0:0:0:0:
192,192,107223,1,0,0:0:0:0:
448,192,107381,1,0,0:0:0:0:
320,192,107381,1,0,0:0:0:0:
64,192,107539,1,0,0:0:0:0:
320,192,107697,1,0,0:0:0:0:
192,192,107697,1,0,0:0:0:0:
448,192,107855,1,0,0:0:0:0:
64,192,108012,1,0,0:0:0:0:
192,192,108012,1,0,0:0:0:0:
320,192,108170,1,0,0:0:0:0:
192,192,108328,1,0,0:0:0:0:
448,192,108328,1,0,0:0:0:0:
64,192,108486,1,0,0:0:0:0:
320,192,108486,1,0,0:0:0:0:
192,192,108644,1,0,0:0:0:0:
448,192,108644,1,0,0:0:0:0:
320,192,108802,1,0,0:0:0:0:
64,192,108802,1,0,0:0:0:0:
448,192,108960,1,0,0:0:0:0:
192,192,108960,1,0,0:0:0:0:
320,192,109118,1,0,0:0:0:0:
64,192,109118,1,0,0:0:0:0:
320,192,109276,1,0,0:0:0:0:
448,192,109276,1,0,0:0:0:0:
192,192,109434,1,0,0:0:0:0:
64,192,109434,1,0,0:0:0:0:
448,192,109434,1,0,0:0:0:0:
320,192,109591,1,0,0:0:0:0:
64,192,109591,1,0,0:0:0:0:
192,192,109749,1,0,0:0:0:0:
320,192,109907,1,0,0:0:0:0:
448,192,109907,1,0,0:0:0:0:
64,192,110065,1,0,0:0:0:0:
448,192,110223,1,0,0:0:0:0:
192,192,110223,1,0,0:0:0:0:
320,192,110381,1,0,0:0:0:0:
448,192,110539,1,0,0:0:0:0:
64,192,110539,1,0,0:0:0:0:
192,192,110697,1,0,0:0:0:0:
320,192,110697,1,0,0:0:0:0:
64,192,110697,1,0,0:0:0:0:
448,192,110855,1,0,0:0:0:0:
192,192,110855,1,0,0:0:0:0:
320,192,111012,1,0,0:0:0:0:
192,192,111170,1,0,0:0:0:0:
64,192,111170,1,0,0:0:0:0:
320,192,111328,1,0,0:0:0:0:
64,192,111328,1,0,0:0:0:0:
448,192,111328,1,0,0:0:0:0:
448,192,111486,1,0,0:0:0:0:
192,192,111486,1,0,0:0:0:0:
320,192,111644,1,0,0:0:0:0:
192,192,111802,1,0,0:0:0:0:
448,192,111802,1,0,0:0:0:0:
192,192,111960,1,0,0:0:0:0:
64,192,111960,1,0,0:0:0:0:
448,192,111960,1,0,0:0:0:0:
320,192,112118,1,0,0:0:0:0:
64,192,112118,1,0,0:0:0:0:
192,192,112276,1,0,0:0:0:0:
320,192,112434,1,0,0:0:0:0:
64,192,112434,1,0,0:0:0:0:
64,192,112591,1,0,0:0:0:0:
192,192,112591,1,0,0:0:0:0:
448,192,112591,1,0,0:0:0:0:
448,192,112749,1,0,0:0:0:0:
320,192,112749,1,0,0:0:0:0:
192,192,112907,1,0,0:0:0:0:
320,192,113065,1,0,0:0:0:0:
192,192,113223,1,0,0:0:0:0:
64,192,113223,1,0,0:0:0:0:
448,192,113223,128,0,114486:0:0:0:0:
320,192,113539,1,0,0:0:0:0:
192,192,113855,1,0,0:0:0:0:
64,192,114170,1,0,0:0:0:0:
320,192,114486,128,0,115749:0:0:0:0:
192,192,114486,1,0,0:0:0:0:
64,192,114802,1,0,0:0:0:0:
448,192,115118,1,0,0:0:0:0:
192,192,115434,1,0,0:0:0:0:
64,192,115749,128,0,117012:0:0:0:0:
448,192,115749,1,0,0:0:0:0:
192,192,116065,1,0,0:0:0:0:
448,192,116381,1,0,0:0:0:0:
192,192,116697,1,0,0:0:0:0:
448,192,117012,128,0,118276:0:0:0:0:
320,192,117012,1,0,0:0:0:0:
192,192,117328,1,0,0:0:0:0:
64,192,117644,1,0,0:0:0:0:
320,192,117960,1,0,0:0:0:0:
64,192,118118,1,0,0:0:0:0:
320,192,118276,1,0,0:0:0:0:
192,192,118355,1,0,0:0:0:0:
64,192,118434,1,0,0:0:0:0:
320,192,118512,1,0,0:0:0:0:
192,192,118591,1,0,0:0:0:0:
448,192,118670,1,0,0:0:0:0:
320,192,118749,1,0,0:0:0:0:
192,192,118828,1,0,0:0:0:0:
64,192,118907,1,0,0:0:0:0:
320,192,118986,1,0,0:0:0:0:
448,192,119065,1,0,0:0:0:0:
64,192,119144,1,0,0:0:0:0:
192,192,119223,1,0,0:0:0:0:
320,192,119302,1,0,0:0:0:0:
448,192,119381,1,0,0:0:0:0:
320,192,119460,1,0,0:0:0:0:
192,192,119539,1,0,0:0:0:0:
64,192,119539,1,0,0:0:0:0:
448,192,119618,1,0,0:0:0:0:
320,192,119697,1,0,0:0:0:0:
192,192,119776,1,0,0:0:0:0:
64,192,119855,1,0,0:0:0:0:
320,192,119934,1,0,0:0:0:0:
448,192,120012,1,0,0:0:0:0:
192,192,120091,1,0,0:0:0:0:
320,192,120170,1,0,0:0:0:0:
64,192,120249,1,0,0:0:0:0:
192,192,120328,1,0,0:0:0:0:
320,192,120407,1,0,0:0:0:0:
448,192,120486,1,0,0:0:0:0:
320,192,120565,1,0,0:0:0:0:
192,192,120644,1,0,0:0:0:0:
64,192,120723,1,0,0:0:0:0:
448,192,120802,1,0,0:0:0:0:
320,192,120802,1,0,0:0:0:0:
192,192,120881,1,0,0:0:0:0:
320,192,120960,1,0,0:0:0:0:
64,192,121039,1,0,0:0:0:0:
192,192,121118,1,0,0:0:0:0:
448,192,121197,1,0,0:0:0:0:
320,192,121276,1,0,0:0:0:0:
192,192,121355,1,0,0:0:0:0:
64,192,121434,1,0,0:0:0:0:
448,192,121434,1,0,0:0:0:0:
320,192,121512,1,0,0:0:0:0:
192,192,121591,1,0,0:0:0:0:
448,192,121670,1,0,0:0:0:0:
64,192,121749,1,0,0:0:0:0:
320,192,121828,1,0,0:0:0:0:
192,192,121907,1,0,0:0:0:0:
448,192,121986,1,0,0:0:0:0:
320,192,122065,1,0,0:0:0:0:
192,192,122144,1,0,0:0:0:0:
64,192,122223,1,0,0:0:0:0:
192,192,122302,1,0,0:0:0:0:
320,192,122381,1,0,0:0:0:0:
448,192,122460,1,0,0:0:0:0:
192,192,122539,1,0,0:0:0:0:
320,192,122618,1,0,0:0:0:0:
448,192,122697,1,0,0:0:0:0:
64,192,122776,1,0,0:0:0:0:
192,192,122855,1,0,0:0:0:0:
320,192,122934,1,0,0:0:0:0:
448,192,123012,1,0,0:0:0:0:
192,192,123091,5,0,0:0:0:0:
64,192,123170,1,0,0:0:0:0:
320,192,123249,1,0,0:0:0:0:
448,192,123328,1,0,0:0:0:0:
192,192,123328,1,0,0:0:0:0:
64,192,123407,1,0,0:0:0:0:
320,192,123486,1,0,0:0:0:0:
448,192,123565,1,0,0:0:0:0:
64,192,123644,1,0,0:0:0:0:
192,192,123723,1,0,0:0:0:0:
320,192,123802,1,0,0:0:0:0:
448,192,123881,1,0,0:0:0:0:
192,192,123960,1,0,0:0:0:0:
320,192,124039,1,0,0:0:0:0:
64,192,124118,1,0,0:0:0:0:
192,192,124276,1,0,0:0:0:0:
448,192,124276,1,0,0:0:0:0:
64,192,124591,5,0,0:0:0:0:
448,192,124591,1,0,0:0:0:0:
192,192,124591,1,0,0:0:0:0:
320,192,124670,1,0,0:0:0:0:
448,192,124749,1,0,0:0:0:0:
64,192,124749,1,0,0:0:0:0:
192,192,124828,1,0,0:0:0:0:
320,192,124907,1,0,0:0:0:0:
448,192,124907,1,0,0:0:0:0:
64,192,124907,1,0,0:0:0:0:
192,192,124986,1,0,0:0:0:0:
320,192,125065,1,0,0:0:0:0:
448,192,125065,1,0,0:0:0:0:
192,192,125144,1,0,0:0:0:0:
64,192,125223,1,0,0:0:0:0:
448,192,125223,1,0,0:0:0:0:
320,192,125302,1,0,0:0:0:0:
192,192,125381,1,0,0:0:0:0:
64,192,125381,1,0,0:0:0:0:
320,192,125460,1,0,0:0:0:0:
192,192,125539,1,0,0:0:0:0:
64,192,125539,1,0,0:0:0:0:
448,192,125539,1,0,0:0:0:0:
320,192,125618,1,0,0:0:0:0:
64,192,125697,1,0,0:0:0:0:
192,192,125697,1,0,0:0:0:0:
448,192,125697,1,0,0:0:0:0:
320,192,125776,1,0,0:0:0:0:
64,192,125855,1,0,0:0:0:0:
448,192,125855,1,0,0:0:0:0:
192,192,125855,1,0,0:0:0:0:
320,192,125934,1,0,0:0:0:0:
448,192,126012,1,0,0:0:0:0:
192,192,126012,1,0,0:0:0:0:
64,192,126091,1,0,0:0:0:0:
448,192,126170,1,0,0:0:0:0:
320,192,126170,1,0,0:0:0:0:
192,192,126170,1,0,0:0:0:0:
64,192,126249,1,0,0:0:0:0:
448,192,126328,1,0,0:0:0:0:
192,192,126328,1,0,0:0:0:0:
320,192,126407,1,0,0:0:0:0:
64,192,126486,1,0,0:0:0:0:
192,192,126486,1,0,0:0:0:0:
448,192,126565,1,0,0:0:0:0:
320,192,126644,1,0,0:0:0:0:
192,192,126644,1,0,0:0:0:0:
64,192,126723,1,0,0:0:0:0:
192,192,126802,1,0,0:0:0:0:
320,192,126802,1,0,0:0:0:0:
448,192,126802,1,0,0:0:0:0:
64,192,126881,1,0,0:0:0:0:
192,192,126960,1,0,0:0:0:0:
448,192,126960,1,0,0:0:0:0:
320,192,126960,1,0,0:0:0:0:
64,192,127039,1,0,0:0:0:0:
192,192,127118,1,0,0:0:0:0:
448,192,127118,1,0,0:0:0:0:
320,192,127118,1,0,0:0:0:0:
64,192,127197,1,0,0:0:0:0:
192,192,127276,1,0,0:0:0:0:
448,192,127276,1,0,0:0:0:0:
320,192,127355,1,0,0:0:0:0:
448,192,127434,1,0,0:0:0:0:
64,192,127434,1,0,0:0:0:0:
192,192,127434,1,0,0:0:0:0:
320,192,127512,1,0,0:0:0:0:
64,192,127591,1,0,0:0:0:0:
192,192,127591,1,0,0:0:0:0:
320,192,127670,1,0,0:0:0:0:
64,192,127749,1,0,0:0:0:0:
448,192,127749,1,0,0:0:0:0:
192,192,127828,1,0,0:0:0:0:
448,192,127907,1,0,0:0:0:0:
320,192,127907,1,0,0:0:0:0:
192,192,127986,1,0,0:0:0:0:
448,192,128065,1,0,0:0:0:0:
320,192,128065,1,0,0:0:0:0:
64,192,128065,1,0,0:0:0:0:
192,192,128144,1,0,0:0:0:0:
320,192,128223,1,0,0:0:0:0:
64,192,128223,1,0,0:0:0:0:
448,192,128223,1,0,0:0:0:0:
192,192,128302,1,0,0:0:0:0:
320,192,128381,1,0,0:0:0:0:
64,192,128381,1,0,0:0:0:0:
448,192,128381,1,0,0:0:0:0:
192,192,128460,1,0,0:0:0:0:
64,192,128539,1,0,0:0:0:0:
320,192,128539,1,0,0:0:0:0:
448,192,128618,1,0,0:0:0:0:
64,192,128697,1,0,0:0:0:0:
192,192,128697,1,0,0:0:0:0:
320,192,128697,1,0,0:0:0:0:
448,192,128776,1,0,0:0:0:0:
64,192,128855,1,0,0:0:0:0:
320,192,128855,1,0,0:0:0:0:
192,192,128934,1,0,0:0:0:0:
64,192,129012,1,0,0:0:0:0:
448,192,129012,1,0,0:0:0:0:
320,192,129091,1,0,0:0:0:0:
64,192,129170,1,0,0:0:0:0:
448,192,129170,1,0,0:0:0:0:
192,192,129249,1,0,0:0:0:0:
448,192,129328,1,0,0:0:0:0:
64,192,129328,1,0,0:0:0:0:
320,192,129328,1,0,0:0:0:0:
192,192,129407,1,0,0:0:0:0:
448,192,129486,1,0,0:0:0:0:
64,192,129486,1,0,0:0:0:0:
320,192,129565,1,0,0:0:0:0:
64,192,129644,1,0,0:0:0:0:
448,192,129644,1,0,0:0:0:0:
192,192,129723,1,0,0:0:0:0:
320,192,129802,1,0,0:0:0:0:
448,192,129802,1,0,0:0:0:0:
192,192,129881,1,0,0:0:0:0:
64,192,129960,1,0,0:0:0:0:
320,192,129960,1,0,0:0:0:0:
448,192,129960,1,0,0:0:0:0:
192,192,130039,1,0,0:0:0:0:
64,192,130118,1,0,0:0:0:0:
320,192,130118,1,0,0:0:0:0:
448,192,130197,1,0,0:0:0:0:
64,192,130276,1,0,0:0:0:0:
192,192,130276,1,0,0:0:0:0:
320,192,130355,1,0,0:0:0:0:
448,192,130355,1,0,0:0:0:0:
64,192,130434,1,0,0:0:0:0:
192,192,130434,1,0,0:0:0:0:
192,192,130591,5,0,0:0:0:0:
320,192,130591,1,0,0:0:0:0:
64,192,130670,1,0,0:0:0:0:
448,192,130670,1,0,0:0:0:0:
192,192,130749,1,0,0:0:0:0:
320,192,130749,1,0,0:0:0:0:
64,192,130907,1,0,0:0:0:0:
192,192,130907,1,0,0:0:0:0:
320,192,130986,1,0,0:0:0:0:
448,192,130986,1,0,0:0:0:0:
64,192,131065,1,0,0:0:0:0:
192,192,131065,1,0,0:0:0:0:
448,192,131223,1,0,0:0:0:0:
64,192,131223,1,0,0:0:0:0:
320,192,131302,1,0,0:0:0:0:
192,192,131302,1,0,0:0:0:0:
448,192,131381,1,0,0:0:0:0:
64,192,131381,1,0,0:0:0:0:
192,192,131539,1,0,0:0:0:0:
320,192,131539,1,0,0:0:0:0:
448,192,131618,1,0,0:0:0:0:
64,192,131618,1,0,0:0:0:0:
320,192,131697,1,0,0:0:0:0:
192,192,131697,1,0,0:0:0:0:
448,192,131855,1,0,0:0:0:0:
320,192,131855,1,0,0:0:0:0:
64,192,131934,1,0,0:0:0:0:
192,192,131934,1,0,0:0:0:0:
448,192,132012,1,0,0:0:0:0:
320,192,132012,1,0,0:0:0:0:
64,192,132170,1,0,0:0:0:0:
320,192,132170,1,0,0:0:0:0:
192,192,132249,1,0,0:0:0:0:
448,192,132249,1,0,0:0:0:0:
64,192,132328,1,0,0:0:0:0:
320,192,132328,1,0,0:0:0:0:
448,192,132486,1,0,0:0:0:0:
192,192,132486,1,0,0:0:0:0:
320,192,132565,1,0,0:0:0:0:
64,192,132565,1,0,0:0:0:0:
448,192,132644,1,0,0:0:0:0:
192,192,132644,1,0,0:0:0:0:
448,192,132802,1,0,0:0:0:0:
64,192,132802,1,0,0:0:0:0:
192,192,132881,1,0,0:0:0:0:
320,192,132881,1,0,0:0:0:0:
448,192,132960,1,0,0:0:0:0:
64,192,132960,1,0,0:0:0:0:
320,192,133118,1,0,0:0:0:0:
192,192,133118,1,0,0:0:0:0:
448,192,133197,1,0,0:0:0:0:
64,192,133197,1,0,0:0:0:0:
192,192,133276,1,0,0:0:0:0:
320,192,133276,1,0,0:0:0:0:
64,192,133434,1,0,0:0:0:0:
448,192,133434,1,0,0:0:0:0:
192,192,133512,1,0,0:0:0:0:
320,192,133591,1,0,0:0:0:0:
448,192,133591,1,0,0:0:0:0:
192,192,133670,1,0,0:0:0:0:
64,192,133749,1,0,0:0:0:0:
448,192,133749,1,0,0:0:0:0:
320,192,133749,1,0,0:0:0:0:
192,192,133828,1,0,0:0:0:0:
64,192,133907,1,0,0:0:0:0:
448,192,133907,1,0,0:0:0:0:
320,192,133986,1,0,0:0:0:0:
448,192,134065,1,0,0:0:0:0:
192,192,134065,1,0,0:0:0:0:
64,192,134065,1,0,0:0:0:0:
320,192,134144,1,0,0:0:0:0:
192,192,134223,1,0,0:0:0:0:
64,192,134223,1,0,0:0:0:0:
320,192,134302,1,0,0:0:0:0:
64,192,134381,1,0,0:0:0:0:
448,192,134381,1,0,0:0:0:0:
192,192,134381,1,0,0:0:0:0:
320,192,134460,1,0,0:0:0:0:
448,192,134539,1,0,0:0:0:0:
64,192,134539,1,0,0:0:0:0:
192,192,134618,1,0,0:0:0:0:
64,192,134697,1,0,0:0:0:0:
448,192,134697,1,0,0:0:0:0:
320,192,134697,1,0,0:0:0:0:
192,192,134776,1,0,0:0:0:0:
320,192,134855,1,0,0:0:0:0:
448,192,134855,1,0,0:0:0:0:
64,192,135012,1,0,0:0:0:0:
192,192,135012,1,0,0:0:0:0:
320,192,135091,1,0,0:0:0:0:
448,192,135170,1,0,0:0:0:0:
64,192,135170,1,0,0:0:0:0:
192,192,135328,1,0,0:0:0:0:
320,192,135328,1,0,0:0:0:0:
64,192,135407,1,0,0:0:0:0:
320,192,135486,1,0,0:0:0:0:
448,192,135486,1,0,0:0:0:0:
64,192,135644,1,0,0:0:0:0:
448,192,135644,1,0,0:0:0:0:
320,192,135723,1,0,0:0:0:0:
192,192,135802,1,0,0:0:0:0:
64,192,135802,1,0,0:0:0:0:
448,192,135960,1,0,0:0:0:0:
64,192,135960,1,0,0:0:0:0:
320,192,136065,1,0,0:0:0:0:
192,192,136170,1,0,0:0:0:0:
448,192,136276,1,0,0:0:0:0:
64,192,136276,1,0,0:0:0:0:
320,192,136276,1,0,0:0:0:0:
320,192,136434,1,0,0:0:0:0:
64,192,136591,1,0,0:0:0:0:
192,192,136591,1,0,0:0:0:0:
320,192,136670,1,0,0:0:0:0:
64,192,136749,1,0,0:0:0:0:
448,192,136749,1,0,0:0:0:0:
448,192,136907,1,0,0:0:0:0:
320,192,136907,1,0,0:0:0:0:
192,192,136986,1,0,0:0:0:0:
448,192,137065,1,0,0:0:0:0:
64,192,137065,1,0,0:0:0:0:
320,192,137223,1,0,0:0:0:0:
192,192,137223,1,0,0:0:0:0:
64,192,137302,1,0,0:0:0:0:
448,192,137381,1,0,0:0:0:0:
320,192,137381,1,0,0:0:0:0:
64,192,137539,1,0,0:0:0:0:
192,192,137539,1,0,0:0:0:0:
448,192,137618,1,0,0:0:0:0:
320,192,137697,1,0,0:0:0:0:
192,192,137697,1,0,0:0:0:0:
64,192,137855,1,0,0:0:0:0:
320,192,137855,1,0,0:0:0:0:
192,192,137934,1,0,0:0:0:0:
320,192,138012,1,0,0:0:0:0:
448,192,138012,1,0,0:0:0:0:
192,192,138170,1,0,0:0:0:0:
448,192,138170,1,0,0:0:0:0:
320,192,138249,1,0,0:0:0:0:
192,192,138328,1,0,0:0:0:0:
64,192,138328,1,0,0:0:0:0:
448,192,138486,1,0,0:0:0:0:
320,192,138486,1,0,0:0:0:0:
192,192,138565,1,0,0:0:0:0:
64,192,138565,1,0,0:0:0:0:
448,192,138644,1,0,0:0:0:0:
320,192,138644,1,0,0:0:0:0:
64,192,138802,1,0,0:0:0:0:
192,192,138802,1,0,0:0:0:0:
320,192,138881,1,0,0:0:0:0:
448,192,138881,1,0,0:0:0:0:
64,192,138960,1,0,0:0:0:0:
192,192,138960,1,0,0:0:0:0:
64,192,139118,1,0,0:0:0:0:
320,192,139118,1,0,0:0:0:0:
192,192,139197,1,0,0:0:0:0:
448,192,139197,1,0,0:0:0:0:
64,192,139276,1,0,0:0:0:0:
320,192,139276,1,0,0:0:0:0:
192,192,139434,1,0,0:0:0:0:
448,192,139434,1,0,0:0:0:0:
320,192,139512,1,0,0:0:0:0:
64,192,139512,1,0,0:0:0:0:
192,192,139591,1,0,0:0:0:0:
448,192,139591,1,0,0:0:0:0:
64,192,139749,1,0,0:0:0:0:
448,192,139749,1,0,0:0:0:0:
320,192,139828,1,0,0:0:0:0:
64,192,139907,1,0,0:0:0:0:
192,192,139907,1,0,0:0:0:0:
448,192,139986,1,0,0:0:0:0:
320,192,140065,1,0,0:0:0:0:
64,192,140065,1,0,0:0:0:0:
192,192,140065,1,0,0:0:0:0:
448,192,140144,1,0,0:0:0:0:
320,192,140223,1,0,0:0:0:0:
64,192,140223,1,0,0:0:0:0:
192,192,140302,1,0,0:0:0:0:
448,192,140381,1,0,0:0:0:0:
320,192,140381,1,0,0:0:0:0:
64,192,140460,1,0,0:0:0:0:
192,192,140539,1,0,0:0:0:0:
448,192,140539,1,0,0:0:0:0:
320,192,140618,1,0,0:0:0:0:
448,192,140697,1,0,0:0:0:0:
192,192,140697,1,0,0:0:0:0:
64,192,140697,1,0,0:0:0:0:
320,192,140776,1,0,0:0:0:0:
64,192,140855,1,0,0:0:0:0:
192,192,140855,1,0,0:0:0:0:
320,192,140934,1,0,0:0:0:0:
64,192,141012,1,0,0:0:0:0:
448,192,141012,1,0,0:0:0:0:
192,192,141091,1,0,0:0:0:0:
448,192,141170,1,0,0:0:0:0:
320,192,141170,1,0,0:0:0:0:
64,192,141249,1,0,0:0:0:0:
320,192,141328,1,0,0:0:0:0:
192,192,141328,1,0,0:0:0:0:
448,192,141328,1,0,0:0:0:0:
64,192,141407,1,0,0:0:0:0:
192,192,141486,1,0,0:0:0:0:
320,192,141486,1,0,0:0:0:0:
448,192,141565,1,0,0:0:0:0:
320,192,141644,1,0,0:0:0:0:
64,192,141644,1,0,0:0:0:0:
192,192,141723,1,0,0:0:0:0:
64,192,141802,1,0,0:0:0:0:
448,192,141802,1,0,0:0:0:0:
320,192,141881,1,0,0:0:0:0:
448,192,141960,1,0,0:0:0:0:
192,192,141960,1,0,0:0:0:0:
64,192,141960,1,0,0:0:0:0:
320,192,142039,1,0,0:0:0:0:
64,192,142118,1,0,0:0:0:0:
192,192,142118,1,0,0:0:0:0:
448,192,142197,1,0,0:0:0:0:
64,192,142276,1,0,0:0:0:0:
320,192,142276,1,0,0:0:0:0:
192,192,142355,1,0,0:0:0:0:
64,192,142434,1,0,0:0:0:0:
448,192,142434,1,0,0:0:0:0:
320,192,142512,1,0,0:0:0:0:
64,192,142591,1,0,0:0:0:0:
192,192,142591,1,0,0:0:0:0:
448,192,142591,1,0,0:0:0:0:
320,192,142670,1,0,0:0:0:0:
448,192,142749,1,0,0:0:0:0:
64,192,142749,1,0,0:0:0:0:
192,192,142828,1,0,0:0:0:0:
320,192,142907,1,0,0:0:0:0:
448,192,142907,1,0,0:0:0:0:
192,192,142986,1,0,0:0:0:0:
320,192,143065,1,0,0:0:0:0:
64,192,143065,1,0,0:0:0:0:
448,192,143144,1,0,0:0:0:0:
64,192,143223,1,0,0:0:0:0:
192,192,143223,1,0,0:0:0:0:
320,192,143223,1,0,0:0:0:0:
448,192,143302,1,0,0:0:0:0:
64,192,143381,1,0,0:0:0:0:
192,192,143381,1,0,0:0:0:0:
320,192,143460,1,0,0:0:0:0:
448,192,143539,1,0,0:0:0:0:
64,192,143539,1,0,0:0:0:0:
192,192,143618,1,0,0:0:0:0:
320,192,143618,1,0,0:0:0:0:
448,192,143697,1,0,0:0:0:0:
64,192,143697,1,0,0:0:0:0:
448,192,143855,1,0,0:0:0:0:
320,192,143855,1,0,0:0:0:0:
64,192,143855,1,0,0:0:0:0:
192,192,143934,1,0,0:0:0:0:
320,192,144012,1,0,0:0:0:0:
448,192,144012,1,0,0:0:0:0:
64,192,144170,1,0,0:0:0:0:
448,192,144170,1,0,0:0:0:0:
192,192,144170,1,0,0:0:0:0:
320,192,144249,1,0,0:0:0:0:
64,192,144328,1,0,0:0:0:0:
192,192,144328,1,0,0:0:0:0:
64,192,144486,1,0,0:0:0:0:
448,192,144486,1,0,0:0:0:0:
320,192,144486,1,0,0:0:0:0:
192,192,144565,1,0,0:0:0:0:
320,192,144644,1,0,0:0:0:0:
448,192,144644,1,0,0:0:0:0:
64,192,144802,1,0,0:0:0:0:
192,192,144802,1,0,0:0:0:0:
448,192,144802,1,0,0:0:0:0:
320,192,144881,1,0,0:0:0:0:
192,192,144960,1,0,0:0:0:0:
448,192,144960,1,0,0:0:0:0:
64,192,145039,1,0,0:0:0:0:
192,192,145118,1,0,0:0:0:0:
320,192,145118,1,0,0:0:0:0:
448,192,145118,1,0,0:0:0:0:
64,192,145197,1,0,0:0:0:0:
192,192,145276,1,0,0:0:0:0:
320,192,145276,1,0,0:0:0:0:
448,192,145355,1,0,0:0:0:0:
320,192,145434,1,0,0:0:0:0:
64,192,145434,1,0,0:0:0:0:
192,192,145512,1,0,0:0:0:0:
64,192,145591,1,0,0:0:0:0:
448,192,145591,1,0,0:0:0:0:
320,192,145670,1,0,0:0:0:0:
64,192,145749,1,0,0:0:0:0:
192,192,145749,1,0,0:0:0:0:
448,192,145749,1,0,0:0:0:0:
320,192,145828,1,0,0:0:0:0:
64,192,145907,1,0,0:0:0:0:
192,192,145907,1,0,0:0:0:0:
448,192,145907,1,0,0:0:0:0:
320,192,145986,1,0,0:0:0:0:
64,192,146065,1,0,0:0:0:0:
192,192,146065,1,0,0:0:0:0:
448,192,146065,1,0,0:0:0:0:
320,192,146144,1,0,0:0:0:0:
192,192,146223,1,0,0:0:0:0:
448,192,146223,1,0,0:0:0:0:
64,192,146302,1,0,0:0:0:0:
192,192,146381,1,0,0:0:0:0:
448,192,146381,1,0,0:0:0:0:
320,192,146381,1,0,0:0:0:0:
64,192,146460,1,0,0:0:0:0:
448,192,146539,1,0,0:0:0:0:
192,192,146539,1,0,0:0:0:0:
320,192,146618,1,0,0:0:0:0:
64,192,146697,1,0,0:0:0:0:
192,192,146697,1,0,0:0:0:0:
448,192,146776,1,0,0:0:0:0:
320,192,146855,1,0,0:0:0:0:
64,192,146855,1,0,0:0:0:0:
192,192,146934,1,0,0:0:0:0:
448,192,147012,1,0,0:0:0:0:
320,192,147012,1,0,0:0:0:0:
64,192,147012,1,0,0:0:0:0:
192,192,147091,1,0,0:0:0:0:
320,192,147170,1,0,0:0:0:0:
64,192,147170,1,0,0:0:0:0:
448,192,147170,1,0,0:0:0:0:
192,192,147249,1,0,0:0:0:0:
320,192,147328,1,0,0:0:0:0:
64,192,147328,1,0,0:0:0:0:
448,192,147328,1,0,0:0:0:0:
192,192,147407,1,0,0:0:0:0:
64,192,147486,1,0,0:0:0:0:
320,192,147486,1,0,0:0:0:0:
448,192,147565,1,0,0:0:0:0:
320,192,147644,1,0,0:0:0:0:
64,192,147644,1,0,0:0:0:0:
192,192,147644,1,0,0:0:0:0:
448,192,147723,1,0,0:0:0:0:
320,192,147802,1,0,0:0:0:0:
64,192,147802,1,0,0:0:0:0:
192,192,147881,1,0,0:0:0:0:
320,192,147960,1,0,0:0:0:0:
448,192,147960,1,0,0:0:0:0:
64,192,148039,1,0,0:0:0:0:
320,192,148118,1,0,0:0:0:0:
192,192,148118,1,0,0:0:0:0:
448,192,148197,1,0,0:0:0:0:
192,192,148276,1,0,0:0:0:0:
64,192,148276,1,0,0:0:0:0:
320,192,148276,1,0,0:0:0:0:
448,192,148355,1,0,0:0:0:0:
64,192,148434,1,0,0:0:0:0:
320,192,148434,1,0,0:0:0:0:
192,192,148434,1,0,0:0:0:0:
448,192,148512,1,0,0:0:0:0:
64,192,148591,1,0,0:0:0:0:
320,192,148591,1,0,0:0:0:0:
192,192,148591,1,0,0:0:0:0:
448,192,148670,1,0,0:0:0:0:
320,192,148749,1,0,0:0:0:0:
192,192,148749,1,0,0:0:0:0:
64,192,148828,1,0,0:0:0:0:
448,192,148907,1,0,0:0:0:0:
192,192,148907,1,0,0:0:0:0:
320,192,148986,1,0,0:0:0:0:
64,192,149065,1,0,0:0:0:0:
192,192,149065,1,0,0:0:0:0:
320,192,149144,1,0,0:0:0:0:
64,192,149223,1,0,0:0:0:0:
448,192,149223,1,0,0:0:0:0:
192,192,149302,1,0,0:0:0:0:
448,192,149381,1,0,0:0:0:0:
64,192,149381,1,0,0:0:0:0:
320,192,149460,1,0,0:0:0:0:
64,192,149539,1,0,0:0:0:0:
448,192,149539,1,0,0:0:0:0:
192,192,149618,1,0,0:0:0:0:
448,192,149697,1,0,0:0:0:0:
64,192,149697,1,0,0:0:0:0:
320,192,149776,1,0,0:0:0:0:
64,192,149855,1,0,0:0:0:0:
448,192,149855,1,0,0:0:0:0:
192,192,149934,1,0,0:0:0:0:
448,192,150012,1,0,0:0:0:0:
320,192,150012,1,0,0:0:0:0:
64,192,150091,1,0,0:0:0:0:
192,192,150170,1,0,0:0:0:0:
320,192,150170,1,0,0:0:0:0:
448,192,150170,1,0,0:0:0:0:
64,192,150249,1,0,0:0:0:0:
192,192,150328,1,0,0:0:0:0:
320,192,150328,1,0,0:0:0:0:
448,192,150407,1,0,0:0:0:0:
64,192,150486,1,0,0:0:0:0:
192,192,150486,1,0,0:0:0:0:
320,192,150565,1,0,0:0:0:0:
448,192,150565,1,0,0:0:0:0:
192,192,150644,1,0,0:0:0:0:
64,192,150644,1,0,0:0:0:0:
448,192,150802,1,0,0:0:0:0:
64,192,150802,1,0,0:0:0:0:
192,192,150881,1,0,0:0:0:0:
320,192,150881,1,0,0:0:0:0:
64,192,150960,1,0,0:0:0:0:
448,192,150960,1,0,0:0:0:0:
448,192,151118,1,0,0:0:0:0:
320,192,151118,1,0,0:0:0:0:
64,192,151197,1,0,0:0:0:0:
192,192,151197,1,0,0:0:0:0:
320,192,151276,1,0,0:0:0:0:
448,192,151276,1,0,0:0:0:0:
64,192,151434,1,0,0:0:0:0:
320,192,151434,1,0,0:0:0:0:
192,192,151512,1,0,0:0:0:0:
448,192,151512,1,0,0:0:0:0:
320,192,151591,1,0,0:0:0:0:
64,192,151591,1,0,0:0:0:0:
64,192,151749,1,0,0:0:0:0:
192,192,151749,1,0,0:0:0:0:
320,192,151828,1,0,0:0:0:0:
448,192,151828,1,0,0:0:0:0:
192,192,151907,1,0,0:0:0:0:
64,192,151907,1,0,0:0:0:0:
448,192,152065,1,0,0:0:0:0:
192,192,152065,1,0,0:0:0:0:
320,192,152144,1,0,0:0:0:0:
64,192,152144,1,0,0:0:0:0:
192,192,152223,1,0,0:0:0:0:
448,192,152223,1,0,0:0:0:0:
192,192,152381,1,0,0:0:0:0:
320,192,152381,1,0,0:0:0:0:
448,192,152460,1,0,0:0:0:0:
64,192,152460,1,0,0:0:0:0:
192,192,152539,1,0,0:0:0:0:
320,192,152539,1,0,0:0:0:0:
64,192,152697,1,0,0:0:0:0:
192,192,152697,1,0,0:0:0:0:
320,192,152776,1,0,0:0:0:0:
448,192,152776,1,0,0:0:0:0:
192,192,152855,1,0,0:0:0:0:
64,192,152855,1,0,0:0:0:0:
64,192,153012,1,0,0:0:0:0:
448,192,153012,1,0,0:0:0:0:
320,192,153091,1,0,0:0:0:0:
192,192,153091,1,0,0:0:0:0:
64,192,153170,1,0,0:0:0:0:
448,192,153170,1,0,0:0:0:0:
448,192,153328,1,0,0:0:0:0:
320,192,153328,1,0,0:0:0:0:
64,192,153407,1,0,0:0:0:0:
192,192,153407,1,0,0:0:0:0:
320,192,153486,1,0,0:0:0:0:
448,192,153486,1,0,0:0:0:0:
192,192,153644,1,0,0:0:0:0:
64,192,153644,1,0,0:0:0:0:
448,192,153723,1,0,0:0:0:0:
320,192,153802,1,0,0:0:0:0:
192,192,153802,1,0,0:0:0:0:
64,192,153881,1,0,0:0:0:0:
192,192,153960,1,0,0:0:0:0:
320,192,153960,1,0,0:0:0:0:
448,192,153960,1,0,0:0:0:0:
64,192,154039,1,0,0:0:0:0:
192,192,154118,1,0,0:0:0:0:
448,192,154118,1,0,0:0:0:0:
320,192,154197,1,0,0:0:0:0:
64,192,154276,1,0,0:0:0:0:
192,192,154276,1,0,0:0:0:0:
448,192,154276,1,0,0:0:0:0:
320,192,154355,1,0,0:0:0:0:
64,192,154434,1,0,0:0:0:0:
448,192,154434,1,0,0:0:0:0:
192,192,154512,1,0,0:0:0:0:
320,192,154591,1,0,0:0:0:0:
448,192,154591,1,0,0:0:0:0:
64,192,154591,1,0,0:0:0:0:
192,192,154670,1,0,0:0:0:0:
64,192,154749,1,0,0:0:0:0:
448,192,154749,1,0,0:0:0:0:
320,192,154828,1,0,0:0:0:0:
192,192,154907,1,0,0:0:0:0:
64,192,154907,1,0,0:0:0:0:
448,192,154907,1,0,0:0:0:0:
320,192,154986,1,0,0:0:0:0:
448,192,155065,1,0,0:0:0:0:
64,192,155065,1,0,0:0:0:0:
192,192,155223,1,0,0:0:0:0:
320,192,155223,1,0,0:0:0:0:
448,192,155302,1,0,0:0:0:0:
64,192,155381,1,0,0:0:0:0:
192,192,155381,1,0,0:0:0:0:
448,192,155539,1,0,0:0:0:0:
64,192,155539,1,0,0:0:0:0:
192,192,155618,1,0,0:0:0:0:
320,192,155697,1,0,0:0:0:0:
448,192,155697,1,0,0:0:0:0:
320,192,155855,1,0,0:0:0:0:
192,192,155855,1,0,0:0:0:0:
448,192,155934,1,0,0:0:0:0:
64,192,156012,1,0,0:0:0:0:
192,192,156012,1,0,0:0:0:0:
64,192,156170,1,0,0:0:0:0:
448,192,156170,1,0,0:0:0:0:
192,192,156276,1,0,0:0:0:0:
320,192,156381,1,0,0:0:0:0:
448,192,156486,1,0,0:0:0:0:
64,192,156486,1,0,0:0:0:0:
192,192,156486,1,0,0:0:0:0:
192,192,156644,1,0,0:0:0:0:
320,192,156802,1,0,0:0:0:0:
448,192,156802,1,0,0:0:0:0:
64,192,156881,1,0,0:0:0:0:
192,192,156960,1,0,0:0:0:0:
320,192,156960,1,0,0:0:0:0:
64,192,157118,1,0,0:0:0:0:
192,192,157118,1,0,0:0:0:0:
448,192,157197,1,0,0:0:0:0:
320,192,157276,1,0,0:0:0:0:
64,192,157276,1,0,0:0:0:0:
192,192,157434,1,0,0:0:0:0:
320,192,157434,1,0,0:0:0:0:
64,192,157512,1,0,0:0:0:0:
192,192,157591,1,0,0:0:0:0:
448,192,157591,1,0,0:0:0:0:
448,192,157749,1,0,0:0:0:0:
320,192,157749,1,0,0:0:0:0:
64,192,157828,1,0,0:0:0:0:
192,192,157907,1,0,0:0:0:0:
320,192,157907,1,0,0:0:0:0:
448,192,158065,1,0,0:0:0:0:
64,192,158065,1,0,0:0:0:0:
192,192,158144,1,0,0:0:0:0:
320,192,158223,1,0,0:0:0:0:
448,192,158223,1,0,0:0:0:0:
64,192,158381,1,0,0:0:0:0:
192,192,158381,1,0,0:0:0:0:
320,192,158460,1,0,0:0:0:0:
448,192,158539,1,0,0:0:0:0:
192,192,158539,1,0,0:0:0:0:
64,192,158697,1,0,0:0:0:0:
192,192,158697,1,0,0:0:0:0:
320,192,158776,1,0,0:0:0:0:
448,192,158776,1,0,0:0:0:0:
192,192,158855,1,0,0:0:0:0:
64,192,158855,1,0,0:0:0:0:
192,192,159012,1,0,0:0:0:0:
320,192,159012,1,0,0:0:0:0:
448,192,159091,1,0,0:0:0:0:
64,192,159091,1,0,0:0:0:0:
192,192,159170,1,0,0:0:0:0:
320,192,159170,1,0,0:0:0:0:
448,192,159328,1,0,0:0:0:0:
320,192,159328,1,0,0:0:0:0:
64,192,159407,1,0,0:0:0:0:
192,192,159407,1,0,0:0:0:0:
320,192,159486,1,0,0:0:0:0:
448,192,159486,1,0,0:0:0:0:
64,192,159644,1,0,0:0:0:0:
448,192,159644,1,0,0:0:0:0:
320,192,159723,1,0,0:0:0:0:
192,192,159723,1,0,0:0:0:0:
64,192,159802,1,0,0:0:0:0:
448,192,159802,1,0,0:0:0:0:
64,192,159960,1,0,0:0:0:0:
192,192,159960,1,0,0:0:0:0:
320,192,160039,1,0,0:0:0:0:
448,192,160118,1,0,0:0:0:0:
192,192,160118,1,0,0:0:0:0:
64,192,160197,1,0,0:0:0:0:
192,192,160276,1,0,0:0:0:0:
320,192,160276,1,0,0:0:0:0:
448,192,160276,1,0,0:0:0:0:
64,192,160355,1,0,0:0:0:0:
192,192,160434,1,0,0:0:0:0:
320,192,160434,1,0,0:0:0:0:
448,192,160512,1,0,0:0:0:0:
320,192,160591,1,0,0:0:0:0:
64,192,160591,1,0,0:0:0:0:
192,192,160670,1,0,0:0:0:0:
64,192,160749,1,0,0:0:0:0:
448,192,160749,1,0,0:0:0:0:
320,192,160828,1,0,0:0:0:0:
192,192,160907,1,0,0:0:0:0:
64,192,160907,1,0,0:0:0:0:
448,192,160907,1,0,0:0:0:0:
320,192,160986,1,0,0:0:0:0:
192,192,161065,1,0,0:0:0:0:
64,192,161065,1,0,0:0:0:0:
448,192,161144,1,0,0:0:0:0:
320,192,161223,1,0,0:0:0:0:
64,192,161223,1,0,0:0:0:0:
192,192,161302,1,0,0:0:0:0:
448,192,161381,1,0,0:0:0:0:
320,192,161381,1,0,0:0:0:0:
64,192,161460,1,0,0:0:0:0:
192,192,161539,1,0,0:0:0:0:
320,192,161539,1,0,0:0:0:0:
448,192,161539,1,0,0:0:0:0:
64,192,161618,1,0,0:0:0:0:
192,192,161697,1,0,0:0:0:0:
448,192,161697,1,0,0:0:0:0:
320,192,161776,1,0,0:0:0:0:
192,192,161855,1,0,0:0:0:0:
64,192,161855,1,0,0:0:0:0:
320,192,161934,1,0,0:0:0:0:
448,192,162012,1,0,0:0:0:0:
64,192,162012,1,0,0:0:0:0:
192,192,162091,1,0,0:0:0:0:
320,192,162170,1,0,0:0:0:0:
448,192,162170,1,0,0:0:0:0:
64,192,162170,1,0,0:0:0:0:
192,192,162249,1,0,0:0:0:0:
320,192,162328,1,0,0:0:0:0:
448,192,162328,1,0,0:0:0:0:
64,192,162407,1,0,0:0:0:0:
192,192,162486,1,0,0:0:0:0:
448,192,162486,1,0,0:0:0:0:
320,192,162565,1,0,0:0:0:0:
64,192,162644,1,0,0:0:0:0:
192,192,162644,1,0,0:0:0:0:
448,192,162723,1,0,0:0:0:0:
64,192,162802,1,0,0:0:0:0:
320,192,162802,1,0,0:0:0:0:
192,192,162802,1,0,0:0:0:0:
448,192,162881,1,0,0:0:0:0:
320,192,162960,1,0,0:0:0:0:
192,192,162960,1,0,0:0:0:0:
64,192,163039,1,0,0:0:0:0:
320,192,163118,1,0,0:0:0:0:
448,192,163118,1,0,0:0:0:0:
192,192,163197,1,0,0:0:0:0:
320,192,163276,1,0,0:0:0:0:
64,192,163276,1,0,0:0:0:0:
448,192,163355,1,0,0:0:0:0:
192,192,163434,1,0,0:0:0:0:
64,192,163434,1,0,0:0:0:0:
320,192,163434,1,0,0:0:0:0:
448,192,163512,1,0,0:0:0:0:
192,192,163591,1,0,0:0:0:0:
64,192,163591,1,0,0:0:0:0:
448,192,163749,1,0,0:0:0:0:
320,192,163828,1,0,0:0:0:0:
64,192,163907,5,0,0:0:0:0:
192,192,163947,1,0,0:0:0:0:
320,192,163986,1,0,0:0:0:0:
448,192,164026,1,0,0:0:0:0:
64,192,164065,1,0,0:0:0:0:
192,192,164144,1,0,0:0:0:0:
448,192,164223,1,0,0:0:0:0:
320,192,164262,1,0,0:0:0:0:
192,192,164302,1,0,0:0:0:0:
64,192,164341,1,0,0:0:0:0:
448,192,164381,1,0,0:0:0:0:
320,192,164460,1,0,0:0:0:0:
64,192,164539,1,0,0:0:0:0:
192,192,164578,1,0,0:0:0:0:
320,192,164618,1,0,0:0:0:0:
448,192,164657,1,0,0:0:0:0:
64,192,164697,1,0,0:0:0:0:
192,192,164776,1,0,0:0:0:0:
320,192,164855,1,0,0:0:0:0:
448,192,165012,1,0,0:0:0:0:
192,192,165012,1,0,0:0:0:0:
64,192,165012,1,0,0:0:0:0:
64,192,165170,1,0,0:0:0:0:
192,192,165328,1,0,0:0:0:0:
320,192,165328,1,0,0:0:0:0:
320,192,165486,1,0,0:0:0:0:
64,192,165644,1,0,0:0:0:0:
192,192,165644,1,0,0:0:0:0:
448,192,165644,1,0,0:0:0:0:
192,192,165802,1,0,0:0:0:0:
448,192,165960,1,0,0:0:0:0:
320,192,165960,1,0,0:0:0:0:
448,192,166118,1,0,0:0:0:0:
64,192,166276,1,0,0:0:0:0:
192,192,166276,1,0,0:0:0:0:
320,192,166276,1,0,0:0:0:0:
64,192,166434,1,0,0:0:0:0:
448,192,166591,1,0,0:0:0:0:
192,192,166591,1,0,0:0:0:0:
448,192,166749,1,0,0:0:0:0:
192,192,166907,1,0,0:0:0:0:
64,192,166907,1,0,0:0:0:0:
320,192,166907,1,0,0:0:0:0:
192,192,167065,1,0,0:0:0:0:
320,192,167223,1,0,0:0:0:0:
64,192,167223,1,0,0:0:0:0:
320,192,167381,1,0,0:0:0:0:
64,192,167539,1,0,0:0:0:0:
192,192,167539,1,0,0:0:0:0:
448,192,167539,1,0,0:0:0:0:
192,192,167697,1,0,0:0:0:0:
320,192,167697,1,0,0:0:0:0:
448,192,167855,1,0,0:0:0:0:
320,192,167855,1,0,0:0:0:0:
64,192,167855,1,0,0:0:0:0:
64,192,168012,1,0,0:0:0:0:
192,192,168012,1,0,0:0:0:0:
192,192,168170,1,0,0:0:0:0:
320,192,168170,1,0,0:0:0:0:
448,192,168170,1,0,0:0:0:0:
448,192,168328,1,0,0:0:0:0:
64,192,168328,1,0,0:0:0:0:
320,192,168486,1,0,0:0:0:0:
192,192,168486,1,0,0:0:0:0:
64,192,168486,1,0,0:0:0:0:
448,192,168644,1,0,0:0:0:0:
320,192,168644,1,0,0:0:0:0:
64,192,168802,1,0,0:0:0:0:
192,192,168802,1,0,0:0:0:0:
320,192,168881,1,0,0:0:0:0:
448,192,168881,1,0,0:0:0:0:
64,192,168960,1,0,0:0:0:0:
192,192,168960,1,0,0:0:0:0:
320,192,169039,1,0,0:0:0:0:
448,192,169039,1,0,0:0:0:0:
192,192,169118,1,0,0:0:0:0:
64,192,169118,1,0,0:0:0:0:
320,192,169197,1,0,0:0:0:0:
448,192,169197,1,0,0:0:0:0:
192,192,169276,1,0,0:0:0:0:
64,192,169276,1,0,0:0:0:0:
320,192,169355,1,0,0:0:0:0:
448,192,169355,1,0,0:0:0:0:
192,192,169434,1,0,0:0:0:0:
64,192,169434,1,0,0:0:0:0:
320,192,169512,1,0,0:0:0:0:
448,192,169512,1,0,0:0:0:0:
192,192,169591,1,0,0:0:0:0:
64,192,169591,1,0,0:0:0:0:
320,192,169670,1,0,0:0:0:0:
448,192,169670,1,0,0:0:0:0:
192,192,169749,1,0,0:0:0:0:
64,192,169749,1,0,0:0:0:0:
320,192,169828,1,0,0:0:0:0:
448,192,169828,1,0,0:0:0:0:
192,192,169907,1,0,0:0:0:0:
64,192,169907,1,0,0:0:0:0:
320,192,169986,1,0,0:0:0:0:
448,192,169986,1,0,0:0:0:0:
64,192,170065,1,0,0:0:0:0:
192,192,170065,1,0,0:0:0:0:
448,192,170223,5,0,0:0:0:0:
320,192,170381,1,0,0:0:0:0:
192,192,170381,1,0,0:0:0:0:
64,192,170539,1,0,0:0:0:0:
320,192,170697,1,0,0:0:0:0:
448,192,170697,1,0,0:0:0:0:
192,192,170855,1,0,0:0:0:0:
64,192,171012,1,0,0:0:0:0:
320,192,171012,1,0,0:0:0:0:
448,192,171170,1,0,0:0:0:0:
320,192,171328,1,0,0:0:0:0:
192,192,171328,1,0,0:0:0:0:
64,192,171486,1,0,0:0:0:0:
448,192,171644,1,0,0:0:0:0:
192,192,171644,1,0,0:0:0:0:
320,192,171802,1,0,0:0:0:0:
64,192,171960,1,0,0:0:0:0:
448,192,171960,1,0,0:0:0:0:
192,192,172118,1,0,0:0:0:0:
448,192,172276,1,0,0:0:0:0:
320,192,172276,1,0,0:0:0:0:
64,192,172434,1,0,0:0:0:0:
320,192,172591,1,0,0:0:0:0:
64,192,172591,1,0,0:0:0:0:
192,192,172591,1,0,0:0:0:0:
448,192,172749,1,0,0:0:0:0:
192,192,172907,1,0,0:0:0:0:
320,192,172907,1,0,0:0:0:0:
448,192,173065,1,0,0:0:0:0:
320,192,173223,1,0,0:0:0:0:
64,192,173223,1,0,0:0:0:0:
192,192,173381,1,0,0:0:0:0:
448,192,173539,1,0,0:0:0:0:
320,192,173539,1,0,0:0:0:0:
64,192,173697,1,0,0:0:0:0:
320,192,173855,1,0,0:0:0:0:
192,192,173855,1,0,0:0:0:0:
448,192,174012,1,0,0:0:0:0:
192,192,174170,1,0,0:0:0:0:
64,192,174170,1,0,0:0:0:0:
320,192,174170,1,0,0:0:0:0:
192,192,174328,1,0,0:0:0:0:
320,192,174486,1,0,0:0:0:0:
64,192,174486,1,0,0:0:0:0:
448,192,174486,1,0,0:0:0:0:
192,192,174644,1,0,0:0:0:0:
320,192,174723,1,0,0:0:0:0:
64,192,174723,1,0,0:0:0:0:
192,192,174802,1,0,0:0:0:0:
448,192,174802,1,0,0:0:0:0:
64,192,174802,1,0,0:0:0:0:
320,192,174960,1,0,0:0:0:0:
192,192,174960,1,0,0:0:0:0:
64,192,175118,1,0,0:0:0:0:
320,192,175118,1,0,0:0:0:0:
448,192,175118,1,0,0:0:0:0:
192,192,175276,1,0,0:0:0:0:
448,192,175434,1,0,0:0:0:0:
64,192,175434,1,0,0:0:0:0:
320,192,175591,1,0,0:0:0:0:
64,192,175749,1,0,0:0:0:0:
192,192,175749,1,0,0:0:0:0:
448,192,175907,1,0,0:0:0:0:
192,192,176065,1,0,0:0:0:0:
448,192,176065,1,0,0:0:0:0:
320,192,176065,1,0,0:0:0:0:
320,192,176223,1,0,0:0:0:0:
64,192,176223,1,0,0:0:0:0:
320,192,176381,1,0,0:0:0:0:
192,192,176381,1,0,0:0:0:0:
64,192,176539,1,0,0:0:0:0:
320,192,176539,1,0,0:0:0:0:
192,192,176697,1,0,0:0:0:0:
448,192,176697,1,0,0:0:0:0:
64,192,176697,1,0,0:0:0:0:
320,192,176855,1,0,0:0:0:0:
64,192,177012,1,0,0:0:0:0:
448,192,177012,1,0,0:0:0:0:
192,192,177012,1,0,0:0:0:0:
320,192,177170,1,0,0:0:0:0:
192,192,177170,1,0,0:0:0:0:
320,192,177328,1,0,0:0:0:0:
64,192,177328,1,0,0:0:0:0:
448,192,177328,1,0,0:0:0:0:
192,192,177486,1,0,0:0:0:0:
320,192,177644,1,0,0:0:0:0:
448,192,177644,1,0,0:0:0:0:
64,192,177802,1,0,0:0:0:0:
192,192,177960,1,0,0:0:0:0:
448,192,177960,1,0,0:0:0:0:
320,192,178118,1,0,0:0:0:0:
64,192,178276,1,0,0:0:0:0:
192,192,178276,1,0,0:0:0:0:
448,192,178276,1,0,0:0:0:0:
320,192,178434,1,0,0:0:0:0:
192,192,178591,1,0,0:0:0:0:
448,192,178591,1,0,0:0:0:0:
64,192,178749,1,0,0:0:0:0:
320,192,178907,1,0,0:0:0:0:
64,192,178907,1,0,0:0:0:0:
448,192,178907,1,0,0:0:0:0:
192,192,179065,1,0,0:0:0:0:
448,192,179223,1,0,0:0:0:0:
192,192,179223,1,0,0:0:0:0:
320,192,179223,1,0,0:0:0:0:
448,192,179381,1,0,0:0:0:0:
64,192,179539,1,0,0:0:0:0:
320,192,179539,1,0,0:0:0:0:
192,192,179539,1,0,0:0:0:0:
64,192,179697,1,0,0:0:0:0:
192,192,179855,1,0,0:0:0:0:
448,192,179855,1,0,0:0:0:0:
320,192,179855,1,0,0:0:0:0:
448,192,180012,1,0,0:0:0:0:
320,192,180170,1,0,0:0:0:0:
64,192,180170,1,0,0:0:0:0:
192,192,180170,1,0,0:0:0:0:
64,192,180328,1,0,0:0:0:0:
192,192,180486,1,0,0:0:0:0:
448,192,180486,1,0,0:0:0:0:
320,192,180644,1,0,0:0:0:0:
64,192,180802,1,0,0:0:0:0:
448,192,180802,1,0,0:0:0:0:
192,192,180960,1,0,0:0:0:0:
64,192,181118,1,0,0:0:0:0:
320,192,181118,1,0,0:0:0:0:
192,192,181276,1,0,0:0:0:0:
320,192,181434,1,0,0:0:0:0:
448,192,181434,1,0,0:0:0:0:
64,192,181591,1,0,0:0:0:0:
192,192,181749,1,0,0:0:0:0:
448,192,181749,1,0,0:0:0:0:
320,192,181907,1,0,0:0:0:0:
64,192,182065,1,0,0:0:0:0:
448,192,182065,1,0,0:0:0:0:
320,192,182223,1,0,0:0:0:0:
192,192,182381,1,0,0:0:0:0:
64,192,182381,1,0,0:0:0:0:
448,192,182539,1,0,0:0:0:0:
320,192,182697,1,0,0:0:0:0:
64,192,182697,1,0,0:0:0:0:
192,192,182697,1,0,0:0:0:0:
64,192,182855,1,0,0:0:0:0:
192,192,183012,1,0,0:0:0:0:
448,192,183012,1,0,0:0:0:0:
320,192,183170,1,0,0:0:0:0:
64,192,183328,1,0,0:0:0:0:
448,192,183328,1,0,0:0:0:0:
448,192,183486,1,0,0:0:0:0:
192,192,183644,1,0,0:0:0:0:
320,192,183644,1,0,0:0:0:0:
64,192,183802,1,0,0:0:0:0:
320,192,183960,1,0,0:0:0:0:
448,192,183960,1,0,0:0:0:0:
64,192,184118,1,0,0:0:0:0:
448,192,184276,1,0,0:0:0:0:
192,192,184276,1,0,0:0:0:0:
320,192,184276,1,0,0:0:0:0:
448,192,184434,1,0,0:0:0:0:
64,192,184591,1,0,0:0:0:0:
192,192,184591,1,0,0:0:0:0:
320,192,184591,1,0,0:0:0:0:
448,192,184749,1,0,0:0:0:0:
64,192,184828,1,0,0:0:0:0:
448,192,184907,1,0,0:0:0:0:
320,192,184907,1,0,0:0:0:0:
192,192,184907,1,0,0:0:0:0:
64,192,185065,1,0,0:0:0:0:
448,192,185065,1,0,0:0:0:0:
192,192,185223,1,0,0:0:0:0:
320,192,185223,1,0,0:0:0:0:
64,192,185223,1,0,0:0:0:0:
448,192,185381,1,0,0:0:0:0:
64,192,185539,1,0,0:0:0:0:
192,192,185539,1,0,0:0:0:0:
320,192,185697,1,0,0:0:0:0:
448,192,185855,1,0,0:0:0:0:
64,192,185855,1,0,0:0:0:0:
192,192,186012,1,0,0:0:0:0:
192,192,186170,1,0,0:0:0:0:
64,192,186170,1,0,0:0:0:0:
320,192,186170,1,0,0:0:0:0:
448,192,186328,1,0,0:0:0:0:
64,192,186328,1,0,0:0:0:0:
448,192,186486,1,0,0:0:0:0:
320,192,186486,1,0,0:0:0:0:
192,192,186486,1,0,0:0:0:0:
320,192,186644,1,0,0:0:0:0:
64,192,186644,1,0,0:0:0:0:
64,192,186802,1,0,0:0:0:0:
192,192,186802,1,0,0:0:0:0:
448,192,186802,1,0,0:0:0:0:
64,192,186960,1,0,0:0:0:0:
448,192,187118,1,0,0:0:0:0:
320,192,187118,1,0,0:0:0:0:
192,192,187276,1,0,0:0:0:0:
320,192,187276,1,0,0:0:0:0:
192,192,187434,1,0,0:0:0:0:
64,192,187434,1,0,0:0:0:0:
448,192,187434,1,0,0:0:0:0:
64,192,187591,1,0,0:0:0:0:
448,192,187749,1,0,0:0:0:0:
320,192,187749,1,0,0:0:0:0:
320,192,187907,1,0,0:0:0:0:
320,192,188065,1,0,0:0:0:0:
320,192,188223,1,0,0:0:0:0:
64,192,188381,1,0,0:0:0:0:
192,192,188381,1,0,0:0:0:0:
192,192,188539,1,0,0:0:0:0:
192,192,188697,1,0,0:0:0:0:
192,192,188855,1,0,0:0:0:0:
192,192,189012,1,0,0:0:0:0:
448,192,189012,1,0,0:0:0:0:
448,192,189170,1,0,0:0:0:0:
448,192,189328,1,0,0:0:0:0:
320,192,189328,1,0,0:0:0:0:
448,192,189486,1,0,0:0:0:0:
448,192,189644,1,0,0:0:0:0:
64,192,189644,1,0,0:0:0:0:
192,192,189644,1,0,0:0:0:0:
64,192,189802,1,0,0:0:0:0:
64,192,189960,1,0,0:0:0:0:
320,192,189960,1,0,0:0:0:0:
64,192,190118,1,0,0:0:0:0:
64,192,190276,1,0,0:0:0:0:
448,192,190276,1,0,0:0:0:0:
192,192,190355,1,0,0:0:0:0:
320,192,190434,1,0,0:0:0:0:
448,192,190512,1,0,0:0:0:0:
192,192,190591,1,0,0:0:0:0:
64,192,190591,1,0,0:0:0:0:
320,192,190670,1,0,0:0:0:0:
64,192,190749,1,0,0:0:0:0:
448,192,190828,1,0,0:0:0:0:
320,192,190907,1,0,0:0:0:0:
192,192,190907,1,0,0:0:0:0:
64,192,190986,1,0,0:0:0:0:
192,192,191065,1,0,0:0:0:0:
448,192,191144,1,0,0:0:0:0:
64,192,191223,1,0,0:0:0:0:
320,192,191223,1,0,0:0:0:0:
192,192,191381,1,0,0:0:0:0:
64,192,191381,1,0,0:0:0:0:
320,192,191460,1,0,0:0:0:0:
192,192,191460,1,0,0:0:0:0:
448,192,191539,1,0,0:0:0:0:
64,192,191539,1,0,0:0:0:0:
192,192,191697,1,0,0:0:0:0:
320,192,191697,1,0,0:0:0:0:
448,192,191855,1,0,0:0:0:0:
64,192,191855,1,0,0:0:0:0:
192,192,191934,1,0,0:0:0:0:
320,192,191934,1,0,0:0:0:0:
192,192,192170,1,0,0:0:0:0:
64,192,192170,1,0,0:0:0:0:
320,192,192407,1,0,0:0:0:0:
448,192,192407,1,0,0:0:0:0:
192,192,192486,1,0,0:0:0:0:
64,192,192486,1,0,0:0:0:0:
320,192,192644,1,0,0:0:0:0:
192,192,192644,1,0,0:0:0:0:
448,192,192802,1,0,0:0:0:0:
192,192,192802,1,0,0:0:0:0:
320,192,192881,1,0,0:0:0:0:
192,192,192960,1,0,0:0:0:0:
64,192,193039,1,0,0:0:0:0:
320,192,193118,1,0,0:0:0:0:
192,192,193118,1,0,0:0:0:0:
448,192,193197,1,0,0:0:0:0:
192,192,193276,1,0,0:0:0:0:
320,192,193355,1,0,0:0:0:0:
64,192,193434,1,0,0:0:0:0:
448,192,193434,1,0,0:0:0:0:
192,192,193512,1,0,0:0:0:0:
320,192,193591,1,0,0:0:0:0:
448,192,193670,1,0,0:0:0:0:
192,192,193749,1,0,0:0:0:0:
320,192,193749,1,0,0:0:0:0:
64,192,193828,1,0,0:0:0:0:
320,192,193907,1,0,0:0:0:0:
448,192,193986,1,0,0:0:0:0:
192,192,194065,1,0,0:0:0:0:
64,192,194065,1,0,0:0:0:0:
64,192,194223,1,0,0:0:0:0:
448,192,194223,1,0,0:0:0:0:
192,192,194381,1,0,0:0:0:0:
320,192,194381,1,0,0:0:0:0:
448,192,194460,1,0,0:0:0:0:
64,192,194539,1,0,0:0:0:0:
192,192,194697,1,0,0:0:0:0:
64,192,194697,1,0,0:0:0:0:
320,192,194697,1,0,0:0:0:0:
448,192,194855,1,0,0:0:0:0:
320,192,194934,1,0,0:0:0:0:
192,192,194934,1,0,0:0:0:0:
64,192,195012,1,0,0:0:0:0:
448,192,195012,1,0,0:0:0:0:
448,192,195170,1,0,0:0:0:0:
192,192,195170,1,0,0:0:0:0:
320,192,195328,1,0,0:0:0:0:
64,192,195328,1,0,0:0:0:0:
192,192,195407,1,0,0:0:0:0:
448,192,195486,1,0,0:0:0:0:
320,192,195565,1,0,0:0:0:0:
192,192,195644,1,0,0:0:0:0:
64,192,195644,1,0,0:0:0:0:
448,192,195644,1,0,0:0:0:0:
320,192,195723,1,0,0:0:0:0:
192,192,195802,1,0,0:0:0:0:
64,192,195881,1,0,0:0:0:0:
320,192,195960,1,0,0:0:0:0:
448,192,195960,1,0,0:0:0:0:
192,192,196118,1,0,0:0:0:0:
448,192,196276,1,0,0:0:0:0:
64,192,196276,1,0,0:0:0:0:
320,192,196355,1,0,0:0:0:0:
192,192,196434,1,0,0:0:0:0:
64,192,196512,1,0,0:0:0:0:
320,192,196591,1,0,0:0:0:0:
192,192,196591,1,0,0:0:0:0:
448,192,196670,1,0,0:0:0:0:
192,192,196749,1,0,0:0:0:0:
320,192,196828,1,0,0:0:0:0:
64,192,196907,1,0,0:0:0:0:
448,192,196907,1,0,0:0:0:0:
192,192,196986,1,0,0:0:0:0:
320,192,197065,1,0,0:0:0:0:
448,192,197144,1,0,0:0:0:0:
192,192,197223,1,0,0:0:0:0:
320,192,197223,1,0,0:0:0:0:
64,192,197302,1,0,0:0:0:0:
320,192,197381,1,0,0:0:0:0:
192,192,197460,1,0,0:0:0:0:
448,192,197539,1,0,0:0:0:0:
64,192,197539,1,0,0:0:0:0:
320,192,197618,1,0,0:0:0:0:
192,192,197697,1,0,0:0:0:0:
64,192,197776,1,0,0:0:0:0:
320,192,197855,1,0,0:0:0:0:
448,192,197855,1,0,0:0:0:0:
192,192,197934,1,0,0:0:0:0:
448,192,198012,1,0,0:0:0:0:
64,192,198091,1,0,0:0:0:0:
448,192,198170,1,0,0:0:0:0:
320,192,198170,1,0,0:0:0:0:
192,192,198328,1,0,0:0:0:0:
64,192,198486,1,0,0:0:0:0:
320,192,198486,1,0,0:0:0:0:
448,192,198644,1,0,0:0:0:0:
320,192,198723,1,0,0:0:0:0:
192,192,198723,1,0,0:0:0:0:
64,192,198802,1,0,0:0:0:0:
448,192,198802,1,0,0:0:0:0:
192,192,198960,1,0,0:0:0:0:
320,192,198960,1,0,0:0:0:0:
448,192,199118,1,0,0:0:0:0:
64,192,199118,1,0,0:0:0:0:
192,192,199197,1,0,0:0:0:0:
320,192,199197,1,0,0:0:0:0:
448,192,199434,1,0,0:0:0:0:
320,192,199434,1,0,0:0:0:0:
64,192,199434,1,0,0:0:0:0:
192,192,199670,1,0,0:0:0:0:
320,192,199670,1,0,0:0:0:0:
64,192,199749,1,0,0:0:0:0:
448,192,199749,1,0,0:0:0:0:
448,192,199907,1,0,0:0:0:0:
320,192,199907,1,0,0:0:0:0:
64,192,200065,1,0,0:0:0:0:
448,192,200065,1,0,0:0:0:0:
192,192,200144,1,0,0:0:0:0:
320,192,200144,1,0,0:0:0:0:
448,192,200381,1,0,0:0:0:0:
64,192,200381,1,0,0:0:0:0:
192,192,200460,1,0,0:0:0:0:
320,192,200539,1,0,0:0:0:0:
448,192,200618,1,0,0:0:0:0:
64,192,200697,1,0,0:0:0:0:
192,192,200697,1,0,0:0:0:0:
448,192,200776,1,0,0:0:0:0:
320,192,200855,1,0,0:0:0:0:
192,192,200934,1,0,0:0:0:0:
320,192,201012,1,0,0:0:0:0:
64,192,201012,1,0,0:0:0:0:
448,192,201091,1,0,0:0:0:0:
192,192,201170,1,0,0:0:0:0:
320,192,201249,1,0,0:0:0:0:
192,192,201328,1,0,0:0:0:0:
448,192,201328,1,0,0:0:0:0:
64,192,201407,1,0,0:0:0:0:
320,192,201486,1,0,0:0:0:0:
192,192,201565,1,0,0:0:0:0:
320,192,201644,1,0,0:0:0:0:
64,192,201644,1,0,0:0:0:0:
192,192,201802,1,0,0:0:0:0:
320,192,201881,1,0,0:0:0:0:
64,192,201960,1,0,0:0:0:0:
448,192,201960,1,0,0:0:0:0:
192,192,202039,1,0,0:0:0:0:
64,192,202118,1,0,0:0:0:0:
320,192,202197,1,0,0:0:0:0:
192,192,202276,1,0,0:0:0:0:
448,192,202276,1,0,0:0:0:0:
64,192,202355,1,0,0:0:0:0:
192,192,202434,1,0,0:0:0:0:
64,192,202512,1,0,0:0:0:0:
320,192,202591,1,0,0:0:0:0:
448,192,202591,1,0,0:0:0:0:
192,192,202670,1,0,0:0:0:0:
320,192,202749,1,0,0:0:0:0:
64,192,202828,1,0,0:0:0:0:
448,192,202907,1,0,0:0:0:0:
192,192,202907,1,0,0:0:0:0:
320,192,202986,1,0,0:0:0:0:
448,192,203065,1,0,0:0:0:0:
192,192,203144,1,0,0:0:0:0:
64,192,203223,1,0,0:0:0:0:
320,192,203223,1,0,0:0:0:0:
448,192,203302,1,0,0:0:0:0:
320,192,203381,1,0,0:0:0:0:
192,192,203460,1,0,0:0:0:0:
320,192,203539,1,0,0:0:0:0:
64,192,203539,1,0,0:0:0:0:
448,192,203618,1,0,0:0:0:0:
192,192,203697,1,0,0:0:0:0:
64,192,203776,1,0,0:0:0:0:
448,192,203855,1,0,0:0:0:0:
320,192,203855,1,0,0:0:0:0:
192,192,203934,1,0,0:0:0:0:
320,192,204012,1,0,0:0:0:0:
448,192,204091,1,0,0:0:0:0:
64,192,204170,1,0,0:0:0:0:
320,192,204170,1,0,0:0:0:0:
320,192,204328,1,0,0:0:0:0:
192,192,204407,1,0,0:0:0:0:
320,192,204486,1,0,0:0:0:0:
448,192,204486,1,0,0:0:0:0:
64,192,204486,1,0,0:0:0:0:
192,192,204644,1,0,0:0:0:0:
64,192,204723,1,0,0:0:0:0:
320,192,204802,1,0,0:0:0:0:
448,192,204802,1,0,0:0:0:0:
192,192,204881,1,0,0:0:0:0:
64,192,204960,1,0,0:0:0:0:
448,192,205039,1,0,0:0:0:0:
64,192,205118,1,0,0:0:0:0:
320,192,205118,1,0,0:0:0:0:
192,192,205197,1,0,0:0:0:0:
448,192,205276,1,0,0:0:0:0:
320,192,205276,1,0,0:0:0:0:
192,192,205355,1,0,0:0:0:0:
64,192,205434,1,0,0:0:0:0:
448,192,205434,1,0,0:0:0:0:
320,192,205512,1,0,0:0:0:0:
64,192,205591,1,0,0:0:0:0:
320,192,205670,1,0,0:0:0:0:
448,192,205749,1,0,0:0:0:0:
192,192,205749,1,0,0:0:0:0:
64,192,205828,1,0,0:0:0:0:
320,192,205907,1,0,0:0:0:0:
192,192,205907,1,0,0:0:0:0:
448,192,205986,1,0,0:0:0:0:
192,192,206065,1,0,0:0:0:0:
64,192,206065,1,0,0:0:0:0:
320,192,206144,1,0,0:0:0:0:
448,192,206223,1,0,0:0:0:0:
192,192,206302,1,0,0:0:0:0:
64,192,206381,1,0,0:0:0:0:
320,192,206381,1,0,0:0:0:0:
448,192,206460,1,0,0:0:0:0:
192,192,206539,1,0,0:0:0:0:
64,192,206618,1,0,0:0:0:0:
320,192,206697,1,0,0:0:0:0:
448,192,206697,1,0,0:0:0:0:
192,192,206776,1,0,0:0:0:0:
64,192,206855,1,0,0:0:0:0:
320,192,206855,1,0,0:0:0:0:
192,192,206934,1,0,0:0:0:0:
448,192,207012,1,0,0:0:0:0:
320,192,207012,1,0,0:0:0:0:
64,192,207091,1,0,0:0:0:0:
192,192,207170,1,0,0:0:0:0:
320,192,207249,1,0,0:0:0:0:
448,192,207328,1,0,0:0:0:0:
64,192,207328,1,0,0:0:0:0:
192,192,207407,1,0,0:0:0:0:
64,192,207486,1,0,0:0:0:0:
320,192,207565,1,0,0:0:0:0:
192,192,207644,1,0,0:0:0:0:
448,192,207644,1,0,0:0:0:0:
64,192,207802,1,0,0:0:0:0:
320,192,207802,1,0,0:0:0:0:
448,192,207960,1,0,0:0:0:0:
192,192,207960,1,0,0:0:0:0:
64,192,208039,1,0,0:0:0:0:
192,192,208118,1,0,0:0:0:0:
320,192,208197,1,0,0:0:0:0:
448,192,208276,1,0,0:0:0:0:
64,192,208276,1,0,0:0:0:0:
192,192,208355,1,0,0:0:0:0:
320,192,208434,1,0,0:0:0:0:
448,192,208512,1,0,0:0:0:0:
192,192,208591,1,0,0:0:0:0:
64,192,208591,1,0,0:0:0:0:
320,192,208670,1,0,0:0:0:0:
192,192,208749,1,0,0:0:0:0:
448,192,208828,1,0,0:0:0:0:
320,192,208907,1,0,0:0:0:0:
192,192,208907,1,0,0:0:0:0:
64,192,208986,1,0,0:0:0:0:
192,192,209065,1,0,0:0:0:0:
320,192,209144,1,0,0:0:0:0:
448,192,209223,1,0,0:0:0:0:
64,192,209223,1,0,0:0:0:0:
320,192,209302,1,0,0:0:0:0:
192,192,209381,1,0,0:0:0:0:
448,192,209381,1,0,0:0:0:0:
320,192,209460,1,0,0:0:0:0:
64,192,209460,1,0,0:0:0:0:
448,192,209539,1,0,0:0:0:0:
192,192,209539,1,0,0:0:0:0:
320,192,209618,1,0,0:0:0:0:
64,192,209618,1,0,0:0:0:0:
448,192,209697,1,0,0:0:0:0:
192,192,209697,1,0,0:0:0:0:
320,192,209776,1,0,0:0:0:0:
192,192,209855,1,0,0:0:0:0:
64,192,209855,1,0,0:0:0:0:
448,192,209934,1,0,0:0:0:0:
320,192,210012,1,0,0:0:0:0:
192,192,210091,1,0,0:0:0:0:
64,192,210170,1,0,0:0:0:0:
448,192,210170,1,0,0:0:0:0:
320,192,210249,1,0,0:0:0:0:
448,192,210328,1,0,0:0:0:0:
192,192,210407,1,0,0:0:0:0:
64,192,210486,1,0,0:0:0:0:
320,192,210486,1,0,0:0:0:0:
448,192,210565,1,0,0:0:0:0:
192,192,210644,1,0,0:0:0:0:
320,192,210723,1,0,0:0:0:0:
448,192,210802,1,0,0:0:0:0:
64,192,210802,1,0,0:0:0:0:
192,192,210881,1,0,0:0:0:0:
320,192,210960,1,0,0:0:0:0:
448,192,211039,1,0,0:0:0:0:
192,192,211118,1,0,0:0:0:0:
320,192,211118,1,0,0:0:0:0:
64,192,211276,1,0,0:0:0:0:
192,192,211276,1,0,0:0:0:0:
448,192,211434,1,0,0:0:0:0:
320,192,211434,1,0,0:0:0:0:
192,192,211591,1,0,0:0:0:0:
320,192,211749,1,0,0:0:0:0:
64,192,211749,1,0,0:0:0:0:
448,192,211828,1,0,0:0:0:0:
192,192,211907,1,0,0:0:0:0:
64,192,211986,1,0,0:0:0:0:
320,192,212065,1,0,0:0:0:0:
192,192,212065,1,0,0:0:0:0:
448,192,212144,1,0,0:0:0:0:
64,192,212223,1,0,0:0:0:0:
192,192,212302,1,0,0:0:0:0:
448,192,212381,1,0,0:0:0:0:
320,192,212381,1,0,0:0:0:0:
192,192,212460,1,0,0:0:0:0:
64,192,212539,1,0,0:0:0:0:
448,192,212618,1,0,0:0:0:0:
192,192,212697,1,0,0:0:0:0:
64,192,212697,1,0,0:0:0:0:
320,192,212776,1,0,0:0:0:0:
448,192,212855,1,0,0:0:0:0:
192,192,212934,1,0,0:0:0:0:
320,192,213012,1,0,0:0:0:0:
64,192,213012,1,0,0:0:0:0:
448,192,213091,1,0,0:0:0:0:
192,192,213170,1,0,0:0:0:0:
64,192,213249,1,0,0:0:0:0:
320,192,213328,1,0,0:0:0:0:
448,192,213328,1,0,0:0:0:0:
192,192,213407,1,0,0:0:0:0:
320,192,213486,1,0,0:0:0:0:
448,192,213565,1,0,0:0:0:0:
192,192,213644,1,0,0:0:0:0:
64,192,213644,1,0,0:0:0:0:
320,192,213723,1,0,0:0:0:0:
192,192,213802,1,0,0:0:0:0:
448,192,213802,1,0,0:0:0:0:
64,192,213881,1,0,0:0:0:0:
192,192,213960,1,0,0:0:0:0:
320,192,213960,1,0,0:0:0:0:
448,192,214118,1,0,0:0:0:0:
192,192,214118,1,0,0:0:0:0:
320,192,214276,1,0,0:0:0:0:
64,192,214276,1,0,0:0:0:0:
448,192,214355,1,0,0:0:0:0:
320,192,214434,1,0,0:0:0:0:
192,192,214512,1,0,0:0:0:0:
320,192,214591,1,0,0:0:0:0:
448,192,214591,1,0,0:0:0:0:
64,192,214670,1,0,0:0:0:0:
448,192,214749,1,0,0:0:0:0:
192,192,214749,1,0,0:0:0:0:
320,192,214828,1,0,0:0:0:0:
192,192,214907,1,0,0:0:0:0:
64,192,214907,1,0,0:0:0:0:
448,192,214986,1,0,0:0:0:0:
320,192,215065,1,0,0:0:0:0:
192,192,215065,1,0,0:0:0:0:
64,192,215144,1,0,0:0:0:0:
448,192,215223,1,0,0:0:0:0:
192,192,215223,1,0,0:0:0:0:
320,192,215223,1,0,0:0:0:0:
320,192,215381,1,0,0:0:0:0:
192,192,215381,1,0,0:0:0:0:
448,192,215539,1,0,0:0:0:0:
64,192,215539,1,0,0:0:0:0:
192,192,215618,1,0,0:0:0:0:
320,192,215697,1,0,0:0:0:0:
448,192,215776,1,0,0:0:0:0:
320,192,215855,1,0,0:0:0:0:
64,192,215855,1,0,0:0:0:0:
192,192,216012,1,0,0:0:0:0:
320,192,216170,1,0,0:0:0:0:
64,192,216170,1,0,0:0:0:0:
448,192,216328,1,0,0:0:0:0:
320,192,216407,1,0,0:0:0:0:
192,192,216407,1,0,0:0:0:0:
64,192,216486,1,0,0:0:0:0:
448,192,216486,1,0,0:0:0:0:
448,192,216644,1,0,0:0:0:0:
320,192,216644,1,0,0:0:0:0:
320,192,216802,1,0,0:0:0:0:
64,192,216802,1,0,0:0:0:0:
448,192,216881,1,0,0:0:0:0:
192,192,216881,1,0,0:0:0:0:
320,192,216960,1,0,0:0:0:0:
320,192,217118,1,0,0:0:0:0:
448,192,217118,1,0,0:0:0:0:
64,192,217118,1,0,0:0:0:0:
448,192,217276,1,0,0:0:0:0:
192,192,217355,1,0,0:0:0:0:
64,192,217434,1,0,0:0:0:0:
320,192,217591,1,0,0:0:0:0:
448,192,217591,1,0,0:0:0:0:
64,192,217749,1,0,0:0:0:0:
192,192,217749,1,0,0:0:0:0:
448,192,217749,1,0,0:0:0:0:
320,192,217828,1,0,0:0:0:0:
192,192,217907,1,0,0:0:0:0:
64,192,217986,1,0,0:0:0:0:
192,192,218065,1,0,0:0:0:0:
448,192,218065,1,0,0:0:0:0:
320,192,218144,1,0,0:0:0:0:
448,192,218223,1,0,0:0:0:0:
64,192,218302,1,0,0:0:0:0:
320,192,218381,1,0,0:0:0:0:
192,192,218381,1,0,0:0:0:0:
448,192,218460,1,0,0:0:0:0:
320,192,218539,1,0,0:0:0:0:
192,192,218618,1,0,0:0:0:0:
64,192,218697,1,0,0:0:0:0:
448,192,218697,1,0,0:0:0:0:
192,192,218776,1,0,0:0:0:0:
448,192,218855,1,0,0:0:0:0:
320,192,218934,1,0,0:0:0:0:
192,192,219012,1,0,0:0:0:0:
64,192,219012,1,0,0:0:0:0:
448,192,219091,1,0,0:0:0:0:
192,192,219170,1,0,0:0:0:0:
320,192,219249,1,0,0:0:0:0:
64,192,219328,1,0,0:0:0:0:
448,192,219328,1,0,0:0:0:0:
192,192,219407,1,0,0:0:0:0:
320,192,219407,1,0,0:0:0:0:
448,192,219486,1,0,0:0:0:0:
64,192,219486,1,0,0:0:0:0:
320,192,219644,1,0,0:0:0:0:
448,192,219644,1,0,0:0:0:0:
192,192,219723,1,0,0:0:0:0:
64,192,219723,1,0,0:0:0:0:
448,192,219802,1,0,0:0:0:0:
320,192,219881,1,0,0:0:0:0:
192,192,219881,1,0,0:0:0:0:
64,192,219960,1,0,0:0:0:0:
448,192,219960,1,0,0:0:0:0:
320,192,220118,1,0,0:0:0:0:
448,192,220118,1,0,0:0:0:0:
192,192,220197,1,0,0:0:0:0:
64,192,220197,1,0,0:0:0:0:
64,192,220276,1,0,0:0:0:0:
448,192,220276,1,0,0:0:0:0:
192,192,220355,1,0,0:0:0:0:
320,192,220434,1,0,0:0:0:0:
448,192,220512,1,0,0:0:0:0:
320,192,220591,1,0,0:0:0:0:
64,192,220591,1,0,0:0:0:0:
192,192,220749,1,0,0:0:0:0:
320,192,220907,1,0,0:0:0:0:
448,192,220907,1,0,0:0:0:0:
192,192,220986,1,0,0:0:0:0:
64,192,221065,1,0,0:0:0:0:
320,192,221144,1,0,0:0:0:0:
192,192,221223,1,0,0:0:0:0:
448,192,221223,1,0,0:0:0:0:
64,192,221302,1,0,0:0:0:0:
192,192,221381,1,0,0:0:0:0:
320,192,221460,1,0,0:0:0:0:
64,192,221539,1,0,0:0:0:0:
448,192,221539,1,0,0:0:0:0:
192,192,221618,1,0,0:0:0:0:
320,192,221697,1,0,0:0:0:0:
448,192,221776,1,0,0:0:0:0:
64,192,221855,1,0,0:0:0:0:
192,192,221855,1,0,0:0:0:0:
448,192,221934,1,0,0:0:0:0:
320,192,222012,1,0,0:0:0:0:
192,192,222091,1,0,0:0:0:0:
448,192,222170,1,0,0:0:0:0:
64,192,222170,1,0,0:0:0:0:
320,192,222249,1,0,0:0:0:0:
192,192,222328,1,0,0:0:0:0:
64,192,222407,1,0,0:0:0:0:
448,192,222486,1,0,0:0:0:0:
192,192,222486,1,0,0:0:0:0:
320,192,222565,1,0,0:0:0:0:
448,192,222644,1,0,0:0:0:0:
64,192,222723,1,0,0:0:0:0:
320,192,222802,1,0,0:0:0:0:
448,192,222802,1,0,0:0:0:0:
64,192,222881,1,0,0:0:0:0:
192,192,222881,1,0,0:0:0:0:
320,192,222960,1,0,0:0:0:0:
448,192,222960,1,0,0:0:0:0:
64,192,223039,1,0,0:0:0:0:
192,192,223039,1,0,0:0:0:0:
192,192,223118,1,0,0:0:0:0:
448,192,223118,1,0,0:0:0:0:
64,192,223197,1,0,0:0:0:0:
320,192,223276,1,0,0:0:0:0:
192,192,223276,1,0,0:0:0:0:
320,192,223434,1,0,0:0:0:0:
448,192,223434,1,0,0:0:0:0:
64,192,223434,1,0,0:0:0:0:
192,192,223591,1,0,0:0:0:0:
320,192,223749,1,0,0:0:0:0:
448,192,223749,1,0,0:0:0:0:
64,192,223907,1,0,0:0:0:0:
320,192,223986,1,0,0:0:0:0:
64,192,223986,1,0,0:0:0:0:
192,192,224065,1,0,0:0:0:0:
448,192,224065,1,0,0:0:0:0:
320,192,224223,1,0,0:0:0:0:
64,192,224223,1,0,0:0:0:0:
448,192,224381,1,0,0:0:0:0:
64,192,224381,1,0,0:0:0:0:
192,192,224381,1,0,0:0:0:0:
320,192,224460,1,0,0:0:0:0:
448,192,224460,1,0,0:0:0:0:
64,192,224539,1,0,0:0:0:0:
192,192,224539,1,0,0:0:0:0:
192,192,224618,1,0,0:0:0:0:
320,192,224697,1,0,0:0:0:0:
448,192,224697,1,0,0:0:0:0:
192,192,224776,1,0,0:0:0:0:
64,192,224776,1,0,0:0:0:0:
320,192,224855,1,0,0:0:0:0:
448,192,224855,1,0,0:0:0:0:
192,192,224934,1,0,0:0:0:0:
64,192,224934,1,0,0:0:0:0:
192,192,225012,1,0,0:0:0:0:
320,192,225012,1,0,0:0:0:0:
448,192,225091,1,0,0:0:0:0:
64,192,225091,1,0,0:0:0:0:
320,192,225170,1,0,0:0:0:0:
192,192,225170,1,0,0:0:0:0:
448,192,225249,1,0,0:0:0:0:
64,192,225249,1,0,0:0:0:0:
64,192,225328,1,0,0:0:0:0:
192,192,225328,1,0,0:0:0:0:
320,192,225407,1,0,0:0:0:0:
448,192,225407,1,0,0:0:0:0:
192,192,225486,1,0,0:0:0:0:
64,192,225486,1,0,0:0:0:0:
320,192,225565,1,0,0:0:0:0:
448,192,225565,1,0,0:0:0:0:
320,192,225644,1,0,0:0:0:0:
192,192,225644,1,0,0:0:0:0:
64,192,225802,1,0,0:0:0:0:
448,192,225802,1,0,0:0:0:0:
192,192,225881,1,0,0:0:0:0:
320,192,225881,1,0,0:0:0:0:
448,192,225960,1,0,0:0:0:0:
64,192,225960,1,0,0:0:0:0:
448,192,226118,1,0,0:0:0:0:
192,192,226197,1,0,0:0:0:0:
64,192,226197,1,0,0:0:0:0:
320,192,226276,1,0,0:0:0:0:
448,192,226276,1,0,0:0:0:0:
192,192,226355,1,0,0:0:0:0:
64,192,226355,1,0,0:0:0:0:
448,192,226434,1,0,0:0:0:0:
320,192,226434,1,0,0:0:0:0:
64,192,226591,1,0,0:0:0:0:
192,192,226591,1,0,0:0:0:0:
320,192,226591,1,0,0:0:0:0:
448,192,226749,1,0,0:0:0:0:
320,192,226828,1,0,0:0:0:0:
192,192,226907,1,0,0:0:0:0:
64,192,226907,1,0,0:0:0:0:
64,192,227065,1,0,0:0:0:0:
192,192,227144,1,0,0:0:0:0:
320,192,227223,1,0,0:0:0:0:
448,192,227223,1,0,0:0:0:0:
64,192,227302,1,0,0:0:0:0:
192,192,227381,1,0,0:0:0:0:
320,192,227460,1,0,0:0:0:0:
64,192,227539,1,0,0:0:0:0:
448,192,227539,1,0,0:0:0:0:
320,192,227618,1,0,0:0:0:0:
192,192,227697,1,0,0:0:0:0:
448,192,227776,1,0,0:0:0:0:
64,192,227855,1,0,0:0:0:0:
192,192,227855,1,0,0:0:0:0:
320,192,227934,1,0,0:0:0:0:
448,192,227934,1,0,0:0:0:0:
192,192,228012,1,0,0:0:0:0:
64,192,228012,1,0,0:0:0:0:
320,192,228091,1,0,0:0:0:0:
448,192,228091,1,0,0:0:0:0:
64,192,228170,1,0,0:0:0:0:
192,192,228170,1,0,0:0:0:0:
448,192,228249,1,0,0:0:0:0:
192,192,228328,1,0,0:0:0:0:
320,192,228407,1,0,0:0:0:0:
64,192,228486,1,0,0:0:0:0:
448,192,228486,1,0,0:0:0:0:
192,192,228565,1,0,0:0:0:0:
64,192,228644,1,0,0:0:0:0:
448,192,228723,1,0,0:0:0:0:
192,192,228802,1,0,0:0:0:0:
320,192,228802,1,0,0:0:0:0:
64,192,228881,1,0,0:0:0:0:
448,192,228960,1,0,0:0:0:0:
320,192,229039,1,0,0:0:0:0:
64,192,229118,1,0,0:0:0:0:
192,192,229118,1,0,0:0:0:0:
448,192,229197,1,0,0:0:0:0:
192,192,229276,1,0,0:0:0:0:
320,192,229355,1,0,0:0:0:0:
64,192,229434,1,0,0:0:0:0:
448,192,229434,1,0,0:0:0:0:
192,192,229512,1,0,0:0:0:0:
320,192,229591,1,0,0:0:0:0:
448,192,229670,1,0,0:0:0:0:
64,192,229749,1,0,0:0:0:0:
192,192,229749,1,0,0:0:0:0:
320,192,229828,1,0,0:0:0:0:
448,192,229907,1,0,0:0:0:0:
64,192,229986,1,0,0:0:0:0:
192,192,230065,1,0,0:0:0:0:
320,192,230065,1,0,0:0:0:0:
448,192,230144,1,0,0:0:0:0:
320,192,230223,1,0,0:0:0:0:
192,192,230302,1,0,0:0:0:0:
64,192,230381,1,0,0:0:0:0:
448,192,230381,1,0,0:0:0:0:
320,192,230460,1,0,0:0:0:0:
192,192,230539,1,0,0:0:0:0:
448,192,230618,1,0,0:0:0:0:
320,192,230697,1,0,0:0:0:0:
64,192,230697,1,0,0:0:0:0:
192,192,230776,1,0,0:0:0:0:
320,192,230855,1,0,0:0:0:0:
448,192,230934,1,0,0:0:0:0:
320,192,231012,1,0,0:0:0:0:
192,192,231012,1,0,0:0:0:0:
64,192,231091,1,0,0:0:0:0:
448,192,231170,1,0,0:0:0:0:
320,192,231249,1,0,0:0:0:0:
192,192,231328,1,0,0:0:0:0:
64,192,231328,1,0,0:0:0:0:
320,192,231407,1,0,0:0:0:0:
448,192,231486,1,0,0:0:0:0:
192,192,231565,1,0,0:0:0:0:
64,192,231644,1,0,0:0:0:0:
320,192,231644,1,0,0:0:0:0:
192,192,231723,1,0,0:0:0:0:
448,192,231802,1,0,0:0:0:0:
320,192,231802,1,0,0:0:0:0:
64,192,231881,1,0,0:0:0:0:
192,192,231881,1,0,0:0:0:0:
320,192,231960,1,0,0:0:0:0:
448,192,231960,1,0,0:0:0:0:
64,192,232039,1,0,0:0:0:0:
192,192,232039,1,0,0:0:0:0:
320,192,232118,1,0,0:0:0:0:
448,192,232118,1,0,0:0:0:0:
64,192,232197,1,0,0:0:0:0:
192,192,232197,1,0,0:0:0:0:
320,192,232276,1,0,0:0:0:0:
448,192,232276,1,0,0:0:0:0:
64,192,232355,1,0,0:0:0:0:
192,192,232355,1,0,0:0:0:0:
320,192,232434,1,0,0:0:0:0:
448,192,232434,1,0,0:0:0:0:
64,192,232512,1,0,0:0:0:0:
192,192,232512,1,0,0:0:0:0:
320,192,232591,1,0,0:0:0:0:
448,192,232591,1,0,0:0:0:0:
448,192,232749,1,0,0:0:0:0:
320,192,232828,1,0,0:0:0:0:
192,192,232907,1,0,0:0:0:0:
64,192,232907,1,0,0:0:0:0:
448,192,232986,1,0,0:0:0:0:
320,192,233065,1,0,0:0:0:0:
192,192,233144,1,0,0:0:0:0:
64,192,233223,1,0,0:0:0:0:
448,192,233223,1,0,0:0:0:0:
320,192,233302,1,0,0:0:0:0:
192,192,233381,1,0,0:0:0:0:
64,192,233381,1,0,0:0:0:0:
448,192,233460,1,0,0:0:0:0:
64,192,233539,1,0,0:0:0:0:
192,192,233618,1,0,0:0:0:0:
320,192,233697,1,0,0:0:0:0:
64,192,233776,1,0,0:0:0:0:
192,192,233855,1,0,0:0:0:0:
448,192,233934,1,0,0:0:0:0:
64,192,234012,1,0,0:0:0:0:
320,192,234091,1,0,0:0:0:0:
192,192,234170,1,0,0:0:0:0:
448,192,234249,1,0,0:0:0:0:
64,192,234328,1,0,0:0:0:0:
320,192,234407,1,0,0:0:0:0:
448,192,234486,1,0,0:0:0:0:
64,192,234565,1,0,0:0:0:0:
320,192,234644,1,0,0:0:0:0:
192,192,234723,1,0,0:0:0:0:
64,192,234802,1,0,0:0:0:0:
448,192,234881,1,0,0:0:0:0:
192,192,234960,1,0,0:0:0:0:
64,192,235039,1,0,0:0:0:0:
320,192,235118,1,0,0:0:0:0:
192,192,235197,1,0,0:0:0:0:
448,192,235276,1,0,0:0:0:0:
64,192,235355,1,0,0:0:0:0:
320,192,235434,1,0,0:0:0:0:
448,192,235512,1,0,0:0:0:0:
192,192,235591,1,0,0:0:0:0:
320,192,235670,1,0,0:0:0:0:
64,192,235749,1,0,0:0:0:0:
448,192,235828,1,0,0:0:0:0:
192,192,235907,1,0,0:0:0:0:
320,192,235986,1,0,0:0:0:0:
64,192,236065,1,0,0:0:0:0:
192,192,236144,1,0,0:0:0:0:
448,192,236223,1,0,0:0:0:0:
320,192,236302,1,0,0:0:0:0:
192,192,236381,1,0,0:0:0:0:
448,192,236460,1,0,0:0:0:0:
64,192,236539,1,0,0:0:0:0:
192,192,236618,1,0,0:0:0:0:
448,192,236697,1,0,0:0:0:0:
64,192,236776,1,0,0:0:0:0:
192,192,236855,1,0,0:0:0:0:
320,192,236934,1,0,0:0:0:0:
64,192,237012,1,0,0:0:0:0:
448,192,237091,1,0,0:0:0:0:
192,192,237170,1,0,0:0:0:0:
320,192,237249,1,0,0:0:0:0:
64,192,237328,1,0,0:0:0:0:
192,192,237407,1,0,0:0:0:0:
448,192,237486,1,0,0:0:0:0:
320,192,237565,1,0,0:0:0:0:
64,192,237644,1,0,0:0:0:0:
448,192,237723,1,0,0:0:0:0:
64,192,237802,1,0,0:0:0:0:
192,192,237881,1,0,0:0:0:0:
64,192,237960,1,0,0:0:0:0:
320,192,238039,1,0,0:0:0:0:
64,192,238118,1,0,0:0:0:0:
448,192,238197,1,0,0:0:0:0:
64,192,238276,1,0,0:0:0:0:
192,192,238355,1,0,0:0:0:0:
320,192,238434,1,0,0:0:0:0:
64,192,238512,1,0,0:0:0:0:
192,192,238591,1,0,0:0:0:0:
448,192,238670,1,0,0:0:0:0:
64,192,238749,1,0,0:0:0:0:
192,192,238828,1,0,0:0:0:0:
320,192,238907,1,0,0:0:0:0:
448,192,238907,1,0,0:0:0:0:
64,192,238986,1,0,0:0:0:0:
192,192,239065,1,0,0:0:0:0:
64,192,239223,1,0,0:0:0:0:
192,192,239223,1,0,0:0:0:0:
320,192,239302,1,0,0:0:0:0:
448,192,239381,1,0,0:0:0:0:
448,192,239539,1,0,0:0:0:0:
192,192,239539,1,0,0:0:0:0:
320,192,239618,1,0,0:0:0:0:
64,192,239697,1,0,0:0:0:0:
64,192,239855,1,0,0:0:0:0:
320,192,239855,1,0,0:0:0:0:
192,192,239934,1,0,0:0:0:0:
320,192,240012,1,0,0:0:0:0:
64,192,240170,1,0,0:0:0:0:
192,192,240170,1,0,0:0:0:0:
448,192,240249,1,0,0:0:0:0:
320,192,240328,1,0,0:0:0:0:
320,192,240486,1,0,0:0:0:0:
448,192,240486,1,0,0:0:0:0:
64,192,240565,1,0,0:0:0:0:
192,192,240644,1,0,0:0:0:0:
192,192,240802,1,0,0:0:0:0:
320,192,240802,1,0,0:0:0:0:
448,192,240881,1,0,0:0:0:0:
64,192,240960,1,0,0:0:0:0:
64,192,241118,1,0,0:0:0:0:
192,192,241118,1,0,0:0:0:0:
320,192,241197,1,0,0:0:0:0:
448,192,241276,1,0,0:0:0:0:
448,192,241434,1,0,0:0:0:0:
192,192,241434,1,0,0:0:0:0:
320,192,241512,1,0,0:0:0:0:
64,192,241591,1,0,0:0:0:0:
64,192,241749,1,0,0:0:0:0:
192,192,241749,1,0,0:0:0:0:
320,192,241828,1,0,0:0:0:0:
448,192,241907,1,0,0:0:0:0:
64,192,242065,1,0,0:0:0:0:
320,192,242144,1,0,0:0:0:0:
192,192,242223,1,0,0:0:0:0:
448,192,242302,1,0,0:0:0:0:
320,192,242381,1,0,0:0:0:0:
64,192,242460,1,0,0:0:0:0:
448,192,242539,1,0,0:0:0:0:
192,192,242618,1,0,0:0:0:0:
64,192,242697,1,0,0:0:0:0:
320,192,242776,1,0,0:0:0:0:
448,192,242855,1,0,0:0:0:0:
192,192,242934,1,0,0:0:0:0:
320,192,243012,1,0,0:0:0:0:
448,192,243091,1,0,0:0:0:0:
192,192,243170,1,0,0:0:0:0:
64,192,243170,1,0,0:0:0:0:
320,192,243249,1,0,0:0:0:0:
448,192,243328,1,0,0:0:0:0:
64,192,243328,1,0,0:0:0:0:
192,192,243328,1,0,0:0:0:0:
320,192,243407,1,0,0:0:0:0:
192,192,243486,1,0,0:0:0:0:
448,192,243644,1,0,0:0:0:0:
192,192,243644,1,0,0:0:0:0:
64,192,243723,1,0,0:0:0:0:
320,192,243802,1,0,0:0:0:0:
192,192,243960,1,0,0:0:0:0:
320,192,243960,1,0,0:0:0:0:
64,192,244039,1,0,0:0:0:0:
448,192,244118,1,0,0:0:0:0:
448,192,244276,1,0,0:0:0:0:
320,192,244276,1,0,0:0:0:0:
64,192,244355,1,0,0:0:0:0:
192,192,244434,1,0,0:0:0:0:
448,192,244591,1,0,0:0:0:0:
64,192,244591,1,0,0:0:0:0:
320,192,244697,1,0,0:0:0:0:
192,192,244802,1,0,0:0:0:0:
64,192,244907,1,0,0:0:0:0:
448,192,244907,1,0,0:0:0:0:
64,192,245223,1,0,0:0:0:0:
192,192,245223,1,0,0:0:0:0:
320,192,245302,1,0,0:0:0:0:
448,192,245381,1,0,0:0:0:0:
448,192,245539,1,0,0:0:0:0:
320,192,245539,1,0,0:0:0:0:
192,192,245618,1,0,0:0:0:0:
64,192,245697,1,0,0:0:0:0:
64,192,245855,1,0,0:0:0:0:
192,192,245855,1,0,0:0:0:0:
448,192,245855,1,0,0:0:0:0:
320,192,245934,1,0,0:0:0:0:
192,192,246012,1,0,0:0:0:0:
192,192,246170,1,0,0:0:0:0:
448,192,246170,1,0,0:0:0:0:
320,192,246249,1,0,0:0:0:0:
64,192,246328,1,0,0:0:0:0:
64,192,246486,1,0,0:0:0:0:
192,192,246486,1,0,0:0:0:0:
448,192,246565,1,0,0:0:0:0:
320,192,246644,1,0,0:0:0:0:
448,192,246802,1,0,0:0:0:0:
320,192,246802,1,0,0:0:0:0:
64,192,246881,1,0,0:0:0:0:
192,192,246960,1,0,0:0:0:0:
448,192,247118,1,0,0:0:0:0:
64,192,247197,1,0,0:0:0:0:
448,192,247276,1,0,0:0:0:0:
192,192,247434,1,0,0:0:0:0:
320,192,247512,1,0,0:0:0:0:
192,192,247591,1,0,0:0:0:0:
448,192,247749,1,0,0:0:0:0:
192,192,247828,1,0,0:0:0:0:
448,192,247907,1,0,0:0:0:0:
64,192,248065,1,0,0:0:0:0:
320,192,248144,1,0,0:0:0:0:
64,192,248223,1,0,0:0:0:0:
320,192,248381,1,0,0:0:0:0:
448,192,248381,1,0,0:0:0:0:
64,192,248381,1,0,0:0:0:0:
192,192,248460,1,0,0:0:0:0:
320,192,248539,1,0,0:0:0:0:
64,192,248618,1,0,0:0:0:0:
448,192,248697,1,0,0:0:0:0:
192,192,248776,1,0,0:0:0:0:
320,192,248855,1,0,0:0:0:0:
64,192,248934,1,0,0:0:0:0:
192,192,249012,1,0,0:0:0:0:
448,192,249091,1,0,0:0:0:0:
320,192,249170,1,0,0:0:0:0:
64,192,249249,1,0,0:0:0:0:
192,192,249328,1,0,0:0:0:0:
448,192,249407,1,0,0:0:0:0:
64,192,249486,1,0,0:0:0:0:
192,192,249486,1,0,0:0:0:0:
320,192,249565,1,0,0:0:0:0:
448,192,249644,1,0,0:0:0:0:
192,192,249644,1,0,0:0:0:0:
64,192,249644,1,0,0:0:0:0:
320,192,249723,1,0,0:0:0:0:
448,192,249802,1,0,0:0:0:0:
64,192,249881,1,0,0:0:0:0:
320,192,249960,1,0,0:0:0:0:
192,192,250039,1,0,0:0:0:0:
448,192,250118,1,0,0:0:0:0:
320,192,250197,1,0,0:0:0:0:
64,192,250276,1,0,0:0:0:0:
192,192,250276,1,0,0:0:0:0:
448,192,250276,1,0,0:0:0:0:
320,192,250355,1,0,0:0:0:0:
64,192,250434,1,0,0:0:0:0:
192,192,250512,1,0,0:0:0:0:
448,192,250591,1,0,0:0:0:0:
64,192,250670,1,0,0:0:0:0:
320,192,250749,1,0,0:0:0:0:
192,192,250828,1,0,0:0:0:0:
448,192,250907,1,0,0:0:0:0:
320,192,250907,1,0,0:0:0:0:
64,192,250907,1,0,0:0:0:0:
192,192,250986,1,0,0:0:0:0:
448,192,251065,1,0,0:0:0:0:
320,192,251144,1,0,0:0:0:0:
64,192,251223,1,0,0:0:0:0:
448,192,251302,1,0,0:0:0:0:
192,192,251381,1,0,0:0:0:0:
320,192,251460,1,0,0:0:0:0:
64,192,251539,1,0,0:0:0:0:
192,192,251539,1,0,0:0:0:0:
448,192,251539,1,0,0:0:0:0:
320,192,251618,1,0,0:0:0:0:
192,192,251697,1,0,0:0:0:0:
64,192,251776,1,0,0:0:0:0:
192,192,251855,1,0,0:0:0:0:
320,192,251855,1,0,0:0:0:0:
448,192,251855,1,0,0:0:0:0:
64,192,251934,1,0,0:0:0:0:
192,192,252012,1,0,0:0:0:0:
64,192,252170,1,0,0:0:0:0:
192,192,252170,1,0,0:0:0:0:
320,192,252170,1,0,0:0:0:0:
448,192,252249,1,0,0:0:0:0:
320,192,252328,1,0,0:0:0:0:
448,192,252486,1,0,0:0:0:0:
320,192,252486,1,0,0:0:0:0:
64,192,252486,1,0,0:0:0:0:
192,192,252565,1,0,0:0:0:0:
320,192,252644,1,0,0:0:0:0:
64,192,252802,1,0,0:0:0:0:
192,192,252802,1,0,0:0:0:0:
448,192,252802,1,0,0:0:0:0:
320,192,252881,1,0,0:0:0:0:
192,192,252960,1,0,0:0:0:0:
192,192,253118,1,0,0:0:0:0:
448,192,253118,1,0,0:0:0:0:
320,192,253118,1,0,0:0:0:0:
64,192,253197,1,0,0:0:0:0:
192,192,253276,1,0,0:0:0:0:
64,192,253434,1,0,0:0:0:0:
320,192,253434,1,0,0:0:0:0:
448,192,253434,1,0,0:0:0:0:
192,192,253512,1,0,0:0:0:0:
320,192,253591,1,0,0:0:0:0:
64,192,253591,1,0,0:0:0:0:
448,192,253670,1,0,0:0:0:0:
64,192,253749,1,0,0:0:0:0:
192,192,253749,1,0,0:0:0:0:
320,192,253749,1,0,0:0:0:0:
448,192,253828,1,0,0:0:0:0:
320,192,253907,1,0,0:0:0:0:
64,192,253907,1,0,0:0:0:0:
192,192,253986,1,0,0:0:0:0:
320,192,254065,1,0,0:0:0:0:
448,192,254065,1,0,0:0:0:0:
64,192,254144,1,0,0:0:0:0:
192,192,254223,1,0,0:0:0:0:
320,192,254223,1,0,0:0:0:0:
448,192,254302,1,0,0:0:0:0:
64,192,254381,1,0,0:0:0:0:
192,192,254381,1,0,0:0:0:0:
320,192,254381,1,0,0:0:0:0:
448,192,254460,1,0,0:0:0:0:
320,192,254539,1,0,0:0:0:0:
192,192,254539,1,0,0:0:0:0:
64,192,254539,1,0,0:0:0:0:
448,192,254618,1,0,0:0:0:0:
64,192,254697,1,0,0:0:0:0:
192,192,254697,1,0,0:0:0:0:
320,192,254697,1,0,0:0:0:0:
448,192,254776,1,0,0:0:0:0:
320,192,254855,1,0,0:0:0:0:
64,192,254855,1,0,0:0:0:0:
192,192,254934,1,0,0:0:0:0:
64,192,255012,1,0,0:0:0:0:
448,192,255012,1,0,0:0:0:0:
320,192,255012,1,0,0:0:0:0:
192,192,255091,1,0,0:0:0:0:
64,192,255170,1,0,0:0:0:0:
448,192,255170,1,0,0:0:0:0:
320,192,255249,1,0,0:0:0:0:
192,192,255328,1,0,0:0:0:0:
64,192,255328,1,0,0:0:0:0:
448,192,255407,1,0,0:0:0:0:
320,192,255486,1,0,0:0:0:0:
192,192,255486,1,0,0:0:0:0:
64,192,255565,1,0,0:0:0:0:
192,192,255644,1,0,0:0:0:0:
320,192,255644,1,0,0:0:0:0:
448,192,255644,1,0,0:0:0:0:
64,192,255723,1,0,0:0:0:0:
192,192,255802,1,0,0:0:0:0:
320,192,255802,1,0,0:0:0:0:
448,192,255802,1,0,0:0:0:0:
64,192,255881,1,0,0:0:0:0:
192,192,255960,1,0,0:0:0:0:
320,192,255960,1,0,0:0:0:0:
448,192,255960,1,0,0:0:0:0:
64,192,256039,1,0,0:0:0:0:
192,192,256118,1,0,0:0:0:0:
448,192,256118,1,0,0:0:0:0:
320,192,256197,1,0,0:0:0:0:
192,192,256276,1,0,0:0:0:0:
64,192,256276,1,0,0:0:0:0:
448,192,256276,1,0,0:0:0:0:
320,192,256355,1,0,0:0:0:0:
192,192,256434,1,0,0:0:0:0:
64,192,256434,1,0,0:0:0:0:
448,192,256512,1,0,0:0:0:0:
192,192,256591,1,0,0:0:0:0:
320,192,256591,1,0,0:0:0:0:
64,192,256670,1,0,0:0:0:0:
192,192,256749,1,0,0:0:0:0:
448,192,256749,1,0,0:0:0:0:
320,192,256828,1,0,0:0:0:0:
448,192,256907,1,0,0:0:0:0:
64,192,256907,1,0,0:0:0:0:
192,192,256907,1,0,0:0:0:0:
320,192,256986,1,0,0:0:0:0:
64,192,257065,1,0,0:0:0:0:
448,192,257065,1,0,0:0:0:0:
192,192,257065,1,0,0:0:0:0:
320,192,257144,1,0,0:0:0:0:
448,192,257223,1,0,0:0:0:0:
64,192,257223,1,0,0:0:0:0:
192,192,257223,1,0,0:0:0:0:
320,192,257302,1,0,0:0:0:0:
448,192,257381,1,0,0:0:0:0:
192,192,257381,1,0,0:0:0:0:
64,192,257460,1,0,0:0:0:0:
320,192,257539,1,0,0:0:0:0:
448,192,257539,1,0,0:0:0:0:
192,192,257539,1,0,0:0:0:0:
64,192,257618,1,0,0:0:0:0:
192,192,257697,1,0,0:0:0:0:
320,192,257697,1,0,0:0:0:0:
448,192,257776,1,0,0:0:0:0:
64,192,257855,1,0,0:0:0:0:
320,192,257855,1,0,0:0:0:0:
192,192,257934,1,0,0:0:0:0:
64,192,258012,1,0,0:0:0:0:
320,192,258012,1,0,0:0:0:0:
448,192,258091,1,0,0:0:0:0:
64,192,258170,1,0,0:0:0:0:
320,192,258170,1,0,0:0:0:0:
192,192,258249,1,0,0:0:0:0:
64,192,258328,1,0,0:0:0:0:
320,192,258328,1,0,0:0:0:0:
448,192,258407,1,0,0:0:0:0:
64,192,258486,1,0,0:0:0:0:
320,192,258486,1,0,0:0:0:0:
192,192,258565,1,0,0:0:0:0:
448,192,258644,1,0,0:0:0:0:
320,192,258644,1,0,0:0:0:0:
192,192,258723,1,0,0:0:0:0:
64,192,258802,1,0,0:0:0:0:
448,192,258802,1,0,0:0:0:0:
320,192,258802,1,0,0:0:0:0:
192,192,258881,1,0,0:0:0:0:
64,192,258960,1,0,0:0:0:0:
448,192,258960,1,0,0:0:0:0:
320,192,259039,1,0,0:0:0:0:
192,192,259118,1,0,0:0:0:0:
64,192,259118,1,0,0:0:0:0:
448,192,259197,1,0,0:0:0:0:
320,192,259197,1,0,0:0:0:0:
64,192,259276,1,0,0:0:0:0:
192,192,259276,1,0,0:0:0:0:
192,192,259434,1,0,0:0:0:0:
448,192,259434,1,0,0:0:0:0:
320,192,259512,1,0,0:0:0:0:
64,192,259512,1,0,0:0:0:0:
192,192,259591,1,0,0:0:0:0:
448,192,259591,1,0,0:0:0:0:
448,192,259749,1,0,0:0:0:0:
320,192,259749,1,0,0:0:0:0:
64,192,259828,1,0,0:0:0:0:
192,192,259828,1,0,0:0:0:0:
320,192,259907,1,0,0:0:0:0:
448,192,259907,1,0,0:0:0:0:
192,192,260065,1,0,0:0:0:0:
320,192,260065,1,0,0:0:0:0:
64,192,260144,1,0,0:0:0:0:
448,192,260144,1,0,0:0:0:0:
320,192,260223,1,0,0:0:0:0:
192,192,260223,1,0,0:0:0:0:
64,192,260381,1,0,0:0:0:0:
448,192,260381,1,0,0:0:0:0:
192,192,260460,1,0,0:0:0:0:
320,192,260460,1,0,0:0:0:0:
64,192,260539,1,0,0:0:0:0:
448,192,260539,1,0,0:0:0:0:
64,192,260697,1,0,0:0:0:0:
320,192,260697,1,0,0:0:0:0:
192,192,260776,1,0,0:0:0:0:
448,192,260776,1,0,0:0:0:0:
320,192,260855,1,0,0:0:0:0:
64,192,260855,1,0,0:0:0:0:
192,192,261012,1,0,0:0:0:0:
320,192,261012,1,0,0:0:0:0:
448,192,261091,1,0,0:0:0:0:
64,192,261091,1,0,0:0:0:0:
192,192,261170,1,0,0:0:0:0:
320,192,261170,1,0,0:0:0:0:
448,192,261328,1,0,0:0:0:0:
320,192,261328,1,0,0:0:0:0:
64,192,261407,1,0,0:0:0:0:
192,192,261407,1,0,0:0:0:0:
320,192,261486,1,0,0:0:0:0:
448,192,261486,1,0,0:0:0:0:
64,192,261644,1,0,0:0:0:0:
448,192,261644,1,0,0:0:0:0:
320,192,261723,1,0,0:0:0:0:
192,192,261723,1,0,0:0:0:0:
64,192,261802,1,0,0:0:0:0:
448,192,261802,1,0,0:0:0:0:
64,192,261960,1,0,0:0:0:0:
192,192,261960,1,0,0:0:0:0:
320,192,262039,1,0,0:0:0:0:
448,192,262039,1,0,0:0:0:0:
192,192,262118,1,0,0:0:0:0:
64,192,262118,1,0,0:0:0:0:
448,192,262276,1,0,0:0:0:0:
320,192,262276,1,0,0:0:0:0:
64,192,262355,1,0,0:0:0:0:
192,192,262434,1,0,0:0:0:0:
448,192,262434,1,0,0:0:0:0:
320,192,262512,1,0,0:0:0:0:
192,192,262591,1,0,0:0:0:0:
64,192,262591,1,0,0:0:0:0:
448,192,262591,1,0,0:0:0:0:
320,192,262670,1,0,0:0:0:0:
448,192,262749,1,0,0:0:0:0:
64,192,262749,1,0,0:0:0:0:
192,192,262828,1,0,0:0:0:0:
320,192,262907,1,0,0:0:0:0:
448,192,262907,1,0,0:0:0:0:
64,192,262907,1,0,0:0:0:0:
192,192,262986,1,0,0:0:0:0:
320,192,263065,1,0,0:0:0:0:
448,192,263065,1,0,0:0:0:0:
64,192,263144,1,0,0:0:0:0:
192,192,263223,1,0,0:0:0:0:
320,192,263223,1,0,0:0:0:0:
448,192,263223,1,0,0:0:0:0:
64,192,263302,1,0,0:0:0:0:
448,192,263381,1,0,0:0:0:0:
192,192,263381,1,0,0:0:0:0:
320,192,263460,1,0,0:0:0:0:
64,192,263539,1,0,0:0:0:0:
192,192,263539,1,0,0:0:0:0:
448,192,263539,1,0,0:0:0:0:
320,192,263618,1,0,0:0:0:0:
192,192,263697,1,0,0:0:0:0:
64,192,263697,1,0,0:0:0:0:
448,192,263855,1,0,0:0:0:0:
320,192,263855,1,0,0:0:0:0:
64,192,263934,1,0,0:0:0:0:
192,192,264012,1,0,0:0:0:0:
448,192,264012,1,0,0:0:0:0:
64,192,264170,1,0,0:0:0:0:
320,192,264170,1,0,0:0:0:0:
192,192,264249,1,0,0:0:0:0:
320,192,264328,1,0,0:0:0:0:
448,192,264328,1,0,0:0:0:0:
64,192,264486,1,0,0:0:0:0:
192,192,264486,1,0,0:0:0:0:
448,192,264565,1,0,0:0:0:0:
320,192,264644,1,0,0:0:0:0:
192,192,264644,1,0,0:0:0:0:
64,192,264802,1,0,0:0:0:0:
448,192,264802,1,0,0:0:0:0:
320,192,264907,1,0,0:0:0:0:
192,192,265012,1,0,0:0:0:0:
64,192,265118,1,0,0:0:0:0:
320,192,265118,1,0,0:0:0:0:
448,192,265118,1,0,0:0:0:0:
320,192,265276,1,0,0:0:0:0:
64,192,265434,1,0,0:0:0:0:
192,192,265434,1,0,0:0:0:0:
320,192,265512,1,0,0:0:0:0:
64,192,265591,1,0,0:0:0:0:
448,192,265591,1,0,0:0:0:0:
448,192,265749,1,0,0:0:0:0:
320,192,265749,1,0,0:0:0:0:
192,192,265828,1,0,0:0:0:0:
64,192,265907,1,0,0:0:0:0:
448,192,265907,1,0,0:0:0:0:
192,192,266065,1,0,0:0:0:0:
320,192,266065,1,0,0:0:0:0:
64,192,266144,1,0,0:0:0:0:
192,192,266223,1,0,0:0:0:0:
448,192,266223,1,0,0:0:0:0:
320,192,266381,1,0,0:0:0:0:
448,192,266381,1,0,0:0:0:0:
64,192,266460,1,0,0:0:0:0:
192,192,266539,1,0,0:0:0:0:
320,192,266539,1,0,0:0:0:0:
64,192,266697,1,0,0:0:0:0:
448,192,266697,1,0,0:0:0:0:
320,192,266776,1,0,0:0:0:0:
192,192,266855,1,0,0:0:0:0:
64,192,266855,1,0,0:0:0:0:
192,192,267012,1,0,0:0:0:0:
320,192,267012,1,0,0:0:0:0:
448,192,267091,1,0,0:0:0:0:
64,192,267170,1,0,0:0:0:0:
320,192,267170,1,0,0:0:0:0:
192,192,267328,1,0,0:0:0:0:
448,192,267328,1,0,0:0:0:0:
320,192,267407,1,0,0:0:0:0:
192,192,267486,1,0,0:0:0:0:
64,192,267486,1,0,0:0:0:0:
64,192,267644,1,0,0:0:0:0:
320,192,267644,1,0,0:0:0:0:
192,192,267723,1,0,0:0:0:0:
320,192,267802,1,0,0:0:0:0:
448,192,267802,1,0,0:0:0:0:
448,192,267960,1,0,0:0:0:0:
64,192,267960,1,0,0:0:0:0:
320,192,268039,1,0,0:0:0:0:
64,192,268118,1,0,0:0:0:0:
192,192,268118,1,0,0:0:0:0:
64,192,268276,1,0,0:0:0:0:
448,192,268276,1,0,0:0:0:0:
192,192,268355,1,0,0:0:0:0:
320,192,268434,1,0,0:0:0:0:
448,192,268434,1,0,0:0:0:0:
64,192,268591,1,0,0:0:0:0:
192,192,268591,1,0,0:0:0:0:
448,192,268670,1,0,0:0:0:0:
320,192,268749,1,0,0:0:0:0:
64,192,268749,1,0,0:0:0:0:
192,192,268828,1,0,0:0:0:0:
64,192,268907,1,0,0:0:0:0:
320,192,268907,1,0,0:0:0:0:
448,192,268907,1,0,0:0:0:0:
192,192,268986,1,0,0:0:0:0:
320,192,269065,1,0,0:0:0:0:
448,192,269065,1,0,0:0:0:0:
64,192,269144,1,0,0:0:0:0:
192,192,269223,1,0,0:0:0:0:
448,192,269223,1,0,0:0:0:0:
320,192,269302,1,0,0:0:0:0:
192,192,269381,1,0,0:0:0:0:
64,192,269381,1,0,0:0:0:0:
448,192,269460,1,0,0:0:0:0:
320,192,269539,1,0,0:0:0:0:
64,192,269539,1,0,0:0:0:0:
192,192,269539,1,0,0:0:0:0:
448,192,269618,1,0,0:0:0:0:
320,192,269697,1,0,0:0:0:0:
64,192,269697,1,0,0:0:0:0:
192,192,269776,1,0,0:0:0:0:
320,192,269855,1,0,0:0:0:0:
448,192,269855,1,0,0:0:0:0:
64,192,269934,1,0,0:0:0:0:
192,192,270012,1,0,0:0:0:0:
448,192,270012,1,0,0:0:0:0:
320,192,270091,1,0,0:0:0:0:
64,192,270170,1,0,0:0:0:0:
192,192,270170,1,0,0:0:0:0:
448,192,270170,1,0,0:0:0:0:
320,192,270249,1,0,0:0:0:0:
448,192,270328,1,0,0:0:0:0:
64,192,270328,1,0,0:0:0:0:
192,192,270407,1,0,0:0:0:0:
320,192,270486,1,0,0:0:0:0:
448,192,270486,1,0,0:0:0:0:
64,192,270565,1,0,0:0:0:0:
192,192,270644,1,0,0:0:0:0:
320,192,270644,1,0,0:0:0:0:
448,192,270723,1,0,0:0:0:0:
64,192,270802,1,0,0:0:0:0:
192,192,270802,1,0,0:0:0:0:
320,192,270802,1,0,0:0:0:0:
448,192,270881,1,0,0:0:0:0:
320,192,270960,1,0,0:0:0:0:
64,192,270960,1,0,0:0:0:0:
192,192,271039,1,0,0:0:0:0:
64,192,271118,1,0,0:0:0:0:
448,192,271118,1,0,0:0:0:0:
320,192,271197,1,0,0:0:0:0:
192,192,271276,1,0,0:0:0:0:
64,192,271276,1,0,0:0:0:0:
448,192,271355,1,0,0:0:0:0:
320,192,271434,1,0,0:0:0:0:
192,192,271434,1,0,0:0:0:0:
64,192,271434,1,0,0:0:0:0:
448,192,271512,1,0,0:0:0:0:
192,192,271591,1,0,0:0:0:0:
320,192,271591,1,0,0:0:0:0:
64,192,271670,1,0,0:0:0:0:
192,192,271749,1,0,0:0:0:0:
448,192,271749,1,0,0:0:0:0:
320,192,271828,1,0,0:0:0:0:
448,192,271907,1,0,0:0:0:0:
64,192,271907,1,0,0:0:0:0:
192,192,271986,1,0,0:0:0:0:
320,192,272065,1,0,0:0:0:0:
448,192,272065,1,0,0:0:0:0:
64,192,272065,1,0,0:0:0:0:
192,192,272144,1,0,0:0:0:0:
320,192,272223,1,0,0:0:0:0:
64,192,272381,1,0,0:0:0:0:
192,192,272381,1,0,0:0:0:0:
320,192,272460,1,0,0:0:0:0:
448,192,272460,1,0,0:0:0:0:
192,192,272539,1,0,0:0:0:0:
64,192,272539,1,0,0:0:0:0:
192,192,272697,1,0,0:0:0:0:
320,192,272697,1,0,0:0:0:0:
448,192,272697,1,0,0:0:0:0:
64,192,272776,1,0,0:0:0:0:
320,192,272855,1,0,0:0:0:0:
448,192,272855,1,0,0:0:0:0:
64,192,273012,1,0,0:0:0:0:
192,192,273012,1,0,0:0:0:0:
320,192,273012,1,0,0:0:0:0:
448,192,273091,1,0,0:0:0:0:
64,192,273170,1,0,0:0:0:0:
192,192,273170,1,0,0:0:0:0:
64,192,273328,1,0,0:0:0:0:
320,192,273328,1,0,0:0:0:0:
448,192,273328,1,0,0:0:0:0:
192,192,273407,1,0,0:0:0:0:
320,192,273486,1,0,0:0:0:0:
448,192,273486,1,0,0:0:0:0:
64,192,273644,1,0,0:0:0:0:
192,192,273644,1,0,0:0:0:0:
448,192,273644,1,0,0:0:0:0:
320,192,273723,1,0,0:0:0:0:
192,192,273802,1,0,0:0:0:0:
448,192,273802,1,0,0:0:0:0:
64,192,273881,1,0,0:0:0:0:
192,192,273960,1,0,0:0:0:0:
320,192,273960,1,0,0:0:0:0:
448,192,273960,1,0,0:0:0:0:
64,192,274039,1,0,0:0:0:0:
192,192,274118,1,0,0:0:0:0:
320,192,274118,1,0,0:0:0:0:
448,192,274197,1,0,0:0:0:0:
320,192,274276,1,0,0:0:0:0:
64,192,274276,1,0,0:0:0:0:
192,192,274355,1,0,0:0:0:0:
64,192,274434,1,0,0:0:0:0:
448,192,274434,1,0,0:0:0:0:
320,192,274512,1,0,0:0:0:0:
192,192,274591,1,0,0:0:0:0:
64,192,274591,1,0,0:0:0:0:
448,192,274591,1,0,0:0:0:0:
320,192,274670,1,0,0:0:0:0:
64,192,274749,1,0,0:0:0:0:
192,192,274749,1,0,0:0:0:0:
448,192,274749,1,0,0:0:0:0:
320,192,274828,1,0,0:0:0:0:
64,192,274907,1,0,0:0:0:0:
192,192,274907,1,0,0:0:0:0:
448,192,274907,1,0,0:0:0:0:
320,192,274986,1,0,0:0:0:0:
448,192,275065,1,0,0:0:0:0:
64,192,275065,1,0,0:0:0:0:
192,192,275144,1,0,0:0:0:0:
320,192,275223,1,0,0:0:0:0:
448,192,275223,1,0,0:0:0:0:
64,192,275223,1,0,0:0:0:0:
192,192,275302,1,0,0:0:0:0:
320,192,275381,1,0,0:0:0:0:
448,192,275381,1,0,0:0:0:0:
64,192,275460,1,0,0:0:0:0:
192,192,275539,1,0,0:0:0:0:
320,192,275539,1,0,0:0:0:0:
448,192,275618,1,0,0:0:0:0:
320,192,275697,1,0,0:0:0:0:
64,192,275697,1,0,0:0:0:0:
192,192,275776,1,0,0:0:0:0:
64,192,275855,1,0,0:0:0:0:
320,192,275855,1,0,0:0:0:0:
448,192,275855,1,0,0:0:0:0:
192,192,275934,1,0,0:0:0:0:
64,192,276012,1,0,0:0:0:0:
320,192,276012,1,0,0:0:0:0:
448,192,276012,1,0,0:0:0:0:
192,192,276091,1,0,0:0:0:0:
64,192,276170,1,0,0:0:0:0:
448,192,276170,1,0,0:0:0:0:
320,192,276170,1,0,0:0:0:0:
192,192,276249,1,0,0:0:0:0:
448,192,276328,1,0,0:0:0:0:
64,192,276328,1,0,0:0:0:0:
320,192,276407,1,0,0:0:0:0:
192,192,276486,1,0,0:0:0:0:
64,192,276486,1,0,0:0:0:0:
448,192,276486,1,0,0:0:0:0:
320,192,276565,1,0,0:0:0:0:
192,192,276644,1,0,0:0:0:0:
64,192,276644,1,0,0:0:0:0:
448,192,276723,1,0,0:0:0:0:
320,192,276802,1,0,0:0:0:0:
192,192,276802,1,0,0:0:0:0:
64,192,276881,1,0,0:0:0:0:
192,192,276960,1,0,0:0:0:0:
448,192,276960,1,0,0:0:0:0:
320,192,277039,1,0,0:0:0:0:
448,192,277118,1,0,0:0:0:0:
64,192,277118,1,0,0:0:0:0:
192,192,277118,1,0,0:0:0:0:
320,192,277197,1,0,0:0:0:0:
192,192,277276,1,0,0:0:0:0:
64,192,277276,1,0,0:0:0:0:
448,192,277276,1,0,0:0:0:0:
320,192,277355,1,0,0:0:0:0:
64,192,277434,1,0,0:0:0:0:
192,192,277434,1,0,0:0:0:0:
448,192,277434,1,0,0:0:0:0:
320,192,277512,1,0,0:0:0:0:
448,192,277591,1,0,0:0:0:0:
192,192,277591,1,0,0:0:0:0:
64,192,277670,1,0,0:0:0:0:
448,192,277749,1,0,0:0:0:0:
320,192,277749,1,0,0:0:0:0:
192,192,277749,1,0,0:0:0:0:
64,192,277828,1,0,0:0:0:0:
192,192,277907,1,0,0:0:0:0:
320,192,277907,1,0,0:0:0:0:
448,192,277986,1,0,0:0:0:0:
64,192,278065,1,0,0:0:0:0:
320,192,278065,1,0,0:0:0:0:
192,192,278144,1,0,0:0:0:0:
64,192,278223,1,0,0:0:0:0:
320,192,278223,1,0,0:0:0:0:
448,192,278302,1,0,0:0:0:0:
64,192,278381,1,0,0:0:0:0:
320,192,278381,1,0,0:0:0:0:
192,192,278460,1,0,0:0:0:0:
64,192,278539,1,0,0:0:0:0:
320,192,278539,1,0,0:0:0:0:
448,192,278618,1,0,0:0:0:0:
64,192,278697,1,0,0:0:0:0:
320,192,278697,1,0,0:0:0:0:
192,192,278776,1,0,0:0:0:0:
320,192,278855,1,0,0:0:0:0:
448,192,278855,1,0,0:0:0:0:
64,192,278934,1,0,0:0:0:0:
192,192,279012,1,0,0:0:0:0:
320,192,279012,1,0,0:0:0:0:
448,192,279012,1,0,0:0:0:0:
64,192,279091,1,0,0:0:0:0:
192,192,279170,1,0,0:0:0:0:
320,192,279170,1,0,0:0:0:0:
448,192,279249,1,0,0:0:0:0:
320,192,279328,1,0,0:0:0:0:
64,192,279328,1,0,0:0:0:0:
192,192,279407,1,0,0:0:0:0:
448,192,279407,1,0,0:0:0:0:
64,192,279486,1,0,0:0:0:0:
320,192,279486,1,0,0:0:0:0:
64,192,279644,1,0,0:0:0:0:
192,192,279644,1,0,0:0:0:0:
320,192,279723,1,0,0:0:0:0:
448,192,279723,1,0,0:0:0:0:
192,192,279802,1,0,0:0:0:0:
64,192,279802,1,0,0:0:0:0:
192,192,279960,1,0,0:0:0:0:
320,192,279960,1,0,0:0:0:0:
448,192,280039,1,0,0:0:0:0:
64,192,280039,1,0,0:0:0:0:
192,192,280118,1,0,0:0:0:0:
320,192,280118,1,0,0:0:0:0:
448,192,280276,1,0,0:0:0:0:
320,192,280276,1,0,0:0:0:0:
64,192,280355,1,0,0:0:0:0:
192,192,280355,1,0,0:0:0:0:
320,192,280434,1,0,0:0:0:0:
448,192,280434,1,0,0:0:0:0:
64,192,280591,1,0,0:0:0:0:
448,192,280591,1,0,0:0:0:0:
192,192,280670,1,0,0:0:0:0:
320,192,280670,1,0,0:0:0:0:
64,192,280749,1,0,0:0:0:0:
448,192,280749,1,0,0:0:0:0:
64,192,280907,1,0,0:0:0:0:
320,192,280907,1,0,0:0:0:0:
192,192,280986,1,0,0:0:0:0:
448,192,280986,1,0,0:0:0:0:
320,192,281065,1,0,0:0:0:0:
64,192,281065,1,0,0:0:0:0:
192,192,281223,1,0,0:0:0:0:
320,192,281223,1,0,0:0:0:0:
64,192,281302,1,0,0:0:0:0:
448,192,281302,1,0,0:0:0:0:
320,192,281381,1,0,0:0:0:0:
192,192,281381,1,0,0:0:0:0:
448,192,281539,1,0,0:0:0:0:
192,192,281539,1,0,0:0:0:0:
64,192,281618,1,0,0:0:0:0:
320,192,281618,1,0,0:0:0:0:
192,192,281697,1,0,0:0:0:0:
448,192,281697,1,0,0:0:0:0:
64,192,281855,1,0,0:0:0:0:
448,192,281855,1,0,0:0:0:0:
320,192,281934,1,0,0:0:0:0:
192,192,281934,1,0,0:0:0:0:
64,192,282012,1,0,0:0:0:0:
448,192,282012,1,0,0:0:0:0:
64,192,282170,1,0,0:0:0:0:
192,192,282170,1,0,0:0:0:0:
320,192,282249,1,0,0:0:0:0:
448,192,282249,1,0,0:0:0:0:
192,192,282328,1,0,0:0:0:0:
64,192,282328,1,0,0:0:0:0:
320,192,282486,1,0,0:0:0:0:
448,192,282486,1,0,0:0:0:0:
192,192,282565,1,0,0:0:0:0:
64,192,282644,1,0,0:0:0:0:
320,192,282644,1,0,0:0:0:0:
448,192,282723,1,0,0:0:0:0:
64,192,282802,1,0,0:0:0:0:
192,192,282802,1,0,0:0:0:0:
320,192,282802,1,0,0:0:0:0:
448,192,282881,1,0,0:0:0:0:
320,192,282960,1,0,0:0:0:0:
192,192,282960,1,0,0:0:0:0:
64,192,283039,1,0,0:0:0:0:
192,192,283118,1,0,0:0:0:0:
320,192,283118,1,0,0:0:0:0:
448,192,283118,1,0,0:0:0:0:
64,192,283197,1,0,0:0:0:0:
448,192,283276,1,0,0:0:0:0:
192,192,283276,1,0,0:0:0:0:
320,192,283355,1,0,0:0:0:0:
64,192,283434,1,0,0:0:0:0:
192,192,283434,1,0,0:0:0:0:
448,192,283434,1,0,0:0:0:0:
320,192,283512,1,0,0:0:0:0:
64,192,283591,1,0,0:0:0:0:
448,192,283591,1,0,0:0:0:0:
192,192,283670,1,0,0:0:0:0:
320,192,283749,1,0,0:0:0:0:
448,192,283749,1,0,0:0:0:0:
64,192,283749,1,0,0:0:0:0:
192,192,283828,1,0,0:0:0:0:
320,192,283907,1,0,0:0:0:0:
64,192,283907,1,0,0:0:0:0:
448,192,284065,1,0,0:0:0:0:
192,192,284065,1,0,0:0:0:0:
320,192,284144,1,0,0:0:0:0:
64,192,284223,1,0,0:0:0:0:
192,192,284223,1,0,0:0:0:0:
64,192,284381,1,0,0:0:0:0:
448,192,284381,1,0,0:0:0:0:
192,192,284460,1,0,0:0:0:0:
320,192,284539,1,0,0:0:0:0:
448,192,284539,1,0,0:0:0:0:
64,192,284697,1,0,0:0:0:0:
320,192,284697,1,0,0:0:0:0:
192,192,284776,1,0,0:0:0:0:
320,192,284855,1,0,0:0:0:0:
448,192,284855,1,0,0:0:0:0:
64,192,285012,1,0,0:0:0:0:
448,192,285012,1,0,0:0:0:0:
192,192,285118,1,0,0:0:0:0:
320,192,285223,1,0,0:0:0:0:
448,192,285328,1,0,0:0:0:0:
64,192,285328,1,0,0:0:0:0:
192,192,285328,1,0,0:0:0:0:
192,192,285486,1,0,0:0:0:0:
64,192,285644,1,0,0:0:0:0:
448,192,285644,1,0,0:0:0:0:
320,192,285723,1,0,0:0:0:0:
64,192,285802,1,0,0:0:0:0:
192,192,285802,1,0,0:0:0:0:
448,192,285960,1,0,0:0:0:0:
320,192,285960,1,0,0:0:0:0:
64,192,286039,1,0,0:0:0:0:
192,192,286118,1,0,0:0:0:0:
320,192,286118,1,0,0:0:0:0:
64,192,286276,1,0,0:0:0:0:
448,192,286276,1,0,0:0:0:0:
320,192,286355,1,0,0:0:0:0:
192,192,286434,1,0,0:0:0:0:
64,192,286434,1,0,0:0:0:0:
192,192,286591,1,0,0:0:0:0:
320,192,286591,1,0,0:0:0:0:
448,192,286670,1,0,0:0:0:0:
320,192,286749,1,0,0:0:0:0:
64,192,286749,1,0,0:0:0:0:
64,192,286907,1,0,0:0:0:0:
192,192,286907,1,0,0:0:0:0:
320,192,286986,1,0,0:0:0:0:
448,192,287065,1,0,0:0:0:0:
64,192,287065,1,0,0:0:0:0:
192,192,287223,1,0,0:0:0:0:
320,192,287223,1,0,0:0:0:0:
448,192,287302,1,0,0:0:0:0:
320,192,287381,1,0,0:0:0:0:
64,192,287381,1,0,0:0:0:0:
64,192,287539,1,0,0:0:0:0:
192,192,287539,1,0,0:0:0:0:
448,192,287618,1,0,0:0:0:0:
320,192,287697,1,0,0:0:0:0:
192,192,287697,1,0,0:0:0:0:
320,192,287855,1,0,0:0:0:0:
448,192,287855,1,0,0:0:0:0:
64,192,287934,1,0,0:0:0:0:
192,192,288012,1,0,0:0:0:0:
320,192,288012,1,0,0:0:0:0:
64,192,288170,1,0,0:0:0:0:
192,192,288170,1,0,0:0:0:0:
448,192,288249,1,0,0:0:0:0:
320,192,288328,1,0,0:0:0:0:
192,192,288328,1,0,0:0:0:0:
320,192,288486,1,0,0:0:0:0:
448,192,288486,1,0,0:0:0:0:
64,192,288565,1,0,0:0:0:0:
192,192,288644,1,0,0:0:0:0:
320,192,288644,1,0,0:0:0:0:
64,192,288802,1,0,0:0:0:0:
192,192,288802,1,0,0:0:0:0:
448,192,288881,1,0,0:0:0:0:
320,192,288960,1,0,0:0:0:0:
64,192,288960,1,0,0:0:0:0:
192,192,289039,1,0,0:0:0:0:
320,192,289118,1,0,0:0:0:0:
448,192,289118,1,0,0:0:0:0:
64,192,289118,1,0,0:0:0:0:
192,192,289197,1,0,0:0:0:0:
320,192,289276,1,0,0:0:0:0:
448,192,289276,1,0,0:0:0:0:
192,192,289355,1,0,0:0:0:0:
64,192,289434,1,0,0:0:0:0:
448,192,289434,1,0,0:0:0:0:
320,192,289512,1,0,0:0:0:0:
192,192,289591,1,0,0:0:0:0:
64,192,289591,1,0,0:0:0:0:
448,192,289670,1,0,0:0:0:0:
64,192,289749,1,0,0:0:0:0:
192,192,289749,1,0,0:0:0:0:
320,192,289749,1,0,0:0:0:0:
448,192,289828,1,0,0:0:0:0:
320,192,289907,1,0,0:0:0:0:
64,192,289907,1,0,0:0:0:0:
192,192,289986,1,0,0:0:0:0:
320,192,290065,1,0,0:0:0:0:
448,192,290065,1,0,0:0:0:0:
64,192,290144,1,0,0:0:0:0:
192,192,290223,1,0,0:0:0:0:
320,192,290223,1,0,0:0:0:0:
448,192,290302,1,0,0:0:0:0:
320,192,290381,1,0,0:0:0:0:
64,192,290381,1,0,0:0:0:0:
192,192,290381,1,0,0:0:0:0:
448,192,290460,1,0,0:0:0:0:
320,192,290539,1,0,0:0:0:0:
64,192,290539,1,0,0:0:0:0:
192,192,290618,1,0,0:0:0:0:
320,192,290697,1,0,0:0:0:0:
448,192,290697,1,0,0:0:0:0:
64,192,290776,1,0,0:0:0:0:
192,192,290855,1,0,0:0:0:0:
448,192,290855,1,0,0:0:0:0:
320,192,290934,1,0,0:0:0:0:
64,192,291012,1,0,0:0:0:0:
192,192,291012,1,0,0:0:0:0:
448,192,291012,1,0,0:0:0:0:
320,192,291091,1,0,0:0:0:0:
64,192,291170,1,0,0:0:0:0:
192,192,291170,1,0,0:0:0:0:
448,192,291249,1,0,0:0:0:0:
320,192,291328,1,0,0:0:0:0:
64,192,291328,1,0,0:0:0:0:
192,192,291407,1,0,0:0:0:0:
448,192,291486,1,0,0:0:0:0:
320,192,291486,1,0,0:0:0:0:
192,192,291565,1,0,0:0:0:0:
448,192,291644,1,0,0:0:0:0:
64,192,291644,1,0,0:0:0:0:
320,192,291644,1,0,0:0:0:0:
192,192,291723,1,0,0:0:0:0:
64,192,291802,1,0,0:0:0:0:
448,192,291802,1,0,0:0:0:0:
320,192,291881,1,0,0:0:0:0:
192,192,291960,1,0,0:0:0:0:
64,192,291960,1,0,0:0:0:0:
448,192,292039,1,0,0:0:0:0:
320,192,292118,1,0,0:0:0:0:
192,192,292118,1,0,0:0:0:0:
64,192,292197,1,0,0:0:0:0:
448,192,292276,1,0,0:0:0:0:
320,192,292276,1,0,0:0:0:0:
192,192,292276,1,0,0:0:0:0:
64,192,292355,1,0,0:0:0:0:
192,192,292434,1,0,0:0:0:0:
448,192,292434,1,0,0:0:0:0:
64,192,292591,1,0,0:0:0:0:
448,192,292591,1,0,0:0:0:0:
320,192,292670,1,0,0:0:0:0:
192,192,292670,1,0,0:0:0:0:
64,192,292749,1,0,0:0:0:0:
448,192,292749,1,0,0:0:0:0:
64,192,292907,1,0,0:0:0:0:
192,192,292907,1,0,0:0:0:0:
320,192,292907,1,0,0:0:0:0:
448,192,292986,1,0,0:0:0:0:
320,192,293065,1,0,0:0:0:0:
192,192,293065,1,0,0:0:0:0:
64,192,293223,1,0,0:0:0:0:
448,192,293223,1,0,0:0:0:0:
320,192,293223,1,0,0:0:0:0:
192,192,293302,1,0,0:0:0:0:
64,192,293381,1,0,0:0:0:0:
448,192,293381,1,0,0:0:0:0:
448,192,293539,1,0,0:0:0:0:
192,192,293539,1,0,0:0:0:0:
320,192,293539,1,0,0:0:0:0:
64,192,293618,1,0,0:0:0:0:
192,192,293697,1,0,0:0:0:0:
320,192,293697,1,0,0:0:0:0:
64,192,293855,1,0,0:0:0:0:
448,192,293855,1,0,0:0:0:0:
192,192,293855,1,0,0:0:0:0:
192,192,294012,1,0,0:0:0:0:
320,192,294170,1,0,0:0:0:0:
448,192,294170,1,0,0:0:0:0:
320,192,294328,1,0,0:0:0:0:
192,192,294486,1,0,0:0:0:0:
448,192,294486,1,0,0:0:0:0:
64,192,294486,1,0,0:0:0:0:
64,192,294644,1,0,0:0:0:0:
320,192,294802,1,0,0:0:0:0:
448,192,294802,1,0,0:0:0:0:
448,192,294960,1,0,0:0:0:0:
64,192,295118,1,0,0:0:0:0:
192,192,295118,1,0,0:0:0:0:
320,192,295118,1,0,0:0:0:0:
192,192,295276,1,0,0:0:0:0:
320,192,295434,1,0,0:0:0:0:
448,192,295434,1,0,0:0:0:0:
448,192,295591,1,0,0:0:0:0:
320,192,295749,1,0,0:0:0:0:
192,192,295749,1,0,0:0:0:0:
64,192,295749,1,0,0:0:0:0:
64,192,295907,1,0,0:0:0:0:
192,192,296065,1,0,0:0:0:0:
320,192,296065,1,0,0:0:0:0:
320,192,296223,1,0,0:0:0:0:
64,192,296381,1,0,0:0:0:0:
192,192,296381,1,0,0:0:0:0:
448,192,296381,1,0,0:0:0:0:
192,192,296539,1,0,0:0:0:0:
320,192,296539,1,0,0:0:0:0:
448,192,296697,1,0,0:0:0:0:
320,192,296697,1,0,0:0:0:0:
64,192,296855,1,0,0:0:0:0:
448,192,296855,1,0,0:0:0:0:
320,192,297012,1,0,0:0:0:0:
192,192,297012,1,0,0:0:0:0:
64,192,297012,1,0,0:0:0:0:
448,192,297170,1,0,0:0:0:0:
320,192,297170,1,0,0:0:0:0:
192,192,297328,1,0,0:0:0:0:
448,192,297328,1,0,0:0:0:0:
64,192,297486,1,0,0:0:0:0:
192,192,297486,1,0,0:0:0:0:
320,192,297644,1,0,0:0:0:0:
448,192,297644,1,0,0:0:0:0:
64,192,297723,1,0,0:0:0:0:
192,192,297723,1,0,0:0:0:0:
320,192,297802,1,0,0:0:0:0:
448,192,297802,1,0,0:0:0:0:
64,192,297881,1,0,0:0:0:0:
192,192,297881,1,0,0:0:0:0:
320,192,297960,1,0,0:0:0:0:
448,192,297960,1,0,0:0:0:0:
64,192,298039,1,0,0:0:0:0:
192,192,298039,1,0,0:0:0:0:
320,192,298118,1,0,0:0:0:0:
448,192,298118,1,0,0:0:0:0:
192,192,298197,1,0,0:0:0:0:
64,192,298197,1,0,0:0:0:0:
320,192,298276,1,0,0:0:0:0:
448,192,298276,1,0,0:0:0:0:
64,192,298355,1,0,0:0:0:0:
192,192,298355,1,0,0:0:0:0:
448,192,298434,1,0,0:0:0:0:
320,192,298434,1,0,0:0:0:0:
192,192,298512,1,0,0:0:0:0:
64,192,298512,1,0,0:0:0:0:
448,192,298591,1,0,0:0:0:0:
320,192,298591,1,0,0:0:0:0:
64,192,298670,1,0,0:0:0:0:
192,192,298670,1,0,0:0:0:0:
448,192,298749,1,0,0:0:0:0:
320,192,298749,1,0,0:0:0:0:
64,192,298828,1,0,0:0:0:0:
192,192,298828,1,0,0:0:0:0:
448,192,298907,128,0,303960:0:0:0:0:
320,192,298907,1,0,0:0:0:0:
64,192,298907,1,0,0:0:0:0:
192,192,298907,1,0,0:0:0:0:
64,192,305223,5,0,0:0:0:0:
192,192,305223,1,0,0:0:0:0:
320,192,305223,1,0,0:0:0:0:
448,192,305223,1,0,0:0:0:0:
