osu file format v14

[General]
AudioFilename: audio.mp3
AudioLeadIn: 0
PreviewTime: 23204
Countdown: 0
SampleSet: Soft
StackLeniency: 0
Mode: 3
LetterboxInBreaks: 0
SpecialStyle: 0
WidescreenStoryboard: 1

[Editor]
DistanceSpacing: 0.8
BeatDivisor: 4
GridSize: 32
TimelineZoom: 2.599999

[Metadata]
Title:PSYCHO-BOMB
TitleUnicode:PSYCHO-BOMB
Artist:Raphlesia
ArtistUnicode:Raphlesia
Creator:Saemitsu
Version:HYPER
Source:cavoe's osu! event Global Taiko Showdown
Tags:Electronic Hyperclub Hardcore Dance Instrumental COE COEGTS 2023 COEGTS2023 Qualifiers BespokE : GTS Sound Team Elegy of the Tribe blobdash poca_p0ca ERA Imperial
BeatmapID:4248891
BeatmapSetID:2024298

[Difficulty]
HPDrainRate:7.5
CircleSize:4
OverallDifficulty:8
ApproachRate:5
SliderMultiplier:1.4
SliderTickRate:1

[Events]
//Background and Video events
0,0,"bg.jpg",0,0
//Break Periods
//Storyboard Layer 0 (Background)
//Storyboard Layer 1 (Fail)
//Storyboard Layer 2 (Pass)
//Storyboard Layer 3 (Foreground)
//Storyboard Layer 4 (Overlay)
//Storyboard Sound Samples

[TimingPoints]
1527,387.096774193548,4,2,1,50,1,0
26301,-100,4,2,1,50,0,1
37139,-100,4,2,1,50,0,0
38688,-100,4,2,1,50,0,1
49526,-100,4,2,1,50,0,0
128494,-100,4,2,1,50,0,1
151720,-100,4,2,1,50,0,0

[HitObjects]
448,192,462,5,0,0:0:0:0:
64,192,559,1,0,0:0:0:0:
448,192,656,1,0,0:0:0:0:
64,192,752,1,0,0:0:0:0:
192,192,752,1,0,0:0:0:0:
448,192,946,1,0,0:0:0:0:
320,192,946,1,0,0:0:0:0:
64,192,1139,1,0,0:0:0:0:
448,192,1139,1,0,0:0:0:0:
320,192,1236,1,0,0:0:0:0:
64,192,1333,1,0,0:0:0:0:
448,192,1527,1,0,0:0:0:0:
320,192,1527,1,0,0:0:0:0:
64,192,1623,1,0,0:0:0:0:
192,192,1720,1,0,0:0:0:0:
448,192,1817,1,0,0:0:0:0:
320,192,1914,1,0,0:0:0:0:
192,192,2010,1,0,0:0:0:0:
448,192,2107,1,0,0:0:0:0:
64,192,2107,1,0,0:0:0:0:
64,192,2301,1,0,0:0:0:0:
192,192,2301,1,0,0:0:0:0:
448,192,2397,1,0,0:0:0:0:
192,192,2494,1,0,0:0:0:0:
320,192,2494,1,0,0:0:0:0:
448,192,2688,1,0,0:0:0:0:
192,192,2688,1,0,0:0:0:0:
320,192,2785,1,0,0:0:0:0:
64,192,2881,1,0,0:0:0:0:
448,192,2978,1,0,0:0:0:0:
64,192,3075,1,0,0:0:0:0:
192,192,3075,1,0,0:0:0:0:
320,192,3172,1,0,0:0:0:0:
64,192,3268,1,0,0:0:0:0:
192,192,3365,1,0,0:0:0:0:
320,192,3462,1,0,0:0:0:0:
64,192,3559,1,0,0:0:0:0:
448,192,3656,1,0,0:0:0:0:
320,192,3656,1,0,0:0:0:0:
64,192,3849,1,0,0:0:0:0:
448,192,3849,1,0,0:0:0:0:
320,192,3946,1,0,0:0:0:0:
192,192,4043,1,0,0:0:0:0:
64,192,4043,1,0,0:0:0:0:
448,192,4236,1,0,0:0:0:0:
64,192,4236,1,0,0:0:0:0:
192,192,4333,1,0,0:0:0:0:
320,192,4430,1,0,0:0:0:0:
448,192,4526,1,0,0:0:0:0:
192,192,4623,1,0,0:0:0:0:
320,192,4623,1,0,0:0:0:0:
64,192,4720,1,0,0:0:0:0:
320,192,4817,1,0,0:0:0:0:
192,192,4914,1,0,0:0:0:0:
64,192,5010,1,0,0:0:0:0:
448,192,5107,1,0,0:0:0:0:
64,192,5204,1,0,0:0:0:0:
192,192,5204,1,0,0:0:0:0:
192,192,5397,1,0,0:0:0:0:
320,192,5397,1,0,0:0:0:0:
448,192,5494,1,0,0:0:0:0:
192,192,5591,1,0,0:0:0:0:
64,192,5591,1,0,0:0:0:0:
64,192,5785,1,0,0:0:0:0:
448,192,5785,1,0,0:0:0:0:
192,192,5881,1,0,0:0:0:0:
320,192,5978,1,0,0:0:0:0:
448,192,6075,1,0,0:0:0:0:
64,192,6172,1,0,0:0:0:0:
192,192,6172,128,0,6365:0:0:0:0:
192,192,6462,128,0,6656:0:0:0:0:
448,192,6462,1,0,0:0:0:0:
192,192,6752,128,0,6946:0:0:0:0:
320,192,6752,1,0,0:0:0:0:
320,192,6946,128,0,7139:0:0:0:0:
448,192,6946,1,0,0:0:0:0:
320,192,7236,128,0,7430:0:0:0:0:
64,192,7236,1,0,0:0:0:0:
320,192,7526,128,0,7720:0:0:0:0:
192,192,7526,1,0,0:0:0:0:
64,192,7720,1,0,0:0:0:0:
192,192,7720,1,0,0:0:0:0:
448,192,7817,1,0,0:0:0:0:
320,192,7914,1,0,0:0:0:0:
64,192,8010,1,0,0:0:0:0:
192,192,8107,1,0,0:0:0:0:
320,192,8204,1,0,0:0:0:0:
64,192,8301,1,0,0:0:0:0:
448,192,8301,1,0,0:0:0:0:
448,192,8494,1,0,0:0:0:0:
192,192,8494,1,0,0:0:0:0:
320,192,8591,1,0,0:0:0:0:
64,192,8688,1,0,0:0:0:0:
192,192,8688,1,0,0:0:0:0:
64,192,8881,1,0,0:0:0:0:
320,192,8881,1,0,0:0:0:0:
192,192,8978,1,0,0:0:0:0:
448,192,9075,1,0,0:0:0:0:
64,192,9172,1,0,0:0:0:0:
448,192,9268,1,0,0:0:0:0:
320,192,9268,1,0,0:0:0:0:
192,192,9365,1,0,0:0:0:0:
448,192,9462,1,0,0:0:0:0:
320,192,9559,1,0,0:0:0:0:
192,192,9656,1,0,0:0:0:0:
448,192,9752,1,0,0:0:0:0:
64,192,9849,1,0,0:0:0:0:
192,192,9849,1,0,0:0:0:0:
448,192,10043,1,0,0:0:0:0:
64,192,10043,1,0,0:0:0:0:
192,192,10139,1,0,0:0:0:0:
320,192,10236,1,0,0:0:0:0:
448,192,10236,1,0,0:0:0:0:
64,192,10430,1,0,0:0:0:0:
320,192,10430,1,0,0:0:0:0:
448,192,10526,1,0,0:0:0:0:
192,192,10623,1,0,0:0:0:0:
64,192,10720,1,0,0:0:0:0:
320,192,10817,1,0,0:0:0:0:
192,192,10817,1,0,0:0:0:0:
448,192,10914,1,0,0:0:0:0:
64,192,11010,1,0,0:0:0:0:
320,192,11107,1,0,0:0:0:0:
192,192,11204,1,0,0:0:0:0:
64,192,11301,1,0,0:0:0:0:
448,192,11397,1,0,0:0:0:0:
320,192,11397,1,0,0:0:0:0:
320,192,11591,1,0,0:0:0:0:
192,192,11591,1,0,0:0:0:0:
64,192,11688,1,0,0:0:0:0:
320,192,11785,1,0,0:0:0:0:
448,192,11785,1,0,0:0:0:0:
192,192,11978,1,0,0:0:0:0:
64,192,11978,1,0,0:0:0:0:
320,192,12075,1,0,0:0:0:0:
448,192,12172,1,0,0:0:0:0:
64,192,12268,1,0,0:0:0:0:
448,192,12365,1,0,0:0:0:0:
320,192,12365,128,0,12559:0:0:0:0:
192,192,12559,1,0,0:0:0:0:
320,192,12656,128,0,12849:0:0:0:0:
192,192,12849,1,0,0:0:0:0:
320,192,12946,128,0,13139:0:0:0:0:
192,192,13139,128,0,13333:0:0:0:0:
448,192,13139,1,0,0:0:0:0:
64,192,13236,1,0,0:0:0:0:
448,192,13333,1,0,0:0:0:0:
192,192,13430,128,0,13623:0:0:0:0:
320,192,13478,1,0,0:0:0:0:
448,192,13526,1,0,0:0:0:0:
64,192,13623,1,0,0:0:0:0:
192,192,13720,128,0,13914:0:0:0:0:
448,192,13817,1,0,0:0:0:0:
64,192,13914,1,0,0:0:0:0:
320,192,13914,1,0,0:0:0:0:
64,192,14107,1,0,0:0:0:0:
192,192,14107,1,0,0:0:0:0:
448,192,14204,1,0,0:0:0:0:
192,192,14301,1,0,0:0:0:0:
320,192,14397,1,0,0:0:0:0:
448,192,14494,1,0,0:0:0:0:
64,192,14591,1,0,0:0:0:0:
192,192,14688,1,0,0:0:0:0:
448,192,14688,1,0,0:0:0:0:
320,192,14881,1,0,0:0:0:0:
448,192,14881,1,0,0:0:0:0:
192,192,14978,1,0,0:0:0:0:
64,192,15172,1,0,0:0:0:0:
192,192,15172,1,0,0:0:0:0:
320,192,15268,1,0,0:0:0:0:
192,192,15462,1,0,0:0:0:0:
320,192,15462,1,0,0:0:0:0:
64,192,15656,1,0,0:0:0:0:
448,192,15656,1,0,0:0:0:0:
192,192,15752,1,0,0:0:0:0:
448,192,15849,1,0,0:0:0:0:
64,192,15946,1,0,0:0:0:0:
320,192,16043,1,0,0:0:0:0:
448,192,16043,1,0,0:0:0:0:
64,192,16236,1,0,0:0:0:0:
320,192,16236,1,0,0:0:0:0:
192,192,16333,1,0,0:0:0:0:
448,192,16430,1,0,0:0:0:0:
64,192,16526,1,0,0:0:0:0:
320,192,16623,1,0,0:0:0:0:
448,192,16623,1,0,0:0:0:0:
192,192,16817,1,0,0:0:0:0:
320,192,16817,1,0,0:0:0:0:
64,192,16914,1,0,0:0:0:0:
192,192,17010,1,0,0:0:0:0:
448,192,17204,1,0,0:0:0:0:
320,192,17204,1,0,0:0:0:0:
192,192,17301,1,0,0:0:0:0:
320,192,17397,1,0,0:0:0:0:
64,192,17494,1,0,0:0:0:0:
448,192,17591,1,0,0:0:0:0:
320,192,17688,1,0,0:0:0:0:
64,192,17785,1,0,0:0:0:0:
448,192,17785,1,0,0:0:0:0:
192,192,17978,1,0,0:0:0:0:
64,192,17978,1,0,0:0:0:0:
320,192,18075,1,0,0:0:0:0:
192,192,18172,1,0,0:0:0:0:
448,192,18268,1,0,0:0:0:0:
64,192,18365,1,0,0:0:0:0:
192,192,18462,1,0,0:0:0:0:
448,192,18559,1,0,0:0:0:0:
64,192,18559,1,0,0:0:0:0:
192,192,18752,1,0,0:0:0:0:
320,192,18752,1,0,0:0:0:0:
448,192,18849,1,0,0:0:0:0:
320,192,18946,1,0,0:0:0:0:
64,192,19139,1,0,0:0:0:0:
320,192,19236,1,0,0:0:0:0:
192,192,19333,1,0,0:0:0:0:
64,192,19333,1,0,0:0:0:0:
192,192,19526,1,0,0:0:0:0:
448,192,19623,1,0,0:0:0:0:
320,192,19623,1,0,0:0:0:0:
448,192,19817,1,0,0:0:0:0:
192,192,19914,1,0,0:0:0:0:
64,192,19914,1,0,0:0:0:0:
448,192,20107,1,0,0:0:0:0:
320,192,20107,1,0,0:0:0:0:
64,192,20204,1,0,0:0:0:0:
320,192,20301,1,0,0:0:0:0:
64,192,20397,1,0,0:0:0:0:
320,192,20494,1,0,0:0:0:0:
192,192,20494,1,0,0:0:0:0:
448,192,20688,1,0,0:0:0:0:
320,192,20688,1,0,0:0:0:0:
448,192,20881,1,0,0:0:0:0:
64,192,20881,1,0,0:0:0:0:
192,192,21075,1,0,0:0:0:0:
320,192,21172,1,0,0:0:0:0:
64,192,21268,1,0,0:0:0:0:
192,192,21268,1,0,0:0:0:0:
448,192,21365,1,0,0:0:0:0:
64,192,21462,1,0,0:0:0:0:
192,192,21559,1,0,0:0:0:0:
64,192,21656,1,0,0:0:0:0:
320,192,21656,1,0,0:0:0:0:
448,192,21752,1,0,0:0:0:0:
192,192,21849,1,0,0:0:0:0:
448,192,21946,1,0,0:0:0:0:
64,192,22043,1,0,0:0:0:0:
192,192,22043,1,0,0:0:0:0:
320,192,22236,1,0,0:0:0:0:
64,192,22236,1,0,0:0:0:0:
320,192,22430,1,0,0:0:0:0:
64,192,22526,1,0,0:0:0:0:
192,192,22623,1,0,0:0:0:0:
320,192,22720,1,0,0:0:0:0:
64,192,22817,1,0,0:0:0:0:
192,192,22817,1,0,0:0:0:0:
448,192,23010,1,0,0:0:0:0:
64,192,23107,1,0,0:0:0:0:
448,192,23204,1,0,0:0:0:0:
320,192,23204,1,0,0:0:0:0:
192,192,23301,1,0,0:0:0:0:
320,192,23397,1,0,0:0:0:0:
192,192,23494,1,0,0:0:0:0:
448,192,23591,5,0,0:0:0:0:
320,192,23591,1,0,0:0:0:0:
64,192,23688,1,0,0:0:0:0:
192,192,23785,1,0,0:0:0:0:
448,192,23881,1,0,0:0:0:0:
64,192,23978,1,0,0:0:0:0:
192,192,23978,1,0,0:0:0:0:
320,192,24075,1,0,0:0:0:0:
64,192,24172,1,0,0:0:0:0:
320,192,24268,1,0,0:0:0:0:
64,192,24365,1,0,0:0:0:0:
192,192,24365,1,0,0:0:0:0:
448,192,24462,1,0,0:0:0:0:
320,192,24559,1,0,0:0:0:0:
192,192,24656,1,0,0:0:0:0:
448,192,24752,1,0,0:0:0:0:
320,192,24752,1,0,0:0:0:0:
64,192,24946,1,0,0:0:0:0:
320,192,25043,1,0,0:0:0:0:
192,192,25139,1,0,0:0:0:0:
448,192,25333,1,0,0:0:0:0:
320,192,25430,1,0,0:0:0:0:
64,192,25526,1,0,0:0:0:0:
192,192,25623,1,0,0:0:0:0:
320,192,25720,1,0,0:0:0:0:
448,192,25817,1,0,0:0:0:0:
64,192,25914,1,0,0:0:0:0:
192,192,25914,1,0,0:0:0:0:
64,192,26107,1,0,0:0:0:0:
448,192,26107,1,0,0:0:0:0:
448,192,26301,1,0,0:0:0:0:
320,192,26301,128,0,26494:0:0:0:0:
64,192,26494,1,0,0:0:0:0:
448,192,26591,1,0,0:0:0:0:
64,192,26688,1,0,0:0:0:0:
192,192,26688,1,0,0:0:0:0:
320,192,26785,1,0,0:0:0:0:
192,192,26881,128,0,26978:0:0:0:0:
448,192,26978,1,0,0:0:0:0:
320,192,27075,128,0,27268:0:0:0:0:
64,192,27075,1,0,0:0:0:0:
448,192,27268,1,0,0:0:0:0:
64,192,27365,128,0,27559:0:0:0:0:
320,192,27462,1,0,0:0:0:0:
448,192,27462,1,0,0:0:0:0:
448,192,27656,1,0,0:0:0:0:
64,192,27752,1,0,0:0:0:0:
192,192,27849,1,0,0:0:0:0:
448,192,27849,128,0,28043:0:0:0:0:
320,192,28043,1,0,0:0:0:0:
192,192,28139,128,0,28236:0:0:0:0:
448,192,28236,1,0,0:0:0:0:
64,192,28236,1,0,0:0:0:0:
320,192,28333,1,0,0:0:0:0:
64,192,28430,128,0,28526:0:0:0:0:
448,192,28526,1,0,0:0:0:0:
192,192,28623,1,0,0:0:0:0:
320,192,28623,128,0,28817:0:0:0:0:
448,192,28817,1,0,0:0:0:0:
320,192,28914,1,0,0:0:0:0:
64,192,29010,1,0,0:0:0:0:
192,192,29010,1,0,0:0:0:0:
320,192,29107,1,0,0:0:0:0:
448,192,29204,1,0,0:0:0:0:
64,192,29301,1,0,0:0:0:0:
448,192,29397,1,0,0:0:0:0:
192,192,29397,128,0,29591:0:0:0:0:
64,192,29591,1,0,0:0:0:0:
448,192,29688,128,0,29785:0:0:0:0:
192,192,29785,1,0,0:0:0:0:
64,192,29785,1,0,0:0:0:0:
320,192,29881,1,0,0:0:0:0:
192,192,29978,128,0,30172:0:0:0:0:
64,192,30172,1,0,0:0:0:0:
320,192,30172,128,0,30365:0:0:0:0:
448,192,30365,1,0,0:0:0:0:
64,192,30462,128,0,30559:0:0:0:0:
192,192,30559,1,0,0:0:0:0:
320,192,30559,1,0,0:0:0:0:
448,192,30656,1,0,0:0:0:0:
192,192,30752,128,0,30946:0:0:0:0:
448,192,30946,1,0,0:0:0:0:
320,192,30946,1,0,0:0:0:0:
64,192,31043,1,0,0:0:0:0:
320,192,31139,1,0,0:0:0:0:
448,192,31236,1,0,0:0:0:0:
64,192,31333,1,0,0:0:0:0:
192,192,31333,1,0,0:0:0:0:
448,192,31430,1,0,0:0:0:0:
192,192,31526,1,0,0:0:0:0:
64,192,31623,1,0,0:0:0:0:
448,192,31720,1,0,0:0:0:0:
320,192,31720,128,0,31914:0:0:0:0:
448,192,31914,1,0,0:0:0:0:
192,192,32010,1,0,0:0:0:0:
320,192,32107,1,0,0:0:0:0:
64,192,32107,1,0,0:0:0:0:
448,192,32301,1,0,0:0:0:0:
320,192,32301,1,0,0:0:0:0:
64,192,32494,1,0,0:0:0:0:
320,192,32494,128,0,32688:0:0:0:0:
192,192,32688,1,0,0:0:0:0:
64,192,32688,1,0,0:0:0:0:
192,192,32881,1,0,0:0:0:0:
320,192,32978,1,0,0:0:0:0:
448,192,32978,1,0,0:0:0:0:
64,192,33075,1,0,0:0:0:0:
192,192,33075,1,0,0:0:0:0:
64,192,33268,1,0,0:0:0:0:
320,192,33268,128,0,33462:0:0:0:0:
448,192,33462,1,0,0:0:0:0:
64,192,33559,128,0,33656:0:0:0:0:
320,192,33656,1,0,0:0:0:0:
448,192,33656,1,0,0:0:0:0:
192,192,33752,1,0,0:0:0:0:
448,192,33849,1,0,0:0:0:0:
64,192,33946,1,0,0:0:0:0:
320,192,33946,1,0,0:0:0:0:
192,192,34043,1,0,0:0:0:0:
448,192,34043,128,0,34236:0:0:0:0:
192,192,34236,1,0,0:0:0:0:
64,192,34236,1,0,0:0:0:0:
320,192,34333,128,0,34526:0:0:0:0:
64,192,34526,1,0,0:0:0:0:
192,192,34526,1,0,0:0:0:0:
320,192,34623,1,0,0:0:0:0:
448,192,34623,1,0,0:0:0:0:
192,192,34817,128,0,35010:0:0:0:0:
448,192,34817,1,0,0:0:0:0:
64,192,35010,1,0,0:0:0:0:
192,192,35107,1,0,0:0:0:0:
320,192,35204,1,0,0:0:0:0:
448,192,35204,1,0,0:0:0:0:
448,192,35397,1,0,0:0:0:0:
64,192,35494,1,0,0:0:0:0:
320,192,35591,1,0,0:0:0:0:
192,192,35591,128,0,35720:0:0:0:0:
448,192,35720,1,0,0:0:0:0:
320,192,35849,128,0,35978:0:0:0:0:
192,192,35978,1,0,0:0:0:0:
64,192,35978,1,0,0:0:0:0:
448,192,36107,128,0,36268:0:0:0:0:
64,192,36268,1,0,0:0:0:0:
320,192,36365,1,0,0:0:0:0:
192,192,36365,128,0,36559:0:0:0:0:
448,192,36559,1,0,0:0:0:0:
192,192,36656,1,0,0:0:0:0:
64,192,36656,1,0,0:0:0:0:
320,192,36752,1,0,0:0:0:0:
64,192,36881,1,0,0:0:0:0:
320,192,36946,1,0,0:0:0:0:
448,192,36946,1,0,0:0:0:0:
192,192,37010,1,0,0:0:0:0:
448,192,37139,1,0,0:0:0:0:
64,192,37139,1,0,0:0:0:0:
320,192,37236,1,0,0:0:0:0:
192,192,37333,1,0,0:0:0:0:
320,192,37430,1,0,0:0:0:0:
192,192,37526,1,0,0:0:0:0:
448,192,37623,1,0,0:0:0:0:
64,192,37720,1,0,0:0:0:0:
448,192,37817,1,0,0:0:0:0:
64,192,37914,1,0,0:0:0:0:
192,192,37914,1,0,0:0:0:0:
320,192,38010,1,0,0:0:0:0:
64,192,38107,1,0,0:0:0:0:
320,192,38204,1,0,0:0:0:0:
192,192,38301,1,0,0:0:0:0:
320,192,38494,1,0,0:0:0:0:
64,192,38688,1,0,0:0:0:0:
448,192,38688,128,0,38881:0:0:0:0:
192,192,38785,1,0,0:0:0:0:
64,192,38881,1,0,0:0:0:0:
320,192,38978,1,0,0:0:0:0:
448,192,39075,1,0,0:0:0:0:
192,192,39075,1,0,0:0:0:0:
64,192,39172,1,0,0:0:0:0:
448,192,39268,128,0,39462:0:0:0:0:
64,192,39462,1,0,0:0:0:0:
192,192,39462,128,0,39656:0:0:0:0:
320,192,39559,1,0,0:0:0:0:
448,192,39656,1,0,0:0:0:0:
64,192,39752,128,0,39849:0:0:0:0:
320,192,39849,1,0,0:0:0:0:
448,192,39849,1,0,0:0:0:0:
192,192,39946,1,0,0:0:0:0:
448,192,40043,1,0,0:0:0:0:
64,192,40139,1,0,0:0:0:0:
192,192,40236,1,0,0:0:0:0:
320,192,40236,128,0,40430:0:0:0:0:
64,192,40333,1,0,0:0:0:0:
448,192,40430,1,0,0:0:0:0:
192,192,40526,128,0,40623:0:0:0:0:
448,192,40623,1,0,0:0:0:0:
320,192,40623,1,0,0:0:0:0:
64,192,40720,1,0,0:0:0:0:
448,192,40817,128,0,41010:0:0:0:0:
320,192,41010,1,0,0:0:0:0:
64,192,41010,128,0,41204:0:0:0:0:
192,192,41107,1,0,0:0:0:0:
448,192,41204,1,0,0:0:0:0:
320,192,41301,1,0,0:0:0:0:
64,192,41349,1,0,0:0:0:0:
192,192,41397,1,0,0:0:0:0:
448,192,41397,1,0,0:0:0:0:
320,192,41494,1,0,0:0:0:0:
64,192,41591,1,0,0:0:0:0:
448,192,41688,1,0,0:0:0:0:
64,192,41785,1,0,0:0:0:0:
192,192,41785,128,0,41978:0:0:0:0:
320,192,41881,1,0,0:0:0:0:
448,192,41978,1,0,0:0:0:0:
320,192,42075,128,0,42172:0:0:0:0:
448,192,42172,1,0,0:0:0:0:
192,192,42172,1,0,0:0:0:0:
64,192,42268,1,0,0:0:0:0:
448,192,42365,128,0,42559:0:0:0:0:
64,192,42559,1,0,0:0:0:0:
192,192,42559,128,0,42752:0:0:0:0:
320,192,42656,1,0,0:0:0:0:
448,192,42752,1,0,0:0:0:0:
64,192,42849,128,0,42946:0:0:0:0:
320,192,42946,1,0,0:0:0:0:
192,192,42946,1,0,0:0:0:0:
448,192,43043,1,0,0:0:0:0:
192,192,43139,128,0,43333:0:0:0:0:
320,192,43333,1,0,0:0:0:0:
448,192,43333,1,0,0:0:0:0:
192,192,43430,1,0,0:0:0:0:
64,192,43526,1,0,0:0:0:0:
320,192,43575,1,0,0:0:0:0:
448,192,43623,1,0,0:0:0:0:
192,192,43720,1,0,0:0:0:0:
64,192,43720,1,0,0:0:0:0:
448,192,43817,1,0,0:0:0:0:
320,192,43865,1,0,0:0:0:0:
192,192,43914,1,0,0:0:0:0:
64,192,44010,1,0,0:0:0:0:
192,192,44107,1,0,0:0:0:0:
320,192,44107,128,0,44301:0:0:0:0:
448,192,44301,1,0,0:0:0:0:
192,192,44397,1,0,0:0:0:0:
448,192,44494,1,0,0:0:0:0:
64,192,44494,1,0,0:0:0:0:
64,192,44688,128,0,44881:0:0:0:0:
320,192,44881,1,0,0:0:0:0:
448,192,44881,128,0,45075:0:0:0:0:
192,192,44978,1,0,0:0:0:0:
64,192,45075,1,0,0:0:0:0:
448,192,45172,1,0,0:0:0:0:
192,192,45268,1,0,0:0:0:0:
64,192,45268,1,0,0:0:0:0:
320,192,45365,1,0,0:0:0:0:
192,192,45462,128,0,45656:0:0:0:0:
64,192,45656,1,0,0:0:0:0:
320,192,45656,128,0,45849:0:0:0:0:
448,192,45752,1,0,0:0:0:0:
192,192,45849,1,0,0:0:0:0:
448,192,45946,128,0,46043:0:0:0:0:
64,192,46043,1,0,0:0:0:0:
192,192,46043,1,0,0:0:0:0:
320,192,46139,1,0,0:0:0:0:
64,192,46236,1,0,0:0:0:0:
320,192,46333,1,0,0:0:0:0:
448,192,46430,1,0,0:0:0:0:
192,192,46430,128,0,46623:0:0:0:0:
64,192,46623,1,0,0:0:0:0:
448,192,46720,128,0,46817:0:0:0:0:
64,192,46817,1,0,0:0:0:0:
320,192,46817,1,0,0:0:0:0:
192,192,46914,1,0,0:0:0:0:
320,192,47010,128,0,47204:0:0:0:0:
192,192,47204,1,0,0:0:0:0:
64,192,47204,128,0,47397:0:0:0:0:
448,192,47301,1,0,0:0:0:0:
320,192,47397,1,0,0:0:0:0:
192,192,47494,1,0,0:0:0:0:
64,192,47543,1,0,0:0:0:0:
448,192,47591,1,0,0:0:0:0:
320,192,47591,1,0,0:0:0:0:
192,192,47688,1,0,0:0:0:0:
448,192,47785,1,0,0:0:0:0:
64,192,47881,1,0,0:0:0:0:
320,192,47978,128,0,48172:0:0:0:0:
192,192,47978,1,0,0:0:0:0:
448,192,48075,1,0,0:0:0:0:
64,192,48172,1,0,0:0:0:0:
192,192,48268,128,0,48365:0:0:0:0:
64,192,48365,1,0,0:0:0:0:
448,192,48365,1,0,0:0:0:0:
320,192,48462,1,0,0:0:0:0:
64,192,48559,128,0,48752:0:0:0:0:
192,192,48752,1,0,0:0:0:0:
448,192,48752,128,0,48946:0:0:0:0:
320,192,48849,1,0,0:0:0:0:
64,192,48946,1,0,0:0:0:0:
192,192,49043,128,0,49139:0:0:0:0:
320,192,49139,1,0,0:0:0:0:
64,192,49139,1,0,0:0:0:0:
448,192,49236,1,0,0:0:0:0:
320,192,49333,128,0,49526:0:0:0:0:
192,192,49526,1,0,0:0:0:0:
64,192,49526,1,0,0:0:0:0:
320,192,49623,1,0,0:0:0:0:
448,192,49720,1,0,0:0:0:0:
64,192,49817,1,0,0:0:0:0:
192,192,49914,1,0,0:0:0:0:
448,192,50010,1,0,0:0:0:0:
192,192,50107,1,0,0:0:0:0:
64,192,50204,1,0,0:0:0:0:
320,192,50301,1,0,0:0:0:0:
448,192,50301,1,0,0:0:0:0:
192,192,50397,1,0,0:0:0:0:
448,192,50494,1,0,0:0:0:0:
320,192,50591,1,0,0:0:0:0:
192,192,50639,1,0,0:0:0:0:
64,192,50688,1,0,0:0:0:0:
448,192,50785,1,0,0:0:0:0:
192,192,50881,1,0,0:0:0:0:
320,192,50978,1,0,0:0:0:0:
64,192,51075,1,0,0:0:0:0:
448,192,51075,1,0,0:0:0:0:
192,192,51172,1,0,0:0:0:0:
320,192,51268,1,0,0:0:0:0:
64,192,51365,1,0,0:0:0:0:
448,192,51462,1,0,0:0:0:0:
320,192,51462,1,0,0:0:0:0:
64,192,51656,1,0,0:0:0:0:
320,192,51752,1,0,0:0:0:0:
192,192,51849,1,0,0:0:0:0:
448,192,51849,1,0,0:0:0:0:
64,192,51946,1,0,0:0:0:0:
192,192,52043,1,0,0:0:0:0:
320,192,52139,1,0,0:0:0:0:
64,192,52236,1,0,0:0:0:0:
448,192,52236,1,0,0:0:0:0:
448,192,52430,1,0,0:0:0:0:
320,192,52526,1,0,0:0:0:0:
64,192,52623,1,0,0:0:0:0:
192,192,52623,1,0,0:0:0:0:
448,192,52720,1,0,0:0:0:0:
320,192,52817,1,0,0:0:0:0:
192,192,52914,1,0,0:0:0:0:
320,192,53010,1,0,0:0:0:0:
64,192,53010,1,0,0:0:0:0:
64,192,53204,1,0,0:0:0:0:
448,192,53301,1,0,0:0:0:0:
320,192,53397,1,0,0:0:0:0:
192,192,53397,1,0,0:0:0:0:
64,192,53494,1,0,0:0:0:0:
448,192,53591,1,0,0:0:0:0:
320,192,53688,1,0,0:0:0:0:
64,192,53785,1,0,0:0:0:0:
448,192,53785,1,0,0:0:0:0:
320,192,53978,1,0,0:0:0:0:
64,192,54075,1,0,0:0:0:0:
320,192,54172,1,0,0:0:0:0:
448,192,54172,1,0,0:0:0:0:
192,192,54268,1,0,0:0:0:0:
448,192,54365,1,0,0:0:0:0:
192,192,54462,1,0,0:0:0:0:
448,192,54559,1,0,0:0:0:0:
320,192,54559,1,0,0:0:0:0:
192,192,54656,1,0,0:0:0:0:
64,192,54752,1,0,0:0:0:0:
448,192,54849,1,0,0:0:0:0:
192,192,54946,1,0,0:0:0:0:
64,192,54946,1,0,0:0:0:0:
320,192,55043,1,0,0:0:0:0:
192,192,55139,1,0,0:0:0:0:
320,192,55236,1,0,0:0:0:0:
64,192,55333,1,0,0:0:0:0:
192,192,55333,1,0,0:0:0:0:
448,192,55430,1,0,0:0:0:0:
64,192,55526,1,0,0:0:0:0:
192,192,55623,1,0,0:0:0:0:
448,192,55720,1,0,0:0:0:0:
64,192,55817,1,0,0:0:0:0:
448,192,55914,1,0,0:0:0:0:
64,192,56107,1,0,0:0:0:0:
320,192,56204,1,0,0:0:0:0:
64,192,56301,1,0,0:0:0:0:
320,192,56494,1,0,0:0:0:0:
192,192,56591,1,0,0:0:0:0:
320,192,56688,1,0,0:0:0:0:
64,192,56881,1,0,0:0:0:0:
448,192,56881,1,0,0:0:0:0:
192,192,57268,1,0,0:0:0:0:
64,192,57268,1,0,0:0:0:0:
448,192,57397,1,0,0:0:0:0:
192,192,57526,1,0,0:0:0:0:
448,192,57656,1,0,0:0:0:0:
192,192,57785,1,0,0:0:0:0:
448,192,57914,1,0,0:0:0:0:
320,192,58043,1,0,0:0:0:0:
192,192,58043,128,0,58236:0:0:0:0:
448,192,58236,128,0,58430:0:0:0:0:
64,192,58430,128,0,58623:0:0:0:0:
320,192,58623,1,0,0:0:0:0:
448,192,58623,1,0,0:0:0:0:
192,192,58720,1,0,0:0:0:0:
64,192,58817,1,0,0:0:0:0:
320,192,58914,1,0,0:0:0:0:
192,192,59010,1,0,0:0:0:0:
64,192,59010,1,0,0:0:0:0:
64,192,59204,1,0,0:0:0:0:
448,192,59204,1,0,0:0:0:0:
192,192,59301,1,0,0:0:0:0:
320,192,59397,1,0,0:0:0:0:
448,192,59494,1,0,0:0:0:0:
192,192,59591,1,0,0:0:0:0:
64,192,59688,1,0,0:0:0:0:
448,192,59785,1,0,0:0:0:0:
320,192,59785,1,0,0:0:0:0:
192,192,59881,1,0,0:0:0:0:
64,192,59978,1,0,0:0:0:0:
320,192,60075,1,0,0:0:0:0:
192,192,60172,1,0,0:0:0:0:
448,192,60268,1,0,0:0:0:0:
64,192,60365,1,0,0:0:0:0:
320,192,60365,128,0,60559:0:0:0:0:
192,192,60559,128,0,60752:0:0:0:0:
448,192,60752,128,0,60946:0:0:0:0:
64,192,60752,1,0,0:0:0:0:
64,192,61043,1,0,0:0:0:0:
192,192,61139,1,0,0:0:0:0:
320,192,61139,1,0,0:0:0:0:
448,192,61333,1,0,0:0:0:0:
320,192,61333,1,0,0:0:0:0:
192,192,61430,1,0,0:0:0:0:
320,192,61526,1,0,0:0:0:0:
64,192,61623,1,0,0:0:0:0:
448,192,61720,1,0,0:0:0:0:
192,192,61720,1,0,0:0:0:0:
192,192,61914,1,0,0:0:0:0:
64,192,62010,1,0,0:0:0:0:
448,192,62107,1,0,0:0:0:0:
320,192,62204,1,0,0:0:0:0:
64,192,62301,1,0,0:0:0:0:
192,192,62301,1,0,0:0:0:0:
448,192,62397,1,0,0:0:0:0:
192,192,62494,1,0,0:0:0:0:
320,192,62591,1,0,0:0:0:0:
64,192,62688,1,0,0:0:0:0:
448,192,62785,1,0,0:0:0:0:
320,192,62881,1,0,0:0:0:0:
192,192,62881,1,0,0:0:0:0:
64,192,62978,1,0,0:0:0:0:
448,192,63075,1,0,0:0:0:0:
320,192,63172,1,0,0:0:0:0:
64,192,63268,1,0,0:0:0:0:
192,192,63365,1,0,0:0:0:0:
448,192,63462,1,0,0:0:0:0:
320,192,63462,1,0,0:0:0:0:
64,192,63591,1,0,0:0:0:0:
320,192,63720,1,0,0:0:0:0:
64,192,63849,1,0,0:0:0:0:
320,192,63978,1,0,0:0:0:0:
64,192,64107,1,0,0:0:0:0:
192,192,64236,1,0,0:0:0:0:
320,192,64236,128,0,64430:0:0:0:0:
64,192,64430,128,0,64623:0:0:0:0:
448,192,64623,128,0,64817:0:0:0:0:
192,192,64817,1,0,0:0:0:0:
64,192,64817,1,0,0:0:0:0:
320,192,64914,1,0,0:0:0:0:
448,192,65010,1,0,0:0:0:0:
192,192,65107,1,0,0:0:0:0:
320,192,65204,1,0,0:0:0:0:
448,192,65204,1,0,0:0:0:0:
448,192,65397,1,0,0:0:0:0:
64,192,65397,1,0,0:0:0:0:
320,192,65494,1,0,0:0:0:0:
192,192,65591,1,0,0:0:0:0:
64,192,65688,1,0,0:0:0:0:
320,192,65785,1,0,0:0:0:0:
448,192,65881,1,0,0:0:0:0:
64,192,65978,1,0,0:0:0:0:
192,192,65978,1,0,0:0:0:0:
320,192,66075,1,0,0:0:0:0:
448,192,66172,1,0,0:0:0:0:
192,192,66268,1,0,0:0:0:0:
320,192,66365,1,0,0:0:0:0:
64,192,66462,1,0,0:0:0:0:
448,192,66559,1,0,0:0:0:0:
192,192,66559,1,0,0:0:0:0:
64,192,66817,1,0,0:0:0:0:
192,192,66817,1,0,0:0:0:0:
64,192,67075,1,0,0:0:0:0:
448,192,67075,1,0,0:0:0:0:
320,192,67333,1,0,0:0:0:0:
448,192,67333,1,0,0:0:0:0:
64,192,67526,1,0,0:0:0:0:
192,192,67526,1,0,0:0:0:0:
320,192,67623,1,0,0:0:0:0:
192,192,67720,1,0,0:0:0:0:
448,192,67817,1,0,0:0:0:0:
64,192,67914,1,0,0:0:0:0:
320,192,67914,1,0,0:0:0:0:
320,192,68107,1,0,0:0:0:0:
448,192,68107,1,0,0:0:0:0:
64,192,68204,1,0,0:0:0:0:
320,192,68301,1,0,0:0:0:0:
192,192,68397,1,0,0:0:0:0:
64,192,68494,1,0,0:0:0:0:
320,192,68494,1,0,0:0:0:0:
448,192,68591,1,0,0:0:0:0:
64,192,68688,1,0,0:0:0:0:
192,192,68785,1,0,0:0:0:0:
64,192,68881,1,0,0:0:0:0:
448,192,68881,1,0,0:0:0:0:
320,192,68978,1,0,0:0:0:0:
192,192,69075,1,0,0:0:0:0:
448,192,69172,1,0,0:0:0:0:
64,192,69268,1,0,0:0:0:0:
192,192,69268,1,0,0:0:0:0:
192,192,69656,1,0,0:0:0:0:
320,192,69656,1,0,0:0:0:0:
448,192,69849,1,0,0:0:0:0:
320,192,69849,1,0,0:0:0:0:
64,192,69946,1,0,0:0:0:0:
448,192,70139,1,0,0:0:0:0:
64,192,70139,1,0,0:0:0:0:
192,192,70236,1,0,0:0:0:0:
320,192,70236,1,0,0:0:0:0:
448,192,70430,1,0,0:0:0:0:
320,192,70430,1,0,0:0:0:0:
64,192,70526,1,0,0:0:0:0:
320,192,70623,1,0,0:0:0:0:
192,192,70720,1,0,0:0:0:0:
448,192,70817,1,0,0:0:0:0:
192,192,70914,1,0,0:0:0:0:
320,192,71010,1,0,0:0:0:0:
448,192,71010,1,0,0:0:0:0:
448,192,71204,1,0,0:0:0:0:
192,192,71204,1,0,0:0:0:0:
64,192,71397,1,0,0:0:0:0:
192,192,71397,1,0,0:0:0:0:
320,192,71494,1,0,0:0:0:0:
192,192,71688,1,0,0:0:0:0:
320,192,71688,1,0,0:0:0:0:
64,192,71785,1,0,0:0:0:0:
64,192,71978,1,0,0:0:0:0:
320,192,71978,1,0,0:0:0:0:
192,192,72075,1,0,0:0:0:0:
448,192,72172,1,0,0:0:0:0:
192,192,72268,1,0,0:0:0:0:
64,192,72365,1,0,0:0:0:0:
320,192,72462,1,0,0:0:0:0:
448,192,72559,1,0,0:0:0:0:
192,192,72559,1,0,0:0:0:0:
64,192,72752,1,0,0:0:0:0:
320,192,72752,1,0,0:0:0:0:
64,192,72946,1,0,0:0:0:0:
448,192,72946,1,0,0:0:0:0:
320,192,73043,1,0,0:0:0:0:
320,192,73236,1,0,0:0:0:0:
448,192,73236,1,0,0:0:0:0:
192,192,73333,1,0,0:0:0:0:
64,192,73333,1,0,0:0:0:0:
448,192,73526,1,0,0:0:0:0:
64,192,73526,1,0,0:0:0:0:
320,192,73623,1,0,0:0:0:0:
192,192,73720,1,0,0:0:0:0:
448,192,73817,1,0,0:0:0:0:
64,192,73914,1,0,0:0:0:0:
320,192,74010,1,0,0:0:0:0:
192,192,74107,1,0,0:0:0:0:
448,192,74107,1,0,0:0:0:0:
320,192,74301,1,0,0:0:0:0:
192,192,74301,128,0,74430:0:0:0:0:
448,192,74430,1,0,0:0:0:0:
64,192,74559,1,0,0:0:0:0:
320,192,74559,128,0,74688:0:0:0:0:
192,192,74688,1,0,0:0:0:0:
448,192,74817,128,0,74946:0:0:0:0:
64,192,74817,1,0,0:0:0:0:
320,192,74946,1,0,0:0:0:0:
192,192,75075,1,0,0:0:0:0:
64,192,75075,128,0,75204:0:0:0:0:
448,192,75204,1,0,0:0:0:0:
192,192,75333,1,0,0:0:0:0:
320,192,75333,128,0,75462:0:0:0:0:
64,192,75462,1,0,0:0:0:0:
192,192,75591,128,0,75720:0:0:0:0:
448,192,75591,1,0,0:0:0:0:
320,192,75720,1,0,0:0:0:0:
448,192,75849,1,0,0:0:0:0:
64,192,75849,1,0,0:0:0:0:
64,192,76043,1,0,0:0:0:0:
192,192,76043,1,0,0:0:0:0:
320,192,76139,1,0,0:0:0:0:
64,192,76333,1,0,0:0:0:0:
448,192,76333,1,0,0:0:0:0:
192,192,76430,1,0,0:0:0:0:
320,192,76430,1,0,0:0:0:0:
64,192,76623,1,0,0:0:0:0:
192,192,76623,1,0,0:0:0:0:
448,192,76720,1,0,0:0:0:0:
192,192,76817,1,0,0:0:0:0:
448,192,76914,1,0,0:0:0:0:
64,192,77010,1,0,0:0:0:0:
320,192,77107,1,0,0:0:0:0:
192,192,77204,1,0,0:0:0:0:
64,192,77204,1,0,0:0:0:0:
64,192,77397,1,0,0:0:0:0:
320,192,77397,1,0,0:0:0:0:
448,192,77591,1,0,0:0:0:0:
320,192,77591,1,0,0:0:0:0:
64,192,77688,1,0,0:0:0:0:
320,192,77881,1,0,0:0:0:0:
192,192,77881,1,0,0:0:0:0:
448,192,77978,1,0,0:0:0:0:
448,192,78172,1,0,0:0:0:0:
192,192,78172,1,0,0:0:0:0:
320,192,78268,1,0,0:0:0:0:
64,192,78365,1,0,0:0:0:0:
192,192,78462,1,0,0:0:0:0:
448,192,78559,1,0,0:0:0:0:
192,192,78656,1,0,0:0:0:0:
64,192,78752,1,0,0:0:0:0:
320,192,78752,1,0,0:0:0:0:
448,192,78946,1,0,0:0:0:0:
192,192,78946,1,0,0:0:0:0:
448,192,79139,1,0,0:0:0:0:
64,192,79139,1,0,0:0:0:0:
320,192,79236,1,0,0:0:0:0:
192,192,79430,1,0,0:0:0:0:
64,192,79430,1,0,0:0:0:0:
448,192,79526,1,0,0:0:0:0:
320,192,79526,1,0,0:0:0:0:
64,192,79720,1,0,0:0:0:0:
448,192,79720,1,0,0:0:0:0:
192,192,79817,1,0,0:0:0:0:
320,192,79914,1,0,0:0:0:0:
64,192,80010,1,0,0:0:0:0:
448,192,80107,1,0,0:0:0:0:
192,192,80204,1,0,0:0:0:0:
320,192,80301,1,0,0:0:0:0:
64,192,80301,1,0,0:0:0:0:
192,192,80494,1,0,0:0:0:0:
320,192,80494,128,0,80623:0:0:0:0:
64,192,80623,1,0,0:0:0:0:
448,192,80752,1,0,0:0:0:0:
192,192,80752,128,0,80881:0:0:0:0:
320,192,80881,1,0,0:0:0:0:
64,192,81010,128,0,81139:0:0:0:0:
448,192,81010,1,0,0:0:0:0:
192,192,81139,1,0,0:0:0:0:
320,192,81268,1,0,0:0:0:0:
448,192,81268,128,0,81397:0:0:0:0:
64,192,81397,1,0,0:0:0:0:
320,192,81526,1,0,0:0:0:0:
192,192,81526,128,0,81656:0:0:0:0:
448,192,81656,1,0,0:0:0:0:
320,192,81785,128,0,81914:0:0:0:0:
64,192,81785,1,0,0:0:0:0:
192,192,81914,1,0,0:0:0:0:
64,192,82043,1,0,0:0:0:0:
448,192,82043,1,0,0:0:0:0:
448,192,84365,1,0,0:0:0:0:
64,192,84752,1,0,0:0:0:0:
320,192,85139,1,0,0:0:0:0:
448,192,86688,1,0,0:0:0:0:
320,192,87462,1,0,0:0:0:0:
64,192,87849,1,0,0:0:0:0:
192,192,88236,1,0,0:0:0:0:
448,192,89785,1,0,0:0:0:0:
320,192,90946,1,0,0:0:0:0:
64,192,91139,1,0,0:0:0:0:
448,192,91333,1,0,0:0:0:0:
192,192,92107,1,0,0:0:0:0:
64,192,92881,1,0,0:0:0:0:
320,192,93139,1,0,0:0:0:0:
192,192,93397,1,0,0:0:0:0:
448,192,93656,1,0,0:0:0:0:
64,192,93914,1,0,0:0:0:0:
320,192,94172,1,0,0:0:0:0:
64,192,94430,128,0,94623:0:0:0:0:
448,192,94430,1,0,0:0:0:0:
320,192,94817,128,0,95010:0:0:0:0:
192,192,94817,1,0,0:0:0:0:
192,192,95204,128,0,95397:0:0:0:0:
448,192,95591,128,0,95785:0:0:0:0:
320,192,95591,1,0,0:0:0:0:
64,192,95785,1,0,0:0:0:0:
448,192,95978,128,0,96365:0:0:0:0:
192,192,95978,1,0,0:0:0:0:
64,192,96559,1,0,0:0:0:0:
320,192,96559,1,0,0:0:0:0:
192,192,96656,1,0,0:0:0:0:
320,192,96752,1,0,0:0:0:0:
64,192,96946,128,0,97139:0:0:0:0:
448,192,97139,128,0,97333:0:0:0:0:
320,192,97139,1,0,0:0:0:0:
192,192,97333,128,0,97526:0:0:0:0:
320,192,97526,128,0,97720:0:0:0:0:
64,192,97526,1,0,0:0:0:0:
64,192,97914,1,0,0:0:0:0:
320,192,98107,1,0,0:0:0:0:
192,192,98301,1,0,0:0:0:0:
448,192,98301,128,0,98494:0:0:0:0:
64,192,98591,1,0,0:0:0:0:
320,192,98688,1,0,0:0:0:0:
192,192,98881,1,0,0:0:0:0:
448,192,98978,1,0,0:0:0:0:
320,192,99026,1,0,0:0:0:0:
192,192,99075,128,0,99462:0:0:0:0:
64,192,99075,1,0,0:0:0:0:
64,192,99656,1,0,0:0:0:0:
192,192,99656,1,0,0:0:0:0:
448,192,99849,1,0,0:0:0:0:
320,192,99849,128,0,100236:0:0:0:0:
192,192,100236,1,0,0:0:0:0:
64,192,100236,1,0,0:0:0:0:
448,192,100430,128,0,100623:0:0:0:0:
192,192,100623,128,0,100817:0:0:0:0:
64,192,100623,1,0,0:0:0:0:
320,192,100817,128,0,101010:0:0:0:0:
64,192,101010,128,0,101204:0:0:0:0:
448,192,101204,1,0,0:0:0:0:
192,192,101397,128,0,101591:0:0:0:0:
448,192,101785,128,0,101978:0:0:0:0:
320,192,101785,1,0,0:0:0:0:
64,192,101978,1,0,0:0:0:0:
320,192,102075,1,0,0:0:0:0:
64,192,102172,128,0,102752:0:0:0:0:
448,192,102172,1,0,0:0:0:0:
192,192,102752,1,0,0:0:0:0:
320,192,102752,1,0,0:0:0:0:
448,192,102946,1,0,0:0:0:0:
64,192,102946,1,0,0:0:0:0:
192,192,103139,128,0,103333:0:0:0:0:
64,192,103333,1,0,0:0:0:0:
320,192,103333,128,0,103526:0:0:0:0:
448,192,103526,128,0,103720:0:0:0:0:
192,192,103526,1,0,0:0:0:0:
64,192,103720,128,0,104107:0:0:0:0:
320,192,103720,1,0,0:0:0:0:
320,192,104010,1,0,0:0:0:0:
64,192,104301,128,0,104494:0:0:0:0:
448,192,104494,128,0,104881:0:0:0:0:
320,192,104494,1,0,0:0:0:0:
64,192,104881,128,0,105268:0:0:0:0:
192,192,104881,1,0,0:0:0:0:
320,192,104978,1,0,0:0:0:0:
448,192,105075,1,0,0:0:0:0:
448,192,105268,1,0,0:0:0:0:
320,192,105268,1,0,0:0:0:0:
64,192,105365,1,0,0:0:0:0:
448,192,105462,1,0,0:0:0:0:
192,192,105559,1,0,0:0:0:0:
64,192,105656,1,0,0:0:0:0:
320,192,105656,1,0,0:0:0:0:
448,192,105752,1,0,0:0:0:0:
64,192,105849,1,0,0:0:0:0:
448,192,105946,1,0,0:0:0:0:
192,192,106043,1,0,0:0:0:0:
64,192,106043,1,0,0:0:0:0:
320,192,106139,1,0,0:0:0:0:
192,192,106236,1,0,0:0:0:0:
448,192,106333,1,0,0:0:0:0:
64,192,106430,1,0,0:0:0:0:
192,192,106430,1,0,0:0:0:0:
320,192,106430,1,0,0:0:0:0:
448,192,106817,1,0,0:0:0:0:
320,192,106817,1,0,0:0:0:0:
64,192,107010,1,0,0:0:0:0:
448,192,107010,1,0,0:0:0:0:
192,192,107107,1,0,0:0:0:0:
320,192,107204,1,0,0:0:0:0:
448,192,107301,1,0,0:0:0:0:
64,192,107397,1,0,0:0:0:0:
192,192,107397,1,0,0:0:0:0:
64,192,108365,1,0,0:0:0:0:
192,192,108365,1,0,0:0:0:0:
448,192,108559,1,0,0:0:0:0:
64,192,108559,1,0,0:0:0:0:
320,192,108656,1,0,0:0:0:0:
192,192,108752,1,0,0:0:0:0:
64,192,108849,1,0,0:0:0:0:
320,192,108946,1,0,0:0:0:0:
448,192,108946,1,0,0:0:0:0:
320,192,109139,1,0,0:0:0:0:
192,192,109139,1,0,0:0:0:0:
64,192,109236,1,0,0:0:0:0:
448,192,109333,1,0,0:0:0:0:
64,192,109430,1,0,0:0:0:0:
320,192,109526,1,0,0:0:0:0:
192,192,109623,1,0,0:0:0:0:
448,192,109720,1,0,0:0:0:0:
320,192,109817,1,0,0:0:0:0:
64,192,109914,1,0,0:0:0:0:
192,192,109914,1,0,0:0:0:0:
448,192,110107,1,0,0:0:0:0:
64,192,110107,1,0,0:0:0:0:
192,192,110204,1,0,0:0:0:0:
320,192,110301,1,0,0:0:0:0:
64,192,110397,1,0,0:0:0:0:
192,192,110494,1,0,0:0:0:0:
448,192,110591,1,0,0:0:0:0:
320,192,110688,1,0,0:0:0:0:
64,192,110688,1,0,0:0:0:0:
192,192,110785,1,0,0:0:0:0:
448,192,110881,1,0,0:0:0:0:
320,192,110978,1,0,0:0:0:0:
192,192,111075,1,0,0:0:0:0:
64,192,111075,1,0,0:0:0:0:
320,192,111172,1,0,0:0:0:0:
64,192,111268,1,0,0:0:0:0:
192,192,111365,1,0,0:0:0:0:
448,192,111462,1,0,0:0:0:0:
320,192,111462,1,0,0:0:0:0:
64,192,111559,1,0,0:0:0:0:
320,192,111656,1,0,0:0:0:0:
192,192,111752,1,0,0:0:0:0:
64,192,111849,1,0,0:0:0:0:
320,192,111946,1,0,0:0:0:0:
192,192,112043,1,0,0:0:0:0:
448,192,112043,1,0,0:0:0:0:
192,192,112236,1,0,0:0:0:0:
320,192,112236,1,0,0:0:0:0:
64,192,112333,1,0,0:0:0:0:
320,192,112430,1,0,0:0:0:0:
448,192,112526,1,0,0:0:0:0:
64,192,112623,1,0,0:0:0:0:
192,192,112720,1,0,0:0:0:0:
320,192,112817,1,0,0:0:0:0:
448,192,112817,1,0,0:0:0:0:
192,192,113010,1,0,0:0:0:0:
320,192,113010,1,0,0:0:0:0:
448,192,113204,1,0,0:0:0:0:
192,192,113204,1,0,0:0:0:0:
320,192,113301,1,0,0:0:0:0:
64,192,113397,1,0,0:0:0:0:
192,192,113494,1,0,0:0:0:0:
320,192,113591,1,0,0:0:0:0:
64,192,113591,1,0,0:0:0:0:
448,192,113785,1,0,0:0:0:0:
320,192,113785,1,0,0:0:0:0:
192,192,113978,1,0,0:0:0:0:
448,192,114075,1,0,0:0:0:0:
64,192,114172,1,0,0:0:0:0:
192,192,114172,1,0,0:0:0:0:
320,192,114268,1,0,0:0:0:0:
64,192,114365,1,0,0:0:0:0:
448,192,114462,1,0,0:0:0:0:
192,192,114559,1,0,0:0:0:0:
320,192,114559,1,0,0:0:0:0:
64,192,114752,1,0,0:0:0:0:
320,192,114752,1,0,0:0:0:0:
192,192,114849,1,0,0:0:0:0:
448,192,114946,1,0,0:0:0:0:
320,192,115043,1,0,0:0:0:0:
192,192,115139,1,0,0:0:0:0:
64,192,115139,1,0,0:0:0:0:
448,192,115333,128,0,115430:0:0:0:0:
64,192,115430,128,0,115526:0:0:0:0:
448,192,115526,128,0,115623:0:0:0:0:
64,192,115623,128,0,115720:0:0:0:0:
320,192,115720,128,0,115817:0:0:0:0:
192,192,115817,128,0,115914:0:0:0:0:
320,192,115914,128,0,116010:0:0:0:0:
192,192,116010,128,0,116107:0:0:0:0:
320,192,116107,1,0,0:0:0:0:
448,192,116107,1,0,0:0:0:0:
64,192,116301,1,0,0:0:0:0:
192,192,116301,1,0,0:0:0:0:
448,192,116397,1,0,0:0:0:0:
320,192,116494,1,0,0:0:0:0:
192,192,116591,1,0,0:0:0:0:
448,192,116688,1,0,0:0:0:0:
320,192,116688,1,0,0:0:0:0:
64,192,116881,1,0,0:0:0:0:
192,192,116881,1,0,0:0:0:0:
448,192,116978,1,0,0:0:0:0:
64,192,117075,1,0,0:0:0:0:
192,192,117172,1,0,0:0:0:0:
64,192,117268,1,0,0:0:0:0:
448,192,117268,1,0,0:0:0:0:
320,192,117365,1,0,0:0:0:0:
192,192,117462,1,0,0:0:0:0:
64,192,117559,1,0,0:0:0:0:
448,192,117656,1,0,0:0:0:0:
320,192,117656,1,0,0:0:0:0:
192,192,117752,1,0,0:0:0:0:
64,192,117849,1,0,0:0:0:0:
448,192,117946,1,0,0:0:0:0:
320,192,118043,1,0,0:0:0:0:
448,192,118139,1,0,0:0:0:0:
192,192,118236,1,0,0:0:0:0:
64,192,118236,1,0,0:0:0:0:
64,192,118430,1,0,0:0:0:0:
448,192,118430,1,0,0:0:0:0:
320,192,118526,1,0,0:0:0:0:
192,192,118623,1,0,0:0:0:0:
64,192,118720,1,0,0:0:0:0:
448,192,118817,1,0,0:0:0:0:
64,192,118914,1,0,0:0:0:0:
320,192,119010,1,0,0:0:0:0:
192,192,119010,1,0,0:0:0:0:
64,192,119204,1,0,0:0:0:0:
192,192,119204,1,0,0:0:0:0:
320,192,119301,1,0,0:0:0:0:
64,192,119397,1,0,0:0:0:0:
448,192,119494,1,0,0:0:0:0:
64,192,119591,1,0,0:0:0:0:
192,192,119591,1,0,0:0:0:0:
448,192,119688,1,0,0:0:0:0:
192,192,119785,1,0,0:0:0:0:
64,192,119881,1,0,0:0:0:0:
448,192,119978,1,0,0:0:0:0:
320,192,119978,1,0,0:0:0:0:
192,192,120075,1,0,0:0:0:0:
320,192,120172,1,0,0:0:0:0:
64,192,120268,1,0,0:0:0:0:
448,192,120365,1,0,0:0:0:0:
320,192,120365,1,0,0:0:0:0:
192,192,120462,1,0,0:0:0:0:
448,192,120559,1,0,0:0:0:0:
64,192,120752,1,0,0:0:0:0:
192,192,120752,1,0,0:0:0:0:
320,192,120849,1,0,0:0:0:0:
64,192,120946,1,0,0:0:0:0:
320,192,121043,1,0,0:0:0:0:
64,192,121139,1,0,0:0:0:0:
192,192,121139,1,0,0:0:0:0:
320,192,121236,1,0,0:0:0:0:
448,192,121333,1,0,0:0:0:0:
64,192,121430,1,0,0:0:0:0:
448,192,121526,1,0,0:0:0:0:
320,192,121526,1,0,0:0:0:0:
192,192,121623,1,0,0:0:0:0:
448,192,121720,1,0,0:0:0:0:
192,192,121817,1,0,0:0:0:0:
320,192,121914,1,0,0:0:0:0:
448,192,121914,1,0,0:0:0:0:
192,192,122010,1,0,0:0:0:0:
64,192,122107,1,0,0:0:0:0:
64,192,122301,1,0,0:0:0:0:
192,192,122301,1,0,0:0:0:0:
320,192,122365,1,0,0:0:0:0:
448,192,122430,1,0,0:0:0:0:
192,192,122494,1,0,0:0:0:0:
64,192,122559,1,0,0:0:0:0:
448,192,122623,1,0,0:0:0:0:
320,192,122688,1,0,0:0:0:0:
192,192,122752,1,0,0:0:0:0:
64,192,122817,1,0,0:0:0:0:
320,192,122881,1,0,0:0:0:0:
448,192,122946,1,0,0:0:0:0:
192,192,123010,1,0,0:0:0:0:
320,192,123075,1,0,0:0:0:0:
448,192,123139,1,0,0:0:0:0:
64,192,123204,1,0,0:0:0:0:
192,192,123268,1,0,0:0:0:0:
448,192,123333,1,0,0:0:0:0:
320,192,123397,1,0,0:0:0:0:
64,192,123462,1,0,0:0:0:0:
192,192,123526,1,0,0:0:0:0:
320,192,123591,1,0,0:0:0:0:
448,192,123656,1,0,0:0:0:0:
192,192,123720,1,0,0:0:0:0:
64,192,123785,1,0,0:0:0:0:
448,192,123849,1,0,0:0:0:0:
320,192,123849,1,0,0:0:0:0:
320,192,124043,1,0,0:0:0:0:
64,192,124236,1,0,0:0:0:0:
64,192,124430,1,0,0:0:0:0:
448,192,124623,1,0,0:0:0:0:
448,192,124817,1,0,0:0:0:0:
192,192,125010,1,0,0:0:0:0:
64,192,125397,128,0,125591:0:0:0:0:
320,192,125591,1,0,0:0:0:0:
64,192,125785,128,0,125978:0:0:0:0:
320,192,125978,1,0,0:0:0:0:
64,192,126172,128,0,126365:0:0:0:0:
320,192,126365,1,0,0:0:0:0:
64,192,126559,128,0,126752:0:0:0:0:
320,192,126752,1,0,0:0:0:0:
448,192,126946,128,0,127139:0:0:0:0:
192,192,127139,1,0,0:0:0:0:
448,192,127333,128,0,127526:0:0:0:0:
192,192,127526,1,0,0:0:0:0:
448,192,127720,1,0,0:0:0:0:
320,192,127720,1,0,0:0:0:0:
64,192,127817,1,0,0:0:0:0:
448,192,127914,1,0,0:0:0:0:
320,192,128010,1,0,0:0:0:0:
64,192,128107,1,0,0:0:0:0:
192,192,128107,128,0,128301:0:0:0:0:
320,192,128301,1,0,0:0:0:0:
448,192,128494,128,0,128688:0:0:0:0:
320,192,128494,128,0,128688:0:0:0:0:
192,192,128688,1,0,0:0:0:0:
64,192,128881,128,0,129075:0:0:0:0:
192,192,128881,128,0,129075:0:0:0:0:
320,192,129075,1,0,0:0:0:0:
448,192,129268,128,0,129462:0:0:0:0:
320,192,129268,128,0,129462:0:0:0:0:
64,192,129462,1,0,0:0:0:0:
64,192,129656,128,0,129849:0:0:0:0:
192,192,129656,128,0,129849:0:0:0:0:
448,192,129849,1,0,0:0:0:0:
192,192,130043,128,0,130236:0:0:0:0:
320,192,130043,128,0,130236:0:0:0:0:
448,192,130236,1,0,0:0:0:0:
448,192,130430,128,0,130623:0:0:0:0:
64,192,130430,128,0,130623:0:0:0:0:
192,192,130623,1,0,0:0:0:0:
64,192,130817,128,0,130914:0:0:0:0:
192,192,130817,128,0,130914:0:0:0:0:
448,192,130914,128,0,131010:0:0:0:0:
320,192,131107,128,0,131204:0:0:0:0:
448,192,131107,128,0,131204:0:0:0:0:
64,192,131204,128,0,131301:0:0:0:0:
192,192,131397,128,0,131494:0:0:0:0:
448,192,131397,128,0,131591:0:0:0:0:
64,192,131591,128,0,131785:0:0:0:0:
192,192,131591,128,0,131785:0:0:0:0:
448,192,131785,1,0,0:0:0:0:
448,192,131978,128,0,132172:0:0:0:0:
320,192,131978,128,0,132172:0:0:0:0:
64,192,132172,1,0,0:0:0:0:
64,192,132365,128,0,132559:0:0:0:0:
448,192,132365,128,0,132559:0:0:0:0:
192,192,132559,1,0,0:0:0:0:
192,192,132752,128,0,132946:0:0:0:0:
320,192,132752,128,0,132946:0:0:0:0:
448,192,132946,1,0,0:0:0:0:
64,192,133139,128,0,133333:0:0:0:0:
320,192,133139,128,0,133333:0:0:0:0:
192,192,133333,1,0,0:0:0:0:
192,192,133526,128,0,133720:0:0:0:0:
448,192,133526,128,0,133720:0:0:0:0:
320,192,133720,1,0,0:0:0:0:
64,192,133914,128,0,134010:0:0:0:0:
192,192,133914,1,0,0:0:0:0:
448,192,134010,128,0,134107:0:0:0:0:
64,192,134107,128,0,134204:0:0:0:0:
320,192,134204,128,0,134301:0:0:0:0:
192,192,134301,128,0,134397:0:0:0:0:
448,192,134397,128,0,134494:0:0:0:0:
192,192,134494,128,0,134688:0:0:0:0:
64,192,134494,128,0,134591:0:0:0:0:
448,192,134688,128,0,134881:0:0:0:0:
64,192,134688,128,0,134881:0:0:0:0:
192,192,134881,1,0,0:0:0:0:
320,192,135075,128,0,135268:0:0:0:0:
192,192,135075,128,0,135268:0:0:0:0:
64,192,135268,1,0,0:0:0:0:
64,192,135462,128,0,135656:0:0:0:0:
320,192,135462,128,0,135656:0:0:0:0:
448,192,135656,1,0,0:0:0:0:
448,192,135849,128,0,136043:0:0:0:0:
192,192,135849,128,0,136043:0:0:0:0:
64,192,136043,1,0,0:0:0:0:
64,192,136236,128,0,136430:0:0:0:0:
192,192,136236,128,0,136430:0:0:0:0:
448,192,136430,1,0,0:0:0:0:
320,192,136623,128,0,136817:0:0:0:0:
448,192,136623,128,0,136817:0:0:0:0:
64,192,136817,1,0,0:0:0:0:
320,192,137010,128,0,137107:0:0:0:0:
448,192,137010,128,0,137107:0:0:0:0:
192,192,137107,128,0,137204:0:0:0:0:
64,192,137301,128,0,137397:0:0:0:0:
192,192,137301,128,0,137397:0:0:0:0:
448,192,137397,128,0,137494:0:0:0:0:
64,192,137591,128,0,137688:0:0:0:0:
192,192,137591,128,0,137785:0:0:0:0:
64,192,137785,128,0,137978:0:0:0:0:
448,192,137785,128,0,137978:0:0:0:0:
192,192,137978,1,0,0:0:0:0:
192,192,138172,128,0,138365:0:0:0:0:
320,192,138172,128,0,138365:0:0:0:0:
448,192,138365,1,0,0:0:0:0:
448,192,138559,128,0,138752:0:0:0:0:
192,192,138559,128,0,138752:0:0:0:0:
64,192,138752,1,0,0:0:0:0:
64,192,138946,128,0,139139:0:0:0:0:
320,192,138946,128,0,139139:0:0:0:0:
448,192,139139,1,0,0:0:0:0:
448,192,139333,128,0,139526:0:0:0:0:
320,192,139333,128,0,139526:0:0:0:0:
64,192,139526,1,0,0:0:0:0:
192,192,139720,128,0,139914:0:0:0:0:
64,192,139720,128,0,139914:0:0:0:0:
448,192,139914,1,0,0:0:0:0:
192,192,140107,128,0,140204:0:0:0:0:
64,192,140107,128,0,140204:0:0:0:0:
448,192,140204,128,0,140301:0:0:0:0:
192,192,140301,128,0,140494:0:0:0:0:
448,192,140494,128,0,140688:0:0:0:0:
320,192,140494,128,0,140688:0:0:0:0:
64,192,140688,1,0,0:0:0:0:
448,192,140785,1,0,0:0:0:0:
192,192,140833,1,0,0:0:0:0:
320,192,140881,128,0,141075:0:0:0:0:
64,192,140881,128,0,140978:0:0:0:0:
64,192,141075,1,0,0:0:0:0:
320,192,141172,1,0,0:0:0:0:
64,192,141268,128,0,141462:0:0:0:0:
448,192,141268,128,0,141365:0:0:0:0:
448,192,141462,1,0,0:0:0:0:
192,192,141559,1,0,0:0:0:0:
448,192,141656,128,0,141849:0:0:0:0:
320,192,141656,128,0,141752:0:0:0:0:
64,192,141752,1,0,0:0:0:0:
320,192,141849,1,0,0:0:0:0:
448,192,141946,1,0,0:0:0:0:
192,192,142043,128,0,142236:0:0:0:0:
320,192,142043,128,0,142139:0:0:0:0:
64,192,142139,1,0,0:0:0:0:
320,192,142236,1,0,0:0:0:0:
192,192,142333,1,0,0:0:0:0:
64,192,142430,128,0,142526:0:0:0:0:
448,192,142430,128,0,142623:0:0:0:0:
320,192,142526,1,0,0:0:0:0:
64,192,142623,1,0,0:0:0:0:
448,192,142720,1,0,0:0:0:0:
320,192,142817,128,0,142914:0:0:0:0:
64,192,142817,128,0,143010:0:0:0:0:
192,192,142914,1,0,0:0:0:0:
320,192,143010,1,0,0:0:0:0:
448,192,143107,1,0,0:0:0:0:
192,192,143204,128,0,143301:0:0:0:0:
64,192,143204,128,0,143301:0:0:0:0:
320,192,143301,128,0,143397:0:0:0:0:
448,192,143494,128,0,143591:0:0:0:0:
320,192,143494,128,0,143591:0:0:0:0:
64,192,143591,128,0,143688:0:0:0:0:
320,192,143785,128,0,143978:0:0:0:0:
192,192,143785,128,0,143881:0:0:0:0:
192,192,143978,128,0,144172:0:0:0:0:
448,192,143978,128,0,144075:0:0:0:0:
64,192,144075,1,0,0:0:0:0:
448,192,144172,1,0,0:0:0:0:
192,192,144268,1,0,0:0:0:0:
64,192,144365,128,0,144462:0:0:0:0:
448,192,144365,128,0,144559:0:0:0:0:
320,192,144462,1,0,0:0:0:0:
64,192,144559,1,0,0:0:0:0:
448,192,144656,1,0,0:0:0:0:
64,192,144752,128,0,144946:0:0:0:0:
320,192,144752,128,0,144849:0:0:0:0:
192,192,144849,1,0,0:0:0:0:
320,192,144946,1,0,0:0:0:0:
64,192,145043,1,0,0:0:0:0:
192,192,145139,128,0,145236:0:0:0:0:
320,192,145139,128,0,145333:0:0:0:0:
448,192,145236,1,0,0:0:0:0:
192,192,145333,1,0,0:0:0:0:
320,192,145430,1,0,0:0:0:0:
448,192,145526,128,0,145623:0:0:0:0:
64,192,145526,128,0,145720:0:0:0:0:
192,192,145623,1,0,0:0:0:0:
448,192,145720,1,0,0:0:0:0:
64,192,145817,1,0,0:0:0:0:
192,192,145914,128,0,146010:0:0:0:0:
448,192,145914,128,0,146107:0:0:0:0:
320,192,146010,1,0,0:0:0:0:
192,192,146107,1,0,0:0:0:0:
64,192,146204,1,0,0:0:0:0:
320,192,146301,128,0,146397:0:0:0:0:
448,192,146301,128,0,146397:0:0:0:0:
192,192,146397,128,0,146494:0:0:0:0:
64,192,146591,128,0,146688:0:0:0:0:
192,192,146591,128,0,146688:0:0:0:0:
448,192,146688,128,0,146785:0:0:0:0:
64,192,146881,128,0,146978:0:0:0:0:
320,192,146881,128,0,147075:0:0:0:0:
192,192,147075,128,0,147268:0:0:0:0:
64,192,147075,128,0,147268:0:0:0:0:
320,192,147268,128,0,147462:0:0:0:0:
448,192,147268,128,0,147462:0:0:0:0:
192,192,147462,128,0,147656:0:0:0:0:
64,192,147462,128,0,147656:0:0:0:0:
448,192,147656,1,0,0:0:0:0:
320,192,147656,1,0,0:0:0:0:
192,192,147752,1,0,0:0:0:0:
64,192,147801,1,0,0:0:0:0:
320,192,147849,128,0,148043:0:0:0:0:
448,192,147849,128,0,148043:0:0:0:0:
64,192,148043,128,0,148236:0:0:0:0:
192,192,148043,128,0,148236:0:0:0:0:
320,192,148236,128,0,148333:0:0:0:0:
448,192,148236,128,0,148333:0:0:0:0:
192,192,148430,1,0,0:0:0:0:
64,192,148430,1,0,0:0:0:0:
320,192,148478,1,0,0:0:0:0:
448,192,148526,1,0,0:0:0:0:
64,192,148623,128,0,148817:0:0:0:0:
192,192,148623,128,0,148817:0:0:0:0:
320,192,148817,128,0,149010:0:0:0:0:
448,192,148817,128,0,149010:0:0:0:0:
64,192,149010,128,0,149107:0:0:0:0:
192,192,149010,128,0,149204:0:0:0:0:
64,192,149204,128,0,149397:0:0:0:0:
448,192,149204,128,0,149397:0:0:0:0:
320,192,149397,128,0,149591:0:0:0:0:
192,192,149397,128,0,149591:0:0:0:0:
64,192,149591,128,0,149785:0:0:0:0:
448,192,149591,128,0,149785:0:0:0:0:
320,192,149785,128,0,149881:0:0:0:0:
192,192,149785,128,0,149978:0:0:0:0:
448,192,149978,128,0,150172:0:0:0:0:
320,192,149978,128,0,150172:0:0:0:0:
64,192,150172,1,0,0:0:0:0:
192,192,150172,1,0,0:0:0:0:
448,192,150268,1,0,0:0:0:0:
64,192,150365,1,0,0:0:0:0:
448,192,150462,1,0,0:0:0:0:
64,192,150559,1,0,0:0:0:0:
192,192,150559,1,0,0:0:0:0:
320,192,150656,1,0,0:0:0:0:
192,192,150752,1,0,0:0:0:0:
64,192,150849,1,0,0:0:0:0:
320,192,150946,1,0,0:0:0:0:
448,192,150946,1,0,0:0:0:0:
192,192,151043,1,0,0:0:0:0:
320,192,151139,1,0,0:0:0:0:
192,192,151236,1,0,0:0:0:0:
320,192,151333,1,0,0:0:0:0:
448,192,151333,1,0,0:0:0:0:
64,192,151430,1,0,0:0:0:0:
448,192,151526,1,0,0:0:0:0:
64,192,151623,1,0,0:0:0:0:
448,192,151720,128,0,152494:0:0:0:0:
192,192,151720,1,0,0:0:0:0:
320,192,151817,1,0,0:0:0:0:
64,192,151914,1,0,0:0:0:0:
192,192,152010,1,0,0:0:0:0:
64,192,152107,1,0,0:0:0:0:
320,192,152204,1,0,0:0:0:0:
192,192,152301,1,0,0:0:0:0:
320,192,152397,1,0,0:0:0:0:
64,192,152494,1,0,0:0:0:0:
448,192,152591,1,0,0:0:0:0:
192,192,152688,1,0,0:0:0:0:
64,192,152785,1,0,0:0:0:0:
320,192,152881,1,0,0:0:0:0:
192,192,152978,1,0,0:0:0:0:
448,192,153075,1,0,0:0:0:0:
64,192,153172,1,0,0:0:0:0:
448,192,153365,1,0,0:0:0:0:
192,192,153462,1,0,0:0:0:0:
64,192,153656,1,0,0:0:0:0:
320,192,153752,1,0,0:0:0:0:
448,192,153946,1,0,0:0:0:0:
192,192,154043,1,0,0:0:0:0:
