osu file format v14

[General]
AudioFilename: audio.mp3
AudioLeadIn: 0
PreviewTime: 66198
Countdown: 0
SampleSet: Normal
StackLeniency: 0.7
Mode: 1
LetterboxInBreaks: 0
WidescreenStoryboard: 1

[Editor]
DistanceSpacing: 0.4
BeatDivisor: 4
GridSize: 32
TimelineZoom: 2

[Metadata]
Title:My Love
TitleUnicode:My Love
Artist:Raphlesia & BilliumMoto
ArtistUnicode:Raphlesia & BilliumMoto
Creator:X a v y
Version:<3
Source:A Labour of Love
Tags:kuba oms kubaoms labor english electronic remix osu!taiko japanese beatmap contest tjbc ex#2 quorum vulkin xavy
BeatmapID:2954635
BeatmapSetID:1435960

[Difficulty]
HPDrainRate:6
CircleSize:7
OverallDifficulty:6
ApproachRate:10
SliderMultiplier:1.4
SliderTickRate:1

[Events]
//Background and Video events
0,0,"love.jpg",0,0
//Break Periods
//Storyboard Layer 0 (Background)
//Storyboard Layer 1 (Fail)
//Storyboard Layer 2 (Pass)
//Storyboard Layer 3 (Foreground)
//Storyboard Layer 4 (Overlay)
//Storyboard Sound Samples

[TimingPoints]
28,342.857142857143,4,1,0,70,1,8
28,-200,4,1,0,70,0,8
1399,342.857142857143,4,1,0,70,1,0
1399,-200,4,1,0,70,0,0
21284,-203.389830508475,4,1,0,70,0,0
21456,-206.896551724138,4,1,0,70,0,0
21627,-210.526315789474,4,1,0,70,0,0
21799,-214.285714285714,4,1,0,70,0,0
21970,-218.181818181818,4,1,0,70,0,0
22141,-222.222222222222,4,1,0,70,0,0
22484,-125,4,1,0,70,0,0
22656,-123.456790123457,4,1,0,70,0,0
22827,-121.951219512195,4,1,0,70,0,0
22999,-120.481927710843,4,1,0,70,0,0
23170,-119.047619047619,4,1,0,70,0,0
23341,-117.647058823529,4,1,0,70,0,0
23427,-117.269812185066,4,1,0,70,0,0
23513,-116.89497716895,4,1,0,70,0,0
23599,-116.522530723714,4,1,0,70,0,0
23684,-116.152450090744,4,1,0,70,0,0
23770,-115.784712799638,4,1,0,70,0,0
23856,-115.419296663661,4,1,0,70,0,0
23941,-115.056179775281,4,1,0,70,0,0
24027,-114.695340501792,4,1,0,70,0,0
24113,-114.336757481018,4,1,0,70,0,0
24199,-113.980409617097,4,1,0,70,0,0
24284,-113.626276076343,4,1,0,70,0,0
24370,-113.274336283186,4,1,0,70,0,0
24456,-112.924569916189,4,1,0,70,0,0
24541,-112.576956904134,4,1,0,70,0,0
24627,-112.231477422183,4,1,0,70,0,0
24713,-111.888111888112,4,1,0,70,0,0
24799,-111.546840958606,4,1,0,70,0,0
24884,-111.20764552563,4,1,0,70,0,0
24970,-110.870506712863,4,1,0,70,0,0
25056,-110.535405872193,4,1,0,70,0,0
25141,-110.202324580284,4,1,0,70,0,0
25227,-109.871244635193,4,1,0,70,0,0
25313,-109.542148053059,4,1,0,70,0,0
25399,-109.215017064846,4,1,0,70,0,0
25484,-108.889834113143,4,1,0,70,0,0
25570,-108.566581849025,4,1,0,70,0,0
25656,-108.245243128964,4,1,0,70,0,0
25741,-107.925801011804,4,1,0,70,0,0
25827,-107.60823875578,4,1,0,70,0,0
25913,-107.292539815591,4,1,0,70,0,0
25999,-106.978687839532,4,1,0,70,0,0
26084,-106.666666666667,4,1,0,70,0,0
26170,-106.356460324055,4,1,0,70,0,0
26256,-106.048053024027,4,1,0,70,0,0
26341,-105.741429161504,4,1,0,70,0,0
26427,-105.436573311367,4,1,0,70,0,0
26513,-105.133470225873,4,1,0,70,0,0
26599,-104.832104832105,4,1,0,70,0,0
26684,-104.532462229481,4,1,0,70,0,0
26770,-104.234527687296,4,1,0,70,0,0
26856,-103.938286642306,4,1,0,70,0,0
26941,-103.643724696356,4,1,0,70,0,0
27027,-103.350827614049,4,1,0,70,0,0
27113,-103.059581320451,4,1,0,70,0,0
27199,-102.769971898836,4,1,0,70,0,0
27284,-102.481985588471,4,1,0,70,0,0
27370,-102.195608782435,4,1,0,70,0,0
27456,-101.910828025478,4,1,0,70,0,0
27541,-101.62763001191,4,1,0,70,0,0
27627,-101.346001583531,4,1,0,70,0,0
27713,-101.065929727596,4,1,0,70,0,0
27799,-100.787401574803,4,1,0,70,0,0
27884,-100.51040439733,4,1,0,70,0,0
27970,-100.234925606891,4,1,0,70,0,0
28056,-99.9609527528309,4,1,0,70,0,0
28141,-99.6884735202492,4,1,0,70,0,0
28227,-99.4174757281553,4,1,0,70,0,0
28313,-99.147947327653,4,1,0,70,0,0
28399,-98.8798764001545,4,1,0,70,0,0
28484,-98.613251155624,4,1,0,70,0,0
28570,-98.348059930849,4,1,0,70,0,0
28656,-98.0842911877395,4,1,0,70,0,0
28741,-97.8219335116546,4,1,0,70,0,0
28827,-97.5609756097561,4,1,0,70,0,0
28913,-97.3014063093881,4,1,0,70,0,0
28999,-97.0432145564822,4,1,0,70,0,0
29084,-96.7863894139887,4,1,0,70,0,0
29170,-96.5309200603318,4,1,0,70,0,0
29256,-96.2767957878902,4,1,0,70,0,0
29341,-96.0240060015004,4,1,0,70,0,0
29427,-95.7725402169847,4,1,0,70,0,0
29513,-95.5223880597015,4,1,0,70,0,0
29599,-95.2735392631187,4,1,0,70,0,0
29684,-95.0259836674091,4,1,0,70,0,0
29770,-94.7797112180674,4,1,0,70,0,0
29856,-94.5347119645495,4,1,0,70,0,0
29941,-94.2909760589319,4,1,0,70,0,0
30027,-94.0484937545922,4,1,0,70,0,0
30113,-93.8072554049102,4,1,0,70,0,0
30199,-93.5672514619883,4,1,0,70,0,0
30284,-93.3284724753919,4,1,0,70,0,0
30370,-93.0909090909091,4,1,0,70,0,0
30456,-92.854552049329,4,1,0,70,0,0
30541,-92.6193921852388,4,1,0,70,0,0
30627,-92.3854204258391,4,1,0,70,0,0
30713,-92.1526277897768,4,1,0,70,0,0
30799,-91.9210053859964,4,1,0,70,0,0
30884,-91.6905444126075,4,1,0,70,0,0
30970,-91.4612361557699,4,1,0,70,0,0
31056,-91.2330719885959,4,1,0,70,0,0
31141,-91.0060433700675,4,1,0,70,0,0
31227,-90.7801418439716,4,1,0,70,0,0
31313,-90.5553590378493,4,1,0,70,0,0
31399,-90.3316866619619,4,1,0,70,0,0
31484,-90.1091165082717,4,1,0,70,0,0
31570,-89.8876404494382,4,1,0,70,0,0
31656,-89.6672504378284,4,1,0,70,0,0
31741,-89.4479385045423,4,1,0,70,0,0
31827,-89.2296967584524,4,1,0,70,0,0
31913,-89.0125173852573,4,1,0,70,0,0
31999,-88.7963926465488,4,1,0,70,0,0
32084,-88.5813148788927,4,1,0,70,0,0
32170,-88.3672764929237,4,1,0,70,0,0
32256,-88.1542699724518,4,1,0,70,0,0
32341,-87.942287873583,4,1,0,70,0,0
32427,-87.731322823852,4,1,0,70,0,0
32513,-87.5213675213675,4,1,0,70,0,0
32599,-87.31241473397,4,1,0,70,0,0
32684,-87.1044572984008,4,1,0,70,0,0
32770,-86.897488119484,4,1,0,70,0,0
32856,-86.6915001693194,4,1,0,70,0,0
32941,-86.4864864864865,4,1,0,70,0,0
33027,-86.2824401752612,4,1,0,70,0,0
33113,-86.079354404842,4,1,0,70,0,0
33199,-85.8772224085877,4,1,0,70,0,0
33284,-85.6760374832664,4,1,0,70,0,0
33370,-85.4757929883139,4,1,0,70,0,0
33456,-85.2764823451033,4,1,0,70,0,0
33541,-85.0780990362247,4,1,0,70,0,0
33627,-84.8806366047745,4,1,0,70,0,0
33713,-84.6840886536553,4,1,0,70,0,0
33799,-84.4884488448845,4,1,0,70,0,0
33884,-84.2937108989134,4,1,0,70,0,0
33970,-84.0998685939553,4,1,0,70,0,0
34056,-83.9069157653228,4,1,0,70,0,0
34141,-83.7148463047744,4,1,0,70,0,0
34227,-83.5236541598695,4,1,0,70,0,0
34313,-83.3333333333333,4,1,0,70,0,0
34399,-83.6601307189543,4,1,0,70,0,0
34484,-83.989501312336,4,1,0,70,0,0
34570,-84.3214756258235,4,1,0,50,0,0
34656,-84.6560846560847,4,1,0,50,0,0
34741,-84.9933598937583,4,1,0,50,0,0
34827,-85.3333333333333,4,1,0,50,0,0
34913,-85.6760374832664,4,1,0,50,0,0
34999,-86.0215053763441,4,1,0,50,0,0
35084,-86.3697705802969,4,1,0,50,0,0
35170,-86.7208672086721,4,1,0,50,0,0
35256,-87.0748299319728,4,1,0,50,0,0
35341,-87.431693989071,4,1,0,50,0,0
35427,-87.7914951989026,4,1,0,50,0,0
35513,-88.1542699724518,4,1,0,50,0,0
35599,-88.5200553250346,4,1,0,50,0,0
35684,-88.8888888888889,4,1,0,50,0,0
35770,-89.2608089260809,4,1,0,50,0,0
35856,-89.6358543417367,4,1,0,50,0,0
35941,-90.014064697609,4,1,0,50,0,0
36027,-90.3954802259887,4,1,0,50,0,0
36113,-90.7801418439716,4,1,0,50,0,0
36199,-91.1680911680912,4,1,0,50,0,0
36284,-91.5593705293276,4,1,0,50,0,0
36370,-91.9540229885058,4,1,0,50,0,0
36456,-92.3520923520924,4,1,0,50,0,0
36541,-92.7536231884058,4,1,0,50,0,0
36627,-93.1586608442504,4,1,0,50,0,0
36713,-93.5672514619883,4,1,0,50,0,0
36799,-93.9794419970631,4,1,0,50,0,0
36884,-94.3952802359882,4,1,0,50,0,0
36970,-94.8148148148148,4,1,0,50,0,0
37056,-95.2380952380952,4,1,0,50,0,0
37141,-95.6651718983558,4,1,0,50,0,0
37227,-96.0960960960961,4,1,0,50,0,0
37313,-96.5309200603318,4,1,0,50,0,0
37399,-96.969696969697,4,1,0,50,0,0
37484,-97.4124809741248,4,1,0,50,0,0
37570,-97.8593272171254,4,1,0,50,0,0
37656,-98.310291858679,4,1,0,50,0,0
37741,-98.7654320987654,4,1,0,50,0,0
37827,-99.2248062015504,4,1,0,50,0,0
37913,-99.6884735202492,4,1,0,50,0,0
37999,-100.156494522692,4,1,0,50,0,0
38084,-100.62893081761,4,1,0,50,0,0
38170,-101.105845181675,4,1,0,50,0,0
38256,-101.587301587302,4,1,0,50,0,0
38341,-102.07336523126,4,1,0,50,0,0
38427,-102.564102564103,4,1,0,50,0,0
38513,-103.059581320451,4,1,0,50,0,0
38599,-103.559870550162,4,1,0,50,0,0
38684,-104.065040650407,4,1,0,50,0,0
38770,-104.575163398693,4,1,0,50,0,0
38856,-105.090311986864,4,1,0,50,0,0
38941,-105.610561056106,4,1,0,50,0,0
39027,-106.135986733002,4,1,0,50,0,0
39113,-106.666666666667,4,1,0,50,0,0
39199,-107.202680067002,4,1,0,50,0,0
39284,-107.744107744108,4,1,0,50,0,0
39370,-108.2910321489,4,1,0,50,0,0
39456,-108.843537414966,4,1,0,50,0,0
39541,-109.401709401709,4,1,0,50,0,0
39627,-109.965635738832,4,1,0,50,0,0
39713,-110.535405872193,4,1,0,50,0,0
39799,-111.111111111111,4,1,0,65,0,0
39884,-110.218140068886,4,1,0,65,0,0
39970,-109.339407744875,4,1,0,65,0,0
40056,-108.474576271186,4,1,0,65,0,0
40141,-107.62331838565,4,1,0,65,0,0
40227,-106.78531701891,4,1,0,65,0,0
40313,-105.960264900662,4,1,0,65,0,0
40399,-105.147864184009,4,1,0,65,0,0
40484,-104.347826086957,4,1,0,65,0,0
40570,-103.559870550162,4,1,0,65,0,0
40656,-102.783725910064,4,1,0,65,0,0
40741,-102.01912858661,4,1,0,65,0,0
40827,-101.26582278481,4,1,0,65,0,0
40913,-100.523560209424,4,1,0,65,0,0
40999,-99.7920997920998,4,1,0,65,0,0
41084,-99.0712074303406,4,1,0,65,0,0
41170,-98.3606557377049,4,1,0,80,0,0
41256,-97.6602238046796,4,1,0,80,0,0
41341,-96.969696969697,4,1,0,80,0,0
41427,-96.2888665997994,4,1,0,80,0,0
41513,-95.6175298804781,4,1,0,80,0,0
41599,-94.9554896142433,4,1,0,80,0,0
41684,-94.3025540275049,4,1,0,80,0,0
41770,-93.6585365853659,4,1,0,80,0,0
41856,-93.0232558139535,4,1,0,80,0,0
41941,-92.3965351299326,4,1,0,80,0,0
42027,-91.7782026768642,4,1,0,80,0,0
42113,-91.1680911680912,4,1,0,80,0,0
42199,-90.5660377358491,4,1,0,80,0,0
42284,-89.9718837863168,4,1,0,80,0,0
42370,-89.3854748603352,4,1,0,80,0,0
42456,-88.8066604995375,4,1,0,80,0,0
42541,-88.2378893496868,4,1,0,95,0,0
42627,-86.958884752303,4,1,0,95,0,0
42713,-85.7164286250013,4,1,0,95,0,0
42799,-84.508976437841,4,1,0,95,0,0
42884,-83.3350694806142,4,1,0,95,0,0
42970,-82.1933289839363,4,1,0,95,0,0
43056,-81.0824507170729,4,1,0,95,0,0
43141,-80.0012000180003,4,1,0,95,0,0
43227,-78.9484072158844,4,1,0,95,0,0
43313,-77.9229634102985,4,1,0,95,0,0
43399,-76.9238165751594,4,1,0,95,0,0
43484,-75.9499679586073,4,1,0,95,0,0
43570,-75.0004687529297,4,1,0,95,0,0
43656,-74.0744170111899,4,1,0,95,0,0
43741,-73.1709547894963,4,1,0,95,0,0
43827,-72.2892654958818,4,1,0,95,0,0
43913,-71.4285714285714,4,1,0,95,0,0
44084,-78.4929356357928,4,1,0,85,0,0
44256,-86.2068965517241,4,1,0,75,0,0
44427,-94.7867298578199,4,1,0,65,0,0
44770,-114.41647597254,4,1,0,55,0,0
44941,-121.951219512195,4,1,0,55,0,0
45284,-71.4285714285714,4,1,0,100,0,1
45370,-73.2600732600733,4,1,0,100,0,1
45456,-75.1385366769982,4,1,0,100,0,1
45541,-77.0651658225623,4,1,0,100,0,1
45627,-79.0411957076391,4,1,0,100,0,1
45713,-81.067893021975,4,1,0,100,0,1
45799,-83.1465569957372,4,1,0,100,0,1
45884,-85.2785199574476,4,1,0,100,0,1
45970,-87.4651486915181,4,1,0,100,0,1
46056,-89.7078448017541,4,1,0,100,0,1
46141,-92.0080459674479,4,1,0,100,0,1
46227,-94.3672266577692,4,1,0,100,0,1
46313,-96.7868991080704,4,1,0,100,0,1
46399,-99.2686144599615,4,1,0,100,0,1
46484,-101.813963491665,4,1,0,100,0,1
46570,-104.424577970157,4,1,0,100,0,1
46656,-71.4285714285714,4,1,0,100,0,1
46741,-73.2600732600733,4,1,0,100,0,1
46827,-75.1385366769982,4,1,0,100,0,1
46913,-77.0651658225623,4,1,0,100,0,1
46999,-79.0411957076391,4,1,0,100,0,1
47084,-81.067893021975,4,1,0,100,0,1
47170,-83.1465569957372,4,1,0,100,0,1
47256,-85.2785199574476,4,1,0,100,0,1
47341,-87.4651486915181,4,1,0,100,0,1
47427,-89.7078448017541,4,1,0,100,0,1
47513,-92.0080459674479,4,1,0,100,0,1
47599,-94.3672266577692,4,1,0,100,0,1
47684,-96.7868991080704,4,1,0,100,0,1
47770,-99.2686144599615,4,1,0,100,0,1
47856,-101.813963491665,4,1,0,100,0,1
47941,-104.424577970157,4,1,0,100,0,1
48027,-71.4285714285714,4,1,0,100,0,1
48113,-73.2600732600733,4,1,0,100,0,1
48199,-75.1385366769982,4,1,0,100,0,1
48284,-77.0651658225623,4,1,0,100,0,1
48370,-79.0411957076391,4,1,0,100,0,1
48456,-81.067893021975,4,1,0,100,0,1
48541,-83.1465569957372,4,1,0,100,0,1
48627,-85.2785199574476,4,1,0,100,0,1
48713,-87.4651486915181,4,1,0,100,0,1
48799,-89.7078448017541,4,1,0,100,0,1
48884,-92.0080459674479,4,1,0,100,0,1
48970,-94.3672266577692,4,1,0,100,0,1
49056,-96.7868991080704,4,1,0,100,0,1
49141,-99.2686144599615,4,1,0,100,0,1
49227,-101.813963491665,4,1,0,100,0,1
49313,-104.424577970157,4,1,0,100,0,1
49399,-71.4285714285714,4,1,0,100,0,1
49484,-75.1385366769982,4,1,0,100,0,1
49570,-79.0411957076391,4,1,0,100,0,1
49656,-83.1465569957372,4,1,0,100,0,1
49741,-87.4651486915181,4,1,0,100,0,1
49827,-92.0080459674479,4,1,0,100,0,1
49913,-96.7868991080704,4,1,0,100,0,1
49999,-101.813963491665,4,1,0,100,0,1
50084,-71.4285714285714,4,1,0,100,0,1
50170,-75.1385366769982,4,1,0,100,0,1
50256,-79.0411957076391,4,1,0,100,0,1
50341,-83.1465569957372,4,1,0,100,0,1
50427,-87.4651486915181,4,1,0,100,0,1
50513,-92.0080459674479,4,1,0,100,0,1
50599,-96.7868991080704,4,1,0,100,0,1
50684,-101.813963491665,4,1,0,100,0,1
50770,-71.4285714285714,4,1,0,100,0,1
50856,-73.2600732600733,4,1,0,100,0,1
50941,-75.1385366769982,4,1,0,100,0,1
51027,-77.0651658225623,4,1,0,100,0,1
51113,-79.0411957076391,4,1,0,100,0,1
51199,-81.067893021975,4,1,0,100,0,1
51284,-83.1465569957372,4,1,0,100,0,1
51370,-85.2785199574476,4,1,0,100,0,1
51456,-87.4651486915181,4,1,0,100,0,1
51541,-89.7078448017541,4,1,0,100,0,1
51627,-92.0080459674479,4,1,0,100,0,1
51713,-94.3672266577692,4,1,0,100,0,1
51799,-96.7868991080704,4,1,0,100,0,1
51884,-99.2686144599615,4,1,0,100,0,1
51970,-101.813963491665,4,1,0,100,0,1
52056,-104.424577970157,4,1,0,100,0,1
52141,-71.4285714285714,4,1,0,100,0,1
52227,-73.2600732600733,4,1,0,100,0,1
52313,-75.1385366769982,4,1,0,100,0,1
52399,-77.0651658225623,4,1,0,100,0,1
52484,-79.0411957076391,4,1,0,100,0,1
52570,-81.067893021975,4,1,0,100,0,1
52656,-83.1465569957372,4,1,0,100,0,1
52741,-85.2785199574476,4,1,0,100,0,1
52827,-87.4651486915181,4,1,0,100,0,1
52913,-89.7078448017541,4,1,0,100,0,1
52999,-92.0080459674479,4,1,0,100,0,1
53084,-94.3672266577692,4,1,0,100,0,1
53170,-96.7868991080704,4,1,0,100,0,1
53256,-99.2686144599615,4,1,0,100,0,1
53341,-101.813963491665,4,1,0,100,0,1
53427,-104.424577970157,4,1,0,100,0,1
53513,-71.4285714285714,4,1,0,100,0,1
53599,-73.2600732600733,4,1,0,100,0,1
53684,-75.1385366769982,4,1,0,100,0,1
53770,-77.0651658225623,4,1,0,100,0,1
53856,-79.0411957076391,4,1,0,100,0,1
53941,-81.067893021975,4,1,0,100,0,1
54027,-83.1465569957372,4,1,0,100,0,1
54113,-85.2785199574476,4,1,0,100,0,1
54199,-87.4651486915181,4,1,0,100,0,1
54284,-89.7078448017541,4,1,0,100,0,1
54370,-92.0080459674479,4,1,0,100,0,1
54456,-94.3672266577692,4,1,0,100,0,1
54541,-96.7868991080704,4,1,0,100,0,1
54627,-99.2686144599615,4,1,0,100,0,1
54713,-101.813963491665,4,1,0,100,0,1
54799,-104.424577970157,4,1,0,100,0,1
54884,-107.102131251443,4,1,0,100,0,1
54970,-103.98265170908,4,1,0,100,0,1
55056,-100.954030733537,4,1,0,100,0,1
55141,-98.013622119428,4,1,0,100,0,1
55227,-95.1588564583224,4,1,0,100,0,1
55313,-92.3872392841924,4,1,0,100,0,1
55399,-89.6963488155815,4,1,0,100,0,1
55484,-87.083833760584,4,1,0,100,0,1
55570,-84.5474114037462,4,1,0,100,0,1
55656,-82.084865487022,4,1,0,100,0,1
55741,-79.6940441088077,4,1,0,100,0,1
55827,-77.3728583832093,4,1,0,100,0,1
55913,-75.1192800079628,4,1,0,100,0,1
56256,-71.4285714285714,4,1,0,100,0,1
56341,-73.2600732600733,4,1,0,100,0,1
56427,-75.1385366769982,4,1,0,100,0,1
56513,-77.0651658225623,4,1,0,100,0,1
56599,-79.0411957076391,4,1,0,100,0,1
56684,-81.067893021975,4,1,0,100,0,1
56770,-83.1465569957372,4,1,0,100,0,1
56856,-85.2785199574476,4,1,0,100,0,1
56941,-87.4651486915181,4,1,0,100,0,1
57027,-89.7078448017541,4,1,0,100,0,1
57113,-92.0080459674479,4,1,0,100,0,1
57199,-94.3672266577692,4,1,0,100,0,1
57284,-96.7868991080704,4,1,0,100,0,1
57370,-99.2686144599615,4,1,0,100,0,1
57456,-101.813963491665,4,1,0,100,0,1
57541,-104.424577970157,4,1,0,100,0,1
57627,-71.4285714285714,4,1,0,100,0,1
57713,-73.2600732600733,4,1,0,100,0,1
57799,-75.1385366769982,4,1,0,100,0,1
57884,-77.0651658225623,4,1,0,100,0,1
57970,-79.0411957076391,4,1,0,100,0,1
58056,-81.067893021975,4,1,0,100,0,1
58141,-83.1465569957372,4,1,0,100,0,1
58227,-85.2785199574476,4,1,0,100,0,1
58313,-87.4651486915181,4,1,0,100,0,1
58399,-89.7078448017541,4,1,0,100,0,1
58484,-92.0080459674479,4,1,0,100,0,1
58570,-94.3672266577692,4,1,0,100,0,1
58656,-96.7868991080704,4,1,0,100,0,1
58741,-99.2686144599615,4,1,0,100,0,1
58827,-101.813963491665,4,1,0,100,0,1
58913,-104.424577970157,4,1,0,100,0,1
58999,-71.4285714285714,4,1,0,100,0,1
59084,-73.2600732600733,4,1,0,100,0,1
59170,-75.1385366769982,4,1,0,100,0,1
59256,-77.0651658225623,4,1,0,100,0,1
59341,-79.0411957076391,4,1,0,100,0,1
59427,-81.067893021975,4,1,0,100,0,1
59513,-83.1465569957372,4,1,0,100,0,1
59599,-85.2785199574476,4,1,0,100,0,1
59684,-87.4651486915181,4,1,0,100,0,1
59770,-89.7078448017541,4,1,0,100,0,1
59856,-92.0080459674479,4,1,0,100,0,1
59941,-94.3672266577692,4,1,0,100,0,1
60027,-96.7868991080704,4,1,0,100,0,1
60113,-99.2686144599615,4,1,0,100,0,1
60199,-101.813963491665,4,1,0,100,0,1
60284,-104.424577970157,4,1,0,100,0,1
60370,-71.4285714285714,4,1,0,100,0,1
60456,-73.2600732600733,4,1,0,100,0,1
60541,-75.1385366769982,4,1,0,100,0,1
60627,-77.0651658225623,4,1,0,100,0,1
60713,-79.0411957076391,4,1,0,100,0,1
60799,-81.067893021975,4,1,0,100,0,1
60884,-83.1465569957372,4,1,0,100,0,1
60970,-85.2785199574476,4,1,0,100,0,1
61056,-87.4651486915181,4,1,0,100,0,1
61141,-89.7078448017541,4,1,0,100,0,1
61227,-92.0080459674479,4,1,0,100,0,1
61313,-94.3672266577692,4,1,0,100,0,1
61399,-96.7868991080704,4,1,0,100,0,1
61484,-99.2686144599615,4,1,0,100,0,1
61570,-101.813963491665,4,1,0,100,0,1
61656,-104.424577970157,4,1,0,100,0,1
61741,-71.4285714285714,4,1,0,100,0,1
61827,-73.2600732600733,4,1,0,100,0,1
61913,-75.1385366769982,4,1,0,100,0,1
61999,-77.0651658225623,4,1,0,100,0,1
62084,-79.0411957076391,4,1,0,100,0,1
62170,-81.067893021975,4,1,0,100,0,1
62256,-83.1465569957372,4,1,0,100,0,1
62341,-85.2785199574476,4,1,0,100,0,1
62427,-87.4651486915181,4,1,0,100,0,1
62513,-89.7078448017541,4,1,0,100,0,1
62599,-92.0080459674479,4,1,0,100,0,1
62684,-94.3672266577692,4,1,0,100,0,1
62770,-96.7868991080704,4,1,0,100,0,1
62856,-99.2686144599615,4,1,0,100,0,1
62941,-101.813963491665,4,1,0,100,0,1
63027,-104.424577970157,4,1,0,100,0,1
63113,-71.4285714285714,4,1,0,100,0,1
63199,-73.2600732600733,4,1,0,100,0,1
63284,-75.1385366769982,4,1,0,100,0,1
63370,-77.0651658225623,4,1,0,100,0,1
63456,-79.0411957076391,4,1,0,100,0,1
63541,-81.067893021975,4,1,0,100,0,1
63627,-83.1465569957372,4,1,0,100,0,1
63713,-85.2785199574476,4,1,0,100,0,1
63799,-87.4651486915181,4,1,0,100,0,1
63884,-89.7078448017541,4,1,0,100,0,1
63970,-92.0080459674479,4,1,0,100,0,1
64056,-94.3672266577692,4,1,0,100,0,1
64141,-96.7868991080704,4,1,0,100,0,1
64227,-99.2686144599615,4,1,0,100,0,1
64313,-101.813963491665,4,1,0,100,0,1
64399,-104.424577970157,4,1,0,100,0,1
64484,-71.4285714285714,4,1,0,100,0,1
64570,-73.2600732600733,4,1,0,100,0,1
64656,-75.1385366769982,4,1,0,100,0,1
64741,-77.0651658225623,4,1,0,100,0,1
64827,-79.0411957076391,4,1,0,100,0,1
64913,-81.067893021975,4,1,0,100,0,1
64999,-83.1465569957372,4,1,0,100,0,1
65084,-85.2785199574476,4,1,0,100,0,1
65170,-87.4651486915181,4,1,0,100,0,1
65256,-89.7078448017541,4,1,0,100,0,1
65341,-92.0080459674479,4,1,0,100,0,1
65427,-94.3672266577692,4,1,0,100,0,1
65513,-96.7868991080704,4,1,0,100,0,1
65599,-99.2686144599615,4,1,0,100,0,1
65684,-101.813963491665,4,1,0,100,0,1
65770,-104.424577970157,4,1,0,100,0,1
65856,-71.4285714285714,4,1,0,100,0,1
65941,-73.6913376422132,4,1,0,100,0,1
66027,-76.0257853980227,4,1,0,100,0,1
66113,-78.4341855372565,4,1,0,100,0,1
66199,-80.9188806282796,4,1,0,100,0,1
66284,-83.4822877879848,4,1,0,100,0,1
66370,-86.1269004016845,4,1,0,100,0,1
66456,-88.8552909262838,4,1,0,100,0,1
66541,-91.6701134400145,4,1,0,100,0,1
66627,-94.5741059324825,4,1,0,100,0,1
66713,-97.5700932255994,4,1,0,100,0,1
66799,-100.660989582808,4,1,0,100,0,1
66884,-103.849801558451,4,1,0,100,0,1
66970,-107.139631053774,4,1,0,100,0,1
67056,-110.533678263256,4,1,0,100,0,1
67141,-114.035244407725,4,1,0,100,0,1
67227,-117.647058823529,4,1,0,100,0,0
67313,-117.43119266055,4,1,0,100,0,0
67399,-117.216117216117,4,1,0,70,0,0
67484,-117.001828153565,4,1,0,70,0,0
67570,-116.788321167883,4,1,0,70,0,0
67656,-116.575591985428,4,1,0,70,0,0
67741,-116.363636363636,4,1,0,70,0,0
67827,-116.152450090744,4,1,0,70,0,0
67913,-115.942028985507,4,1,0,70,0,0
67999,-115.732368896926,4,1,0,70,0,0
68084,-115.523465703971,4,1,0,70,0,0
68170,-115.315315315315,4,1,0,70,0,0
68256,-115.107913669065,4,1,0,70,0,0
68341,-114.901256732496,4,1,0,70,0,0
68427,-114.695340501792,4,1,0,70,0,0
68513,-114.490161001789,4,1,0,70,0,0
68599,-114.285714285714,4,1,0,70,0,0
68684,-114.081996434938,4,1,0,70,0,0
68770,-113.879003558719,4,1,0,70,0,0
68856,-113.676731793961,4,1,0,70,0,0
68941,-113.475177304965,4,1,0,70,0,0
69027,-113.274336283186,4,1,0,70,0,0
69113,-113.074204946996,4,1,0,70,0,0
69199,-112.874779541446,4,1,0,70,0,0
69284,-112.676056338028,4,1,0,70,0,0
69370,-112.478031634446,4,1,0,70,0,0
69456,-112.280701754386,4,1,0,70,0,0
69541,-112.084063047285,4,1,0,70,0,0
69627,-111.888111888112,4,1,0,70,0,0
69713,-111.692844677138,4,1,0,70,0,0
69799,-111.498257839721,4,1,0,70,0,0
69884,-111.304347826087,4,1,0,70,0,0
69970,-111.111111111111,4,1,0,70,0,0
70056,-110.918544194107,4,1,0,70,0,0
70141,-110.726643598616,4,1,0,70,0,0
70227,-110.535405872193,4,1,0,70,0,0
70313,-110.344827586207,4,1,0,70,0,0
70399,-110.154905335628,4,1,0,70,0,0
70484,-109.965635738832,4,1,0,70,0,0
70570,-109.777015437393,4,1,0,70,0,0
70656,-109.58904109589,4,1,0,70,0,0
70741,-109.401709401709,4,1,0,70,0,0
70827,-109.215017064846,4,1,0,70,0,0
70913,-109.028960817717,4,1,0,70,0,0
70999,-108.843537414966,4,1,0,70,0,0
71084,-108.658743633277,4,1,0,70,0,0
71170,-108.474576271186,4,1,0,70,0,0
71256,-108.2910321489,4,1,0,70,0,0
71341,-108.108108108108,4,1,0,70,0,0
71427,-107.925801011804,4,1,0,70,0,0
71513,-107.744107744108,4,1,0,70,0,0
71599,-107.563025210084,4,1,0,70,0,0
71684,-107.38255033557,4,1,0,70,0,0
71770,-107.202680067002,4,1,0,70,0,0
71856,-107.023411371237,4,1,0,70,0,0
71941,-106.844741235392,4,1,0,70,0,0
72027,-106.666666666667,4,1,0,70,0,0
72113,-106.48918469218,4,1,0,70,0,0
72199,-106.312292358804,4,1,0,70,0,0
72284,-106.135986733002,4,1,0,70,0,0
72370,-105.960264900662,4,1,0,70,0,0
72456,-105.785123966942,4,1,0,70,0,0
72541,-105.610561056106,4,1,0,70,0,0
72627,-105.436573311367,4,1,0,70,0,0
72713,-105.263157894737,4,1,0,70,0,0
72799,-104.832104832105,4,1,0,70,0,0
72884,-104.404567699837,4,1,0,70,0,0
72970,-103.980503655565,4,1,0,70,0,0
73056,-103.559870550162,4,1,0,70,0,0
73141,-103.142626913779,4,1,0,70,0,0
73227,-102.728731942215,4,1,0,70,0,0
73313,-102.318145483613,4,1,0,70,0,0
73399,-101.910828025478,4,1,0,70,0,0
73484,-101.506740681998,4,1,0,70,0,0
73570,-101.105845181675,4,1,0,70,0,0
73656,-100.708103855232,4,1,0,70,0,0
73741,-100.313479623824,4,1,0,70,0,0
73827,-99.9219359875098,4,1,0,70,0,0
73913,-99.5334370139969,4,1,0,70,0,0
73999,-99.147947327653,4,1,0,70,0,0
74084,-98.7654320987654,4,1,0,70,0,0
74170,-98.3858570330515,4,1,0,70,0,0
74256,-98.0091883614089,4,1,0,70,0,0
74341,-97.6353928299008,4,1,0,70,0,0
74427,-97.2644376899696,4,1,0,70,0,0
74513,-96.8962906888721,4,1,0,70,0,0
74599,-96.5309200603318,4,1,0,70,0,0
74684,-96.168294515402,4,1,0,70,0,0
74770,-95.8083832335329,4,1,0,70,0,0
74856,-95.4511558538404,4,1,0,70,0,0
74941,-95.0965824665676,4,1,0,70,0,0
75027,-94.7446336047372,4,1,0,70,0,0
75113,-94.3952802359882,4,1,0,70,0,0
75199,-94.0484937545922,4,1,0,70,0,0
75284,-93.7042459736457,4,1,0,70,0,0
75370,-93.3625091174325,4,1,0,70,0,0
75456,-93.0232558139535,4,1,0,70,0,0
75541,-92.6864590876177,4,1,0,70,0,0
75627,-92.3520923520924,4,1,0,70,0,0
75713,-92.020129403307,4,1,0,70,0,0
75799,-91.6905444126075,4,1,0,70,0,0
75884,-91.3633119200571,4,1,0,70,0,0
75970,-91.0384068278805,4,1,0,70,0,0
76056,-90.7158043940468,4,1,0,70,0,0
76141,-90.3954802259887,4,1,0,70,0,0
76227,-90.0774102744546,4,1,0,70,0,0
76313,-89.7615708274895,4,1,0,70,0,0
76399,-89.4479385045423,4,1,0,70,0,0
76484,-89.1364902506964,4,1,0,70,0,0
76570,-88.8272033310201,4,1,0,70,0,0
76656,-88.5200553250346,4,1,0,70,0,0
76741,-88.2150241212957,4,1,0,70,0,0
76827,-87.9120879120879,4,1,0,70,0,0
76913,-87.6112251882273,4,1,0,70,0,0
76999,-87.31241473397,4,1,0,70,0,0
77084,-87.0156356220258,4,1,0,70,0,0
77170,-86.7208672086721,4,1,0,70,0,0
77256,-86.4280891289669,4,1,0,70,0,0
77341,-86.1372812920592,4,1,0,70,0,0
77427,-85.8484238765929,4,1,0,70,0,0
77513,-85.5614973262032,4,1,0,70,0,0
77599,-85.2764823451033,4,1,0,70,0,0
77684,-84.9933598937583,4,1,0,70,0,0
77770,-84.7121111846459,4,1,0,70,0,0
77856,-84.4327176781003,4,1,0,70,0,0
77941,-84.155161078238,4,1,0,70,0,0
78027,-83.8794233289646,4,1,0,70,0,0
78113,-83.6054866100588,4,1,0,70,0,0
78199,-83.3333333333333,4,1,0,50,0,0
78284,-83.6601307189543,4,1,0,50,0,0
78370,-83.989501312336,4,1,0,50,0,0
78456,-84.3214756258235,4,1,0,50,0,0
78541,-84.6560846560847,4,1,0,50,0,0
78627,-84.9933598937583,4,1,0,50,0,0
78713,-85.3333333333333,4,1,0,50,0,0
78799,-85.6760374832664,4,1,0,50,0,0
78884,-86.0215053763441,4,1,0,50,0,0
78970,-86.3697705802969,4,1,0,50,0,0
79056,-86.7208672086721,4,1,0,50,0,0
79141,-87.0748299319728,4,1,0,50,0,0
79227,-87.431693989071,4,1,0,50,0,0
79313,-87.7914951989026,4,1,0,50,0,0
79399,-88.1542699724518,4,1,0,50,0,0
79484,-88.5200553250346,4,1,0,50,0,0
79570,-88.8888888888889,4,1,0,50,0,0
79656,-89.2608089260809,4,1,0,50,0,0
79741,-89.6358543417367,4,1,0,50,0,0
79827,-90.014064697609,4,1,0,50,0,0
79913,-90.3954802259887,4,1,0,50,0,0
79999,-90.7801418439716,4,1,0,50,0,0
80084,-91.1680911680912,4,1,0,50,0,0
80170,-91.5593705293276,4,1,0,50,0,0
80256,-91.9540229885058,4,1,0,50,0,0
80341,-92.3520923520924,4,1,0,50,0,0
80427,-92.7536231884058,4,1,0,50,0,0
80513,-93.1586608442504,4,1,0,50,0,0
80599,-93.5672514619883,4,1,0,50,0,0
80684,-93.9794419970631,4,1,0,50,0,0
80770,-94.3952802359882,4,1,0,50,0,0
80856,-94.8148148148148,4,1,0,50,0,0
80941,-95.2380952380952,4,1,0,60,0,0
81027,-95.6651718983558,4,1,0,60,0,0
81113,-96.0960960960961,4,1,0,60,0,0
81199,-96.5309200603318,4,1,0,60,0,0
81284,-96.969696969697,4,1,0,60,0,0
81370,-97.4124809741248,4,1,0,60,0,0
81456,-97.8593272171254,4,1,0,60,0,0
81541,-98.310291858679,4,1,0,60,0,0
81627,-98.7654320987654,4,1,0,60,0,0
81713,-99.2248062015504,4,1,0,60,0,0
81799,-99.6884735202492,4,1,0,60,0,0
81884,-100.156494522692,4,1,0,60,0,0
81970,-100.62893081761,4,1,0,60,0,0
82056,-101.105845181675,4,1,0,60,0,0
82141,-101.587301587302,4,1,0,60,0,0
82227,-102.07336523126,4,1,0,60,0,0
82313,-102.564102564103,4,1,0,60,0,0
82399,-103.059581320451,4,1,0,60,0,0
82484,-103.559870550162,4,1,0,60,0,0
82570,-104.065040650407,4,1,0,60,0,0
82656,-104.575163398693,4,1,0,60,0,0
82741,-105.090311986864,4,1,0,60,0,0
82827,-105.610561056106,4,1,0,60,0,0
82913,-106.135986733002,4,1,0,60,0,0
82999,-106.666666666667,4,1,0,60,0,0
83084,-107.202680067002,4,1,0,60,0,0
83170,-107.744107744108,4,1,0,60,0,0
83256,-108.2910321489,4,1,0,60,0,0
83341,-108.843537414966,4,1,0,60,0,0
83427,-109.401709401709,4,1,0,60,0,0
83513,-109.965635738832,4,1,0,60,0,0
83599,-110.535405872193,4,1,0,60,0,0
83684,-111.111111111111,4,1,0,70,0,0
83770,-110.218140068886,4,1,0,70,0,0
83856,-109.339407744875,4,1,0,70,0,0
83941,-108.474576271186,4,1,0,70,0,0
84027,-107.62331838565,4,1,0,70,0,0
84113,-106.78531701891,4,1,0,70,0,0
84199,-105.960264900662,4,1,0,70,0,0
84284,-105.147864184009,4,1,0,70,0,0
84370,-104.347826086957,4,1,0,70,0,0
84456,-103.559870550162,4,1,0,70,0,0
84541,-102.783725910064,4,1,0,70,0,0
84627,-102.01912858661,4,1,0,70,0,0
84713,-101.26582278481,4,1,0,70,0,0
84799,-100.523560209424,4,1,0,70,0,0
84884,-99.7920997920998,4,1,0,70,0,0
84970,-99.0712074303406,4,1,0,80,0,0
85056,-98.3606557377049,4,1,0,80,0,0
85141,-97.6602238046796,4,1,0,80,0,0
85227,-96.969696969697,4,1,0,80,0,0
85313,-96.2888665997994,4,1,0,80,0,0
85399,-95.6175298804781,4,1,0,80,0,0
85484,-94.9554896142433,4,1,0,80,0,0
85570,-94.3025540275049,4,1,0,80,0,0
85656,-93.6585365853659,4,1,0,80,0,0
85741,-93.0232558139535,4,1,0,80,0,0
85827,-92.3965351299326,4,1,0,80,0,0
85913,-91.7782026768642,4,1,0,80,0,0
85999,-91.1680911680912,4,1,0,80,0,0
86084,-90.5660377358491,4,1,0,80,0,0
86170,-89.9718837863168,4,1,0,80,0,0
86256,-89.3854748603352,4,1,0,90,0,0
86341,-88.8066604995375,4,1,0,90,0,0
86427,-88.2378893496868,4,1,0,90,0,0
86513,-86.958884752303,4,1,0,90,0,0
86599,-85.7164286250013,4,1,0,90,0,0
86684,-84.508976437841,4,1,0,90,0,0
86770,-83.3350694806142,4,1,0,90,0,0
86856,-82.1933289839363,4,1,0,90,0,0
86941,-81.0824507170729,4,1,0,90,0,0
87027,-80.0012000180003,4,1,0,90,0,0
87113,-78.9484072158844,4,1,0,90,0,0
87199,-77.9229634102985,4,1,0,90,0,0
87284,-76.9238165751594,4,1,0,90,0,0
87370,-75.9499679586073,4,1,0,90,0,0
87456,-75.0004687529297,4,1,0,90,0,0
87541,-74.0744170111899,4,1,0,90,0,0
87627,-73.1709547894963,4,1,0,90,0,0
87713,-72.2892654958818,4,1,0,90,0,0
87884,-71.4285714285714,4,1,0,90,0,0
88056,-78.4929356357928,4,1,0,90,0,0
88227,-86.2068965517241,4,1,0,90,0,0
88313,-86.2068965517241,4,1,0,70,0,0
88399,-94.7867298578199,4,1,0,70,0,0
88656,-94.7867298578199,4,1,0,50,0,0
88741,-114.41647597254,4,1,0,50,0,0
88827,-114.41647597254,4,1,0,30,0,0
88913,-121.951219512195,4,1,0,30,0,0
89170,-153.846153846154,4,1,0,100,0,0
89513,-55.5555555555556,4,1,0,100,0,1
89684,-55.5555555555556,4,1,0,100,0,0
89856,-66.0984288294405,4,1,0,100,0,0
89941,-67.3924652313865,4,1,0,100,0,0
90027,-68.7118355612483,4,1,0,100,0,0
90113,-70.0570357166363,4,1,0,100,0,0
90199,-71.4285714285714,4,1,0,100,0,0
90284,-72.8269582677496,4,1,0,100,0,0
90370,-74.2527218877808,4,1,0,100,0,0
90456,-75.7063982896853,4,1,0,100,0,0
90541,-77.1885339319695,4,1,0,100,0,0
90627,-78.6996859499263,4,1,0,100,0,0
90713,-80.2404224520229,4,1,0,100,0,0
90799,-81.8113225783994,4,1,0,100,0,0
90884,-83.4129768082088,4,1,0,100,0,0
90970,-85.0459873717476,4,1,0,100,0,0
91056,-86.710968040172,4,1,0,100,0,0
91141,-88.4085446762948,4,1,0,100,0,0
91227,-90.1393554705994,4,1,0,100,0,0
91313,-91.9040511853511,4,1,0,100,0,0
91399,-93.7032949688899,4,1,0,100,0,0
91484,-95.5377633540722,4,1,0,100,0,0
91570,-97.4081458401617,4,1,0,100,0,0
91656,-99.3151455984367,4,1,0,100,0,0
91741,-101.25947948085,4,1,0,100,0,0
91827,-103.241878401237,4,1,0,100,0,0
91913,-105.263157894737,4,1,0,100,0,0
92084,-102.325581395349,4,1,0,100,0,0
92256,-99.5475113122172,4,1,0,100,0,0
92341,-101.061141990905,4,1,0,100,0,0
92513,-96.9162995594714,4,1,0,100,0,0
92599,-98.3477576711251,4,1,0,100,0,0
92770,-94.4206008583691,4,1,0,100,0,0
92941,-92.0502092050209,4,1,0,100,0,0
93027,-93.3358222885944,4,1,0,100,0,0
93199,-89.7959183673469,4,1,0,100,0,0
93284,-91.0249408337885,4,1,0,100,0,0
93456,-87.6494023904383,4,1,0,100,0,0
93627,-85.6031128404669,4,1,0,100,0,0
93713,-86.7152271938952,4,1,0,100,0,0
93884,-83.6501901140684,4,1,0,100,0,0
93970,-84.7098686997035,4,1,0,100,0,0
94141,-81.7843866171004,4,1,0,100,0,0
94313,-66.6666666666667,4,1,0,100,0,1
94484,-66.6666666666667,4,1,0,100,0,0
94656,-153.846153846154,4,1,0,100,0,0
94999,-55.5555555555556,4,1,0,100,0,1
95170,-55.5555555555556,4,1,0,100,0,0
95341,-66.0984288294405,4,1,0,100,0,0
95427,-67.3924652313865,4,1,0,100,0,0
95513,-68.7118355612483,4,1,0,100,0,0
95599,-70.0570357166363,4,1,0,100,0,0
95684,-71.4285714285714,4,1,0,100,0,0
95770,-72.8269582677496,4,1,0,100,0,0
95856,-74.2527218877808,4,1,0,100,0,0
95941,-75.7063982896853,4,1,0,100,0,0
96027,-77.1885339319695,4,1,0,100,0,0
96113,-78.6996859499263,4,1,0,100,0,0
96199,-80.2404224520229,4,1,0,100,0,0
96284,-81.8113225783994,4,1,0,100,0,0
96370,-83.4129768082088,4,1,0,100,0,0
96456,-85.0459873717476,4,1,0,100,0,0
96541,-86.710968040172,4,1,0,100,0,0
96627,-88.4085446762948,4,1,0,100,0,0
96713,-90.1393554705994,4,1,0,100,0,0
96799,-91.9040511853511,4,1,0,100,0,0
96884,-93.7032949688899,4,1,0,100,0,0
96970,-95.5377633540722,4,1,0,100,0,0
97056,-97.4081458401617,4,1,0,100,0,0
97141,-99.3151455984367,4,1,0,100,0,0
97227,-101.25947948085,4,1,0,100,0,0
97313,-103.241878401237,4,1,0,100,0,0
97399,-105.263157894737,4,1,0,100,0,0
97570,-102.325581395349,4,1,0,100,0,0
97741,-99.5475113122172,4,1,0,100,0,0
97827,-101.061141990905,4,1,0,100,0,0
97999,-96.9162995594714,4,1,0,100,0,0
98084,-98.3477576711251,4,1,0,100,0,0
98256,-94.4206008583691,4,1,0,100,0,0
98427,-92.0502092050209,4,1,0,100,0,0
98513,-93.3358222885944,4,1,0,100,0,0
98684,-89.7959183673469,4,1,0,100,0,0
98770,-91.0249408337885,4,1,0,100,0,0
98941,-87.6494023904383,4,1,0,100,0,0
99113,-85.6031128404669,4,1,0,100,0,0
99199,-86.7152271938952,4,1,0,100,0,0
99370,-83.6501901140684,4,1,0,100,0,0
99456,-84.7098686997035,4,1,0,100,0,0
99627,-81.7843866171004,4,1,0,100,0,0
99713,-80,4,1,0,100,0,0
99799,-78.125,4,1,0,100,0,1
99970,-66.6666666666667,4,1,0,100,0,0
100141,-153.846153846154,4,1,0,100,0,0
100484,-55.5555555555556,4,1,0,100,0,1
100656,-55.5555555555556,4,1,0,100,0,0
100827,-66.0984288294405,4,1,0,100,0,0
100913,-67.3924652313865,4,1,0,100,0,0
100999,-68.7118355612483,4,1,0,100,0,0
101084,-70.0570357166363,4,1,0,100,0,0
101170,-71.4285714285714,4,1,0,100,0,0
101256,-72.8269582677496,4,1,0,100,0,0
101341,-74.2527218877808,4,1,0,100,0,0
101427,-75.7063982896853,4,1,0,100,0,0
101513,-77.1885339319695,4,1,0,100,0,0
101599,-78.6996859499263,4,1,0,100,0,0
101684,-80.2404224520229,4,1,0,100,0,0
101770,-81.8113225783994,4,1,0,100,0,0
101856,-83.4129768082088,4,1,0,100,0,0
101941,-85.0459873717476,4,1,0,100,0,0
102027,-86.710968040172,4,1,0,100,0,0
102113,-88.4085446762948,4,1,0,100,0,0
102199,-90.1393554705994,4,1,0,100,0,0
102284,-91.9040511853511,4,1,0,100,0,0
102370,-93.7032949688899,4,1,0,100,0,0
102456,-95.5377633540722,4,1,0,100,0,0
102541,-97.4081458401617,4,1,0,100,0,0
102627,-99.3151455984367,4,1,0,100,0,0
102713,-101.25947948085,4,1,0,100,0,0
102799,-103.241878401237,4,1,0,100,0,0
102884,-105.263157894737,4,1,0,100,0,0
103056,-102.325581395349,4,1,0,100,0,0
103227,-99.5475113122172,4,1,0,100,0,0
103313,-101.061141990905,4,1,0,100,0,0
103484,-96.9162995594714,4,1,0,100,0,0
103570,-98.3477576711251,4,1,0,100,0,0
103741,-94.4206008583691,4,1,0,100,0,0
103913,-92.0502092050209,4,1,0,100,0,0
103999,-93.3358222885944,4,1,0,100,0,0
104170,-89.7959183673469,4,1,0,100,0,0
104256,-91.0249408337885,4,1,0,100,0,0
104427,-87.6494023904383,4,1,0,100,0,0
104599,-85.6031128404669,4,1,0,100,0,0
104684,-86.7152271938952,4,1,0,100,0,0
104856,-83.6501901140684,4,1,0,100,0,0
104941,-84.7098686997035,4,1,0,100,0,0
105113,-81.7843866171004,4,1,0,100,0,0
105284,-66.6666666666667,4,1,0,100,0,1
105456,-66.6666666666667,4,1,0,100,0,0
105627,-153.846153846154,4,1,0,100,0,0
105970,-55.5555555555556,4,1,0,100,0,1
106027,-57.8703703703704,4,1,0,100,0,1
106084,-60.2772754671489,4,1,0,100,0,1
106141,-62.8140703517588,4,1,0,100,0,0
106313,-66.0984288294405,4,1,0,100,0,0
106399,-67.3924652313865,4,1,0,100,0,0
106484,-68.7118355612483,4,1,0,100,0,0
106570,-70.0570357166363,4,1,0,100,0,0
106656,-71.4285714285714,4,1,0,100,0,0
106741,-72.8269582677496,4,1,0,100,0,0
106827,-74.2527218877808,4,1,0,100,0,0
106913,-75.7063982896853,4,1,0,100,0,0
106999,-77.1885339319695,4,1,0,100,0,0
107084,-78.6996859499263,4,1,0,100,0,0
107170,-80.2404224520229,4,1,0,100,0,0
107256,-81.8113225783994,4,1,0,100,0,0
107341,-83.4129768082088,4,1,0,100,0,0
107427,-85.0459873717476,4,1,0,100,0,0
107513,-86.710968040172,4,1,0,100,0,0
107599,-88.4085446762948,4,1,0,100,0,0
107684,-90.1393554705994,4,1,0,100,0,0
107770,-91.9040511853511,4,1,0,100,0,0
107856,-93.7032949688899,4,1,0,100,0,0
107941,-95.5377633540722,4,1,0,100,0,0
108027,-97.4081458401617,4,1,0,100,0,0
108113,-99.3151455984367,4,1,0,100,0,0
108199,-101.25947948085,4,1,0,100,0,0
108284,-103.241878401237,4,1,0,100,0,0
108370,-105.263157894737,4,1,0,100,0,0
108713,-104.31654676259,4,1,0,100,0,0
108799,-103.386809269162,4,1,0,100,0,0
108884,-102.473498233216,4,1,0,100,0,0
108970,-101.576182136602,4,1,0,100,0,0
109056,-100.694444444444,4,1,0,100,0,0
109141,-99.8278829604131,4,1,0,100,0,0
109227,-98.9761092150171,4,1,0,100,0,0
109313,-98.1387478849408,4,1,0,100,0,0
109399,-97.3154362416107,4,1,0,100,0,0
109484,-96.5058236272879,4,1,0,100,0,0
109570,-95.7095709570957,4,1,0,100,0,0
109656,-94.9263502454992,4,1,0,100,0,0
109741,-94.1558441558442,4,1,0,100,0,0
109827,-93.3977455716586,4,1,0,100,0,0
109913,-92.6517571884984,4,1,0,100,0,0
109999,-91.9175911251981,4,1,0,100,0,0
110084,-91.1949685534591,4,1,0,100,0,0
110170,-90.4836193447738,4,1,0,100,0,0
110256,-89.7832817337461,4,1,0,100,0,0
110341,-89.0937019969278,4,1,0,100,0,0
110427,-88.4146341463415,4,1,0,100,0,0
110513,-87.7458396369138,4,1,0,100,0,0
110599,-87.0870870870871,4,1,0,100,0,0
110684,-86.4381520119225,4,1,0,100,0,0
110770,-85.7988165680473,4,1,0,100,0,0
110856,-85.1688693098385,4,1,0,100,0,0
110941,-84.5481049562682,4,1,0,100,0,0
111027,-83.9363241678727,4,1,0,100,0,0
111113,-83.3333333333333,4,1,0,100,0,0
111284,-84.2267262183312,4,1,0,100,0,0
111456,-85.1394823110806,4,1,0,100,0,0
111627,-86.072238019347,4,1,0,70,0,0
111799,-87.0256579487844,4,1,0,70,0,0
111970,-88.000436482165,4,1,0,70,0,0
112141,-88.997299465945,4,1,0,70,0,0
112313,-90.0170060127759,4,1,0,70,0,0
112484,-91.0603504293678,4,1,0,70,0,0
112656,-92.1281642799944,4,1,0,70,0,0
112827,-93.2213185969073,4,1,0,70,0,0
112999,-94.3407262500052,4,1,0,70,0,0
113170,-95.4873444893108,4,1,0,70,0,0
113341,-96.6621776751354,4,1,0,70,0,0
113513,-97.8662802122994,4,1,0,70,0,0
113684,-99.0982063224656,4,1,0,70,0,0
113856,-100.160756137255,4,1,0,70,0,0
114027,-101.246338635237,4,1,0,70,0,0
114199,-102.355710934773,4,1,0,70,0,0
114370,-103.489663705318,4,1,0,70,0,0
114541,-104.649023046726,4,1,0,70,0,0
114713,-105.834652496306,4,1,0,70,0,0
114884,-107.047455173883,4,1,0,70,0,0
115056,-108.288376076042,4,1,0,70,0,0
115227,-109.558404531833,4,1,0,70,0,0
115399,-110.858576833317,4,1,0,70,0,0
115570,-112.18997905568,4,1,0,70,0,0
115741,-113.553750083027,4,1,0,70,0,0
115913,-114.95108485758,4,1,0,70,0,0
116084,-116.383237871764,4,1,0,70,0,0
116256,-117.855038302887,4,1,0,70,0,0
116427,-119.118327440988,4,1,0,70,0,0
116599,-120.40899243472,4,1,0,70,0,0
116770,-121.727932896053,4,1,0,70,0,0
116941,-123.076088290317,4,1,0,70,0,0
117113,-124.454440167824,4,1,0,70,0,0
117284,-125.864014547149,4,1,0,70,0,0
117456,-127.305884462223,4,1,0,70,0,0
117627,-128.781172686523,4,1,0,70,0,0
117799,-130.29105464891,4,1,0,70,0,0
117970,-131.836761557008,4,1,0,70,0,0
118141,-133.419583745582,4,1,0,70,0,0
118313,-135.040874269053,4,1,0,70,0,0
118484,-136.702052759162,4,1,0,70,0,0
118656,-138.40460957091,4,1,0,70,0,0
118827,-140.154169586545,4,1,0,70,0,0
118999,-141.764973925371,4,1,0,70,0,0
119170,-143.413234992829,4,1,0,70,0,0
119341,-145.100274654091,4,1,0,70,0,0
119513,-146.827477713686,4,1,0,70,0,0
119684,-148.596295706628,4,1,0,70,0,0
119856,-150.40825096691,4,1,0,70,0,0
120027,-152.264940997335,4,1,0,70,0,0
120199,-154.168043167052,4,1,0,70,0,0
120370,-156.119319765821,4,1,0,70,0,0
120541,-158.12062344703,4,1,0,70,0,0
120713,-160.173903094789,4,1,0,70,0,0
120884,-162.281210154167,4,1,0,70,0,0
121056,-164.444705467786,4,1,0,70,0,0
121227,-125,4,1,0,70,0,0
121399,-123.456790123457,4,1,0,70,0,0
121570,-121.951219512195,4,1,0,70,0,0
121741,-120.481927710843,4,1,0,70,0,0
121913,-119.047619047619,4,1,0,70,0,0
122084,-117.647058823529,4,1,0,70,0,0
122170,-117.43119266055,4,1,0,70,0,0
122256,-117.216117216117,4,1,0,70,0,0
122341,-117.001828153565,4,1,0,70,0,0
122427,-116.788321167883,4,1,0,70,0,0
122513,-116.575591985428,4,1,0,70,0,0
122599,-116.363636363636,4,1,0,70,0,0
122684,-116.152450090744,4,1,0,70,0,0
122770,-115.942028985507,4,1,0,70,0,0
122856,-115.732368896926,4,1,0,70,0,0
122941,-115.523465703971,4,1,0,70,0,0
123027,-115.315315315315,4,1,0,70,0,0
123113,-115.107913669065,4,1,0,70,0,0
123199,-114.901256732496,4,1,0,70,0,0
123284,-114.695340501792,4,1,0,70,0,0
123370,-114.490161001789,4,1,0,70,0,0
123456,-114.285714285714,4,1,0,70,0,0
123541,-114.081996434938,4,1,0,70,0,0
123627,-113.879003558719,4,1,0,70,0,0
123713,-113.676731793961,4,1,0,70,0,0
123799,-113.475177304965,4,1,0,70,0,0
123884,-113.274336283186,4,1,0,70,0,0
123970,-113.074204946996,4,1,0,70,0,0
124056,-112.874779541446,4,1,0,70,0,0
124141,-112.676056338028,4,1,0,70,0,0
124227,-112.478031634446,4,1,0,70,0,0
124313,-112.280701754386,4,1,0,70,0,0
124399,-112.084063047285,4,1,0,70,0,0
124484,-111.888111888112,4,1,0,70,0,0
124570,-111.692844677138,4,1,0,70,0,0
124656,-111.498257839721,4,1,0,70,0,0
124741,-111.304347826087,4,1,0,70,0,0
124827,-111.111111111111,4,1,0,70,0,0
124913,-110.918544194107,4,1,0,70,0,0
124999,-110.726643598616,4,1,0,70,0,0
125084,-110.535405872193,4,1,0,70,0,0
125170,-110.344827586207,4,1,0,70,0,0
125256,-110.154905335628,4,1,0,70,0,0
125341,-109.965635738832,4,1,0,70,0,0
125427,-109.777015437393,4,1,0,70,0,0
125513,-109.58904109589,4,1,0,70,0,0
125599,-109.401709401709,4,1,0,70,0,0
125684,-109.215017064846,4,1,0,70,0,0
125770,-109.028960817717,4,1,0,70,0,0
125856,-108.843537414966,4,1,0,70,0,0
125941,-108.658743633277,4,1,0,70,0,0
126027,-108.474576271186,4,1,0,70,0,0
126113,-108.2910321489,4,1,0,70,0,0
126199,-108.108108108108,4,1,0,70,0,0
126284,-107.925801011804,4,1,0,70,0,0
126370,-107.744107744108,4,1,0,70,0,0
126456,-107.563025210084,4,1,0,70,0,0
126541,-107.38255033557,4,1,0,70,0,0
126627,-107.202680067002,4,1,0,70,0,0
126713,-107.023411371237,4,1,0,70,0,0
126799,-106.844741235392,4,1,0,70,0,0
126884,-106.666666666667,4,1,0,70,0,0
126970,-106.48918469218,4,1,0,70,0,0
127056,-106.312292358804,4,1,0,70,0,0
127141,-106.135986733002,4,1,0,70,0,0
127227,-105.960264900662,4,1,0,70,0,0
127313,-105.785123966942,4,1,0,70,0,0
127399,-105.610561056106,4,1,0,70,0,0
127484,-105.436573311367,4,1,0,70,0,0
127570,-105.263157894737,4,1,0,70,0,0
127656,-105.090311986864,4,1,0,70,0,0
127741,-104.918032786885,4,1,0,70,0,0
127827,-104.746317512275,4,1,0,70,0,0
127913,-104.575163398693,4,1,0,70,0,0
127999,-104.404567699837,4,1,0,70,0,0
128084,-104.234527687296,4,1,0,70,0,0
128170,-104.065040650407,4,1,0,70,0,0
128256,-103.896103896104,4,1,0,70,0,0
128341,-103.727714748784,4,1,0,70,0,0
128427,-103.559870550162,4,1,0,70,0,0
128513,-103.392568659128,4,1,0,70,0,0
128599,-103.225806451613,4,1,0,70,0,0
128684,-103.059581320451,4,1,0,70,0,0
128770,-102.893890675241,4,1,0,70,0,0
128856,-102.728731942215,4,1,0,70,0,0
128941,-102.564102564103,4,1,0,70,0,0
129027,-102.4,4,1,0,70,0,0
129113,-102.23642172524,4,1,0,70,0,0
129199,-102.07336523126,4,1,0,70,0,0
129284,-101.910828025478,4,1,0,70,0,0
129370,-101.748807631161,4,1,0,70,0,0
129456,-101.587301587302,4,1,0,70,0,0
129541,-101.426307448494,4,1,0,70,0,0
129627,-101.26582278481,4,1,0,70,0,0
129713,-101.105845181675,4,1,0,70,0,0
129799,-100.946372239748,4,1,0,70,0,0
129884,-100.787401574803,4,1,0,70,0,0
129970,-100.62893081761,4,1,0,70,0,0
130056,-100.470957613815,4,1,0,70,0,0
130141,-100.313479623824,4,1,0,70,0,0
130227,-100.156494522692,4,1,0,70,0,0
130313,-100,4,1,0,70,0,0
130656,-104.123281965848,4,1,0,55,0,0
130827,-106.248246903926,4,1,0,55,0,0
130999,-108.416578473394,4,1,0,55,0,0
131513,-115.190714013937,4,1,0,55,0,0
131684,-117.541544820995,4,1,0,70,0,0
132027,-122.388114184297,4,1,0,75,0,0
132113,-123.630665053941,4,1,0,75,0,0
132199,-124.885830778468,4,1,0,75,0,0
132541,-130.035225801469,4,1,0,80,0,0
132627,-131.35541415656,4,1,0,80,0,0
132713,-132.6890059586,4,1,0,80,0,0
133141,-99.8662505572893,4,1,0,80,0,0
133227,-99.7328584149599,4,1,0,90,0,0
133313,-99.5998221431747,4,1,0,90,0,0
133399,-99.4671403197158,4,1,0,90,0,0
133484,-99.3348115299335,4,1,0,90,0,0
133570,-99.2028343666962,4,1,0,90,0,0
133656,-99.0712074303406,4,1,0,90,0,0
133741,-98.9399293286219,4,1,0,90,0,0
133827,-98.8089986766652,4,1,0,90,0,0
133913,-98.6784140969163,4,1,0,90,0,0
133999,-98.5481742190937,4,1,0,90,0,0
134084,-98.4182776801406,4,1,0,90,0,0
134170,-98.2887231241773,4,1,0,90,0,0
134256,-98.159509202454,4,1,0,90,0,0
134341,-98.0306345733042,4,1,0,90,0,0
134427,-97.9020979020979,4,1,0,90,0,0
134513,-97.773897861196,4,1,0,90,0,0
134599,-97.6460331299041,4,1,0,90,0,0
134684,-97.5185023944275,4,1,0,90,0,0
134770,-97.3913043478261,4,1,0,90,0,0
134856,-97.2644376899696,4,1,0,90,0,0
134941,-97.1379011274935,4,1,0,90,0,0
135027,-97.0116933737549,4,1,0,90,0,0
135113,-96.8858131487889,4,1,0,90,0,0
135199,-96.7602591792657,4,1,0,90,0,0
135284,-96.6350301984469,4,1,0,90,0,0
135370,-96.5101249461439,4,1,0,90,0,0
135456,-96.3855421686747,4,1,0,90,0,0
135541,-96.2612806188225,4,1,0,90,0,0
135627,-96.137339055794,4,1,0,90,0,0
135713,-96.0137162451779,4,1,0,90,0,0
135799,-95.8904109589041,4,1,0,90,0,0
135884,-95.7674219752031,4,1,0,90,0,0
135970,-95.6447480785653,4,1,0,90,0,0
136056,-95.5223880597015,4,1,0,90,0,0
136141,-95.4003407155026,4,1,0,90,0,0
136227,-95.2786048490004,4,1,0,90,0,0
136313,-95.1571792693288,4,1,0,90,0,0
136399,-95.0360627916843,4,1,0,90,0,0
136484,-94.9152542372881,4,1,0,90,0,0
136570,-94.7947524333475,4,1,0,90,0,0
136656,-94.6745562130178,4,1,0,90,0,0
136741,-94.5546644153651,4,1,0,90,0,0
136827,-94.4350758853288,4,1,0,90,0,0
136913,-94.3157894736842,4,1,0,90,0,0
136999,-94.1968040370059,4,1,0,90,0,0
137084,-94.0781184376312,4,1,0,90,0,0
137170,-93.9597315436242,4,1,0,90,0,0
137256,-93.841642228739,4,1,0,90,0,0
137341,-93.7238493723849,4,1,0,90,0,0
137427,-93.6063518595905,4,1,0,90,0,0
137513,-93.4891485809683,4,1,0,90,0,0
137599,-93.3722384326803,4,1,0,90,0,0
137684,-93.255620316403,4,1,0,90,0,0
137770,-93.1392931392931,4,1,0,90,0,0
137856,-93.0232558139535,4,1,0,90,0,0
137941,-92.907507258399,4,1,0,90,0,0
138027,-92.7920463960232,4,1,0,90,0,0
138113,-92.6768721555648,4,1,0,90,0,0
138199,-92.5619834710744,4,1,0,90,0,0
138284,-92.447379281882,4,1,0,90,0,0
138370,-92.3330585325639,4,1,0,90,0,0
138456,-92.2190201729107,4,1,0,90,0,0
138541,-92.1052631578947,4,1,0,90,0,0
138627,-91.9917864476386,4,1,0,90,0,0
138713,-91.8785890073831,4,1,0,90,0,0
138799,-91.765669807456,4,1,0,90,0,0
138884,-91.6530278232406,4,1,0,90,0,0
138970,-91.5406620351451,4,1,0,90,0,0
139056,-91.4285714285714,4,1,0,90,0,0
139141,-91.316754993885,4,1,0,90,0,0
139227,-91.2052117263844,4,1,0,90,0,0
139313,-91.0939406262709,4,1,0,90,0,0
139399,-90.982940698619,4,1,0,90,0,0
139484,-90.8722109533469,4,1,0,90,0,0
139570,-90.7617504051864,4,1,0,90,0,0
139656,-90.6515580736544,4,1,0,90,0,0
139741,-90.5416329830234,4,1,0,90,0,0
139827,-90.4319741622931,4,1,0,90,0,0
139913,-90.3225806451613,4,1,0,90,0,0
139999,-90.213451469996,4,1,0,90,0,0
140084,-90.1045856798069,4,1,0,90,0,0
140170,-89.9959823222178,4,1,0,90,0,0
140256,-89.8876404494382,4,1,0,90,0,0
140341,-89.7795591182365,4,1,0,90,0,0
140427,-89.6717373899119,4,1,0,90,0,0
140513,-89.5641743302679,4,1,0,90,0,0
140599,-89.4568690095847,4,1,0,90,0,0
140684,-89.3498205025927,4,1,0,90,0,0
140770,-89.2430278884462,4,1,0,90,0,0
140856,-89.1364902506964,4,1,0,90,0,0
140941,-89.0302066772655,4,1,0,90,0,0
141027,-88.9241762604208,4,1,0,90,0,0
141113,-88.8183980967486,4,1,0,90,0,0
141199,-88.7128712871287,4,1,0,90,0,0
141284,-88.6075949367089,4,1,0,90,0,0
141370,-88.5025681548795,4,1,0,90,0,0
141456,-88.3977900552486,4,1,0,90,0,0
141541,-88.2932597556169,4,1,0,90,0,0
141627,-88.1889763779528,4,1,0,90,0,0
141713,-88.0849390483681,4,1,0,90,0,0
141799,-87.9811468970935,4,1,0,90,0,0
141884,-87.8775990584543,4,1,0,90,0,0
141970,-87.7742946708464,4,1,0,90,0,0
142056,-87.6712328767123,4,1,0,90,0,0
142141,-87.5684128225176,4,1,0,90,0,0
142227,-87.4658336587271,4,1,0,90,0,0
142313,-87.3634945397816,4,1,0,90,0,0
142399,-87.2613946240748,4,1,0,90,0,0
142484,-87.15953307393,4,1,0,90,0,0
142570,-87.0579090555772,4,1,0,90,0,0
142656,-86.9565217391304,4,1,0,90,0,0
142713,-87.719298245614,4,1,0,90,0,0
142770,-88.495575221239,4,1,0,90,0,0
142827,-89.2857142857143,4,1,0,90,0,0
142913,-90.0900900900901,4,1,0,90,0,0
142999,-90.9090909090909,4,1,0,90,0,0
143170,-91.7431192660551,4,1,0,90,0,0
143341,-92.5925925925926,4,1,0,90,0,0
143513,-93.4579439252336,4,1,0,90,0,0
143599,-94.3396226415094,4,1,0,90,0,0
143684,-95.2380952380952,4,1,0,90,0,0
143741,-96.1538461538461,4,1,0,90,0,0
143799,-97.0873786407767,4,1,0,90,0,0
143856,-98.0392156862745,4,1,0,90,0,0
143941,-99.009900990099,4,1,0,90,0,0
144027,-100,4,1,0,90,0,0
144113,-100.083402835696,4,1,0,90,0,0
144199,-100.16694490818,4,1,0,90,0,0
144284,-100.250626566416,4,1,0,90,0,0
144370,-100.334448160535,4,1,0,90,0,0
144456,-100.418410041841,4,1,0,90,0,0
144541,-100.502512562814,4,1,0,90,0,0
144627,-100.586756077117,4,1,0,90,0,0
144713,-100.671140939597,4,1,0,90,0,0
144799,-100.755667506297,4,1,0,90,0,0
144884,-100.840336134454,4,1,0,90,0,0
144970,-100.925147182506,4,1,0,90,0,0
145056,-101.010101010101,4,1,0,90,0,0
145141,-101.095197978096,4,1,0,90,0,0
145227,-101.180438448567,4,1,0,90,0,0
145313,-101.26582278481,4,1,0,90,0,0
145399,-101.351351351351,4,1,0,90,0,0
145456,-101.437024513948,4,1,0,90,0,0
145513,-101.522842639594,4,1,0,90,0,0
145570,-101.608806096528,4,1,0,90,0,0
145741,-101.694915254237,4,1,0,90,0,0
145827,-101.781170483461,4,1,0,90,0,0
145913,-101.867572156197,4,1,0,90,0,0
145999,-101.954120645709,4,1,0,90,0,0
146084,-102.040816326531,4,1,0,90,0,0
146170,-102.127659574468,4,1,0,90,0,0
146256,-102.21465076661,4,1,0,90,0,0
146341,-102.30179028133,4,1,0,90,0,0
146427,-102.389078498294,4,1,0,90,0,0
146513,-102.476515798463,4,1,0,90,0,0
146599,-102.564102564103,4,1,0,90,0,0
146684,-102.651839178785,4,1,0,90,0,0
146770,-102.739726027397,4,1,0,90,0,0
146856,-102.827763496144,4,1,0,90,0,0
146941,-102.915951972556,4,1,0,90,0,0
147027,-103.004291845494,4,1,0,90,0,0
147113,-103.092783505155,4,1,0,90,0,0
147199,-103.181427343078,4,1,0,90,0,0
147284,-103.270223752151,4,1,0,90,0,0
147370,-103.359173126615,4,1,0,90,0,0
147456,-103.448275862069,4,1,0,90,0,0
147541,-103.537532355479,4,1,0,90,0,0
147627,-103.626943005181,4,1,0,90,0,0
147713,-103.71650821089,4,1,0,90,0,0
147799,-103.806228373702,4,1,0,90,0,0
147884,-103.896103896104,4,1,0,90,0,0
147970,-103.986135181976,4,1,0,90,0,0
148056,-104.0763226366,4,1,0,90,0,0
148141,-104.166666666667,4,1,0,90,0,0
148227,-104.257167680278,4,1,0,90,0,0
148313,-104.347826086957,4,1,0,90,0,0
148399,-104.43864229765,4,1,0,90,0,0
148484,-104.529616724739,4,1,0,90,0,0
148570,-104.62074978204,4,1,0,90,0,0
148656,-104.712041884817,4,1,0,90,0,0
148741,-104.803493449782,4,1,0,90,0,0
148827,-104.895104895105,4,1,0,90,0,0
148913,-104.98687664042,4,1,0,90,0,0
148999,-105.07880910683,4,1,0,90,0,0
149084,-105.170902716915,4,1,0,90,0,0
149170,-105.263157894737,4,1,0,90,0,0
149684,-100,4,1,0,90,0,0
149770,-100.9999999899,4,1,0,90,0,0
149856,-102.010000042344,4,1,0,90,0,0
149941,-103.030099992319,4,1,0,90,0,0
150027,-104.060401052282,4,1,0,90,0,0
150199,-98.0392156862745,4,1,0,90,0,0
150284,-99.000099000099,4,1,0,90,0,0
150370,-99.9700089973008,4,1,0,90,0,0
150456,-100.948919846558,4,1,0,90,0,0
150541,-101.936799184506,4,1,0,90,0,0
150713,-96.1538461538461,4,1,0,90,0,0
150799,-97.0779535967382,4,1,0,90,0,0
150884,-98.0103891012447,4,1,0,90,0,0
150970,-98.9511181476351,4,1,0,90,0,0
151056,-99.9000999000999,4,1,0,90,0,0
151227,-94.3396226415094,4,1,0,90,0,0
151313,-95.229025807066,4,1,0,90,0,0
151399,-96.1261174661155,4,1,0,90,0,0
151484,-97.0308558121483,4,1,0,90,0,0
151570,-97.9431929480901,4,1,0,90,0,0
151741,-99.7958939448477,4,1,0,90,0,0
151913,-92.5925925925926,4,1,0,90,0,0
151999,-93.4492103541725,4,1,0,90,0,0
152084,-94.3129303027445,4,1,0,90,0,0
152170,-95.1837045497811,4,1,0,90,0,0
152256,-96.061479346782,4,1,0,90,0,0
152341,-95.7224050254263,4,1,0,90,0,0
152427,-95.3857159890306,4,1,0,90,0,0
152513,-95.0513871561813,4,1,0,90,0,0
152599,-94.7193937958797,4,1,0,90,0,0
152684,-94.3897115214442,4,1,0,90,0,0
152770,-94.0623162845385,4,1,0,90,0,0
152856,-93.7371843693245,4,1,0,90,0,0
152941,-93.4142923867352,4,1,0,90,0,0
153027,-93.093617268866,4,1,0,90,0,0
153113,-92.7751362634814,4,1,0,90,0,0
153199,-92.4588269286333,4,1,0,90,0,0
153284,-92.14466712739,4,1,0,90,0,0
153370,-91.8326350226712,4,1,0,90,0,0
153456,-91.5227090721885,4,1,0,90,0,0
153541,-91.2148680234878,4,1,0,90,0,0
153627,-90.9090909090909,4,1,0,90,0,0
153713,-91.4285714285714,4,1,0,90,0,0
153799,-91.9540229885057,4,1,0,90,0,0
153884,-92.485549132948,4,1,0,90,0,0
153970,-93.0232558139535,4,1,0,90,0,0
154056,-93.5672514619883,4,1,0,90,0,0
154141,-94.1176470588235,4,1,0,90,0,0
154227,-94.6745562130177,4,1,0,90,0,0
154313,-95.2380952380952,4,1,0,90,0,0
154399,-95.8083832335329,4,1,0,90,0,0
154484,-96.3855421686747,4,1,0,90,0,0
154570,-96.969696969697,4,1,0,90,0,0
154656,-97.5609756097561,4,1,0,90,0,0
154741,-98.159509202454,4,1,0,90,0,0
154827,-98.7654320987654,4,1,0,90,0,0
154913,-99.3788819875776,4,1,0,90,0,0
154999,-100,4,1,0,90,0,0
155084,-99.9219359875098,4,1,0,90,0,0
155170,-99.8439937597504,4,1,0,90,0,0
155256,-99.7661730319563,4,1,0,90,0,0
155341,-99.6884735202492,4,1,0,90,0,0
155427,-99.6108949416342,4,1,0,90,0,0
155513,-99.5334370139969,4,1,0,90,0,0
155599,-99.4560994560995,4,1,0,90,0,0
155684,-99.3788819875776,4,1,0,90,0,0
155770,-99.3017843289372,4,1,0,90,0,0
155856,-99.2248062015504,4,1,0,90,0,0
155941,-99.147947327653,4,1,0,90,0,0
156027,-99.0712074303406,4,1,0,90,0,0
156113,-98.9945862335653,4,1,0,90,0,0
156199,-98.9180834621329,4,1,0,90,0,0
156284,-98.8416988416988,4,1,0,90,0,0
156370,-98.7654320987654,4,1,0,90,0,0
156456,-98.6892829606785,4,1,0,90,0,0
156541,-98.613251155624,4,1,0,90,0,0
156627,-98.5373364126251,4,1,0,90,0,0
156713,-98.4615384615385,4,1,0,90,0,0
156799,-98.3858570330515,4,1,0,90,0,0
156884,-98.310291858679,4,1,0,90,0,0
156970,-98.2348426707598,4,1,0,90,0,0
157056,-98.159509202454,4,1,0,90,0,0
157141,-98.0842911877395,4,1,0,90,0,0
157227,-98.0091883614089,4,1,0,90,0,0
157313,-97.9342004590666,4,1,0,90,0,0
157399,-97.8593272171254,4,1,0,90,0,0
157484,-97.7845683728037,4,1,0,90,0,0
157570,-97.7099236641221,4,1,0,90,0,0
157656,-97.6353928299008,4,1,0,90,0,0
157741,-97.5609756097561,4,1,0,90,0,0
157827,-97.4866717440975,4,1,0,90,0,0
157913,-97.4124809741248,4,1,0,90,0,0
157999,-97.3384030418251,4,1,0,90,0,0
158084,-97.2644376899696,4,1,0,90,0,0
158170,-97.1905846621109,4,1,0,90,0,0
158256,-97.1168437025797,4,1,0,90,0,0
158341,-97.0432145564822,4,1,0,90,0,0
158427,-96.969696969697,4,1,0,90,0,0
158513,-96.8962906888721,4,1,0,90,0,0
158599,-96.8229954614221,4,1,0,90,0,0
158684,-96.7498110355253,4,1,0,90,0,0
158770,-96.6767371601208,4,1,0,90,0,0
158856,-96.6037735849057,4,1,0,90,0,0
158941,-96.5309200603318,4,1,0,90,0,0
159027,-96.4581763376036,4,1,0,90,0,0
159113,-96.3855421686747,4,1,0,90,0,0
159199,-96.3130173062453,4,1,0,90,0,0
159284,-96.2406015037594,4,1,0,90,0,0
159370,-96.168294515402,4,1,0,90,0,0
159456,-96.0960960960961,4,1,0,90,0,0
159541,-96.0240060015004,4,1,0,90,0,0
159627,-95.952023988006,4,1,0,90,0,0
159713,-95.8801498127341,4,1,0,90,0,0
159799,-95.8083832335329,4,1,0,90,0,0
159884,-95.7367240089753,4,1,0,90,0,0
159970,-95.6651718983558,4,1,0,90,0,0
160056,-95.5937266616878,4,1,0,90,0,0
160141,-95.5223880597015,4,1,0,90,0,0
160227,-95.4511558538404,4,1,0,90,0,0
160313,-95.3800298062593,4,1,0,90,0,0
160399,-95.3090096798213,4,1,0,90,0,0
160484,-95.2380952380952,4,1,0,90,0,0
160570,-95.1672862453532,4,1,0,90,0,0
160656,-95.0965824665676,4,1,0,90,0,0
160741,-95.0259836674091,4,1,0,90,0,0
160827,-94.9554896142433,4,1,0,90,0,0
160913,-94.885100074129,4,1,0,90,0,0
160999,-94.8148148148148,4,1,0,90,0,0
161084,-94.7446336047372,4,1,0,90,0,0
161170,-94.6745562130178,4,1,0,90,0,0
161256,-94.6045824094605,4,1,0,90,0,0
161341,-94.5347119645495,4,1,0,90,0,0
161427,-94.4649446494465,4,1,0,90,0,0
161513,-94.3952802359882,4,1,0,90,0,0
161599,-94.3257184966839,4,1,0,90,0,0
161684,-94.2562592047128,4,1,0,90,0,0
161770,-94.186902133922,4,1,0,90,0,0
161856,-94.1176470588235,4,1,0,90,0,0
161941,-94.0484937545922,4,1,0,90,0,0
162027,-93.9794419970631,4,1,0,90,0,0
162113,-93.9104915627293,4,1,0,90,0,0
162199,-93.841642228739,4,1,0,90,0,0
162284,-93.7728937728938,4,1,0,90,0,0
162370,-93.7042459736457,4,1,0,90,0,0
162456,-93.6356986100951,4,1,0,90,0,0
162541,-93.5672514619883,4,1,0,90,0,0
162627,-93.4989043097151,4,1,0,90,0,0
162713,-93.4306569343066,4,1,0,90,0,0
162799,-93.3625091174325,4,1,0,90,0,0
162884,-93.2944606413994,4,1,0,90,0,0
162970,-93.2265112891479,4,1,0,90,0,0
163056,-93.1586608442504,4,1,0,90,0,0
163141,-93.0909090909091,4,1,0,90,0,0
163227,-93.0232558139535,4,1,0,90,0,0
163313,-92.9557007988381,4,1,0,90,0,0
163399,-92.8882438316401,4,1,0,90,0,0
163484,-92.8208846990573,4,1,0,90,0,0
163570,-92.7536231884058,4,1,0,90,0,0
163656,-92.6864590876177,4,1,0,90,0,0
163741,-92.6193921852388,4,1,0,90,0,0
163827,-92.5524222704266,4,1,0,90,0,0
163913,-92.485549132948,4,1,0,90,0,0
163999,-92.4187725631769,4,1,0,90,0,0
164084,-92.3520923520924,4,1,0,90,0,0
164170,-92.2855082912761,4,1,0,90,0,0
164256,-92.2190201729107,4,1,0,90,0,0
164341,-92.1526277897768,4,1,0,90,0,0
164427,-92.0863309352518,4,1,0,90,0,0
164513,-92.020129403307,4,1,0,90,0,0
164599,-91.9540229885058,4,1,0,90,0,0
164684,-91.8880114860014,4,1,0,90,0,0
164770,-91.8220946915351,4,1,0,90,0,0
164856,-91.7562724014337,4,1,0,90,0,0
164941,-91.6905444126075,4,1,0,90,0,0
165027,-91.6249105225483,4,1,0,90,0,0
165113,-91.5593705293276,4,1,0,90,0,0
165199,-91.493924231594,4,1,0,90,0,0
165284,-91.4285714285714,4,1,0,90,0,0
165370,-91.3633119200571,4,1,0,90,0,0
165456,-91.2981455064194,4,1,0,90,0,0
165541,-91.2330719885959,4,1,0,90,0,0
165627,-91.1680911680912,4,1,0,90,0,0
165713,-91.1032028469751,4,1,0,90,0,0
165799,-91.0384068278805,4,1,0,90,0,0
165884,-90.9737029140014,4,1,0,90,0,0
165970,-90.9090909090909,4,1,0,90,0,0
166056,-90.8445706174592,4,1,0,90,0,0
166141,-90.7801418439716,4,1,0,90,0,0
166227,-90.7158043940468,4,1,0,90,0,0
166313,-90.6515580736544,4,1,0,90,0,0
166399,-90.5874026893135,4,1,0,90,0,0
166484,-90.5233380480905,4,1,0,90,0,0
166570,-90.4593639575972,4,1,0,90,0,0
166656,-90.3954802259887,4,1,0,90,0,0
166741,-90.3316866619619,4,1,0,90,0,0
166827,-90.2679830747532,4,1,0,90,0,0
166913,-90.2043692741367,4,1,0,90,0,0
166999,-90.1408450704225,4,1,0,90,0,0
167084,-90.0774102744546,4,1,0,90,0,0
167170,-90.014064697609,4,1,0,90,0,0
167256,-89.950808151792,4,1,0,90,0,0
167341,-89.8876404494382,4,1,0,90,0,0
167427,-89.8245614035088,4,1,0,90,0,0
167513,-89.7615708274895,4,1,0,90,0,0
167599,-89.6986685353889,4,1,0,90,0,0
167684,-89.6358543417367,4,1,0,90,0,0
167770,-89.5731280615815,4,1,0,90,0,0
167856,-89.5104895104895,4,1,0,90,0,0
167941,-89.4479385045423,4,1,0,90,0,0
168027,-89.3854748603352,4,1,0,90,0,0
168113,-89.3230983949756,4,1,0,90,0,0
168199,-89.2608089260809,4,1,0,90,0,0
168284,-89.198606271777,4,1,0,90,0,0
168370,-89.1364902506964,4,1,0,90,0,0
168456,-89.0744606819763,4,1,0,90,0,0
168541,-89.0125173852573,4,1,0,90,0,0
168627,-88.950660180681,4,1,0,90,0,0
168713,-88.8888888888889,4,1,0,90,0,0
168799,-88.8272033310201,4,1,0,90,0,0
168884,-88.7656033287101,4,1,0,90,0,0
168970,-88.7040887040887,4,1,0,90,0,0
169056,-88.6426592797784,4,1,0,90,0,0
169141,-88.5813148788927,4,1,0,90,0,0
169227,-88.5200553250346,4,1,0,90,0,0
169313,-88.4588804422944,4,1,0,90,0,0
169399,-88.3977900552486,4,1,0,90,0,0
169484,-88.3367839889579,4,1,0,90,0,0
169570,-88.2758620689655,4,1,0,90,0,0
169656,-88.2150241212957,4,1,0,90,0,0
169741,-88.1542699724518,4,1,0,90,0,0
169827,-88.093599449415,4,1,0,90,0,0
169913,-88.0330123796424,4,1,0,90,0,0
169999,-87.9725085910653,4,1,0,90,0,0
170084,-87.9120879120879,4,1,0,90,0,0
170170,-87.8517501715855,4,1,0,90,0,0
170256,-87.7914951989026,4,1,0,90,0,0
170341,-87.731322823852,4,1,0,90,0,0
170427,-87.6712328767123,4,1,0,90,0,0
170513,-87.6112251882273,4,1,0,90,0,0
170599,-87.5512995896033,4,1,0,90,0,0
170684,-87.4914559125086,4,1,0,90,0,0
170770,-87.4316939890711,4,1,0,90,0,0
170856,-87.3720136518771,4,1,0,90,0,0
170941,-87.31241473397,4,1,0,90,0,0
171027,-87.252897068848,4,1,0,90,0,0
171113,-87.1934604904632,4,1,0,90,0,0
171199,-87.1341048332199,4,1,0,90,0,0
171284,-87.0748299319728,4,1,0,90,0,0
171370,-87.0156356220258,4,1,0,90,0,0
171456,-86.9565217391304,4,1,0,90,0,0
171541,-87.525750844484,4,1,0,90,0,0
171627,-88.1024815571805,4,1,0,90,0,0
171713,-88.6868631511512,4,1,0,90,0,0
171799,-89.2790488872939,4,1,0,90,0,0
171884,-89.8791961474784,4,1,0,90,0,0
171970,-90.4874665739921,4,1,0,90,0,0
172056,-91.1040262146879,4,1,0,90,0,0
172141,-91.726288754357,4,1,0,90,0,0
172227,-92.3270723603067,4,1,0,90,0,0
172313,-92.9357778085681,4,1,0,90,0,0
172399,-93.5525628233376,4,1,0,90,0,0
172484,-94.1775893438457,4,1,0,90,0,0
172570,-94.8110236661073,4,1,0,90,0,0
172656,-95.4530365904318,4,1,0,90,0,0
172741,-96.1038035749668,4,1,0,90,0,0
172827,-96.7679504548094,4,1,0,90,0,0
172913,-97.4008727588645,4,1,0,90,0,0
172999,-98.0421289793012,4,1,0,90,0,0
173084,-98.6918848105251,4,1,0,90,0,0
173170,-99.3503103686806,4,1,0,90,0,0
173256,-100.01758034014,4,1,0,90,0,0
173341,-100.693874136018,4,1,0,90,0,0
173427,-101.379376052996,4,1,0,90,0,0
173513,-102.072062876391,4,1,0,90,0,0
173599,-102.740505971217,4,1,0,90,0,0
173684,-103.417761693679,4,1,0,90,0,0
173770,-104.10400547624,4,1,0,90,0,0
173856,-104.799417438902,4,1,0,90,0,0
173941,-105.504182546818,4,1,0,90,0,0
174027,-106.218490774313,4,1,0,90,0,0
174113,-106.942537275608,4,1,0,90,0,0
174199,-107.677398514052,4,1,0,90,0,0
174284,-108.382164097727,4,1,0,90,0,0
174370,-109.096216066422,4,1,0,90,0,0
174456,-109.819739181288,4,1,0,90,0,0
174541,-110.552923137524,4,1,0,90,0,0
174627,-111.295962730187,4,1,0,90,0,0
174713,-112.049058026735,4,1,0,90,0,0
174799,-112.812414546623,4,1,0,90,0,0
174884,-113.584734211722,4,1,0,90,0,0
174970,-114.328456371112,4,1,0,90,0,0
175056,-115.081982105289,4,1,0,90,0,0
175141,-115.845506543034,4,1,0,90,0,0
175227,-116.619230026129,4,1,0,90,0,0
175313,-117.403358284614,4,1,0,90,0,0
175399,-118.198102619166,4,1,0,90,0,0
175484,-119.003680090926,4,1,0,90,0,0
175570,-119.817876827223,4,1,0,90,0,0
175656,-120.602513332559,4,1,0,90,0,0
175741,-121.397494081971,4,1,0,90,0,0
175827,-122.203024992601,4,1,0,90,0,0
175913,-123.019317483537,4,1,0,90,0,0
175999,-123.846588660809,4,1,0,90,0,0
176084,-124.6850615099,4,1,0,90,0,0
176170,-125.534965096125,4,1,0,90,0,0
176256,-126.39029322548,4,1,0,90,0,0
176341,-127.221285623459,4,1,0,90,0,0
176427,-128.063277578794,4,1,0,90,0,0
176513,-128.916488942502,4,1,0,90,0,0
176599,-129.78114546386,4,1,0,90,0,0
176684,-130.657478989533,4,1,0,90,0,0
176770,-131.545727670842,4,1,0,90,0,0
176856,-132.44613617953,4,1,0,90,0,0
176941,-80,4,1,0,90,0,0
177284,-100,4,1,0,90,0,0
196227,-99.6563573883162,4,1,0,90,0,0
196313,-99.3150684931507,4,1,0,90,0,0
196399,-98.9761092150171,4,1,0,90,0,0
196484,-98.6394557823129,4,1,0,90,0,0
196570,-98.3050847457627,4,1,0,90,0,0
196656,-97.972972972973,4,1,0,90,0,0
196741,-97.6430976430976,4,1,0,90,0,0
196827,-97.3154362416107,4,1,0,90,0,0
196913,-96.989966555184,4,1,0,90,0,0
196999,-96.6666666666667,4,1,0,90,0,0
197084,-96.3455149501661,4,1,0,90,0,0
197170,-96.0264900662252,4,1,0,90,0,0
197256,-95.7095709570957,4,1,0,90,0,0
197341,-95.3947368421053,4,1,0,90,0,0
197427,-95.0819672131148,4,1,0,90,0,0
197513,-94.7712418300654,4,1,0,90,0,0
197599,-94.4625407166124,4,1,0,90,0,0
197684,-94.1530929291027,4,1,0,90,0,0
197770,-93.4500042477274,4,1,0,90,0,0
197856,-92.7573383703379,4,1,0,90,0,0
197941,-92.0748652358791,4,1,0,90,0,0
198027,-91.4023615046491,4,1,0,90,0,0
198113,-90.739610314619,4,1,0,90,0,0
198199,-90.0900900900901,4,1,0,90,0,0
198284,-89.0471950133571,4,1,0,90,0,0
198370,-88.0281690140845,4,1,0,90,0,0
198427,-87.0322019147084,4,1,0,90,0,0
198484,-86.0585197934595,4,1,0,90,0,0
198541,-85.1063829787234,4,1,0,90,0,0
198884,-102.564102564103,4,1,0,90,0,0
198970,-102.502502502503,4,1,0,90,0,0
199056,-102.440976390556,4,1,0,90,0,0
199141,-102.379524095181,4,1,0,90,0,0
199227,-102.318145483613,4,1,0,90,0,0
199313,-102.256840423407,4,1,0,90,0,0
199399,-102.195608782435,4,1,0,90,0,0
199484,-102.134450428885,4,1,0,90,0,0
199570,-102.07336523126,4,1,0,90,0,0
199656,-102.012353058378,4,1,0,90,0,0
199741,-101.951413779371,4,1,0,90,0,0
199827,-101.890547263682,4,1,0,90,0,0
199913,-101.829753381066,4,1,0,90,0,0
199999,-101.76903200159,4,1,0,90,0,0
200084,-101.70838299563,4,1,0,90,0,0
200170,-101.647806233869,4,1,0,90,0,0
200256,-101.587301587302,4,1,0,90,0,0
200341,-101.526868927226,4,1,0,90,0,0
200427,-101.466508125248,4,1,0,90,0,0
200513,-101.406219053278,4,1,0,90,0,0
200599,-101.346001583531,4,1,0,90,0,0
200684,-101.285855588526,4,1,0,90,0,0
200770,-101.225780941083,4,1,0,90,0,0
200856,-101.165777514325,4,1,0,90,0,0
200941,-101.105845181675,4,1,0,90,0,0
201027,-101.045983816854,4,1,0,90,0,0
201113,-100.986193293886,4,1,0,90,0,0
201199,-100.926473487089,4,1,0,90,0,0
201284,-100.86682427108,4,1,0,90,0,0
201370,-100.807245520772,4,1,0,90,0,0
201456,-100.747737111373,4,1,0,90,0,0
201541,-100.688298918387,4,1,0,90,0,0
201627,-100.62893081761,4,1,0,90,0,0
201713,-100.569632685131,4,1,0,90,0,0
201799,-100.51040439733,4,1,0,90,0,0
201884,-100.451245830881,4,1,0,90,0,0
201970,-100.392156862745,4,1,0,90,0,0
202056,-100.333137370174,4,1,0,90,0,0
202141,-100.274187230709,4,1,0,90,0,0
202227,-100.215306322177,4,1,0,90,0,0
202313,-100.156494522692,4,1,0,90,0,0
202399,-100.097751710655,4,1,0,90,0,0
202484,-100.039077764752,4,1,0,90,0,0
202570,-99.9804725639523,4,1,0,90,0,0
202656,-99.9219359875098,4,1,0,90,0,0
202741,-99.86346791496,4,1,0,90,0,0
202827,-99.8050682261209,4,1,0,90,0,0
202913,-99.746736801091,4,1,0,90,0,0
202999,-99.6884735202492,4,1,0,90,0,0
203084,-99.6302782642537,4,1,0,90,0,0
203170,-99.5721509140412,4,1,0,90,0,0
203256,-99.5140913508261,4,1,0,90,0,0
203341,-99.4560994560995,4,1,0,90,0,0
203427,-99.3981751116288,4,1,0,90,0,0
203513,-99.3403181994567,4,1,0,90,0,0
203599,-99.2825286019003,4,1,0,90,0,0
203684,-99.2248062015504,4,1,0,90,0,0
203770,-99.1671508812706,4,1,0,90,0,0
203856,-99.1095625241967,4,1,0,90,0,0
203941,-99.0520410137357,4,1,0,90,0,0
204027,-98.9945862335653,4,1,0,90,0,0
204113,-98.9371980676328,4,1,0,90,0,0
204199,-98.8798764001545,4,1,0,90,0,0
204284,-98.8226211156147,4,1,0,90,0,0
204370,-98.7654320987654,4,1,0,90,0,0
204456,-98.708309234625,4,1,0,90,0,0
204541,-98.6512524084778,4,1,0,90,0,0
204627,-98.5942615058733,4,1,0,90,0,0
204713,-98.5373364126251,4,1,0,90,0,0
204799,-98.4804770148105,4,1,0,90,0,0
204884,-98.4236831987697,4,1,0,90,0,0
204970,-98.3669548511047,4,1,0,90,0,0
205056,-98.310291858679,4,1,0,90,0,0
205141,-98.2536941086164,4,1,0,90,0,0
205227,-98.1971614883007,4,1,0,90,0,0
205313,-98.1406938853747,4,1,0,90,0,0
205399,-98.0842911877395,4,1,0,90,0,0
205484,-98.0279532835535,4,1,0,90,0,0
205570,-97.9716800612323,4,1,0,90,0,0
205656,-97.9154714094473,4,1,0,90,0,0
205741,-97.8593272171254,4,1,0,90,0,0
205827,-97.8032473734479,4,1,0,90,0,0
205913,-97.7472317678503,4,1,0,90,0,0
205999,-97.691280290021,4,1,0,90,0,0
206084,-97.6353928299008,4,1,0,90,0,0
206170,-97.5795692776825,4,1,0,90,0,0
206256,-97.5238095238095,4,1,0,90,0,0
206341,-97.4681134589758,4,1,0,90,0,0
206427,-97.4124809741248,4,1,0,90,0,0
206513,-97.3569119604488,4,1,0,90,0,0
206599,-97.3014063093881,4,1,0,90,0,0
206684,-97.2459639126306,4,1,0,90,0,0
206770,-97.1905846621109,4,1,0,90,0,0
206856,-97.1352684500095,4,1,0,90,0,0
206941,-97.0800151687524,4,1,0,90,0,0
207027,-97.02482471101,4,1,0,90,0,0
207113,-96.969696969697,4,1,0,90,0,0
207199,-96.9146318379708,4,1,0,90,0,0
207284,-96.8596292092319,4,1,0,90,0,0
207370,-96.8046889771223,4,1,0,90,0,0
207456,-96.7498110355253,4,1,0,90,0,0
207541,-96.6949952785647,4,1,0,90,0,0
207627,-96.640241600604,4,1,0,90,0,0
207713,-96.585549896246,4,1,0,90,0,0
207799,-96.5309200603318,4,1,0,90,0,0
207884,-96.4763519879404,4,1,0,90,0,0
207970,-96.4218455743879,4,1,0,90,0,0
208056,-96.3674007152268,4,1,0,90,0,0
208141,-96.3130173062453,4,1,0,90,0,0
208227,-96.2586952434668,4,1,0,90,0,0
208313,-96.2044344231492,4,1,0,90,0,0
208399,-96.150234741784,4,1,0,90,0,0
208484,-96.0960960960961,4,1,0,90,0,0
208570,-96.0420183830426,4,1,0,90,0,0
208656,-95.9880014998125,4,1,0,90,0,0
208741,-95.9340453438261,4,1,0,90,0,0
208827,-95.8801498127341,4,1,0,90,0,0
208913,-95.826314804417,4,1,0,90,0,0
208999,-95.7725402169847,4,1,0,90,0,0
209084,-95.7188259487755,4,1,0,90,0,0
209170,-95.6651718983558,4,1,0,90,0,0
209256,-95.6115779645191,4,1,0,90,0,0
209341,-95.5580440462859,4,1,0,90,0,0
209427,-95.5045700429024,4,1,0,90,0,0
209513,-95.4511558538404,4,1,0,90,0,0
209599,-95.3978013787963,4,1,0,90,0,0
209684,-95.3445065176909,4,1,0,90,0,0
209770,-95.2912711706681,4,1,0,90,0,0
209856,-95.2380952380952,4,1,0,90,0,0
209941,-95.0525905726529,4,1,0,90,0,0
210027,-94.8678071539658,4,1,0,90,0,0
210113,-94.6837407838572,4,1,0,90,0,0
210199,-94.5003872966693,4,1,0,90,0,0
210284,-94.3177425589486,4,1,0,90,0,0
210370,-94.1358024691358,4,1,0,90,0,0
210456,-93.9545629572584,4,1,0,90,0,0
210541,-93.7740199846272,4,1,0,90,0,0
210627,-93.5941695435366,4,1,0,90,0,0
210713,-93.4150076569678,4,1,0,90,0,0
210799,-93.2365303782958,4,1,0,90,0,0
210884,-93.0587337909992,4,1,0,90,0,0
210970,-92.8816140083746,4,1,0,90,0,0
211056,-92.7051671732523,4,1,0,90,0,0
211141,-92.5293894577171,4,1,0,90,0,0
211227,-92.3542770628312,4,1,0,90,0,0
211313,-92.1798262183604,4,1,0,90,0,0
211399,-92.0060331825038,4,1,0,90,0,0
211456,-91.8328942416259,4,1,0,90,0,0
211513,-91.6604057099925,4,1,0,90,0,0
211570,-91.4885639295088,4,1,0,90,0,0
211656,-91.3173652694611,4,1,0,90,0,0
211741,-91.1468061262607,4,1,0,90,0,0
211827,-90.9768829231916,4,1,0,90,0,0
211913,-90.80759211016,4,1,0,90,0,0
211999,-90.6389301634472,4,1,0,90,0,0
212084,-90.4708935854653,4,1,0,90,0,0
212170,-90.3034789045152,4,1,0,90,0,0
212256,-90.1366826745475,4,1,0,90,0,0
212341,-89.9705014749263,4,1,0,90,0,0
212427,-89.8049319101951,4,1,0,90,0,0
212513,-89.6399706098457,4,1,0,90,0,0
212599,-89.4756142280895,4,1,0,90,0,0
212684,-89.311859443631,4,1,0,90,0,0
212770,-89.1487029594446,4,1,0,90,0,0
212856,-88.9861415025529,4,1,0,90,0,0
212941,-88.8241718238078,4,1,0,90,0,0
213027,-88.6627906976744,4,1,0,90,0,0
213113,-88.5019949220167,4,1,0,90,0,0
213199,-88.3417813178856,4,1,0,90,0,0
213284,-88.1821467293097,4,1,0,90,0,0
213370,-88.023088023088,4,1,0,90,0,0
213456,-87.8646020885848,4,1,0,90,0,0
213541,-87.706685837527,4,1,0,90,0,0
213627,-87.5493362038034,4,1,0,90,0,0
213713,-87.3925501432665,4,1,0,90,0,0
213799,-87.2363246335359,4,1,0,90,0,0
213884,-87.0806566738044,4,1,0,90,0,0
213970,-86.9255432846455,4,1,0,90,0,0
214056,-86.7709815078236,4,1,0,90,0,0
214141,-86.6169684061058,4,1,0,90,0,0
214227,-86.4635010630758,4,1,0,90,0,0
214313,-86.3105765829501,4,1,0,90,0,0
214399,-86.1581920903955,4,1,0,90,0,0
214484,-86.006344730349,4,1,0,90,0,0
214570,-85.8550316678396,4,1,0,90,0,0
214656,-85.7042500878117,4,1,0,90,0,0
214741,-85.5539971949509,4,1,0,90,0,0
214827,-85.4042702135107,4,1,0,90,0,0
214913,-85.2550663871419,4,1,0,90,0,0
214999,-85.1063829787234,4,1,0,90,0,0
215084,-84.958217270195,4,1,0,90,0,0
215170,-84.8105665623914,4,1,0,90,0,0
215256,-84.6634281748786,4,1,0,90,0,0
215341,-84.5167994457915,4,1,0,90,0,0
215427,-84.3706777316736,4,1,0,90,0,0
215513,-84.2250604073179,4,1,0,90,0,0
215599,-84.0799448656099,4,1,0,90,0,0
215684,-83.9353285173719,4,1,0,90,0,0
215770,-83.7912087912088,4,1,0,90,0,0
215856,-83.6475831333562,4,1,0,90,0,0
215941,-83.5044490075291,4,1,0,90,0,0
216027,-83.3618038947728,4,1,0,90,0,0
216113,-83.2196452933151,4,1,0,90,0,0
216199,-83.0779707184201,4,1,0,90,0,0
216284,-82.9367777022434,4,1,0,90,0,0
216370,-82.7960637936885,4,1,0,90,0,0
216456,-82.6558265582656,4,1,0,90,0,0
216541,-82.5160635779506,4,1,0,90,0,0
216627,-82.3767724510466,4,1,0,90,0,0
216713,-82.2379507920458,4,1,0,90,0,0
216799,-82.0995962314939,4,1,0,90,0,0
216884,-81.9617064158549,4,1,0,90,0,0
216941,-81.8242790073776,4,1,0,90,0,0
216999,-81.6873116839638,4,1,0,90,0,0
217056,-81.5508021390374,4,1,0,90,0,0
217141,-81.4147480814147,4,1,0,90,0,0
217227,-81.2791472351766,4,1,0,90,0,0
217313,-81.1439973395411,4,1,0,90,0,0
217399,-81.0092961487384,4,1,0,90,0,0
217484,-80.875041431886,4,1,0,90,0,0
217570,-80.7412309728656,4,1,0,90,0,0
217656,-80.6078625702015,4,1,0,90,0,0
217741,-80.4749340369393,4,1,0,90,0,0
217827,-80.3424432005268,4,1,0,90,0,0
217913,-80.2103879026956,4,1,0,90,0,0
217999,-80.0787659993436,4,1,0,90,0,0
218084,-79.9475753604194,4,1,0,90,0,0
218170,-79.816813869807,4,1,0,90,0,0
218256,-79.6864794252123,4,1,0,90,0,0
218341,-79.5565699380502,4,1,0,90,0,0
218427,-79.4270833333333,4,1,0,90,0,0
218513,-79.2980175495613,4,1,0,90,0,0
218599,-79.1693705386113,4,1,0,90,0,0
218684,-79.0411402656301,4,1,0,90,0,0
218770,-78.9133247089263,4,1,0,90,0,0
218856,-78.7859218598644,4,1,0,90,0,0
218941,-78.6589297227595,4,1,0,90,0,0
219027,-78.5323463147731,4,1,0,90,0,0
219113,-78.4061696658098,4,1,0,90,0,0
219199,-78.2803978184151,4,1,0,90,0,0
219284,-78.1550288276746,4,1,0,90,0,0
219370,-78.0300607611129,4,1,0,90,0,0
219456,-77.9054916985951,4,1,0,90,0,0
219541,-77.7813197322282,4,1,0,90,0,0
219627,-77.6575429662635,4,1,0,90,0,0
219713,-77.5341595170003,4,1,0,90,0,0
219799,-77.4111675126903,4,1,0,90,0,0
219884,-77.2885650934431,4,1,0,90,0,0
219970,-77.1663504111322,4,1,0,90,0,0
220056,-77.0445216293022,4,1,0,90,0,0
220141,-76.9230769230769,4,1,0,90,0,0
220313,-83.6120401337793,4,1,0,90,0,0
220399,-85.7632933104631,4,1,0,90,0,0
220570,-90.8826523193253,4,1,0,90,0,0
220656,-93.4317481080071,4,1,0,90,0,0
220827,-98.7854916514405,4,1,0,90,0,0
220913,-101.801893515219,4,1,0,90,0,0
221084,-107.37553440374,4,1,0,90,0,0
221170,-110.950848773993,4,1,0,90,0,0
221341,-116.712537417164,4,1,0,90,0,0
221427,-120.948234155781,4,1,0,90,0,0
222027,-123.456790123457,4,1,0,90,0,0
222199,-71.4285714285714,4,1,0,90,0,1
223227,-71.4285714285714,4,1,0,90,0,0

[HitObjects]
192,16,1399,5,0,1:0:0:0:
208,16,2084,1,8,1:0:0:0:
224,16,2427,1,0,1:0:0:0:
240,32,3113,1,8,1:0:0:0:
256,48,3456,1,0,1:0:0:0:
256,64,3627,1,8,1:0:0:0:
240,64,3799,1,8,1:0:0:0:
224,64,3970,1,0,1:0:0:0:
208,64,4141,1,8,1:0:0:0:
192,64,4656,1,0,1:0:0:0:
176,80,4827,1,8,1:0:0:0:
160,96,4999,1,0,1:0:0:0:
160,112,5170,1,8,1:0:0:0:
160,128,5684,1,0,1:0:0:0:
176,144,5856,1,8,1:0:0:0:
192,160,6027,1,8,1:0:0:0:
208,160,6199,1,0,1:0:0:0:
224,160,6370,1,0,1:0:0:0:
240,160,6541,1,8,1:0:0:0:
256,160,6884,1,0,1:0:0:0:
272,144,7570,1,8,1:0:0:0:
288,128,7913,1,0,1:0:0:0:
288,112,8599,1,8,1:0:0:0:
288,96,8941,1,0,1:0:0:0:
272,80,9284,1,8,1:0:0:0:
272,160,9627,1,0,1:0:0:0:
272,176,10141,1,0,1:0:0:0:
272,192,10313,1,8,1:0:0:0:
272,208,10656,1,8,1:0:0:0:
272,224,10827,1,8,1:0:0:0:
272,240,10999,1,0,1:0:0:0:
272,256,11856,1,0,1:0:0:0:
272,272,12027,1,8,1:0:0:0:
272,288,12370,1,0,1:0:0:0:
272,304,13056,1,8,1:0:0:0:
272,320,13399,1,0,1:0:0:0:
272,336,14084,1,8,1:0:0:0:
272,352,14427,1,0,1:0:0:0:
256,368,14599,1,8,1:0:0:0:
240,368,14770,1,8,1:0:0:0:
224,368,14941,1,0,1:0:0:0:
208,352,15113,1,8,1:0:0:0:
208,336,15627,1,0,1:0:0:0:
208,320,15799,1,8,1:0:0:0:
208,304,15970,1,0,1:0:0:0:
208,288,16141,1,8,1:0:0:0:
192,288,16656,1,0,1:0:0:0:
176,288,16827,1,8,1:0:0:0:
176,304,16999,1,8,1:0:0:0:
176,320,17170,1,8,1:0:0:0:
176,336,17341,1,0,1:0:0:0:
176,352,17513,1,8,1:0:0:0:
160,368,17856,1,0,1:0:0:0:
144,368,18541,1,8,1:0:0:0:
128,368,18884,1,0,1:0:0:0:
112,352,19570,1,8,1:0:0:0:
112,336,19913,1,0,1:0:0:0:
112,320,20256,1,8,1:0:0:0:
112,304,20599,1,8,1:0:0:0:
112,288,21113,1,0,1:0:0:0:
112,272,21284,1,8,1:0:0:0:
112,256,21627,1,8,1:0:0:0:
112,240,21970,1,0,1:0:0:0:
112,224,22484,1,8,1:0:0:0:
112,208,22656,1,0,1:0:0:0:
112,192,22827,1,8,1:0:0:0:
112,176,22999,1,8,1:0:0:0:
112,160,23170,1,0,1:0:0:0:
112,144,23341,1,8,1:0:0:0:
112,128,23513,1,0,1:0:0:0:
112,112,23684,1,0,1:0:0:0:
112,96,23856,1,8,1:0:0:0:
112,80,24199,1,0,1:0:0:0:
112,64,24284,1,0,1:0:0:0:
112,48,24370,1,8,1:0:0:0:
128,32,24541,1,0,1:0:0:0:
144,16,24713,1,8,1:0:0:0:
160,16,24884,1,0,1:0:0:0:
176,16,24970,1,0,1:0:0:0:
416,144,25056,1,0,1:0:0:0:
432,128,25227,1,8,1:0:0:0:
448,128,25570,1,0,1:0:0:0:
464,128,25741,1,8,1:0:0:0:
480,144,25913,1,0,1:0:0:0:
480,160,25999,1,0,1:0:0:0:
480,176,26084,1,8,1:0:0:0:
464,192,26256,1,0,1:0:0:0:
448,208,26341,1,0,1:0:0:0:
432,224,26427,1,0,1:0:0:0:
416,240,26599,1,8,1:0:0:0:
400,224,26941,1,0,1:0:0:0:
384,208,27113,1,8,1:0:0:0:
368,192,27284,1,0,1:0:0:0:
352,176,27456,1,8,1:0:0:0:
352,160,27627,1,0,1:0:0:0:
352,144,27713,1,0,1:0:0:0:
368,128,27799,1,0,1:0:0:0:
384,128,27970,1,8,1:0:0:0:
400,128,28313,1,8,1:0:0:0:
416,144,28399,1,8,1:0:0:0:
256,64,28484,1,0,1:0:0:0:
256,64,28656,1,8,1:0:0:0:
256,64,28827,1,0,1:0:0:0:
256,64,28999,1,0,1:0:0:0:
256,64,29084,1,0,1:0:0:0:
256,64,29170,1,0,1:0:0:0:
256,64,29341,1,8,1:0:0:0:
256,64,29684,1,0,1:0:0:0:
256,64,29770,1,0,1:0:0:0:
256,64,29856,1,8,1:0:0:0:
256,64,30027,1,0,1:0:0:0:
256,64,30199,1,8,1:0:0:0:
256,64,30370,1,0,1:0:0:0:
256,64,30456,1,0,1:0:0:0:
256,64,30541,1,0,1:0:0:0:
256,64,30713,1,8,1:0:0:0:
256,64,31056,1,0,1:0:0:0:
256,64,31227,1,8,1:0:0:0:
256,64,31399,1,0,1:0:0:0:
256,64,31484,1,0,1:0:0:0:
256,64,31570,1,8,1:0:0:0:
256,64,31741,1,0,1:0:0:0:
256,64,31913,1,0,1:0:0:0:
256,64,32084,1,0,1:0:0:0:
256,64,32170,1,0,1:0:0:0:
256,64,32256,1,8,1:0:0:0:
256,64,32427,1,0,1:0:0:0:
256,64,32599,1,8,1:0:0:0:
256,64,32770,1,8,1:0:0:0:
256,64,32856,1,8,1:0:0:0:
256,64,32941,1,0,1:0:0:0:
256,64,33113,1,8,1:0:0:0:
256,64,33199,1,0,1:0:0:0:
256,64,33284,1,8,1:0:0:0:
256,64,33456,1,0,1:0:0:0:
256,64,33627,1,8,1:0:0:0:
256,64,33713,1,0,1:0:0:0:
256,64,33799,1,8,1:0:0:0:
256,64,33884,1,8,1:0:0:0:
256,64,33970,1,0,1:0:0:0:
256,64,34141,1,8,1:0:0:0:
256,64,34313,1,8,1:0:0:0:
256,64,34570,1,0,1:0:0:0:
256,64,34656,1,8,1:0:0:0:
256,64,34827,1,0,1:0:0:0:
256,64,34999,1,8,1:0:0:0:
256,64,35084,1,0,1:0:0:0:
256,64,35256,1,8,1:0:0:0:
256,64,35341,1,0,1:0:0:0:
256,64,35513,1,8,1:0:0:0:
256,64,35684,1,0,1:0:0:0:
256,64,35941,1,0,1:0:0:0:
256,64,36027,1,8,1:0:0:0:
256,64,36199,1,0,1:0:0:0:
256,64,36370,1,8,1:0:0:0:
256,64,36456,1,8,1:0:0:0:
256,64,36627,1,8,1:0:0:0:
256,64,36713,1,0,1:0:0:0:
256,64,36884,1,8,1:0:0:0:
256,64,37056,1,0,1:0:0:0:
256,64,37313,1,0,1:0:0:0:
256,64,37399,1,8,1:0:0:0:
256,64,37570,1,0,1:0:0:0:
256,64,37741,1,8,1:0:0:0:
256,64,37827,1,0,1:0:0:0:
256,64,37999,1,8,1:0:0:0:
256,64,38084,1,0,1:0:0:0:
256,64,38256,1,0,1:0:0:0:
256,64,38427,1,8,1:0:0:0:
256,64,38513,1,8,1:0:0:0:
256,64,38684,1,8,1:0:0:0:
256,64,38770,1,0,1:0:0:0:
256,64,38941,1,8,1:0:0:0:
256,64,39113,1,0,1:0:0:0:
256,64,39199,1,0,1:0:0:0:
256,64,39370,1,0,1:0:0:0:
256,64,39456,1,8,1:0:0:0:
256,64,39627,1,8,1:0:0:0:
256,64,39799,1,0,1:0:0:0:
256,64,39970,1,8,1:0:0:0:
256,64,40056,1,0,1:0:0:0:
256,64,40141,1,8,1:0:0:0:
256,64,40313,1,0,1:0:0:0:
256,64,40484,1,8,1:0:0:0:
256,64,40570,1,0,1:0:0:0:
256,64,40656,1,8,1:0:0:0:
256,64,40741,1,8,1:0:0:0:
256,64,40827,1,0,1:0:0:0:
256,64,40999,1,8,1:0:0:0:
256,64,41170,1,0,1:0:0:0:
256,64,41341,1,0,1:0:0:0:
256,64,41427,1,0,1:0:0:0:
256,64,41513,1,8,1:0:0:0:
256,64,41684,1,0,1:0:0:0:
256,64,41856,1,8,1:0:0:0:
256,64,41941,1,8,1:0:0:0:
256,64,42027,1,0,1:0:0:0:
256,64,42113,1,8,1:0:0:0:
256,64,42199,1,0,1:0:0:0:
256,64,42370,1,8,1:0:0:0:
256,64,42541,1,0,1:0:0:0:
256,64,42713,1,0,1:0:0:0:
256,64,42799,1,0,1:0:0:0:
256,64,42884,1,8,1:0:0:0:
256,64,43056,1,0,1:0:0:0:
256,64,43141,1,0,1:0:0:0:
256,64,43227,1,8,1:0:0:0:
256,64,43313,1,0,1:0:0:0:
256,64,43399,1,8,1:0:0:0:
256,64,43484,1,8,1:0:0:0:
256,64,43570,1,0,1:0:0:0:
256,64,43741,1,8,1:0:0:0:
256,64,43913,1,8,1:0:0:0:
256,64,44084,1,0,1:0:0:0:
256,64,44256,1,0,1:0:0:0:
256,64,44427,1,8,1:0:0:0:
256,64,44770,1,0,1:0:0:0:
256,64,44941,1,8,1:0:0:0:
256,64,45284,1,8,1:0:0:0:
256,64,45370,1,0,1:0:0:0:
256,64,45541,1,8,1:0:0:0:
256,64,45627,1,0,1:0:0:0:
256,64,45799,1,8,1:0:0:0:
256,64,45884,1,8,1:0:0:0:
256,64,45970,1,0,1:0:0:0:
256,64,46056,1,8,1:0:0:0:
256,64,46227,1,0,1:0:0:0:
256,64,46313,1,8,1:0:0:0:
256,64,46484,1,0,1:0:0:0:
256,64,46656,1,8,1:0:0:0:
256,64,46741,1,0,1:0:0:0:
256,64,46827,1,0,1:0:0:0:
256,64,46913,1,8,1:0:0:0:
256,64,47084,1,0,1:0:0:0:
256,64,47170,1,8,1:0:0:0:
256,64,47256,1,0,1:0:0:0:
256,64,47341,1,8,1:0:0:0:
256,64,47513,1,0,1:0:0:0:
256,64,47599,1,8,1:0:0:0:
256,64,47684,1,0,1:0:0:0:
256,64,47856,1,8,1:0:0:0:
256,64,48027,1,0,1:0:0:0:
256,64,48113,1,0,1:0:0:0:
256,64,48284,1,8,1:0:0:0:
256,64,48370,1,0,1:0:0:0:
256,64,48541,1,0,1:0:0:0:
256,64,48627,1,0,1:0:0:0:
256,64,48713,1,8,1:0:0:0:
256,64,48884,1,0,1:0:0:0:
256,64,48970,1,8,1:0:0:0:
256,64,49056,1,0,1:0:0:0:
256,64,49227,1,8,1:0:0:0:
256,64,49399,1,0,1:0:0:0:
256,64,49484,1,0,1:0:0:0:
256,64,49656,1,8,1:0:0:0:
256,64,49741,1,0,1:0:0:0:
256,64,49913,1,8,1:0:0:0:
256,64,50084,1,8,1:0:0:0:
256,64,50170,1,8,1:0:0:0:
256,64,50341,1,8,1:0:0:0:
256,64,50427,1,0,1:0:0:0:
256,64,50599,1,8,1:0:0:0:
256,64,50770,1,0,1:0:0:0:
256,64,50856,1,0,1:0:0:0:
256,64,51027,1,8,1:0:0:0:
256,64,51113,1,0,1:0:0:0:
256,64,51284,1,8,1:0:0:0:
256,64,51456,1,0,1:0:0:0:
256,64,51541,1,8,1:0:0:0:
256,64,51713,1,8,1:0:0:0:
256,64,51799,1,0,1:0:0:0:
256,64,51970,1,8,1:0:0:0:
256,64,52141,1,0,1:0:0:0:
256,64,52227,1,0,1:0:0:0:
256,64,52399,1,8,1:0:0:0:
256,64,52484,1,0,1:0:0:0:
256,64,52656,1,8,1:0:0:0:
256,64,52741,1,8,1:0:0:0:
256,64,52827,1,0,1:0:0:0:
256,64,52913,1,8,1:0:0:0:
256,64,53084,1,8,1:0:0:0:
256,64,53170,1,0,1:0:0:0:
256,64,53341,1,8,1:0:0:0:
256,64,53513,1,0,1:0:0:0:
256,64,53599,1,0,1:0:0:0:
256,64,53770,1,8,1:0:0:0:
256,64,53856,1,0,1:0:0:0:
256,64,54027,1,8,1:0:0:0:
256,64,54113,1,8,1:0:0:0:
256,64,54199,1,0,1:0:0:0:
256,64,54284,1,8,1:0:0:0:
256,64,54456,1,8,1:0:0:0:
256,64,54541,1,0,1:0:0:0:
256,64,54713,1,0,1:0:0:0:
256,64,54884,1,8,1:0:0:0:
256,64,54970,1,8,1:0:0:0:
256,64,55056,1,0,1:0:0:0:
256,64,55141,1,8,1:0:0:0:
256,64,55227,1,0,1:0:0:0:
256,64,55399,1,0,1:0:0:0:
256,64,55484,1,0,1:0:0:0:
256,64,55570,1,8,1:0:0:0:
256,64,55656,1,0,1:0:0:0:
256,64,55741,1,0,1:0:0:0:
256,64,55827,1,0,1:0:0:0:
256,64,55913,1,8,1:0:0:0:
256,64,56256,1,0,1:0:0:0:
256,64,56341,1,8,1:0:0:0:
256,64,56513,1,8,1:0:0:0:
256,64,56599,1,0,1:0:0:0:
256,64,56770,1,8,1:0:0:0:
256,64,56856,1,8,1:0:0:0:
256,64,56941,1,0,1:0:0:0:
256,64,57027,1,0,1:0:0:0:
256,64,57113,1,8,1:0:0:0:
256,64,57199,1,0,1:0:0:0:
256,64,57284,1,8,1:0:0:0:
256,64,57456,1,8,1:0:0:0:
256,64,57627,1,0,1:0:0:0:
256,64,57713,1,8,1:0:0:0:
256,64,57884,1,8,1:0:0:0:
256,64,58056,1,0,1:0:0:0:
256,64,58141,1,8,1:0:0:0:
256,64,58227,1,0,1:0:0:0:
256,64,58313,1,8,1:0:0:0:
256,64,58399,1,8,1:0:0:0:
256,64,58484,1,0,1:0:0:0:
256,64,58570,1,8,1:0:0:0:
256,64,58656,1,0,1:0:0:0:
256,64,58827,1,8,1:0:0:0:
256,64,58999,1,0,1:0:0:0:
256,64,59084,1,0,1:0:0:0:
256,64,59256,1,8,1:0:0:0:
256,64,59341,1,0,1:0:0:0:
256,64,59513,1,0,1:0:0:0:
256,64,59599,1,0,1:0:0:0:
256,64,59684,1,8,1:0:0:0:
256,64,59770,1,0,1:0:0:0:
256,64,59856,1,8,1:0:0:0:
256,64,59941,1,8,1:0:0:0:
256,64,60027,1,0,1:0:0:0:
256,64,60199,1,8,1:0:0:0:
256,64,60370,1,0,1:0:0:0:
256,64,60456,1,0,1:0:0:0:
256,64,60627,1,8,1:0:0:0:
256,64,60713,1,0,1:0:0:0:
256,64,60884,1,8,1:0:0:0:
256,64,60970,1,0,1:0:0:0:
256,64,61141,1,8,1:0:0:0:
256,64,61313,1,8,1:0:0:0:
256,64,61399,1,0,1:0:0:0:
256,64,61570,1,8,1:0:0:0:
256,64,61741,1,0,1:0:0:0:
256,64,61827,1,0,1:0:0:0:
256,64,61999,1,8,1:0:0:0:
256,64,62084,1,0,1:0:0:0:
256,64,62256,1,8,1:0:0:0:
256,64,62341,1,8,1:0:0:0:
256,64,62427,1,0,1:0:0:0:
256,64,62513,1,8,1:0:0:0:
256,64,62599,1,0,1:0:0:0:
256,64,62684,1,8,1:0:0:0:
256,64,62770,1,0,1:0:0:0:
256,64,62941,1,8,1:0:0:0:
256,64,63113,1,0,1:0:0:0:
256,64,63199,1,0,1:0:0:0:
256,64,63370,1,8,1:0:0:0:
256,64,63456,1,0,1:0:0:0:
256,64,63627,1,8,1:0:0:0:
256,64,63713,1,8,1:0:0:0:
256,64,63799,1,0,1:0:0:0:
256,64,63884,1,8,1:0:0:0:
256,64,63970,1,0,1:0:0:0:
256,64,64056,1,8,1:0:0:0:
256,64,64141,1,0,1:0:0:0:
256,64,64227,1,0,1:0:0:0:
256,64,64313,1,8,1:0:0:0:
256,64,64484,1,0,1:0:0:0:
256,64,64570,1,0,1:0:0:0:
256,64,64741,1,8,1:0:0:0:
256,64,64827,1,0,1:0:0:0:
256,64,64999,1,8,1:0:0:0:
256,64,65084,1,8,1:0:0:0:
256,64,65170,1,0,1:0:0:0:
256,64,65256,1,0,1:0:0:0:
256,64,65341,1,0,1:0:0:0:
256,64,65427,1,8,1:0:0:0:
256,64,65513,1,0,1:0:0:0:
256,64,65684,1,0,1:0:0:0:
256,64,65856,1,8,1:0:0:0:
256,64,65941,1,8,1:0:0:0:
256,64,66027,1,0,1:0:0:0:
256,64,66113,1,8,1:0:0:0:
256,64,66199,1,0,1:0:0:0:
256,64,66370,1,0,1:0:0:0:
256,64,66456,1,0,1:0:0:0:
256,64,66541,1,8,1:0:0:0:
256,64,66627,1,0,1:0:0:0:
256,64,66713,1,8,1:0:0:0:
256,64,66799,1,0,1:0:0:0:
256,64,66884,1,8,1:0:0:0:
256,64,67056,1,0,1:0:0:0:
256,64,67227,1,8,1:0:0:0:
256,64,67399,1,0,1:0:0:0:
256,64,67484,1,0,1:0:0:0:
256,64,67570,1,8,1:0:0:0:
256,64,67741,1,0,1:0:0:0:
256,64,67827,1,0,1:0:0:0:
256,64,67913,1,0,1:0:0:0:
256,64,68084,1,0,1:0:0:0:
256,64,68256,1,8,1:0:0:0:
256,64,68427,1,0,1:0:0:0:
256,64,68599,1,8,1:0:0:0:
256,64,68770,1,0,1:0:0:0:
256,64,68856,1,0,1:0:0:0:
256,64,68941,1,0,1:0:0:0:
256,64,69113,1,8,1:0:0:0:
256,64,69199,1,8,1:0:0:0:
256,64,69284,1,0,1:0:0:0:
256,64,69456,1,0,1:0:0:0:
256,64,69627,1,8,1:0:0:0:
256,64,69799,1,0,1:0:0:0:
256,64,69970,1,8,1:0:0:0:
256,64,70141,1,0,1:0:0:0:
256,64,70227,1,0,1:0:0:0:
256,64,70313,1,0,1:0:0:0:
256,64,70484,1,0,1:0:0:0:
256,64,70656,1,8,1:0:0:0:
256,64,70741,1,8,1:0:0:0:
256,64,70827,1,0,1:0:0:0:
256,64,70999,1,8,1:0:0:0:
256,64,71170,1,0,1:0:0:0:
256,64,71341,1,8,1:0:0:0:
256,64,71513,1,0,1:0:0:0:
256,64,71599,1,0,1:0:0:0:
256,64,71684,1,0,1:0:0:0:
256,64,71856,1,8,1:0:0:0:
256,64,72027,1,0,1:0:0:0:
256,64,72199,1,8,1:0:0:0:
256,64,72284,1,8,1:0:0:0:
256,64,72370,1,0,1:0:0:0:
256,64,72541,1,8,1:0:0:0:
256,64,72713,1,0,1:0:0:0:
256,64,72884,1,0,1:0:0:0:
256,64,72970,1,0,1:0:0:0:
256,64,73056,1,0,1:0:0:0:
256,64,73227,1,8,1:0:0:0:
256,64,73399,1,0,1:0:0:0:
256,64,73570,1,0,1:0:0:0:
256,64,73656,1,0,1:0:0:0:
256,64,73741,1,8,1:0:0:0:
256,64,73913,1,0,1:0:0:0:
256,64,74084,1,8,1:0:0:0:
256,64,74256,1,0,1:0:0:0:
256,64,74341,1,0,1:0:0:0:
256,64,74427,1,0,1:0:0:0:
256,64,74599,1,8,1:0:0:0:
256,64,74770,1,0,1:0:0:0:
256,64,74856,1,0,1:0:0:0:
256,64,74941,1,0,1:0:0:0:
256,64,75113,1,8,1:0:0:0:
256,64,75284,1,0,1:0:0:0:
256,64,75370,1,0,1:0:0:0:
256,64,75456,1,8,1:0:0:0:
256,64,75627,1,0,1:0:0:0:
256,64,75799,1,0,1:0:0:0:
256,64,75970,1,0,1:0:0:0:
256,64,76056,1,0,1:0:0:0:
256,64,76141,1,8,1:0:0:0:
256,64,76313,1,0,1:0:0:0:
256,64,76484,1,8,1:0:0:0:
256,64,76656,1,8,1:0:0:0:
256,64,76741,1,8,1:0:0:0:
256,64,76827,1,0,1:0:0:0:
256,64,76999,1,8,1:0:0:0:
256,64,77084,1,0,1:0:0:0:
256,64,77170,1,8,1:0:0:0:
256,64,77341,1,0,1:0:0:0:
256,64,77513,1,8,1:0:0:0:
256,64,77599,1,0,1:0:0:0:
256,64,77684,1,8,1:0:0:0:
256,64,77770,1,8,1:0:0:0:
256,64,77856,1,0,1:0:0:0:
256,64,78027,1,8,1:0:0:0:
256,64,78199,1,8,1:0:0:0:
256,64,78284,1,8,1:0:0:0:
256,64,78456,1,8,1:0:0:0:
256,64,78541,1,0,1:0:0:0:
256,64,78713,1,0,1:0:0:0:
256,64,78884,1,8,1:0:0:0:
256,64,79141,1,0,1:0:0:0:
256,64,79227,1,8,1:0:0:0:
256,64,79399,1,0,1:0:0:0:
256,64,79570,1,8,1:0:0:0:
256,64,79827,1,0,1:0:0:0:
256,64,79913,1,8,1:0:0:0:
256,64,80084,1,0,1:0:0:0:
256,64,80256,1,8,1:0:0:0:
256,64,80427,1,0,1:0:0:0:
256,64,80513,1,0,1:0:0:0:
256,64,80599,1,8,1:0:0:0:
256,64,80770,1,0,1:0:0:0:
256,64,80941,1,8,1:0:0:0:
256,64,81113,1,8,1:0:0:0:
256,64,81284,1,0,1:0:0:0:
256,64,81370,1,0,1:0:0:0:
256,64,81541,1,8,1:0:0:0:
256,64,81627,1,0,1:0:0:0:
256,64,81799,1,0,1:0:0:0:
256,64,81970,1,8,1:0:0:0:
256,64,82056,1,8,1:0:0:0:
256,64,82227,1,8,1:0:0:0:
256,64,82313,1,0,1:0:0:0:
256,64,82484,1,0,1:0:0:0:
256,64,82656,1,8,1:0:0:0:
256,64,82741,1,0,1:0:0:0:
256,64,82913,1,0,1:0:0:0:
256,64,82999,1,8,1:0:0:0:
256,64,83170,1,8,1:0:0:0:
256,64,83341,1,8,1:0:0:0:
256,64,83513,1,0,1:0:0:0:
256,64,83684,1,8,1:0:0:0:
256,64,83856,1,0,1:0:0:0:
256,64,84027,1,8,1:0:0:0:
256,64,84113,1,8,1:0:0:0:
256,64,84284,1,0,1:0:0:0:
256,64,84370,1,8,1:0:0:0:
256,64,84541,1,0,1:0:0:0:
256,64,84713,1,8,1:0:0:0:
256,64,84799,1,8,1:0:0:0:
256,64,84970,1,0,1:0:0:0:
256,64,85056,1,8,1:0:0:0:
256,64,85227,1,0,1:0:0:0:
256,64,85399,1,8,1:0:0:0:
256,64,85484,1,0,1:0:0:0:
256,64,85656,1,8,1:0:0:0:
256,64,85741,1,0,1:0:0:0:
256,64,85913,1,8,1:0:0:0:
256,64,86084,1,8,1:0:0:0:
256,64,86256,1,0,1:0:0:0:
256,64,86341,1,0,1:0:0:0:
256,64,86427,1,8,1:0:0:0:
256,64,86513,1,8,1:0:0:0:
256,64,86599,1,0,1:0:0:0:
256,64,86684,1,0,1:0:0:0:
256,64,86770,1,8,1:0:0:0:
256,64,86856,1,0,1:0:0:0:
256,64,86941,1,8,1:0:0:0:
256,64,87027,1,8,1:0:0:0:
256,64,87113,1,0,1:0:0:0:
256,64,87199,1,0,1:0:0:0:
256,64,87284,1,8,1:0:0:0:
256,64,87370,1,0,1:0:0:0:
256,64,87456,1,8,1:0:0:0:
256,64,87541,1,8,1:0:0:0:
256,64,87627,1,0,1:0:0:0:
256,64,87713,1,0,1:0:0:0:
256,64,87799,1,8,1:0:0:0:
256,64,87970,1,0,1:0:0:0:
256,64,88313,1,8,1:0:0:0:
256,64,88656,1,0,1:0:0:0:
256,64,88827,1,8,1:0:0:0:
256,64,89170,1,4,1:0:0:0:
256,64,89513,1,12,1:0:0:0:
256,64,89856,1,8,1:0:0:0:
256,64,90027,1,0,1:0:0:0:
256,64,90199,1,8,1:0:0:0:
256,64,90284,1,8,1:0:0:0:
256,64,90370,1,0,1:0:0:0:
256,64,90456,1,0,1:0:0:0:
256,64,90541,1,8,1:0:0:0:
256,64,90627,1,8,1:0:0:0:
256,64,90713,1,0,1:0:0:0:
256,64,90799,1,8,1:0:0:0:
256,64,90884,1,0,1:0:0:0:
256,64,90970,1,0,1:0:0:0:
256,64,91056,1,0,1:0:0:0:
256,64,91141,1,0,1:0:0:0:
256,64,91227,1,8,1:0:0:0:
256,64,91313,1,8,1:0:0:0:
256,64,91399,1,0,1:0:0:0:
256,64,91484,1,0,1:0:0:0:
256,64,91570,1,8,1:0:0:0:
256,64,91656,1,0,1:0:0:0:
256,64,91741,1,8,1:0:0:0:
256,64,91827,1,8,1:0:0:0:
256,64,91913,1,0,1:0:0:0:
256,64,92084,1,0,1:0:0:0:
256,64,92256,1,8,1:0:0:0:
256,64,92341,1,0,1:0:0:0:
256,64,92513,1,0,1:0:0:0:
256,64,92599,1,0,1:0:0:0:
256,64,92770,1,0,1:0:0:0:
256,64,92941,1,8,1:0:0:0:
256,64,93027,1,8,1:0:0:0:
256,64,93199,1,8,1:0:0:0:
256,64,93284,1,0,1:0:0:0:
256,64,93456,1,0,1:0:0:0:
256,64,93627,1,8,1:0:0:0:
256,64,93713,1,0,1:0:0:0:
256,64,93884,1,0,1:0:0:0:
256,64,93970,1,0,1:0:0:0:
256,64,94141,1,0,1:0:0:0:
256,64,94313,1,12,1:0:0:0:
256,64,94656,1,4,1:0:0:0:
256,64,94999,1,12,1:0:0:0:
256,64,95341,1,8,1:0:0:0:
256,64,95513,1,0,1:0:0:0:
256,64,95684,1,8,1:0:0:0:
256,64,95770,1,8,1:0:0:0:
256,64,95856,1,0,1:0:0:0:
256,64,95941,1,8,1:0:0:0:
256,64,96027,1,0,1:0:0:0:
256,64,96113,1,0,1:0:0:0:
256,64,96199,1,8,1:0:0:0:
256,64,96284,1,0,1:0:0:0:
256,64,96370,1,8,1:0:0:0:
256,64,96456,1,8,1:0:0:0:
256,64,96541,1,8,1:0:0:0:
256,64,96627,1,0,1:0:0:0:
256,64,96713,1,8,1:0:0:0:
256,64,96799,1,8,1:0:0:0:
256,64,96884,1,0,1:0:0:0:
256,64,96970,1,0,1:0:0:0:
256,64,97056,1,8,1:0:0:0:
256,64,97141,1,0,1:0:0:0:
256,64,97227,1,8,1:0:0:0:
256,64,97313,1,8,1:0:0:0:
256,64,97399,1,0,1:0:0:0:
256,64,97570,1,0,1:0:0:0:
256,64,97741,1,8,1:0:0:0:
256,64,97827,1,0,1:0:0:0:
256,64,97999,1,0,1:0:0:0:
256,64,98084,1,0,1:0:0:0:
256,64,98256,1,0,1:0:0:0:
256,64,98427,1,8,1:0:0:0:
256,64,98513,1,8,1:0:0:0:
256,64,98684,1,8,1:0:0:0:
256,64,98770,1,0,1:0:0:0:
256,64,98941,1,0,1:0:0:0:
256,64,99113,1,8,1:0:0:0:
256,64,99199,1,0,1:0:0:0:
256,64,99370,1,0,1:0:0:0:
256,64,99456,1,8,1:0:0:0:
256,64,99627,1,0,1:0:0:0:
256,64,99713,1,0,1:0:0:0:
256,64,99799,1,8,1:0:0:0:
256,64,100141,1,4,1:0:0:0:
256,64,100484,1,12,1:0:0:0:
256,64,100827,1,8,1:0:0:0:
256,64,100999,1,0,1:0:0:0:
256,64,101170,1,8,1:0:0:0:
256,64,101256,1,8,1:0:0:0:
256,64,101341,1,0,1:0:0:0:
256,64,101427,1,0,1:0:0:0:
256,64,101513,1,8,1:0:0:0:
256,64,101599,1,8,1:0:0:0:
256,64,101684,1,0,1:0:0:0:
256,64,101770,1,8,1:0:0:0:
256,64,101856,1,0,1:0:0:0:
256,64,101941,1,0,1:0:0:0:
256,64,102027,1,0,1:0:0:0:
256,64,102113,1,0,1:0:0:0:
256,64,102199,1,8,1:0:0:0:
256,64,102284,1,8,1:0:0:0:
256,64,102370,1,0,1:0:0:0:
256,64,102456,1,0,1:0:0:0:
256,64,102541,1,8,1:0:0:0:
256,64,102627,1,0,1:0:0:0:
256,64,102713,1,8,1:0:0:0:
256,64,102799,1,8,1:0:0:0:
256,64,102884,1,0,1:0:0:0:
256,64,103056,1,0,1:0:0:0:
256,64,103227,1,8,1:0:0:0:
256,64,103313,1,0,1:0:0:0:
256,64,103484,1,0,1:0:0:0:
256,64,103570,1,0,1:0:0:0:
256,64,103741,1,0,1:0:0:0:
256,64,103913,1,8,1:0:0:0:
256,64,103999,1,8,1:0:0:0:
256,64,104170,1,8,1:0:0:0:
256,64,104256,1,0,1:0:0:0:
256,64,104427,1,0,1:0:0:0:
256,64,104599,1,8,1:0:0:0:
256,64,104684,1,0,1:0:0:0:
256,64,104856,1,0,1:0:0:0:
256,64,104941,1,0,1:0:0:0:
256,64,105113,1,0,1:0:0:0:
256,64,105284,1,8,1:0:0:0:
256,64,105627,1,4,1:0:0:0:
256,64,105970,1,8,1:0:0:0:
256,64,106027,1,8,1:0:0:0:
256,64,106084,1,8,1:0:0:0:
256,64,106141,1,0,1:0:0:0:
256,64,106313,1,8,1:0:0:0:
256,64,106484,1,0,1:0:0:0:
256,64,106656,1,8,1:0:0:0:
256,64,106741,1,8,1:0:0:0:
256,64,106827,1,0,1:0:0:0:
256,64,106913,1,8,1:0:0:0:
256,64,106999,1,0,1:0:0:0:
256,64,107084,1,0,1:0:0:0:
256,64,107170,1,8,1:0:0:0:
256,64,107256,1,0,1:0:0:0:
256,64,107341,1,8,1:0:0:0:
256,64,107427,1,8,1:0:0:0:
256,64,107513,1,8,1:0:0:0:
256,64,107599,1,0,1:0:0:0:
256,64,107684,1,8,1:0:0:0:
256,64,107770,1,8,1:0:0:0:
256,64,107856,1,0,1:0:0:0:
256,64,107941,1,0,1:0:0:0:
256,64,108027,1,8,1:0:0:0:
256,64,108113,1,0,1:0:0:0:
256,64,108199,1,8,1:0:0:0:
256,64,108284,1,8,1:0:0:0:
256,64,108370,1,0,1:0:0:0:
256,64,108541,1,0,1:0:0:0:
256,64,108713,1,8,1:0:0:0:
256,64,108799,1,0,1:0:0:0:
256,64,108970,1,0,1:0:0:0:
256,64,109056,1,8,1:0:0:0:
256,64,109227,1,0,1:0:0:0:
256,64,109313,1,0,1:0:0:0:
256,64,109399,1,8,1:0:0:0:
256,64,109570,1,0,1:0:0:0:
256,64,109741,1,8,1:0:0:0:
256,64,109913,1,0,1:0:0:0:
256,64,110084,1,8,1:0:0:0:
256,64,110256,1,0,1:0:0:0:
256,64,110341,1,0,1:0:0:0:
256,64,110427,1,8,1:0:0:0:
256,64,110599,1,0,1:0:0:0:
256,64,110770,1,8,1:0:0:0:
256,64,110941,1,8,1:0:0:0:
256,64,111113,1,0,1:0:0:0:
256,64,111627,1,0,1:0:0:0:
256,64,112141,1,8,1:0:0:0:
256,64,112484,1,0,1:0:0:0:
256,64,112999,1,8,1:0:0:0:
256,64,113513,1,8,1:0:0:0:
256,64,113856,1,0,1:0:0:0:
256,64,114370,1,8,1:0:0:0:
256,64,114884,1,8,1:0:0:0:
256,64,115227,1,0,1:0:0:0:
256,64,115570,1,8,1:0:0:0:
256,64,115741,1,0,1:0:0:0:
256,64,116084,1,8,1:0:0:0:
256,64,116427,1,8,1:0:0:0:
256,64,116599,1,0,1:0:0:0:
256,64,117113,1,0,1:0:0:0:
256,64,117627,1,8,1:0:0:0:
256,64,117970,1,0,1:0:0:0:
256,64,118484,1,8,1:0:0:0:
256,64,118999,1,8,1:0:0:0:
256,64,119341,1,0,1:0:0:0:
256,64,119684,1,0,1:0:0:0:
256,64,119856,1,0,1:0:0:0:
256,64,120027,1,8,1:0:0:0:
256,64,120541,1,8,1:0:0:0:
256,64,120713,1,0,1:0:0:0:
256,64,121227,1,8,1:0:0:0:
256,64,121399,1,0,1:0:0:0:
256,64,121570,1,8,1:0:0:0:
256,64,121741,1,8,1:0:0:0:
256,64,121913,1,0,1:0:0:0:
256,64,122084,1,8,1:0:0:0:
256,64,122427,1,0,1:0:0:0:
256,64,122599,1,8,1:0:0:0:
256,64,122770,1,0,1:0:0:0:
256,64,122941,1,0,1:0:0:0:
256,64,123113,1,8,1:0:0:0:
256,64,123284,1,0,1:0:0:0:
256,64,123456,1,8,1:0:0:0:
256,64,123799,1,0,1:0:0:0:
256,64,123970,1,8,1:0:0:0:
256,64,124141,1,8,1:0:0:0:
256,64,124313,1,0,1:0:0:0:
256,64,124484,1,8,1:0:0:0:
256,64,124656,1,0,1:0:0:0:
256,64,124827,1,8,1:0:0:0:
256,64,125170,1,0,1:0:0:0:
256,64,125341,1,0,1:0:0:0:
256,64,125513,1,8,1:0:0:0:
256,64,125684,1,0,1:0:0:0:
256,64,125856,1,8,1:0:0:0:
256,64,126027,1,8,1:0:0:0:
256,64,126199,1,0,1:0:0:0:
256,64,126541,1,0,1:0:0:0:
256,64,126713,1,8,1:0:0:0:
256,64,127056,1,0,1:0:0:0:
256,64,127399,1,8,1:0:0:0:
256,64,127570,1,0,1:0:0:0:
256,64,127913,1,8,1:0:0:0:
256,64,128084,1,0,1:0:0:0:
256,64,128256,1,8,1:0:0:0:
256,64,128427,1,8,1:0:0:0:
256,64,128599,1,0,1:0:0:0:
256,64,128770,1,8,1:0:0:0:
256,64,128941,1,0,1:0:0:0:
256,64,129284,1,8,1:0:0:0:
256,64,129456,1,0,1:0:0:0:
256,64,129627,1,8,1:0:0:0:
256,64,129799,1,0,1:0:0:0:
256,64,129970,1,8,1:0:0:0:
256,64,130141,1,8,1:0:0:0:
256,64,130313,1,0,1:0:0:0:
256,64,130656,1,0,1:0:0:0:
256,64,130827,1,0,1:0:0:0:
256,64,130999,1,8,1:0:0:0:
256,64,131513,1,0,1:0:0:0:
256,64,131684,1,8,1:0:0:0:
256,64,132027,1,0,1:0:0:0:
256,64,132113,1,0,1:0:0:0:
256,64,132199,1,8,1:0:0:0:
256,64,132541,1,0,1:0:0:0:
256,64,132627,1,0,1:0:0:0:
256,64,132713,1,8,1:0:0:0:
256,64,133056,1,8,1:0:0:0:
256,64,133227,1,0,1:0:0:0:
256,64,133313,1,0,1:0:0:0:
256,64,133399,1,8,1:0:0:0:
256,64,133656,1,8,1:0:0:0:
256,64,133741,1,0,1:0:0:0:
256,64,133913,1,8,1:0:0:0:
256,64,134170,1,8,1:0:0:0:
256,64,134256,1,0,1:0:0:0:
256,64,134427,1,8,1:0:0:0:
256,64,134684,1,8,1:0:0:0:
256,64,134770,1,0,1:0:0:0:
256,64,134941,1,8,1:0:0:0:
256,64,135113,1,0,1:0:0:0:
256,64,135199,1,8,1:0:0:0:
256,64,135284,1,0,1:0:0:0:
256,64,135456,1,8,1:0:0:0:
256,64,135627,1,8,1:0:0:0:
256,64,135713,1,8,1:0:0:0:
256,64,135799,1,0,1:0:0:0:
256,64,135970,1,8,1:0:0:0:
256,64,136141,1,0,1:0:0:0:
256,64,136227,1,8,1:0:0:0:
256,64,136313,1,0,1:0:0:0:
256,64,136484,1,8,1:0:0:0:
256,64,136656,1,0,1:0:0:0:
256,64,136741,1,0,1:0:0:0:
256,64,136827,1,8,1:0:0:0:
256,64,136913,1,0,1:0:0:0:
256,64,136999,1,8,1:0:0:0:
256,64,137084,1,8,1:0:0:0:
256,64,137170,1,0,1:0:0:0:
256,64,137341,1,0,1:0:0:0:
256,64,137427,1,0,1:0:0:0:
256,64,137513,1,8,1:0:0:0:
256,64,137684,1,0,1:0:0:0:
256,64,137770,1,0,1:0:0:0:
256,64,137856,1,0,1:0:0:0:
256,64,138027,1,8,1:0:0:0:
256,64,138199,1,0,1:0:0:0:
256,64,138370,1,0,1:0:0:0:
256,64,138541,1,8,1:0:0:0:
256,64,138713,1,0,1:0:0:0:
256,64,138799,1,8,1:0:0:0:
256,64,138884,1,0,1:0:0:0:
256,64,139056,1,8,1:0:0:0:
256,64,139227,1,0,1:0:0:0:
256,64,139313,1,8,1:0:0:0:
256,64,139399,1,0,1:0:0:0:
256,64,139570,1,8,1:0:0:0:
256,64,139741,1,0,1:0:0:0:
256,64,139827,1,8,1:0:0:0:
256,64,139913,1,0,1:0:0:0:
256,64,140084,1,8,1:0:0:0:
256,64,140256,1,0,1:0:0:0:
256,64,140341,1,8,1:0:0:0:
256,64,140427,1,0,1:0:0:0:
256,64,140513,1,0,1:0:0:0:
256,64,140599,1,8,1:0:0:0:
256,64,140770,1,0,1:0:0:0:
256,64,140856,1,8,1:0:0:0:
256,64,140941,1,0,1:0:0:0:
256,64,141113,1,8,1:0:0:0:
256,64,141284,1,0,1:0:0:0:
256,64,141456,1,0,1:0:0:0:
256,64,141541,1,0,1:0:0:0:
256,64,141627,1,8,1:0:0:0:
256,64,141799,1,0,1:0:0:0:
256,64,141884,1,0,1:0:0:0:
256,64,141970,1,8,1:0:0:0:
256,64,142056,1,0,1:0:0:0:
256,64,142141,1,8,1:0:0:0:
256,64,142227,1,0,1:0:0:0:
256,64,142313,1,0,1:0:0:0:
256,64,142484,1,0,1:0:0:0:
256,64,142656,1,8,1:0:0:0:
256,64,142713,1,8,1:0:0:0:
256,64,142770,1,8,1:0:0:0:
256,64,142827,1,8,1:0:0:0:
256,64,142913,1,8,1:0:0:0:
256,64,142999,1,0,1:0:0:0:
256,64,143170,1,8,1:0:0:0:
256,64,143513,1,0,1:0:0:0:
256,64,143599,1,0,1:0:0:0:
256,64,143684,1,8,1:0:0:0:
256,64,143741,1,8,1:0:0:0:
256,64,143799,1,8,1:0:0:0:
256,64,143856,1,0,1:0:0:0:
256,64,143941,1,0,1:0:0:0:
256,64,144027,1,8,1:0:0:0:
256,64,144199,1,0,1:0:0:0:
256,64,144284,1,0,1:0:0:0:
256,64,144370,1,8,1:0:0:0:
256,64,144541,1,0,1:0:0:0:
256,64,144627,1,0,1:0:0:0:
256,64,144713,1,0,1:0:0:0:
256,64,144884,1,8,1:0:0:0:
256,64,145056,1,0,1:0:0:0:
256,64,145227,1,0,1:0:0:0:
256,64,145313,1,0,1:0:0:0:
256,64,145399,1,8,1:0:0:0:
256,64,145456,1,8,1:0:0:0:
256,64,145513,1,8,1:0:0:0:
256,64,145570,1,0,1:0:0:0:
256,64,145741,1,0,1:0:0:0:
256,64,145913,1,8,1:0:0:0:
256,64,146084,1,0,1:0:0:0:
256,64,146256,1,0,1:0:0:0:
256,64,146427,1,8,1:0:0:0:
256,64,146513,1,0,1:0:0:0:
256,64,146599,1,8,1:0:0:0:
256,64,146684,1,8,1:0:0:0:
256,64,146770,1,0,1:0:0:0:
256,64,146941,1,8,1:0:0:0:
256,64,147113,1,0,1:0:0:0:
256,64,147199,1,0,1:0:0:0:
256,64,147284,1,0,1:0:0:0:
256,64,147456,1,8,1:0:0:0:
256,64,147627,1,0,1:0:0:0:
256,64,147713,1,8,1:0:0:0:
256,64,147799,1,0,1:0:0:0:
256,64,147970,1,0,1:0:0:0:
256,64,148141,1,8,1:0:0:0:
256,64,148227,1,8,1:0:0:0:
256,64,148313,1,0,1:0:0:0:
256,64,148484,1,0,1:0:0:0:
256,64,148656,1,8,1:0:0:0:
256,64,148827,1,0,1:0:0:0:
256,64,148999,1,0,1:0:0:0:
256,64,149170,1,8,1:0:0:0:
256,64,149256,1,0,1:0:0:0:
256,64,149341,1,8,1:0:0:0:
256,64,149427,1,8,1:0:0:0:
256,64,149513,1,0,1:0:0:0:
256,64,149684,1,0,1:0:0:0:
256,64,149770,1,0,1:0:0:0:
256,64,149856,1,8,1:0:0:0:
256,64,149941,1,0,1:0:0:0:
256,64,150027,1,8,1:0:0:0:
256,64,150199,1,0,1:0:0:0:
256,64,150284,1,0,1:0:0:0:
256,64,150370,1,8,1:0:0:0:
256,64,150456,1,8,1:0:0:0:
256,64,150541,1,0,1:0:0:0:
256,64,150713,1,0,1:0:0:0:
256,64,150799,1,0,1:0:0:0:
256,64,150884,1,8,1:0:0:0:
256,64,150970,1,0,1:0:0:0:
256,64,151056,1,8,1:0:0:0:
256,64,151227,1,0,1:0:0:0:
256,64,151313,1,0,1:0:0:0:
256,64,151399,1,8,1:0:0:0:
256,64,151484,1,8,1:0:0:0:
256,64,151570,1,0,1:0:0:0:
256,64,151741,1,0,1:0:0:0:
256,64,151913,1,8,1:0:0:0:
256,64,151999,1,0,1:0:0:0:
256,64,152084,1,8,1:0:0:0:
256,64,152170,1,8,1:0:0:0:
256,64,152256,1,0,1:0:0:0:
256,64,152427,1,0,1:0:0:0:
256,64,152513,1,0,1:0:0:0:
256,64,152599,1,8,1:0:0:0:
256,64,152684,1,0,1:0:0:0:
256,64,152770,1,8,1:0:0:0:
256,64,152856,1,8,1:0:0:0:
256,64,152941,1,0,1:0:0:0:
256,64,153027,1,0,1:0:0:0:
256,64,153113,1,8,1:0:0:0:
256,64,153199,1,0,1:0:0:0:
256,64,153284,1,8,1:0:0:0:
256,64,153370,1,8,1:0:0:0:
256,64,153456,1,0,1:0:0:0:
256,64,153541,1,0,1:0:0:0:
256,64,153627,1,8,1:0:0:0:
256,64,153799,1,0,1:0:0:0:
256,64,153884,1,0,1:0:0:0:
256,64,153970,1,8,1:0:0:0:
256,64,154056,1,0,1:0:0:0:
256,64,154141,1,8,1:0:0:0:
256,64,154313,1,0,1:0:0:0:
256,64,154399,1,0,1:0:0:0:
256,64,154484,1,8,1:0:0:0:
256,64,154570,1,0,1:0:0:0:
256,64,154656,1,8,1:0:0:0:
256,64,154741,1,8,1:0:0:0:
256,64,154827,1,8,1:0:0:0:
256,64,154913,1,8,1:0:0:0:
256,64,154999,1,0,1:0:0:0:
256,64,155256,1,8,1:0:0:0:
256,64,155341,1,0,1:0:0:0:
256,64,155513,1,8,1:0:0:0:
256,64,155684,1,0,1:0:0:0:
256,64,155770,1,0,1:0:0:0:
256,64,155856,1,8,1:0:0:0:
256,64,156027,1,0,1:0:0:0:
256,64,156199,1,0,1:0:0:0:
256,64,156370,1,8,1:0:0:0:
256,64,156541,1,0,1:0:0:0:
256,64,156627,1,8,1:0:0:0:
256,64,156713,1,0,1:0:0:0:
256,64,156884,1,8,1:0:0:0:
256,64,157227,1,0,1:0:0:0:
256,64,157313,1,0,1:0:0:0:
256,64,157399,1,8,1:0:0:0:
256,64,157570,1,8,1:0:0:0:
256,64,157741,1,0,1:0:0:0:
256,64,157913,1,8,1:0:0:0:
256,64,158084,1,0,1:0:0:0:
256,64,158170,1,0,1:0:0:0:
256,64,158256,1,0,1:0:0:0:
256,64,158427,1,8,1:0:0:0:
256,64,158513,1,0,1:0:0:0:
256,64,158599,1,8,1:0:0:0:
256,64,158684,1,8,1:0:0:0:
256,64,158770,1,0,1:0:0:0:
256,64,158941,1,0,1:0:0:0:
256,64,159113,1,8,1:0:0:0:
256,64,159284,1,0,1:0:0:0:
256,64,159370,1,0,1:0:0:0:
256,64,159456,1,0,1:0:0:0:
256,64,159627,1,8,1:0:0:0:
256,64,159713,1,0,1:0:0:0:
256,64,159799,1,8,1:0:0:0:
256,64,159884,1,8,1:0:0:0:
256,64,159970,1,8,1:0:0:0:
256,64,160141,1,0,1:0:0:0:
256,64,160313,1,0,1:0:0:0:
256,64,160484,1,8,1:0:0:0:
256,64,160656,1,0,1:0:0:0:
256,64,160741,1,0,1:0:0:0:
256,64,160827,1,0,1:0:0:0:
256,64,160999,1,8,1:0:0:0:
256,64,161170,1,0,1:0:0:0:
256,64,161256,1,8,1:0:0:0:
256,64,161341,1,0,1:0:0:0:
256,64,161513,1,8,1:0:0:0:
256,64,161684,1,0,1:0:0:0:
256,64,161856,1,8,1:0:0:0:
256,64,162027,1,0,1:0:0:0:
256,64,162113,1,8,1:0:0:0:
256,64,162199,1,0,1:0:0:0:
256,64,162370,1,0,1:0:0:0:
256,64,162541,1,8,1:0:0:0:
256,64,162627,1,0,1:0:0:0:
256,64,162713,1,8,1:0:0:0:
256,64,162799,1,8,1:0:0:0:
256,64,162884,1,0,1:0:0:0:
256,64,163056,1,8,1:0:0:0:
256,64,163227,1,0,1:0:0:0:
256,64,163313,1,0,1:0:0:0:
256,64,163399,1,0,1:0:0:0:
256,64,163484,1,0,1:0:0:0:
256,64,163570,1,8,1:0:0:0:
256,64,163741,1,8,1:0:0:0:
256,64,163827,1,0,1:0:0:0:
256,64,163913,1,8,1:0:0:0:
256,64,164084,1,0,1:0:0:0:
256,64,164170,1,8,1:0:0:0:
256,64,164256,1,0,1:0:0:0:
256,64,164341,1,0,1:0:0:0:
256,64,164427,1,8,1:0:0:0:
256,64,164513,1,0,1:0:0:0:
256,64,164599,1,8,1:0:0:0:
256,64,164770,1,0,1:0:0:0:
256,64,164856,1,0,1:0:0:0:
256,64,164941,1,8,1:0:0:0:
256,64,165027,1,0,1:0:0:0:
256,64,165113,1,8,1:0:0:0:
256,64,165284,1,0,1:0:0:0:
256,64,165370,1,0,1:0:0:0:
256,64,165456,1,8,1:0:0:0:
256,64,165541,1,0,1:0:0:0:
256,64,165627,1,8,1:0:0:0:
256,64,165684,1,8,1:0:0:0:
256,64,165741,1,8,1:0:0:0:
256,64,165799,1,0,1:0:0:0:
256,64,165884,1,8,1:0:0:0:
256,64,165970,1,0,1:0:0:0:
256,64,166141,1,0,1:0:0:0:
256,64,166227,1,0,1:0:0:0:
256,64,166313,1,0,1:0:0:0:
256,64,166484,1,8,1:0:0:0:
256,64,166656,1,0,1:0:0:0:
256,64,166741,1,8,1:0:0:0:
256,64,166827,1,0,1:0:0:0:
256,64,166999,1,8,1:0:0:0:
256,64,167170,1,0,1:0:0:0:
256,64,167256,1,0,1:0:0:0:
256,64,167341,1,8,1:0:0:0:
256,64,167399,1,8,1:0:0:0:
256,64,167456,1,8,1:0:0:0:
256,64,167513,1,8,1:0:0:0:
256,64,167599,1,8,1:0:0:0:
256,64,167684,1,0,1:0:0:0:
256,64,167856,1,8,1:0:0:0:
256,64,168027,1,0,1:0:0:0:
256,64,168199,1,8,1:0:0:0:
256,64,168284,1,0,1:0:0:0:
256,64,168370,1,8,1:0:0:0:
256,64,168427,1,8,1:0:0:0:
256,64,168484,1,8,1:0:0:0:
256,64,168541,1,0,1:0:0:0:
256,64,168627,1,0,1:0:0:0:
256,64,168713,1,8,1:0:0:0:
256,64,168799,1,8,1:0:0:0:
256,64,168884,1,0,1:0:0:0:
256,64,169056,1,0,1:0:0:0:
256,64,169227,1,8,1:0:0:0:
256,64,169399,1,0,1:0:0:0:
256,64,169484,1,0,1:0:0:0:
256,64,169570,1,8,1:0:0:0:
256,64,169656,1,0,1:0:0:0:
256,64,169741,1,8,1:0:0:0:
256,64,169913,1,8,1:0:0:0:
256,64,169999,1,8,1:0:0:0:
256,64,170084,1,0,1:0:0:0:
256,64,170141,1,0,1:0:0:0:
256,64,170199,1,0,1:0:0:0:
256,64,170256,1,8,1:0:0:0:
256,64,170427,1,8,1:0:0:0:
256,64,170599,1,0,1:0:0:0:
256,64,170684,1,0,1:0:0:0:
256,64,170770,1,8,1:0:0:0:
256,64,170856,1,8,1:0:0:0:
256,64,170941,1,8,1:0:0:0:
256,64,171113,1,0,1:0:0:0:
256,64,171199,1,0,1:0:0:0:
256,64,171284,1,8,1:0:0:0:
256,64,171370,1,0,1:0:0:0:
256,64,171456,1,8,1:0:0:0:
256,64,171713,1,8,1:0:0:0:
256,64,171799,1,0,1:0:0:0:
256,64,171970,1,8,1:0:0:0:
256,64,172227,1,8,1:0:0:0:
256,64,172313,1,0,1:0:0:0:
256,64,172484,1,8,1:0:0:0:
256,64,172741,1,8,1:0:0:0:
256,64,172827,1,0,1:0:0:0:
256,64,172999,1,8,1:0:0:0:
256,64,173256,1,8,1:0:0:0:
256,64,173341,1,0,1:0:0:0:
256,64,173513,1,8,1:0:0:0:
256,64,173599,1,8,1:0:0:0:
256,64,173770,1,8,1:0:0:0:
256,64,173856,1,0,1:0:0:0:
256,64,173941,1,0,1:0:0:0:
256,64,174027,1,0,1:0:0:0:
256,64,174113,1,0,1:0:0:0:
256,64,174199,1,0,1:0:0:0:
256,64,174370,1,0,1:0:0:0:
256,64,174456,1,0,1:0:0:0:
256,64,174541,1,8,1:0:0:0:
256,64,174713,1,0,1:0:0:0:
256,64,174884,1,0,1:0:0:0:
256,64,174970,1,0,1:0:0:0:
256,64,175056,1,8,1:0:0:0:
256,64,175227,1,0,1:0:0:0:
256,64,175399,1,8,1:0:0:0:
256,64,175484,1,0,1:0:0:0:
256,64,175570,1,8,1:0:0:0:
256,64,175827,1,8,1:0:0:0:
256,64,175913,1,0,1:0:0:0:
256,64,175999,1,0,1:0:0:0:
256,64,176084,1,8,1:0:0:0:
256,64,176341,1,0,1:0:0:0:
256,64,176427,1,0,1:0:0:0:
256,64,176513,1,0,1:0:0:0:
256,64,176599,1,8,1:0:0:0:
256,64,176770,1,8,1:0:0:0:
256,64,176941,1,4,1:0:0:0:
256,64,177284,1,8,1:0:0:0:
256,64,177541,1,8,1:0:0:0:
256,64,177627,1,0,1:0:0:0:
256,64,177713,1,0,1:0:0:0:
256,64,177799,1,8,1:0:0:0:
256,64,177970,1,0,1:0:0:0:
256,64,178056,1,0,1:0:0:0:
256,64,178227,1,0,1:0:0:0:
256,64,178313,1,8,1:0:0:0:
256,64,178570,1,0,1:0:0:0:
256,64,178741,1,0,1:0:0:0:
256,64,178827,1,8,1:0:0:0:
256,64,179084,1,8,1:0:0:0:
256,64,179170,1,0,1:0:0:0:
256,64,179341,1,8,1:0:0:0:
256,64,179513,1,0,1:0:0:0:
256,64,179599,1,8,1:0:0:0:
256,64,179684,1,0,1:0:0:0:
256,64,179770,1,0,1:0:0:0:
256,64,179856,1,8,1:0:0:0:
256,64,180113,1,8,1:0:0:0:
256,64,180199,1,0,1:0:0:0:
256,64,180284,1,0,1:0:0:0:
256,64,180370,1,8,1:0:0:0:
256,64,180456,1,0,1:0:0:0:
256,64,180541,1,8,1:0:0:0:
256,64,180713,1,0,1:0:0:0:
256,64,180884,1,8,1:0:0:0:
256,64,180970,1,8,1:0:0:0:
256,64,181056,1,0,1:0:0:0:
256,64,181227,1,0,1:0:0:0:
256,64,181399,1,8,1:0:0:0:
256,64,181456,1,8,1:0:0:0:
256,64,181513,1,8,1:0:0:0:
256,64,181570,1,0,1:0:0:0:
256,64,181656,1,8,1:0:0:0:
256,64,181741,1,0,1:0:0:0:
256,64,181913,1,8,1:0:0:0:
256,64,181970,1,8,1:0:0:0:
256,64,182027,1,8,1:0:0:0:
256,64,182084,1,0,1:0:0:0:
256,64,182170,1,0,1:0:0:0:
256,64,182256,1,8,1:0:0:0:
256,64,182341,1,0,1:0:0:0:
256,64,182427,1,0,1:0:0:0:
256,64,182513,1,8,1:0:0:0:
256,64,182770,1,0,1:0:0:0:
256,64,183027,1,8,1:0:0:0:
256,64,183199,1,0,1:0:0:0:
256,64,183284,1,8,1:0:0:0:
256,64,183456,1,8,1:0:0:0:
256,64,183541,1,0,1:0:0:0:
256,64,183713,1,0,1:0:0:0:
256,64,183799,1,0,1:0:0:0:
256,64,184056,1,0,1:0:0:0:
256,64,184227,1,0,1:0:0:0:
256,64,184313,1,8,1:0:0:0:
256,64,184399,1,8,1:0:0:0:
256,64,184570,1,0,1:0:0:0:
256,64,184656,1,0,1:0:0:0:
256,64,184827,1,8,1:0:0:0:
256,64,184913,1,0,1:0:0:0:
256,64,184999,1,8,1:0:0:0:
256,64,185084,1,8,1:0:0:0:
256,64,185170,1,0,1:0:0:0:
256,64,185256,1,0,1:0:0:0:
256,64,185341,1,8,1:0:0:0:
256,64,185513,1,0,1:0:0:0:
256,64,185599,1,8,1:0:0:0:
256,64,185770,1,0,1:0:0:0:
256,64,185856,1,0,1:0:0:0:
256,64,185941,1,8,1:0:0:0:
256,64,186027,1,0,1:0:0:0:
256,64,186113,1,8,1:0:0:0:
256,64,186199,1,8,1:0:0:0:
256,64,186284,1,0,1:0:0:0:
256,64,186456,1,8,1:0:0:0:
256,64,186541,1,0,1:0:0:0:
256,64,186627,1,0,1:0:0:0:
256,64,186713,1,8,1:0:0:0:
256,64,186799,1,0,1:0:0:0:
256,64,186884,1,8,1:0:0:0:
256,64,186970,1,8,1:0:0:0:
256,64,187056,1,0,1:0:0:0:
256,64,187141,1,8,1:0:0:0:
256,64,187227,1,0,1:0:0:0:
256,64,187313,1,0,1:0:0:0:
256,64,187399,1,0,1:0:0:0:
256,64,187484,1,8,1:0:0:0:
256,64,187570,1,0,1:0:0:0:
256,64,187656,1,8,1:0:0:0:
256,64,187741,1,0,1:0:0:0:
256,64,187827,1,8,1:0:0:0:
256,64,187913,1,0,1:0:0:0:
256,64,187999,1,0,1:0:0:0:
256,64,188170,1,0,1:0:0:0:
256,64,188256,1,8,1:0:0:0:
256,64,188427,1,0,1:0:0:0:
256,64,188513,1,0,1:0:0:0:
256,64,188599,1,8,1:0:0:0:
256,64,188684,1,0,1:0:0:0:
256,64,188770,1,8,1:0:0:0:
256,64,188941,1,0,1:0:0:0:
256,64,189027,1,8,1:0:0:0:
256,64,189113,1,8,1:0:0:0:
256,64,189199,1,0,1:0:0:0:
256,64,189284,1,8,1:0:0:0:
256,64,189456,1,0,1:0:0:0:
256,64,189541,1,8,1:0:0:0:
256,64,189627,1,0,1:0:0:0:
256,64,189713,1,0,1:0:0:0:
256,64,189799,1,8,1:0:0:0:
256,64,189970,1,8,1:0:0:0:
256,64,190056,1,0,1:0:0:0:
256,64,190141,1,8,1:0:0:0:
256,64,190227,1,0,1:0:0:0:
256,64,190313,1,8,1:0:0:0:
256,64,190399,1,8,1:0:0:0:
256,64,190484,1,0,1:0:0:0:
256,64,190570,1,8,1:0:0:0:
256,64,190741,1,8,1:0:0:0:
256,64,190827,1,0,1:0:0:0:
256,64,190999,1,0,1:0:0:0:
256,64,191084,1,8,1:0:0:0:
256,64,191170,1,8,1:0:0:0:
256,64,191256,1,0,1:0:0:0:
256,64,191341,1,8,1:0:0:0:
256,64,191513,1,0,1:0:0:0:
256,64,191599,1,0,1:0:0:0:
256,64,191684,1,8,1:0:0:0:
256,64,191770,1,0,1:0:0:0:
256,64,191856,1,8,1:0:0:0:
256,64,191941,1,8,1:0:0:0:
256,64,192027,1,0,1:0:0:0:
256,64,192113,1,8,1:0:0:0:
256,64,192199,1,0,1:0:0:0:
256,64,192370,1,8,1:0:0:0:
256,64,192541,1,0,1:0:0:0:
256,64,192627,1,8,1:0:0:0:
256,64,192713,1,0,1:0:0:0:
256,64,192799,1,0,1:0:0:0:
256,64,192884,1,8,1:0:0:0:
256,64,192970,1,0,1:0:0:0:
256,64,193056,1,8,1:0:0:0:
256,64,193141,1,8,1:0:0:0:
256,64,193227,1,0,1:0:0:0:
256,64,193399,1,0,1:0:0:0:
256,64,193484,1,0,1:0:0:0:
256,64,193656,1,0,1:0:0:0:
256,64,193741,1,8,1:0:0:0:
256,64,193913,1,0,1:0:0:0:
256,64,193999,1,8,1:0:0:0:
256,64,194084,1,8,1:0:0:0:
256,64,194170,1,0,1:0:0:0:
256,64,194256,1,8,1:0:0:0:
256,64,194427,1,8,1:0:0:0:
256,64,194513,1,8,1:0:0:0:
256,64,194684,1,0,1:0:0:0:
256,64,194770,1,8,1:0:0:0:
256,64,195027,1,0,1:0:0:0:
256,64,195113,1,8,1:0:0:0:
256,64,195199,1,0,1:0:0:0:
256,64,195284,1,8,1:0:0:0:
256,64,195456,1,8,1:0:0:0:
256,64,195541,1,0,1:0:0:0:
256,64,195627,1,8,1:0:0:0:
256,64,195713,1,0,1:0:0:0:
256,64,195799,1,8,1:0:0:0:
256,64,195884,1,8,1:0:0:0:
256,64,195970,1,8,1:0:0:0:
256,64,196056,1,8,1:0:0:0:
256,64,196141,1,0,1:0:0:0:
256,64,196313,1,8,1:0:0:0:
256,64,196484,1,0,1:0:0:0:
256,64,196570,1,8,1:0:0:0:
256,64,196656,1,0,1:0:0:0:
256,64,196827,1,8,1:0:0:0:
256,64,196999,1,0,1:0:0:0:
256,64,197084,1,8,1:0:0:0:
256,64,197256,1,0,1:0:0:0:
256,64,197341,1,8,1:0:0:0:
256,64,197513,1,0,1:0:0:0:
256,64,197599,1,8,1:0:0:0:
256,64,197770,1,0,1:0:0:0:
256,64,197856,1,8,1:0:0:0:
256,64,197941,1,0,1:0:0:0:
256,64,198027,1,8,1:0:0:0:
256,64,198113,1,0,1:0:0:0:
256,64,198199,1,8,1:0:0:0:
256,64,198284,1,8,1:0:0:0:
256,64,198370,1,0,1:0:0:0:
256,64,198427,1,0,1:0:0:0:
256,64,198484,1,0,1:0:0:0:
256,64,198541,1,8,1:0:0:0:
256,64,198884,1,0,1:0:0:0:
256,64,199056,1,0,1:0:0:0:
256,64,199227,1,8,1:0:0:0:
256,64,199399,1,0,1:0:0:0:
256,64,199484,1,8,1:0:0:0:
256,64,199570,1,0,1:0:0:0:
256,64,199741,1,0,1:0:0:0:
256,64,199913,1,8,1:0:0:0:
256,64,200084,1,0,1:0:0:0:
256,64,200170,1,0,1:0:0:0:
256,64,200256,1,8,1:0:0:0:
256,64,200427,1,0,1:0:0:0:
256,64,200513,1,0,1:0:0:0:
256,64,200599,1,0,1:0:0:0:
256,64,200770,1,8,1:0:0:0:
256,64,200941,1,0,1:0:0:0:
256,64,201027,1,0,1:0:0:0:
256,64,201113,1,0,1:0:0:0:
256,64,201199,1,0,1:0:0:0:
256,64,201284,1,8,1:0:0:0:
256,64,201456,1,0,1:0:0:0:
256,64,201627,1,8,1:0:0:0:
256,64,201799,1,0,1:0:0:0:
256,64,201884,1,0,1:0:0:0:
256,64,201970,1,8,1:0:0:0:
256,64,202141,1,0,1:0:0:0:
256,64,202227,1,8,1:0:0:0:
256,64,202313,1,0,1:0:0:0:
256,64,202484,1,8,1:0:0:0:
256,64,202656,1,8,1:0:0:0:
256,64,202827,1,0,1:0:0:0:
256,64,202999,1,8,1:0:0:0:
256,64,203170,1,8,1:0:0:0:
256,64,203256,1,8,1:0:0:0:
256,64,203341,1,0,1:0:0:0:
256,64,203513,1,0,1:0:0:0:
256,64,203599,1,0,1:0:0:0:
256,64,203684,1,8,1:0:0:0:
256,64,203856,1,0,1:0:0:0:
256,64,203941,1,8,1:0:0:0:
256,64,204027,1,0,1:0:0:0:
256,64,204199,1,8,1:0:0:0:
256,64,204370,1,0,1:0:0:0:
256,64,204541,1,0,1:0:0:0:
256,64,204713,1,8,1:0:0:0:
256,64,204884,1,0,1:0:0:0:
256,64,204970,1,0,1:0:0:0:
256,64,205056,1,0,1:0:0:0:
256,64,205227,1,8,1:0:0:0:
256,64,205313,1,8,1:0:0:0:
256,64,205399,1,0,1:0:0:0:
256,64,205570,1,0,1:0:0:0:
256,64,205741,1,8,1:0:0:0:
256,64,205913,1,0,1:0:0:0:
256,64,205999,1,0,1:0:0:0:
256,64,206084,1,0,1:0:0:0:
256,64,206256,1,8,1:0:0:0:
256,64,206427,1,0,1:0:0:0:
256,64,206513,1,0,1:0:0:0:
256,64,206599,1,8,1:0:0:0:
256,64,206684,1,0,1:0:0:0:
256,64,206770,1,8,1:0:0:0:
256,64,206856,1,8,1:0:0:0:
256,64,206941,1,0,1:0:0:0:
256,64,207027,1,0,1:0:0:0:
256,64,207113,1,8,1:0:0:0:
256,64,207284,1,0,1:0:0:0:
256,64,207370,1,0,1:0:0:0:
256,64,207456,1,8,1:0:0:0:
256,64,207627,1,0,1:0:0:0:
256,64,207799,1,8,1:0:0:0:
256,64,207970,1,0,1:0:0:0:
256,64,208056,1,8,1:0:0:0:
256,64,208141,1,0,1:0:0:0:
256,64,208313,1,0,1:0:0:0:
256,64,208484,1,8,1:0:0:0:
256,64,208656,1,0,1:0:0:0:
256,64,208741,1,0,1:0:0:0:
256,64,208827,1,8,1:0:0:0:
256,64,208999,1,0,1:0:0:0:
256,64,209084,1,0,1:0:0:0:
256,64,209170,1,8,1:0:0:0:
256,64,209256,1,8,1:0:0:0:
256,64,209341,1,0,1:0:0:0:
256,64,209427,1,0,1:0:0:0:
256,64,209513,1,8,1:0:0:0:
256,64,209599,1,0,1:0:0:0:
256,64,209684,1,8,1:0:0:0:
256,64,209770,1,8,1:0:0:0:
256,64,209856,1,0,1:0:0:0:
256,64,210027,1,0,1:0:0:0:
256,64,210199,1,8,1:0:0:0:
256,64,210370,1,0,1:0:0:0:
256,64,210456,1,8,1:0:0:0:
256,64,210541,1,0,1:0:0:0:
256,64,210713,1,0,1:0:0:0:
256,64,210884,1,8,1:0:0:0:
256,64,211056,1,0,1:0:0:0:
256,64,211141,1,0,1:0:0:0:
256,64,211227,1,8,1:0:0:0:
256,64,211313,1,0,1:0:0:0:
256,64,211399,1,8,1:0:0:0:
256,64,211456,1,8,1:0:0:0:
256,64,211513,1,8,1:0:0:0:
256,64,211570,1,0,1:0:0:0:
256,64,211741,1,8,1:0:0:0:
256,64,211913,1,0,1:0:0:0:
256,64,211999,1,0,1:0:0:0:
256,64,212084,1,0,1:0:0:0:
256,64,212170,1,0,1:0:0:0:
256,64,212256,1,8,1:0:0:0:
256,64,212427,1,0,1:0:0:0:
256,64,212599,1,8,1:0:0:0:
256,64,212770,1,0,1:0:0:0:
256,64,212856,1,0,1:0:0:0:
256,64,212941,1,8,1:0:0:0:
256,64,213113,1,0,1:0:0:0:
256,64,213199,1,8,1:0:0:0:
256,64,213284,1,0,1:0:0:0:
256,64,213456,1,8,1:0:0:0:
256,64,213627,1,8,1:0:0:0:
256,64,213799,1,0,1:0:0:0:
256,64,213970,1,8,1:0:0:0:
256,64,214141,1,8,1:0:0:0:
256,64,214227,1,8,1:0:0:0:
256,64,214313,1,0,1:0:0:0:
256,64,214484,1,0,1:0:0:0:
256,64,214570,1,0,1:0:0:0:
256,64,214656,1,8,1:0:0:0:
256,64,214827,1,0,1:0:0:0:
256,64,214913,1,8,1:0:0:0:
256,64,214999,1,0,1:0:0:0:
256,64,215170,1,8,1:0:0:0:
256,64,215341,1,0,1:0:0:0:
256,64,215513,1,0,1:0:0:0:
256,64,215684,1,8,1:0:0:0:
256,64,215856,1,0,1:0:0:0:
256,64,215941,1,0,1:0:0:0:
256,64,216027,1,0,1:0:0:0:
256,64,216199,1,8,1:0:0:0:
256,64,216284,1,8,1:0:0:0:
256,64,216370,1,0,1:0:0:0:
256,64,216541,1,0,1:0:0:0:
256,64,216713,1,8,1:0:0:0:
256,64,216884,1,8,1:0:0:0:
256,64,216941,1,8,1:0:0:0:
256,64,216999,1,8,1:0:0:0:
256,64,217056,1,0,1:0:0:0:
256,64,217227,1,8,1:0:0:0:
256,64,217399,1,0,1:0:0:0:
256,64,217484,1,0,1:0:0:0:
256,64,217570,1,8,1:0:0:0:
256,64,217656,1,0,1:0:0:0:
256,64,217741,1,8,1:0:0:0:
256,64,217827,1,8,1:0:0:0:
256,64,217913,1,0,1:0:0:0:
256,64,217999,1,0,1:0:0:0:
256,64,218084,1,8,1:0:0:0:
256,64,218256,1,0,1:0:0:0:
256,64,218341,1,0,1:0:0:0:
256,64,218427,1,8,1:0:0:0:
256,64,218599,1,0,1:0:0:0:
256,64,218770,1,8,1:0:0:0:
256,64,218941,1,0,1:0:0:0:
256,64,219027,1,8,1:0:0:0:
256,64,219113,1,0,1:0:0:0:
256,64,219284,1,0,1:0:0:0:
256,64,219456,1,8,1:0:0:0:
256,64,219627,1,0,1:0:0:0:
256,64,219713,1,0,1:0:0:0:
256,64,219799,1,8,1:0:0:0:
256,64,219970,1,0,1:0:0:0:
256,64,220056,1,0,1:0:0:0:
256,64,220141,1,8,1:0:0:0:
256,64,220313,1,0,1:0:0:0:
256,64,220399,1,8,1:0:0:0:
256,64,220570,1,0,1:0:0:0:
256,64,220656,1,8,1:0:0:0:
256,64,220827,1,0,1:0:0:0:
256,64,220913,1,8,1:0:0:0:
256,64,221084,1,0,1:0:0:0:
256,64,221170,1,8,1:0:0:0:
256,64,221341,1,0,1:0:0:0:
256,64,221427,1,8,1:0:0:0:
256,64,222027,1,0,1:0:0:0:
256,64,222113,1,0,1:0:0:0:
256,64,222199,1,12,1:0:0:0:
