osu file format v14

[General]
AudioFilename: audio.mp3
AudioLeadIn: 0
PreviewTime: 94729
Countdown: 0
SampleSet: Soft
StackLeniency: 0.7
Mode: 0
LetterboxInBreaks: 0
WidescreenStoryboard: 1

[Editor]
Bookmarks: 1287,11778,22270,32762,43254,53746,64237,74729,85221,95713,106205,116696,127188,150795,161286,171778,182270,192762,203254,213746,224237,234729,255713,266204,276696,287188,297680,308172,318664,339647,361942,376368,397352,418336,439319,449568,459168,478368,497568,516768,538442,554713,562848,570984,579119,587255
DistanceSpacing: 1.4
BeatDivisor: 4
GridSize: 16
TimelineZoom: 3.900004

[Metadata]
Title:RoquiRa : Between Life and Death
TitleUnicode:RoquiRa : Between Life and Death
Artist:Raphiiel
ArtistUnicode:Raphiiel
Creator:JeZag
Version:Fragment of Styx
Source:
Tags:scubdomino full flavour flavor edm dubstep electronic instrumental featured artist fa ocl osu collegiate league gftb grand finals tiebreaker neurofunk Hardcore Utopia 3 gothic
BeatmapID:4042151
BeatmapSetID:1952028

[Difficulty]
HPDrainRate:4
CircleSize:3.5
OverallDifficulty:9.5
ApproachRate:9.8
SliderMultiplier:1.8
SliderTickRate:0.5

[Events]
//Background and Video events
0,0,"91634762_p0.jpg",0,0
//Break Periods
2,297892,302939
2,371955,372611
2,376381,386394
2,478571,481042
//Storyboard Layer 0 (Background)
//Storyboard Layer 1 (Fail)
//Storyboard Layer 2 (Pass)
//Storyboard Layer 3 (Foreground)
//Storyboard Layer 4 (Overlay)
//Storyboard Sound Samples

[TimingPoints]
1300,327.868852459016,4,2,3,80,1,0
1300,-66.6666666666667,4,2,1,80,0,0
1381,-66.6666666666667,4,2,1,60,0,0
1545,-66.6666666666667,4,2,1,50,0,0
1791,-66.6666666666667,4,2,1,70,0,0
1872,-66.6666666666667,4,2,1,5,0,0
1955,-66.6666666666667,4,2,1,50,0,0
2364,-66.6666666666667,4,2,1,5,0,0
2447,-66.6666666666667,4,2,1,65,0,0
2529,-66.6666666666667,4,2,1,5,0,0
2611,-66.6666666666667,4,2,1,80,0,0
2692,-66.6666666666667,4,2,1,60,0,0
2856,-66.6666666666667,4,2,1,50,0,0
3103,-66.6666666666667,4,2,1,70,0,0
3267,-66.6666666666667,4,2,1,50,0,0
3676,-66.6666666666667,4,2,1,5,0,0
3759,-66.6666666666667,4,2,1,65,0,0
3840,-66.6666666666667,4,2,1,5,0,0
3922,-66.6666666666667,4,2,1,80,0,0
4003,-66.6666666666667,4,2,1,60,0,0
4167,-66.6666666666667,4,2,1,50,0,0
4414,-66.6666666666667,4,2,1,70,0,0
4495,-66.6666666666667,4,2,1,5,0,0
4578,-66.6666666666667,4,2,1,50,0,0
4987,-66.6666666666667,4,2,1,5,0,0
5070,-66.6666666666667,4,2,1,65,0,0
5152,-66.6666666666667,4,2,1,5,0,0
5234,-66.6666666666667,4,2,1,80,0,0
5315,-66.6666666666667,4,2,1,60,0,0
5562,-66.6666666666667,4,2,1,50,0,0
5643,-66.6666666666667,4,2,1,70,0,0
5890,-66.6666666666667,4,2,1,50,0,0
5972,-66.6666666666667,4,2,1,5,0,0
6054,-66.6666666666667,4,2,1,50,0,0
6136,-66.6666666666667,4,2,1,5,0,0
6218,-66.6666666666667,4,2,1,50,0,0
6299,-66.6666666666667,4,2,1,5,0,0
6381,-66.6666666666667,4,2,1,65,0,0
6463,-66.6666666666667,4,2,1,5,0,0
6545,-66.6666666666667,4,2,1,80,0,0
6626,-66.6666666666667,4,2,1,60,0,0
6790,-66.6666666666667,4,2,1,50,0,0
7037,-66.6666666666667,4,2,1,70,0,0
7118,-66.6666666666667,4,2,1,5,0,0
7201,-66.6666666666667,4,2,1,50,0,0
7610,-66.6666666666667,4,2,1,5,0,0
7693,-66.6666666666667,4,2,1,65,0,0
7775,-66.6666666666667,4,2,1,5,0,0
7857,-66.6666666666667,4,2,1,80,0,0
7938,-66.6666666666667,4,2,1,60,0,0
8185,-66.6666666666667,4,2,1,50,0,0
8349,-66.6666666666667,4,2,1,70,0,0
8430,-66.6666666666667,4,2,1,5,0,0
8513,-66.6666666666667,4,2,1,50,0,0
8921,-66.6666666666667,4,2,1,5,0,0
9004,-66.6666666666667,4,2,1,65,0,0
9086,-66.6666666666667,4,2,1,5,0,0
9168,-66.6666666666667,4,2,1,80,0,0
9249,-66.6666666666667,4,2,1,60,0,0
9413,-66.6666666666667,4,2,1,50,0,0
9660,-66.6666666666667,4,2,1,70,0,0
9741,-66.6666666666667,4,2,1,5,0,0
9824,-66.6666666666667,4,2,1,50,0,0
10233,-66.6666666666667,4,2,1,5,0,0
10316,-66.6666666666667,4,2,1,65,0,0
10398,-66.6666666666667,4,2,1,5,0,0
10480,-66.6666666666667,4,2,1,80,0,0
10561,-66.6666666666667,4,2,1,60,0,0
10808,-66.6666666666667,4,2,1,50,0,0
10889,-66.6666666666667,4,2,1,70,0,0
11136,-66.6666666666667,4,2,1,50,0,0
11218,-66.6666666666667,4,2,1,5,0,0
11299,-66.6666666666667,4,2,1,50,0,0
11381,-66.6666666666667,4,2,1,5,0,0
11463,-50,4,2,1,50,0,0
11544,-50,4,2,1,5,0,0
11627,-50,4,2,1,65,0,0
11709,-50,4,2,1,5,0,0
11791,1311.47540983607,4,2,1,70,1,0
11791,-1000,4,2,1,70,0,0
11872,-1000,4,2,2,20,0,0
15561,-1000,4,2,1,5,0,0
15725,-100,4,2,1,70,0,0
16872,-100,4,2,1,5,0,0
17036,-1000,4,2,1,70,0,0
17118,-1000,4,2,2,20,0,0
20807,-1000,4,2,1,5,0,0
20971,-100,4,2,1,70,0,0
22118,-100,4,2,1,5,0,0
22283,327.868852459016,4,2,1,80,1,0
22364,-100,4,2,1,70,0,0
31463,-100,4,2,2,70,0,0
32446,-66.6666666666667,4,2,2,70,0,0
32774,-200,4,2,2,80,0,0
38020,-200,4,2,1,80,0,0
38348,-200,4,2,2,80,0,0
43266,-83.3333333333333,4,2,2,80,0,0
43349,-83.3333333333333,4,2,2,70,0,0
47856,-500,4,2,2,70,0,0
48512,-500,4,2,2,75,0,0
48594,-83.3333333333333,4,2,2,75,0,0
48758,-47.6190476190476,4,2,2,75,0,0
49823,-47.6190476190476,4,2,2,80,0,0
49905,-35.7142857142857,4,2,2,80,0,0
50807,-40,4,2,2,85,0,0
51463,-40,4,2,2,90,0,0
52446,-250,4,2,2,90,0,0
53430,-33.3333333333333,4,2,2,90,0,0
53758,-500,4,2,2,90,0,0
54086,-40,4,2,2,90,0,1
56053,-100,4,2,2,90,0,0
56381,-500,4,2,2,90,0,0
56709,-50,4,2,2,90,0,1
58758,-41.6666666666667,4,2,2,90,0,0
59004,-500,4,2,2,90,0,0
59332,-43.4782608695652,4,2,2,90,0,1
61299,-100,4,2,2,90,0,0
61627,-500,4,2,2,90,0,0
61873,-43.4782608695652,4,2,2,90,0,1
62938,-43.4782608695652,4,2,2,90,0,0
64250,-76.9230769230769,4,2,2,90,0,0
64578,-41.6666666666667,4,2,2,90,0,0
65069,-50,4,2,2,90,0,0
65561,-43.4782608695652,4,2,2,90,0,1
66545,-43.4782608695652,4,2,2,90,0,0
66873,-500,4,2,2,90,0,0
67201,-50,4,2,2,90,0,1
68840,-41.6666666666667,4,2,2,90,0,0
69086,-76.9230769230769,4,2,2,90,0,0
69332,-33.3333333333333,4,2,2,90,0,0
69496,-500,4,2,2,90,0,0
69823,-41.6666666666667,4,2,2,90,0,1
70479,-41.6666666666667,4,2,2,90,0,0
70807,-41.6666666666667,4,2,2,90,0,1
71955,-33.3333333333333,4,2,2,90,0,0
72119,-500,4,2,2,90,0,0
72364,-41.6666666666667,4,2,2,90,0,1
72938,-50,4,2,2,90,0,0
73430,-66.6666666666667,4,2,2,90,0,0
73594,-52.6315789473684,4,2,2,90,0,0
73758,-43.4782608695652,4,2,2,90,0,0
74086,-52.6315789473684,4,2,2,90,0,0
74414,-40,4,2,2,90,0,0
74742,-41.6666666666667,4,2,2,90,0,1
79987,-40,4,2,4,100,0,0
83922,-90.9090909090909,4,2,4,100,0,0
84578,-76.9230769230769,4,2,4,100,0,0
85233,-41.6666666666667,4,2,2,90,0,1
90479,-41.6666666666667,4,2,2,90,0,0
94414,-50,4,2,2,90,0,0
94495,-50,4,2,2,5,0,0
94742,-50,4,2,2,80,0,0
94823,-50,4,2,2,5,0,0
95069,-66.6666666666667,4,2,2,80,0,0
95233,-66.6666666666667,4,2,2,5,0,0
95397,-50,4,2,2,80,0,0
95725,-30.3030303030303,4,2,2,90,0,1
96053,-41.6666666666667,4,2,2,90,0,0
96299,-66.6666666666667,4,2,2,90,0,0
96545,-100,4,2,2,90,0,0
96709,-40,4,2,2,90,0,0
97037,-30.3030303030303,4,2,2,90,0,0
97364,-66.6666666666667,4,2,2,90,0,0
97610,-31.25,4,2,2,90,0,0
98020,-41.6666666666667,4,2,2,90,0,0
98348,-33.3333333333333,4,2,2,90,0,0
98676,-41.6666666666667,4,2,2,90,0,0
98922,-100,4,2,2,90,0,0
99168,-62.5,4,2,2,90,0,0
99332,-40,4,2,2,90,0,0
99660,-76.9230769230769,4,2,2,90,0,0
99987,-41.6666666666667,4,2,2,90,0,0
100233,-55.5555555555556,4,2,2,90,0,0
100643,-47.6190476190476,4,2,2,90,0,0
100807,-37.037037037037,4,2,2,90,0,0
100971,-29.4117647058824,4,2,2,90,0,1
101299,-40,4,2,2,90,0,0
101545,-76.9230769230769,4,2,2,90,0,0
101955,-35.7142857142857,4,2,2,90,0,0
102282,-30.3030303030303,4,2,2,90,0,0
102610,-58.8235294117647,4,2,2,90,0,0
102856,-33.3333333333333,4,2,2,90,0,0
103430,-50,4,2,2,90,0,0
103594,-31.25,4,2,2,90,0,0
103922,-43.4782608695652,4,2,2,90,0,0
104168,-76.9230769230769,4,2,2,90,0,0
104414,-62.5,4,2,2,90,0,0
104578,-37.037037037037,4,2,2,90,0,0
106217,-27.027027027027,4,2,2,90,0,1
106545,-41.6666666666667,4,2,2,90,0,0
106791,-76.9230769230769,4,2,2,90,0,0
107201,-200,4,2,2,90,0,0
107528,-30.3030303030303,4,2,2,90,0,0
107856,-62.5,4,2,2,90,0,0
108102,-33.3333333333333,4,2,2,90,0,0
108512,-50,4,2,2,90,0,0
108840,-31.25,4,2,2,90,0,0
109168,-41.6666666666667,4,2,2,90,0,0
109414,-58.8235294117647,4,2,2,90,0,0
109823,-200,4,2,2,90,0,0
110151,-55.5555555555556,4,2,2,90,0,0
110643,-76.9230769230769,4,2,2,90,0,0
110807,-50,4,2,2,90,0,0
111135,-41.6666666666667,4,2,2,90,0,0
111299,-33.3333333333333,4,2,2,90,0,0
111463,-28.5714285714286,4,2,2,90,0,1
111791,-43.4782608695652,4,2,2,90,0,0
112037,-76.9230769230769,4,2,2,90,0,0
112446,-200,4,2,2,90,0,0
112774,-33.3333333333333,4,2,2,90,0,0
113102,-76.9230769230769,4,2,2,90,0,0
113348,-33.3333333333333,4,2,2,90,0,0
113758,-76.9230769230769,4,2,2,90,0,0
114086,-31.25,4,2,2,90,0,0
114414,-40,4,2,2,90,0,0
115397,-125,4,2,2,90,0,0
116053,-33.3333333333333,4,2,2,100,0,0
116709,-43.4782608695652,4,2,2,100,0,0
116791,-43.4782608695652,4,2,2,90,0,0
117364,-25,4,2,2,90,0,0
118020,-200,4,2,2,90,0,0
121299,-100,4,2,2,90,0,0
121627,-40,4,2,2,90,0,0
121955,-43.4782608695652,4,2,2,90,0,0
122610,-20,4,2,2,90,0,0
123266,-200,4,2,2,90,0,0
124578,-55.5555555555556,4,2,2,90,0,0
127201,-166.666666666667,4,2,2,90,0,0
127528,-166.666666666667,4,2,1,70,0,0
142938,-166.666666666667,4,2,2,70,0,0
143266,-166.666666666667,4,2,1,70,0,0
150151,-62.5,4,2,1,90,0,0
150807,-62.5,4,2,4,80,0,0
150971,-66.6666666666667,4,2,4,80,0,0
151134,-66.6666666666667,4,2,3,80,0,0
155069,-66.6666666666667,4,2,4,80,0,0
156217,-66.6666666666667,4,2,3,80,0,0
159004,-66.6666666666667,4,2,4,80,0,0
159168,-66.6666666666667,4,2,3,80,0,0
159987,-66.6666666666667,4,2,4,90,0,0
160643,-100,4,2,4,90,0,0
161299,-100,4,2,4,100,0,0
161627,-45.4545454545455,4,2,4,100,0,0
164250,-55.5555555555556,4,2,4,100,0,0
166873,-45.4545454545455,4,2,4,100,0,0
169168,-55.5555555555556,4,2,4,100,0,0
171791,-55.5555555555556,4,2,2,100,0,0
171873,-55.5555555555556,4,2,4,100,0,0
174086,-50,4,2,4,100,0,0
174414,-45.4545454545455,4,2,4,100,0,0
177364,-50,4,2,4,100,0,0
182282,-45.4545454545455,4,2,4,100,0,0
182938,-55.5555555555556,4,2,4,100,0,0
183594,-50,4,2,4,100,0,0
186873,-100,4,2,4,100,0,0
187528,-50,4,2,4,100,0,0
190151,-40,4,2,4,100,0,0
198020,-50,4,2,4,100,0,0
200151,-71.4285714285714,4,2,4,100,0,0
200315,-58.8235294117647,4,2,4,100,0,0
200479,-41.6666666666667,4,2,4,100,0,0
202282,-45.4545454545455,4,2,4,100,0,0
202610,-50,4,2,4,100,0,0
203266,-76.9230769230769,4,2,4,100,0,0
204168,-41.6666666666667,4,2,4,100,0,0
204414,-58.8235294117647,4,2,4,100,0,0
204660,-50,4,2,4,100,0,0
204905,-35.7142857142857,4,2,4,100,0,0
205151,-43.4782608695652,4,2,4,100,0,0
205889,-83.3333333333333,4,2,4,100,0,0
206545,-71.4285714285714,4,2,4,100,0,0
207692,-50,4,2,4,100,0,0
207856,-40,4,2,4,100,0,0
208758,-50,4,2,4,100,0,0
209004,-40,4,2,4,100,0,0
209250,-50,4,2,4,100,0,0
209496,-40,4,2,4,100,0,0
209742,-50,4,2,4,100,0,0
209987,-40,4,2,4,100,0,0
210233,-50,4,2,4,100,0,0
211135,-40,4,2,4,100,0,0
211381,-66.6666666666667,4,2,4,100,0,0
211627,-40,4,2,4,100,0,0
211873,-66.6666666666667,4,2,4,100,0,0
212119,-40,4,2,4,100,0,0
213758,-40,4,2,4,100,0,1
214004,-40,4,1,4,100,0,0
219004,-40,4,2,4,100,0,1
219250,-40,4,2,4,100,0,0
222938,-500,4,2,4,100,0,0
223594,-100,4,2,4,100,0,0
224250,-100,4,2,4,100,0,1
229496,-43.4782608695652,4,2,4,100,0,1
230151,-55.5555555555556,4,2,4,100,0,1
230807,-47.6190476190476,4,2,4,100,0,1
231463,-40,4,2,4,100,0,1
234742,1311.47540983607,4,2,1,100,1,0
234742,-37.037037037037,4,2,1,100,0,0
235069,-37.037037037037,4,2,1,80,0,0
238512,-37.037037037037,4,2,1,5,0,0
238676,-18.1818181818182,4,2,1,80,0,0
239905,-18.1818181818182,4,2,1,5,0,0
239987,-1000,4,2,1,80,0,0
243758,-1000,4,2,1,5,0,0
243922,-14.0845070422535,4,2,1,80,0,0
245151,-14.0845070422535,4,2,1,5,0,0
245233,-1000,4,2,1,80,0,0
249004,-1000,4,2,1,5,0,0
249168,-21.2765957446809,4,2,1,80,0,0
250397,-21.2765957446809,4,2,1,5,0,0
250479,-1000,4,2,1,80,0,0
254250,-1000,4,2,1,5,0,0
254414,327.868852459016,4,2,1,70,1,0
254495,-142.857142857143,4,2,4,70,0,0
255726,327.868852459016,4,2,2,80,1,0
255726,-43.4782608695652,4,2,2,80,0,0
256053,-33.3333333333333,4,2,2,80,0,0
256709,-35.7142857142857,4,2,2,80,0,0
257037,-100,4,2,2,80,0,0
257201,-35.7142857142857,4,2,2,80,0,0
257693,-100,4,2,2,80,0,0
257857,-40,4,2,2,80,0,0
258021,-30.3030303030303,4,2,2,80,0,0
258348,-43.4782608695652,4,2,2,80,0,0
258676,-30.3030303030303,4,2,2,80,0,0
259004,-66.6666666666667,4,2,2,80,0,0
259168,-35.7142857142857,4,2,2,80,0,0
259742,-66.6666666666667,4,2,2,80,0,0
259988,-41.6666666666667,4,2,2,80,0,0
260316,-33.3333333333333,4,2,2,80,0,0
260562,-31.25,4,2,2,80,0,0
260807,-33.3333333333333,4,2,2,80,0,0
260971,-66.6666666666667,4,2,2,80,0,0
261299,-32.258064516129,4,2,2,80,0,0
261791,-33.3333333333333,4,2,2,80,0,0
262283,-100,4,2,2,80,0,0
262447,-40,4,2,2,80,0,0
262611,-35.7142857142857,4,2,2,80,0,0
263103,-41.6666666666667,4,2,2,80,0,0
263266,-40,4,2,2,80,0,0
263594,-43.4782608695652,4,2,2,80,0,0
264004,-33.3333333333333,4,2,2,80,0,0
264250,-100,4,2,2,80,0,0
264414,-33.3333333333333,4,2,2,80,0,0
266217,-66.6666666666667,4,2,2,80,0,0
266545,-31.25,4,2,2,80,0,0
266873,-100,4,2,2,80,0,0
267037,-33.3333333333333,4,2,2,80,0,0
267201,-35.7142857142857,4,2,2,80,0,0
267529,-66.6666666666667,4,2,2,80,0,0
267693,-33.3333333333333,4,2,2,80,0,0
268348,-35.7142857142857,4,2,2,80,0,0
268840,-66.6666666666667,4,2,2,80,0,0
269168,-33.3333333333333,4,2,2,80,0,0
269496,-100,4,2,2,80,0,0
269660,-33.3333333333333,4,2,2,80,0,0
269824,-35.7142857142857,4,2,2,80,0,0
270152,-38.4615384615385,4,2,2,80,0,0
270480,-33.3333333333333,4,2,2,80,0,0
270807,-31.25,4,2,2,80,0,0
271463,-30.3030303030303,4,2,2,80,0,0
271955,-33.3333333333333,4,2,2,80,0,0
272775,-100,4,2,2,80,0,0
272939,-33.3333333333333,4,2,2,80,0,0
273103,-41.6666666666667,4,2,2,80,0,0
273348,-50,4,2,2,80,0,0
273594,-41.6666666666667,4,2,2,80,0,0
273758,-30.3030303030303,4,2,2,80,0,0
274086,-66.6666666666667,4,2,2,80,0,0
274414,-33.3333333333333,4,2,2,80,0,0
274742,-66.6666666666667,4,2,2,80,0,0
274906,-38.4615384615385,4,2,2,80,0,0
275234,-33.3333333333333,4,2,2,80,0,0
275398,-27.7777777777778,4,2,2,80,0,0
275644,-66.6666666666667,4,2,2,80,0,0
275889,-40,4,2,2,80,0,0
277037,-33.3333333333333,4,2,2,80,0,0
277529,-40,4,2,2,80,0,0
277693,-35.7142857142857,4,2,2,80,0,0
278021,-66.6666666666667,4,2,2,80,0,0
278185,-40,4,2,2,80,0,0
278348,-33.3333333333333,4,2,2,80,0,0
278594,-30.3030303030303,4,2,2,80,0,0
279004,-34.4827586206897,4,2,2,80,0,0
279250,-35.7142857142857,4,2,2,80,0,0
280152,-41.6666666666667,4,2,2,80,0,0
280316,-35.7142857142857,4,2,2,80,0,0
280644,-76.9230769230769,4,2,2,80,0,0
280971,-35.7142857142857,4,2,2,80,0,0
281299,-33.3333333333333,4,2,2,80,0,0
281955,-83.3333333333333,4,2,2,80,0,0
282283,-31.25,4,2,2,80,0,0
282775,-33.3333333333333,4,2,2,80,0,0
283266,-100,4,2,2,80,0,0
283430,-40,4,2,2,80,0,0
284250,-35.7142857142857,4,2,2,80,0,0
284578,-38.4615384615385,4,2,2,80,0,0
284906,-30.3030303030303,4,2,2,80,0,0
285234,-38.4615384615385,4,2,2,80,0,0
285807,-100,4,2,2,80,0,0
286053,-30.3030303030303,4,2,2,80,0,0
286217,-41.6666666666667,4,2,2,80,0,0
286545,-33.3333333333333,4,2,2,80,0,0
287201,-71.4285714285714,4,2,2,80,0,0
287611,-33.3333333333333,4,2,2,80,0,0
287857,-76.9230769230769,4,2,2,80,0,0
288021,-33.3333333333333,4,2,2,80,0,0
288185,-35.7142857142857,4,2,2,80,0,0
288512,-66.6666666666667,4,2,2,80,0,0
288676,-33.3333333333333,4,2,2,80,0,0
288840,-50,4,2,2,80,0,0
289086,-76.9230769230769,4,2,2,80,0,0
289332,-30.3030303030303,4,2,2,80,0,0
289824,-100,4,2,2,80,0,0
290152,-33.3333333333333,4,2,2,80,0,0
290480,-66.6666666666667,4,2,2,80,0,0
290644,-33.3333333333333,4,2,2,80,0,0
290807,-35.7142857142857,4,2,2,80,0,0
291135,-30.3030303030303,4,2,2,80,0,0
291463,-40,4,2,2,80,0,0
291791,-30.3030303030303,4,2,2,80,0,0
292447,-50,4,2,2,80,0,0
292857,-37.037037037037,4,2,2,80,0,0
293266,-33.3333333333333,4,2,2,80,0,0
293758,-66.6666666666667,4,2,2,80,0,0
293922,-37.037037037037,4,2,2,80,0,0
294414,-66.6666666666667,4,2,2,80,0,0
294578,-37.037037037037,4,2,2,80,0,0
294742,-30.3030303030303,4,2,2,80,0,0
295070,-200,4,2,2,80,0,0
295398,-30.3030303030303,4,2,2,80,0,0
295725,-66.6666666666667,4,2,2,80,0,0
295889,-30.3030303030303,4,2,2,80,0,0
296381,-27.027027027027,4,2,2,80,0,0
296627,-50,4,2,2,80,0,0
296873,-40,4,2,2,80,0,0
297692,-40,4,2,1,80,0,0
305807,-40,4,2,1,5,0,0
305889,-40,4,2,1,80,0,0
306791,-40,4,2,1,5,0,0
306873,-40,4,2,1,80,0,0
308103,-40,4,2,1,5,0,0
308185,-40,4,2,3,80,0,0
310480,-33.3333333333333,4,2,3,80,0,0
310807,-40,4,2,3,80,0,0
317365,-1000,4,2,3,80,0,0
318676,-16.6666666666667,4,2,2,90,0,0
319113,-33.3333333333333,4,2,2,90,0,0
319332,-35.7142857142857,4,2,2,100,0,1
319373,-35.7142857142857,4,2,1,5,0,1
319394,-35.7142857142857,4,2,2,100,0,1
319435,-35.7142857142857,4,2,1,5,0,1
319455,-35.7142857142857,4,2,2,100,0,1
319496,-35.7142857142857,4,2,1,5,0,1
319516,-35.7142857142857,4,2,2,100,0,1
319557,-35.7142857142857,4,2,1,5,0,1
319578,-35.7142857142857,4,2,2,100,0,1
319619,-35.7142857142857,4,2,1,5,0,1
319639,-35.7142857142857,4,2,2,100,0,1
319680,-35.7142857142857,4,2,1,5,0,1
319701,-35.7142857142857,4,2,2,100,0,1
319742,-35.7142857142857,4,2,1,5,0,1
319762,-35.7142857142857,4,2,2,100,0,1
319803,-35.7142857142857,4,2,1,5,0,1
319824,-35.7142857142857,4,2,2,100,0,1
319865,-35.7142857142857,4,2,1,5,0,1
319947,-35.7142857142857,4,2,2,100,0,1
319988,-35.7142857142857,4,2,1,5,0,1
320070,-35.7142857142857,4,2,2,100,0,1
320111,-35.7142857142857,4,2,1,5,0,1
320172,-35.7142857142857,4,2,2,100,0,1
320213,-35.7142857142857,4,2,1,5,0,1
320275,-35.7142857142857,4,2,2,100,0,1
320316,-35.7142857142857,4,2,1,5,0,1
320377,-35.7142857142857,4,2,2,100,0,1
320418,-35.7142857142857,4,2,1,5,0,1
320480,-35.7142857142857,4,2,2,100,0,1
320541,-35.7142857142857,4,2,1,5,0,1
320603,-35.7142857142857,4,2,2,100,0,1
320664,-35.7142857142857,4,2,1,5,0,1
320766,-35.7142857142857,4,2,2,100,0,1
320828,-35.7142857142857,4,2,1,5,0,1
320930,-35.7142857142857,4,2,2,100,0,1
320992,-35.7142857142857,4,2,1,5,0,1
321299,-37.037037037037,4,2,2,80,0,0
321627,-500,4,2,2,80,0,0
321955,-43.4782608695652,4,2,2,80,0,0
322283,-31.25,4,2,2,80,0,0
322611,-66.6666666666667,4,2,2,80,0,0
322939,-100,4,2,2,80,0,0
323266,-43.4782608695652,4,2,2,80,0,0
323594,-31.25,4,2,2,80,0,0
323922,-16.6666666666667,4,2,2,80,0,0
324359,-66.6666666666667,4,2,2,80,0,0
324578,-35.7142857142857,4,2,2,100,0,1
324619,-35.7142857142857,4,2,1,5,0,1
324640,-35.7142857142857,4,2,2,100,0,1
324681,-35.7142857142857,4,2,1,5,0,1
324701,-35.7142857142857,4,2,2,100,0,1
324742,-35.7142857142857,4,2,1,5,0,1
324762,-35.7142857142857,4,2,2,100,0,1
324803,-35.7142857142857,4,2,1,5,0,1
324824,-35.7142857142857,4,2,2,100,0,1
324865,-35.7142857142857,4,2,1,5,0,1
324885,-35.7142857142857,4,2,2,100,0,1
324926,-35.7142857142857,4,2,1,5,0,1
324947,-35.7142857142857,4,2,2,100,0,1
324988,-35.7142857142857,4,2,1,5,0,1
325008,-35.7142857142857,4,2,2,100,0,1
325049,-35.7142857142857,4,2,1,5,0,1
325070,-35.7142857142857,4,2,2,100,0,1
325111,-35.7142857142857,4,2,1,5,0,1
325193,-35.7142857142857,4,2,2,100,0,1
325234,-35.7142857142857,4,2,1,5,0,1
325316,-35.7142857142857,4,2,2,100,0,1
325357,-35.7142857142857,4,2,1,5,0,1
325418,-35.7142857142857,4,2,2,100,0,1
325459,-35.7142857142857,4,2,1,5,0,1
325521,-35.7142857142857,4,2,2,100,0,1
325562,-35.7142857142857,4,2,1,5,0,1
325623,-35.7142857142857,4,2,2,100,0,1
325664,-35.7142857142857,4,2,1,5,0,1
325726,-35.7142857142857,4,2,2,100,0,1
325787,-35.7142857142857,4,2,1,5,0,1
325849,-35.7142857142857,4,2,2,100,0,1
325910,-35.7142857142857,4,2,1,5,0,1
326012,-35.7142857142857,4,2,2,100,0,1
326074,-35.7142857142857,4,2,1,5,0,1
326176,-35.7142857142857,4,2,2,100,0,1
326238,-35.7142857142857,4,2,1,5,0,1
326545,-333.333333333333,4,2,2,80,0,0
326873,-43.4782608695652,4,2,2,80,0,0
327201,-33.3333333333333,4,2,2,80,0,0
327529,-500,4,2,2,80,0,0
327857,-31.25,4,2,2,80,0,0
328185,-50,4,2,2,80,0,0
328512,-100,4,2,2,80,0,0
328840,-66.6666666666667,4,2,2,80,0,0
329168,-666.666666666667,4,2,2,80,0,0
329605,-33.3333333333333,4,2,2,80,0,0
329824,-33.3333333333333,4,2,2,100,0,1
329865,-33.3333333333333,4,2,1,5,0,1
329886,-33.3333333333333,4,2,2,100,0,1
329927,-33.3333333333333,4,2,1,5,0,1
329947,-33.3333333333333,4,2,2,100,0,1
329988,-33.3333333333333,4,2,1,5,0,1
330008,-33.3333333333333,4,2,2,100,0,1
330049,-33.3333333333333,4,2,1,5,0,1
330070,-33.3333333333333,4,2,2,100,0,1
330111,-33.3333333333333,4,2,1,5,0,1
330131,-33.3333333333333,4,2,2,100,0,1
330172,-33.3333333333333,4,2,1,5,0,1
330193,-33.3333333333333,4,2,2,100,0,1
330234,-33.3333333333333,4,2,1,5,0,1
330254,-33.3333333333333,4,2,2,100,0,1
330295,-33.3333333333333,4,2,1,5,0,1
330316,-33.3333333333333,4,2,2,100,0,1
330357,-33.3333333333333,4,2,1,5,0,1
330439,-33.3333333333333,4,2,2,100,0,1
330480,-33.3333333333333,4,2,1,5,0,1
330562,-33.3333333333333,4,2,2,100,0,1
330603,-33.3333333333333,4,2,1,5,0,1
330664,-33.3333333333333,4,2,2,100,0,1
330705,-33.3333333333333,4,2,1,5,0,1
330767,-33.3333333333333,4,2,2,100,0,1
330808,-33.3333333333333,4,2,1,5,0,1
330869,-33.3333333333333,4,2,2,100,0,1
330910,-33.3333333333333,4,2,1,5,0,1
330972,-33.3333333333333,4,2,2,100,0,1
331033,-33.3333333333333,4,2,1,5,0,1
331095,-33.3333333333333,4,2,2,100,0,1
331156,-33.3333333333333,4,2,1,5,0,1
331258,-33.3333333333333,4,2,2,100,0,1
331320,-33.3333333333333,4,2,1,5,0,1
331422,-33.3333333333333,4,2,2,100,0,1
331484,-33.3333333333333,4,2,1,5,0,1
331791,-37.037037037037,4,2,2,80,0,0
332119,-500,4,2,2,80,0,0
332447,-43.4782608695652,4,2,2,80,0,0
332775,-30.3030303030303,4,2,2,80,0,0
333103,-66.6666666666667,4,2,2,80,0,0
333430,-100,4,2,2,80,0,0
333758,-43.4782608695652,4,2,2,80,0,0
334086,-30.3030303030303,4,2,2,80,0,0
334414,-20,4,2,2,80,0,0
334851,-33.3333333333333,4,2,2,80,0,0
335070,-38.4615384615385,4,2,2,100,0,1
335111,-38.4615384615385,4,2,1,5,0,1
335132,-38.4615384615385,4,2,2,100,0,1
335173,-38.4615384615385,4,2,1,5,0,1
335193,-38.4615384615385,4,2,2,100,0,1
335234,-38.4615384615385,4,2,1,5,0,1
335254,-38.4615384615385,4,2,2,100,0,1
335295,-38.4615384615385,4,2,1,5,0,1
335316,-38.4615384615385,4,2,2,100,0,1
335357,-38.4615384615385,4,2,1,5,0,1
335377,-38.4615384615385,4,2,2,100,0,1
335418,-38.4615384615385,4,2,1,5,0,1
335439,-38.4615384615385,4,2,2,100,0,1
335480,-38.4615384615385,4,2,1,5,0,1
335500,-38.4615384615385,4,2,2,100,0,1
335541,-38.4615384615385,4,2,1,5,0,1
335562,-38.4615384615385,4,2,2,100,0,1
335603,-38.4615384615385,4,2,1,5,0,1
335685,-38.4615384615385,4,2,2,100,0,1
335726,-38.4615384615385,4,2,1,5,0,1
335808,-38.4615384615385,4,2,2,100,0,1
335849,-38.4615384615385,4,2,1,5,0,1
335910,-38.4615384615385,4,2,2,100,0,1
335951,-38.4615384615385,4,2,1,5,0,1
336013,-38.4615384615385,4,2,2,100,0,1
336054,-38.4615384615385,4,2,1,5,0,1
336115,-38.4615384615385,4,2,2,100,0,1
336156,-38.4615384615385,4,2,1,5,0,1
336218,-38.4615384615385,4,2,2,100,0,1
336279,-38.4615384615385,4,2,1,5,0,1
336341,-38.4615384615385,4,2,2,100,0,1
336402,-38.4615384615385,4,2,1,5,0,1
336504,-38.4615384615385,4,2,2,100,0,1
336566,-38.4615384615385,4,2,1,5,0,1
336668,-38.4615384615385,4,2,2,100,0,1
336730,-38.4615384615385,4,2,1,5,0,1
337037,-333.333333333333,4,2,2,80,0,0
337365,-43.4782608695652,4,2,2,80,0,0
337693,-38.4615384615385,4,2,2,80,0,0
337857,-50,4,2,2,80,0,0
338021,-31.25,4,2,2,80,0,0
338348,-83.3333333333333,4,2,3,80,0,0
339660,-20,4,2,3,80,0,0
339988,-38.4615384615385,4,2,2,100,0,0
340316,-33.3333333333333,4,2,2,100,0,0
340644,-41.6666666666667,4,2,2,100,0,0
340971,-30.3030303030303,4,2,2,100,0,1
341361,-333.333333333333,4,2,2,100,0,1
341562,-333.333333333333,4,2,3,100,0,1
341627,-30.3030303030303,4,2,2,100,0,1
342016,-333.333333333333,4,2,2,100,0,1
342217,-333.333333333333,4,2,2,100,0,1
342283,-30.3030303030303,4,2,2,100,0,1
342672,-33.3333333333333,4,2,2,100,0,1
342873,-33.3333333333333,4,2,2,100,0,1
342939,-30.3030303030303,4,2,2,100,0,1
343328,-333.333333333333,4,2,2,100,0,1
343594,-33.3333333333333,4,2,2,100,0,0
343922,-100,4,2,2,100,0,0
344250,-125,4,2,2,100,0,0
344578,-35.7142857142857,4,2,2,100,0,0
344906,-33.3333333333333,4,2,2,100,0,0
345234,-66.6666666666667,4,2,2,100,0,0
345889,-125,4,2,2,100,0,0
346217,-30.3030303030303,4,2,2,100,0,1
346607,-333.333333333333,4,2,2,100,0,1
346873,-30.3030303030303,4,2,2,100,0,1
347262,-33.3333333333333,4,2,2,100,0,1
348185,-30.3030303030303,4,2,2,100,0,1
348574,-333.333333333333,4,2,2,100,0,1
348840,-33.3333333333333,4,2,2,100,0,0
349168,-250,4,2,2,100,0,0
349496,-25,4,2,2,100,0,0
349824,-40,4,2,2,100,0,0
350152,-25,4,2,2,100,0,0
350807,-28.5714285714286,4,2,2,100,0,0
351463,-30.3030303030303,4,2,2,100,0,1
351853,-33.3333333333333,4,2,2,100,0,1
352508,-333.333333333333,4,2,2,100,0,1
352775,-30.3030303030303,4,2,2,100,0,1
353164,-33.3333333333333,4,2,2,100,0,1
353820,-333.333333333333,4,2,2,100,0,1
354086,-30.3030303030303,4,2,2,100,0,0
354414,-200,4,2,2,100,0,0
354742,-30.3030303030303,4,2,2,100,0,0
355398,-35.7142857142857,4,2,2,100,0,0
355725,-50,4,2,2,100,0,0
356381,-35.7142857142857,4,2,2,100,0,0
356709,-30.3030303030303,4,2,2,100,0,1
357098,-33.3333333333333,4,2,2,100,0,1
357365,-30.3030303030303,4,2,2,100,0,1
357754,-33.3333333333333,4,2,2,100,0,1
358021,-30.3030303030303,4,2,2,100,0,1
358410,-333.333333333333,4,2,2,100,0,1
358676,-30.3030303030303,4,2,2,100,0,1
359066,-33.3333333333333,4,2,2,100,0,1
359332,-30.3030303030303,4,2,2,100,0,0
359660,-100,4,2,3,80,0,0
359988,-40,4,2,2,80,0,0
360152,-40,4,2,3,80,0,0
360480,-40,4,2,2,80,0,0
360561,-40,4,2,3,80,0,0
360971,-40,4,2,2,80,0,0
361135,-40,4,2,3,80,0,0
361463,-50,4,2,3,80,0,0
361955,-100,4,2,3,80,0,0
364660,-100,4,2,3,5,0,0
364742,-100,4,2,3,65,0,0
364824,-100,4,2,4,5,0,0
365398,-100,4,2,3,60,0,0
365480,-100,4,2,4,5,0,0
366381,-100,4,2,3,55,0,0
366463,-100,4,2,4,5,0,0
367529,-100,4,2,3,50,0,0
367611,-100,4,2,4,5,0,0
373144,-100,4,2,4,40,0,0
373185,-100,4,2,4,5,0,0
386873,-333.333333333333,4,2,3,35,0,0
394086,-250,4,2,3,35,0,0
394742,-250,4,2,3,40,0,0
396053,-166.666666666667,4,2,3,40,0,0
396709,-100,4,2,3,40,0,0
397283,-100,4,2,4,5,0,0
397365,-50,4,2,1,70,0,0
399332,-50,4,2,1,60,0,0
399660,-50,4,2,1,70,0,0
399988,-50,4,2,1,80,0,0
400069,-50,4,2,1,60,0,0
402283,-50,4,2,1,70,0,0
402611,-50,4,2,1,80,0,0
402692,-50,4,2,1,60,0,0
404906,-50,4,2,1,70,0,0
405234,-50,4,2,1,80,0,0
405315,-50,4,2,1,60,0,0
407201,-200,4,2,1,60,0,0
407529,-200,4,2,1,70,0,0
407857,-50,4,2,1,80,0,0
407938,-50,4,2,1,60,0,0
410152,-50,4,2,1,70,0,0
410480,-50,4,2,1,80,0,0
410561,-50,4,2,1,60,0,0
412775,-50,4,2,1,70,0,0
413103,-50,4,2,1,80,0,0
413184,-50,4,2,1,60,0,0
415398,-50,4,2,1,70,0,0
415725,-50,4,2,1,80,0,0
415806,-50,4,2,1,60,0,0
418021,-50,4,2,1,70,0,0
418348,1311.47540983607,4,2,1,80,1,0
418348,-1000,4,2,1,80,0,0
420807,-1000,4,2,1,5,0,0
420971,327.868852459016,4,2,1,80,1,0
423593,1311.47540983607,4,2,1,80,1,0
423593,-1000,4,2,1,80,0,0
426052,-1000,4,2,1,5,0,0
426217,327.868852459016,4,2,1,80,1,0
428839,1311.47540983607,4,2,1,80,1,0
428839,-1000,4,2,1,80,0,0
431298,-1000,4,2,1,5,0,0
431463,327.868852459016,4,2,1,80,1,0
434085,1311.47540983607,4,2,1,80,1,0
434085,-1000,4,2,1,80,0,0
436544,-1000,4,2,1,5,0,0
436709,327.868852459016,4,2,1,80,1,0
439331,-166.666666666667,4,2,1,65,0,0
439495,-166.666666666667,4,2,1,5,0,0
440643,-166.666666666667,4,2,1,65,0,0
440807,-166.666666666667,4,2,1,5,0,0
441954,-166.666666666667,4,2,1,65,0,0
444578,320.855614973262,4,2,2,65,1,0
447144,309.278350515464,4,2,2,65,1,0
448371,300,4,2,2,65,1,0
449571,300,4,2,2,65,1,0
449571,-142.857142857143,4,2,2,75,0,0
450471,-100,4,2,2,75,0,0
454371,-100,4,2,2,85,0,0
456771,-50,4,2,2,85,0,0
457971,-333.333333333333,4,2,2,85,0,0
459171,-52.6315789473684,4,2,2,95,0,1
459621,-40,4,2,2,95,0,1
460371,-52.6315789473684,4,2,2,95,0,1
460821,-40,4,2,2,95,0,1
461571,-52.6315789473684,4,2,2,95,0,1
462771,-47.6190476190476,4,2,2,95,0,1
463971,-52.6315789473684,4,2,2,95,0,1
464421,-40,4,2,2,95,0,1
465171,-52.6315789473684,4,2,2,95,0,1
465621,-40,4,2,2,95,0,1
466071,-66.6666666666667,4,2,2,95,0,1
466221,-41.6666666666667,4,2,2,95,0,1
466371,-47.6190476190476,4,2,2,95,0,1
466971,-66.6666666666667,4,2,2,95,0,1
467121,-100,4,2,2,95,0,1
467271,-66.6666666666667,4,2,2,95,0,1
467421,-100,4,2,2,95,0,1
467571,-52.6315789473684,4,2,2,95,0,1
468171,-52.6315789473684,4,2,2,95,0,0
468771,-52.6315789473684,4,2,2,95,0,1
469221,-40,4,2,2,95,0,1
469971,-52.6315789473684,4,2,2,95,0,1
470421,-40,4,2,2,95,0,1
471171,-52.6315789473684,4,2,2,95,0,1
472371,-47.6190476190476,4,2,2,95,0,1
472971,-47.6190476190476,4,2,2,95,0,0
473571,-52.6315789473684,4,2,2,95,0,1
474021,-41.6666666666667,4,2,2,95,0,1
474771,-52.6315789473684,4,2,2,95,0,1
475221,-41.6666666666667,4,2,2,95,0,1
475671,-52.6315789473684,4,2,2,95,0,1
475971,-52.6315789473684,4,2,2,95,0,0
476121,-100,4,2,2,95,0,0
477021,-66.6666666666667,4,2,2,95,0,0
477771,-71.4285714285714,4,2,2,95,0,0
481521,-62.5,4,2,2,80,0,0
481971,-40,4,2,2,95,0,1
482571,-83.3333333333333,4,2,2,95,0,0
482871,-100,4,2,2,95,0,0
483171,-52.6315789473684,4,2,2,95,0,1
483621,-40,4,2,2,95,0,1
484371,-52.6315789473684,4,2,2,95,0,1
484821,-40,4,2,2,95,0,1
485571,-45.4545454545455,4,2,2,95,0,1
486171,-66.6666666666667,4,2,2,95,0,1
486321,-100,4,2,2,95,0,1
486471,-66.6666666666667,4,2,2,95,0,1
486621,-100,4,2,2,95,0,1
486771,-50,4,2,2,95,0,1
487371,-50,4,2,2,95,0,0
487971,-47.6190476190476,4,2,2,95,0,1
490521,-41.6666666666667,4,2,2,95,0,1
490821,-55.5555555555556,4,2,2,95,0,1
490971,-66.6666666666667,4,2,2,95,0,1
491271,-47.6190476190476,4,2,2,95,0,1
492171,-47.6190476190476,4,2,2,95,0,0
492771,-47.6190476190476,4,2,4,100,0,1
495171,-47.6190476190476,4,2,4,100,0,0
496971,-100,4,2,4,100,0,0
498171,-52.6315789473684,4,2,4,100,0,0
502071,-41.6666666666667,4,2,4,100,0,0
502971,-52.6315789473684,4,2,4,100,0,0
506871,-200,4,2,4,100,0,0
508371,-52.6315789473684,4,2,4,100,0,0
509271,-200,4,2,4,100,0,0
510771,-52.6315789473684,4,2,4,100,0,0
511671,-41.6666666666667,4,2,4,100,0,0
512421,-200,4,2,4,100,0,0
512871,-52.6315789473684,4,2,4,100,0,0
516771,-200,4,2,4,100,0,0
516846,-200,4,2,4,60,0,0
517971,-200,4,2,1,60,0,0
526071,-125,4,2,1,60,0,0
528771,-100,4,2,1,60,0,0
529371,-100,4,2,4,60,0,0
529971,-100,4,2,1,60,0,0
530571,-100,4,2,1,5,0,0
531096,-100,4,2,1,60,0,0
531171,-200,4,2,1,60,0,0
535971,309.278350515464,4,2,1,60,1,0
535971,-166.666666666667,4,2,1,60,0,0
538345,-166.666666666667,4,2,1,5,0,0
538433,254.237288135593,4,2,1,80,1,0
538514,-100,4,2,1,60,0,0
538687,-100,4,2,1,50,0,0
538814,-100,4,2,1,70,0,0
538877,-100,4,2,1,50,0,0
539258,-100,4,2,1,65,0,0
539449,-100,4,2,1,80,0,0
539530,-100,4,2,1,60,0,0
539639,-100,4,2,1,50,0,0
539831,-100,4,2,1,70,0,0
539958,-100,4,2,1,50,0,0
540275,-100,4,2,1,65,0,0
540466,-100,4,2,1,80,0,0
540547,-100,4,2,1,60,0,0
540656,-100,4,2,1,50,0,0
540848,-100,4,2,1,70,0,0
540910,-100,4,2,1,50,0,0
541292,-100,4,2,1,65,0,0
541483,-100,4,2,1,80,0,0
541564,-100,4,2,1,60,0,0
541738,-100,4,2,1,50,0,0
541865,-100,4,2,1,70,0,0
541927,-100,4,2,1,50,0,0
542309,-100,4,2,1,65,0,0
542500,-100,4,2,1,80,0,0
542627,-100,4,2,1,60,0,0
542690,-100,4,2,1,50,0,0
542817,-100,4,2,1,70,0,0
543009,-100,4,2,1,50,0,0
543326,-100,4,2,1,65,0,0
543517,-100,4,2,1,80,0,0
543598,-100,4,2,1,60,0,0
543707,-100,4,2,1,50,0,0
543834,-100,4,2,1,70,0,0
543961,-100,4,2,1,50,0,0
544343,-100,4,2,1,65,0,0
544534,-100,4,2,1,80,0,0
544615,-100,4,2,1,60,0,0
544788,-100,4,2,1,50,0,0
544916,-100,4,2,1,70,0,0
544978,-100,4,2,1,50,0,0
545360,-100,4,2,1,65,0,0
545551,-100,4,2,1,80,0,0
545632,-100,4,2,1,60,0,0
545805,-100,4,2,1,50,0,0
545933,-100,4,2,1,70,0,0
545996,-100,4,2,1,50,0,0
546377,-100,4,2,1,65,0,0
546759,-100,4,2,2,80,0,0
550127,-66.6666666666667,4,2,2,80,0,0
550509,-71.4285714285714,4,2,2,80,0,0
550636,-58.8235294117647,4,2,2,80,0,0
551399,-66.6666666666667,4,2,2,80,0,0
551653,-90.9090909090909,4,2,2,80,0,0
551907,-58.8235294117647,4,2,2,80,0,0
552161,-47.6190476190476,4,2,2,80,0,0
553687,-200,4,2,2,80,0,0
553941,-200,4,2,2,70,0,0
554449,-43.4782608695652,4,2,2,100,0,0
554704,-58.8235294117647,4,2,2,100,0,0
554958,-71.4285714285714,4,2,2,100,0,0
555339,-66.6666666666667,4,2,2,100,0,0
555594,-52.6315789473684,4,2,2,100,0,0
555848,-47.6190476190476,4,2,2,100,0,0
556102,-43.4782608695652,4,2,2,100,0,0
556356,-40,4,2,2,100,0,0
556547,-62.5,4,2,2,100,0,0
556738,-40,4,2,2,100,0,0
556992,-100,4,2,2,100,0,0
557310,-71.4285714285714,4,2,2,100,0,0
557500,-55.5555555555556,4,2,2,100,0,0
557627,-50,4,2,2,100,0,0
557755,-41.6666666666667,4,2,2,100,0,0
558009,-38.4615384615385,4,2,2,100,0,0
558263,-43.4782608695652,4,2,2,100,0,0
558771,-41.6666666666667,4,2,2,100,0,0
560360,-111.111111111111,4,2,2,100,0,0
560551,-58.8235294117647,4,2,2,100,0,0
560805,-41.6666666666667,4,2,2,100,0,0
561822,-1000,4,2,2,100,0,0
562331,-100,4,2,4,100,0,0
562585,-41.6666666666667,4,2,2,100,0,0
562839,-33.3333333333333,4,2,2,100,0,0
563094,-333.333333333333,4,2,2,100,0,0
563348,-47.6190476190476,4,2,2,100,0,0
563602,-100,4,2,2,100,0,0
563856,-66.6666666666667,4,2,2,100,0,0
564110,-333.333333333333,4,2,2,100,0,0
564365,-41.6666666666667,4,2,2,100,0,0
564619,-333.333333333333,4,2,2,100,0,0
564873,-33.3333333333333,4,2,2,100,0,0
565127,-333.333333333333,4,2,2,100,0,0
565382,-45.4545454545455,4,2,2,100,0,0
565636,-76.9230769230769,4,2,2,100,0,0
565890,-25,4,2,2,100,0,0
566653,-43.4782608695652,4,2,2,100,0,0
566907,-31.25,4,2,2,100,0,0
567161,-333.333333333333,4,2,2,100,0,0
567416,-45.4545454545455,4,2,2,100,0,0
567670,-50,4,2,2,100,0,0
567797,-500,4,2,2,100,0,0
568178,-333.333333333333,4,2,2,100,0,0
568433,-38.4615384615385,4,2,2,100,0,0
568687,-100,4,2,2,100,0,0
568941,-66.6666666666667,4,2,2,100,0,0
570721,-45.4545454545455,4,2,2,100,0,0
570975,-45.4545454545455,4,2,2,100,0,1
572755,-66.6666666666667,4,2,2,100,0,1
577077,-125,4,2,2,100,0,0
577966,-125,4,2,4,100,0,0
578856,-52.6315789473684,4,2,4,100,0,0
579110,-52.6315789473684,4,2,4,100,0,1
587246,288.461538461538,4,2,2,100,1,0
588327,-100,4,2,2,5,0,0
588399,-100,4,2,2,100,0,0
589481,-100,4,2,2,5,0,0
589553,-100,4,2,2,100,0,0
590635,-100,4,2,2,5,0,0
590707,-100,4,2,2,100,0,0
591789,-100,4,2,2,5,0,0
591861,-303.030303030303,4,2,1,100,0,0
591879,-303.030303030303,4,2,2,40,0,0
599361,-303.030303030303,4,2,2,5,0,0

[Colours]
Combo1 : 192,198,244
Combo2 : 199,199,199
Combo3 : 150,166,189
Combo4 : 255,87,87
Combo5 : 243,187,226
Combo6 : 110,160,219

[HitObjects]
94,25,1300,6,0,B|75:36|75:36|89:101|57:166,2,135,4|0|0,1:0|3:0|3:0,2:0:0:0:
141,313,1791,6,0,P|113:342|97:384,1,67.5,0|0,1:0|2:0,2:0:0:0:
201,194,1955,2,0,B|220:205|220:205|211:278|250:339,1,135,0|0,3:0|3:0,2:0:0:0:
256,305,2283,6,0,P|253:344|237:391,1,67.5,0|0,3:0|2:0,2:0:0:0:
336,247,2447,2,0,P|353:283|363:331,1,67.5,0|0,1:0|2:0,2:0:0:0:
427,40,2611,6,0,B|449:44|449:44|458:110|510:160,2,135,0|0|0,1:0|3:0|3:0,2:0:0:0:
455,144,3103,1,0,1:0:0:0:
125,160,3267,2,0,P|74:133|0:113,1,135.000005149842,0|0,1:0|3:0,2:0:0:0:
219,153,3595,6,0,P|195:107|194:74,1,67.5,0|0,1:0|2:0,2:0:0:0:
355,290,3759,2,0,P|364:256|385:215,1,67.5,0|0,1:0|2:0,2:0:0:0:
512,363,3922,6,0,B|522:344|522:344|479:295|474:223,2,135,2|0|0,1:0|3:0|3:0,2:0:0:0:
395,123,4414,2,0,P|411:94|428:34,1,67.5,0|0,1:0|2:0,2:0:0:0:
378,226,4578,2,0,B|357:230|357:230|326:171|260:142,1,135,0|0,3:0|3:0,2:0:0:0:
318,212,4906,2,0,P|340:238|353:269,1,67.5,0|0,3:0|2:0,2:0:0:0:
157,297,5070,2,0,P|151:331|136:361,1,67.5,0|0,1:0|2:0,2:0:0:0:
67,0,5234,6,0,B|68:20|68:20|29:54|4:127,1,135,4|0,1:3|3:0,2:0:0:0:
156,36,5562,2,0,B|173:50|173:50|169:101|203:171,1,135,0|0,3:0|1:0,2:0:0:0:
51,198,5890,6,0,P|92:172|98:147,1,67.5,0|0,1:0|2:0,2:0:0:0:
121,195,6054,2,0,P|143:152|139:124,1,67.5,0|0,3:0|2:0,2:0:0:0:
306,244,6218,2,0,P|302:189|287:154,1,67.5,0|0,1:0|2:0,2:0:0:0:
511,60,6381,2,0,P|497:23|474:-12,1,67.5,0|0,1:0|2:0,2:0:0:0:
214,238,6545,6,0,B|198:252|198:252|202:303|168:373,2,135,4|0|0,1:0|3:0|3:0,2:0:0:0:
471,312,7037,2,0,P|480:354|500:380,1,67.5,0|0,1:0|2:0,2:0:0:0:
512,214,7201,2,0,P|445:225|388:261,1,135,0|0,3:0|3:0,2:0:0:0:
268,123,7529,6,0,P|288:91|299:57,1,67.5,0|0,3:0|2:0,2:0:0:0:
164,166,7693,2,0,P|179:125|178:89,1,67.5,0|0,1:0|2:0,2:0:0:0:
0,0,7857,6,0,B|17:14|17:14|13:65|47:135,1,135,0|0,1:0|3:0,2:0:0:0:
102,9,8185,1,0,3:0:0:0:
107,231,8349,2,0,P|139:274|148:314,1,67.5,0|0,1:0|2:0,2:0:0:0:
216,235,8513,2,0,B|213:256|213:256|166:278|123:343,1,135,0|0,1:0|3:0,2:0:0:0:
258,327,8840,6,0,P|286:367|292:400,1,67.5,0|0,1:0|2:0,2:0:0:0:
448,139,9004,2,0,P|497:144|525:160,1,67.5,0|0,1:0|2:0,2:0:0:0:
431,18,9168,6,0,B|373:48|322:44|322:44|308:60,2,135,0|0|0,1:0|3:0|3:0,2:0:0:0:
330,82,9660,2,0,P|319:114|316:147,1,67.5,0|0,1:0|2:0,2:0:0:0:
196,23,9824,1,0,3:0:0:0:
196,23,9988,1,0,3:0:0:0:
73,132,10152,6,0,P|98:109|116:81,1,67.5,0|0,3:0|2:0,2:0:0:0:
173,241,10316,2,0,P|182:208|177:176,1,67.5,0|0,1:0|2:0,2:0:0:0:
512,360,10480,6,0,B|511:325|511:325|469:301|438:258,1,135,4|0,1:3|3:0,2:0:0:0:
320,356,10808,2,0,B|346:332|346:332|337:285|350:233,1,135,0|0,3:0|1:0,2:0:0:0:
501,152,11136,6,0,P|518:181|512:213,1,67.5,0|0,3:0|2:0,2:0:0:0:
369,116,11299,2,0,P|401:126|417:154,1,67.5,0|0,1:0|2:0,2:0:0:0:
237,217,11463,2,0,P|245:261|229:303,1,90,0|0,1:0|2:0,2:0:0:0:
53,58,11627,2,0,P|111:82|120:126,1,90,0|0,1:0|2:0,2:0:0:0:
49,356,11791,6,0,P|25:365|0:374,1,51.75,8|0,1:3|2:0,2:0:0:0:
118,257,15725,6,0,P|152:272|271:298,1,157.5,4|0,2:0|2:0,2:0:0:0:
463,28,17036,6,0,P|487:19|512:10,1,51.75,4|0,1:0|2:0,2:0:0:0:
420,126,20971,6,0,P|384:135|267:98,1,157.5,4|0,2:0|2:0,2:0:0:0:
49,0,22283,6,0,P|11:50|8:138,1,135,4|0,1:0|2:0,2:0:0:0:
162,250,22610,2,0,P|176:216|135:163,1,90,2|8,2:0|3:1,2:0:0:0:
97,99,22856,1,0,2:0:0:0:
97,99,22938,2,0,P|131:93|187:66,1,90,0|2,3:0|2:3,2:0:0:0:
261,153,23266,1,0,3:0:0:0:
458,293,23430,5,8,2:1:0:0:
458,293,23512,1,0,2:0:0:0:
458,293,23594,2,0,P|395:272|344:270,1,90,8|0,1:0|3:0,2:0:0:0:
309,369,23922,1,2,2:0:0:0:
427,177,24086,2,0,P|441:147|463:140,1,45,0|0,3:0|2:0,2:0:0:0:
344,172,24250,6,0,P|289:200|238:205,1,90,8|2,2:1|2:3,2:0:0:0:
268,227,24496,2,0,P|212:203|175:168,1,90,8|0,2:1|2:0,2:0:0:0:
189,87,24742,1,8,1:0:0:0:
129,297,24905,6,0,P|113:353|110:392,1,90,0|0,1:0|3:0,2:0:0:0:
42,277,25233,2,0,P|29:320|24:365,1,90,2|8,2:0|3:1,2:0:0:0:
105,211,25479,5,0,2:0:0:0:
105,211,25561,2,0,P|162:197|197:180,1,90,0|2,3:0|2:3,2:0:0:0:
129,297,25889,2,0,P|173:288|215:270,1,90,0|8,3:0|3:1,2:0:0:0:
328,67,26217,6,0,P|308:19|241:49,1,135,0|0,1:0|2:0,2:0:0:0:
265,137,26545,1,2,2:0:0:0:
38,24,26709,2,0,P|13:6|-23:1,1,45,0|0,3:1|2:0,2:0:0:0:
129,12,26873,6,0,P|144:55|138:99,1,90,8|0,2:1|3:0,2:0:0:0:
165,101,27119,2,0,P|180:144|174:188,1,90,8|0,2:1|2:0,2:0:0:0:
256,223,27364,5,8,2:1:0:0:
256,223,27446,1,0,2:0:0:0:
256,223,27528,2,0,P|307:186|359:193,1,90,0|0,1:0|3:0,2:0:0:0:
407,247,27856,1,2,2:0:0:0:
385,104,28020,5,8,3:1:0:0:
385,104,28102,1,0,2:0:0:0:
385,104,28184,2,0,P|353:61|363:16,1,90,0|2,3:0|2:3,2:0:0:0:
475,77,28512,2,0,P|476:33|446:0,1,90,0|8,3:0|2:1,2:0:0:0:
234,135,28840,6,0,P|215:190|208:234,1,90,8|0,1:0|3:0,2:0:0:0:
317,177,29168,1,2,2:0:0:0:
480,303,29332,2,0,P|495:341|513:357,1,45,0|0,3:0|2:0,2:0:0:0:
442,309,29496,6,0,P|484:264|470:214,1,90,8|2,2:1|2:3,2:0:0:0:
355,262,29742,1,8,2:1:0:0:
355,262,29823,2,0,P|309:291|270:298,1,90,0|8,2:0|1:0,2:0:0:0:
0,51,30151,5,4,1:2:0:0:
67,108,31463,6,0,P|77:136|74:159,1,45,2|0,2:0|2:0,2:0:0:0:
67,108,31955,6,0,P|93:124|106:143,1,45,2|0,2:0|2:0,2:0:0:0:
68,108,32446,6,0,P|113:151|269:144,1,202.5,2|0,2:0|2:0,2:0:0:0:
419,31,32774,6,0,P|452:24|477:19,1,45,4|0,1:0|2:0,2:0:0:0:
453,109,33102,2,0,P|460:142|465:167,1,45,2|0,2:0|2:0,2:0:0:0:
199,174,33430,2,0,P|166:181|141:186,1,45,2|0,2:0|2:0,2:0:0:0:
285,92,33758,2,0,P|318:85|343:80,1,45,2|0,2:0|2:0,2:0:0:0:
452,321,34086,2,0,P|459:354|464:379,1,45,2|0,2:0|2:0,2:0:0:0:
376,227,34414,2,0,P|369:194|364:169,1,45,2|0,2:0|2:0,2:0:0:0:
452,172,34742,2,0,P|485:165|510:160,1,45,2|0,2:0|2:0,2:0:0:0:
389,253,35069,2,0,P|356:260|331:265,1,45,2|0,2:0|2:0,2:0:0:0:
219,170,35397,5,2,0:0:0:0:
223,150,35561,1,0,0:0:0:0:
152,228,35725,1,2,0:0:0:0:
148,248,35889,1,0,0:0:0:0:
238,145,36053,1,2,0:0:0:0:
242,125,36217,1,0,0:0:0:0:
157,267,36381,1,2,0:0:0:0:
177,271,36545,1,0,0:0:0:0:
136,132,36709,1,2,0:0:0:0:
132,113,36873,1,0,0:0:0:0:
52,70,37037,2,0,P|19:63|-6:58,1,45,2|0,2:0|2:0,2:0:0:0:
130,147,37364,1,2,0:0:0:0:
134,166,37528,1,0,0:0:0:0:
208,228,37692,2,0,P|241:235|266:240,1,45,2|0,2:0|2:0,2:0:0:0:
44,367,38020,6,0,P|16:361|-6:354,1,45,2|0,2:1|2:0,2:0:0:0:
43,278,38348,2,0,P|49:250|56:228,1,45,2|0,2:0|2:0,2:0:0:0:
239,338,38676,2,0,P|245:359|249:381,1,45,2|0,2:0|2:0,2:0:0:0:
353,323,39004,2,0,P|374:316|396:312,1,45,2|0,2:0|2:0,2:0:0:0:
133,263,39332,2,0,P|139:284|143:306,1,45,2|0,2:0|2:0,2:0:0:0:
247,248,39660,2,0,P|268:241|290:237,1,45,2|0,2:0|2:0,2:0:0:0:
252,156,39987,2,0,P|245:134|241:112,1,45,2|0,2:0|2:0,2:0:0:0:
332,118,40315,2,0,P|353:111|375:107,1,45,2|0,2:0|2:0,2:0:0:0:
495,243,40643,5,2,0:0:0:0:
490,264,40807,1,0,0:0:0:0:
411,214,40971,1,2,0:0:0:0:
390,209,41135,1,0,0:0:0:0:
503,290,41299,1,2,0:0:0:0:
498,311,41463,1,0,0:0:0:0:
368,181,41627,1,2,0:0:0:0:
373,160,41791,1,0,0:0:0:0:
487,29,41955,1,2,0:0:0:0:
508,24,42119,1,0,0:0:0:0:
496,118,42282,2,0,P|500:159|504:179,1,45,2|0,2:0|2:0,2:0:0:0:
406,47,42610,1,2,0:0:0:0:
401,26,42774,1,0,0:0:0:0:
487,178,42938,2,0,P|491:219|495:239,1,45,2|0,2:0|2:0,2:0:0:0:
341,104,43266,6,0,B|327:92|327:92|276:90|224:65,1,108,8|0,3:0|3:0,2:0:0:0:
164,34,43512,2,0,B|197:56|224:99|224:99|241:105,1,108,8|0,3:0|3:0,2:0:0:0:
204,189,43758,1,8,3:0:0:0:
454,278,43922,6,0,P|458:332|505:389,1,108,8|0,3:0|3:0,2:0:0:0:
479,280,44168,2,0,P|434:310|408:379,1,108,8|0,3:0|3:0,2:0:0:0:
370,257,44414,1,8,3:0:0:0:
334,132,44578,2,0,P|281:145|233:201,1,108,8|0,3:0|3:0,2:0:0:0:
337,158,44823,2,0,P|299:119|226:105,1,108,8|0,3:0|3:0,2:0:0:0:
341,47,45069,1,8,3:0:0:0:
135,114,45233,5,8,3:0:0:0:
135,114,45315,2,0,B|127:148|127:148|87:152|40:219,1,108,0|8,3:0|3:0,2:0:0:0:
36,290,45561,1,0,3:0:0:0:
57,282,45643,1,0,3:0:0:0:
67,300,45725,2,0,P|67:342|60:366,1,54,8|0,3:0|3:0,2:0:0:0:
221,188,45889,6,0,B|264:185|289:164|289:164|339:163,1,108,8|0,1:3|3:0,2:0:0:0:
421,172,46135,2,0,B|382:153|349:157|349:157|305:134,1,108,8|0,1:3|3:0,2:0:0:0:
259,77,46381,1,8,1:3:0:0:
298,289,46545,6,0,P|251:335|200:335,1,108,8|0,1:3|3:0,2:0:0:0:
289,340,46791,2,0,P|225:322|200:278,1,108,8|0,1:3|3:0,2:0:0:0:
235,205,47037,1,8,1:3:0:0:
59,266,47201,6,0,P|13:219|13:168,1,108,8|0,1:3|3:0,2:0:0:0:
8,257,47446,2,0,P|25:193|69:168,1,108,8|0,1:3|3:0,2:0:0:0:
143,203,47692,1,8,1:3:0:0:
26,27,47856,6,0,L|-7:21,1,27,8|8,1:3|1:3,2:0:0:0:
87,94,48184,5,8,1:2:0:0:
143,73,48266,1,0,2:0:0:0:
135,22,48348,1,0,1:0:0:0:
158,0,48430,1,0,1:0:0:0:
239,31,48512,5,0,1:0:0:0:
227,51,48594,2,0,P|234:91|269:138,1,54,0|0,3:0|3:0,2:0:0:0:
335,133,48758,6,0,B|342:160|342:160|439:144|546:226,1,189,0|0,1:0|3:0,2:0:0:0:
260,191,49004,2,0,B|240:210|240:210|302:286|284:420,1,189,0|0,1:0|3:0,2:0:0:0:
167,160,49250,2,0,B|140:152|140:152|105:244|-19:296,1,189,0|0,1:0|3:0,2:0:0:0:
159,45,49496,6,0,P|217:71|254:54,1,94.5,0|0,1:0|3:0,2:0:0:0:
298,2,49660,2,0,P|274:62|237:76,1,94.5,0|0,1:0|3:0,2:0:0:0:
99,153,49823,5,0,1:0:0:0:
99,153,49905,2,0,B|89:164|89:164|23:175|-15:246,1,126,0|0,3:0|3:0,2:0:0:0:
213,252,50069,1,0,1:0:0:0:
213,252,50151,2,0,B|215:266|215:266|184:322|210:399,1,126,0|0,3:0|3:0,2:0:0:0:
358,202,50315,1,0,1:0:0:0:
358,202,50397,2,0,B|370:209|370:209|392:269|469:298,1,126,0|0,3:0|3:0,2:0:0:0:
389,49,50561,1,0,1:0:0:0:
389,49,50643,2,0,B|403:43|403:43|465:68|534:25,1,126,0|0,3:0|3:0,2:0:0:0:
117,231,50807,6,0,P|136:186|129:109,1,112.5,0|0,1:0|3:0,2:0:0:0:
240,51,50971,2,0,P|237:98|270:168,1,112.5,0|0,1:0|3:0,2:0:0:0:
258,375,51135,5,0,1:0:0:0:
273,376,51217,1,0,3:0:0:0:
290,375,51299,1,0,1:0:0:0:
311,371,51381,1,0,3:0:0:0:
336,364,51463,1,0,1:0:0:0:
364,351,51545,1,0,3:0:0:0:
393,332,51627,1,0,1:0:0:0:
426,300,51709,1,0,3:0:0:0:
481,365,51791,5,0,1:0:0:0:
468,354,51873,1,0,3:0:0:0:
448,340,51955,1,0,1:0:0:0:
419,326,52037,1,0,3:0:0:0:
377,311,52119,1,0,1:0:0:0:
321,296,52201,1,0,3:0:0:0:
255,284,52282,1,0,1:0:0:0:
177,282,52364,1,0,3:0:0:0:
87,306,52446,6,0,P|93:327|90:307,2,72,2|0|2,2:0|2:0|2:0,2:0:0:0:
213,150,53430,6,0,P|296:275|294:121,1,405,8|0,2:1|2:0,2:0:0:0:
276,200,53758,6,0,L|271:227,1,27,4|0,1:0|3:0,2:0:0:0:
423,336,54086,6,0,B|413:315|413:315|500:203|498:57|498:57|549:29,1,337.5,2|0,1:2|3:0,2:0:0:0:
180,377,54414,2,0,B|181:354|181:354|62:278|12:129|12:129|-40:122,1,337.5,2|0,1:2|3:0,2:0:0:0:
329,326,54742,5,2,1:2:0:0:
421,295,54823,2,0,B|414:278|414:278|478:195|474:60,1,225,2|0,3:2|2:0,2:0:0:0:
233,235,55069,5,2,1:2:0:0:
225,250,55151,1,2,3:2:0:0:
232,265,55233,1,2,3:2:0:0:
151,315,55315,2,0,B|151:296|151:296|64:239|22:105,1,225,2|2,3:2|3:2,2:0:0:0:
317,193,55561,5,2,3:2:0:0:
356,226,55643,1,2,3:2:0:0:
327,310,55725,2,0,B|313:289|313:289|381:160|351:22|351:22|394:-10,1,337.5,2|0,1:2|3:0,2:0:0:0:
190,113,56053,6,0,P|187:178|239:216,1,135,0|0,1:2|3:0,2:0:0:0:
255,38,56381,6,0,L|259:11,1,27,4|0,1:2|3:0,2:0:0:0:
106,58,56709,6,0,B|73:100|73:100|96:240|-30:333,1,270,2|0,1:2|3:0,2:0:0:0:
357,94,57037,2,0,B|398:119|398:119|425:259|529:311,1,270,2|0,1:2|3:0,2:0:0:0:
210,199,57364,5,2,1:2:0:0:
138,151,57446,2,0,B|117:163|117:163|89:251|-17:291,1,180,2|0,3:2|2:0,2:0:0:0:
132,245,57692,6,0,P|163:295|159:348,1,90,2|2,1:2|3:2,2:0:0:0:
407,299,57856,1,2,3:2:0:0:
349,231,57938,2,0,B|385:241|385:241|446:301|518:301,1,180,2|2,3:2|3:2,2:0:0:0:
265,378,58184,5,2,3:2:0:0:
275,347,58266,1,2,3:2:0:0:
191,328,58348,2,0,B|169:347|169:347|76:329|6:407,1,180,2|0,1:2|3:0,2:0:0:0:
0,290,58594,2,0,B|19:286|19:286|61:323|132:308,1,90,0|0,1:2|3:0,2:0:0:0:
314,326,58758,6,0,P|329:261|311:324,1,216,8|0,3:1|2:0,2:0:0:0:
428,384,59004,6,0,P|446:377|457:375,1,27,4|0,1:0|3:0,2:0:0:0:
249,182,59332,6,0,B|200:144|189:54|189:54|171:39|171:39|94:50|32:13,1,310.5,2|0,1:2|3:0,2:0:0:0:
383,275,59660,2,0,B|391:213|464:159|464:159|468:136|468:136|420:75|420:3,1,310.5,2|0,1:2|3:0,2:0:0:0:
215,175,59987,5,2,1:2:0:0:
272,238,60069,2,0,B|249:202|263:142|263:142|255:129|255:129|204:118|173:80,1,207,2|0,3:2|2:0,2:0:0:0:
69,350,60315,5,2,1:2:0:0:
75,368,60397,1,2,3:2:0:0:
94,374,60479,1,2,3:2:0:0:
181,326,60561,2,0,B|141:313|113:258|113:258|98:252|98:252|52:277|5:268,1,207,2|2,3:2|3:2,2:0:0:0:
272,274,60807,5,2,3:2:0:0:
312,307,60889,1,2,3:2:0:0:
296,384,60971,2,0,B|272:327|308:243|308:243|300:221|300:221|228:192|193:129,1,310.5,2|0,1:2|3:0,2:0:0:0:
404,269,61299,6,0,P|466:257|512:177,1,135,0|0,1:2|3:0,2:0:0:0:
457,18,61627,6,0,B|459:-4,1,18,4|0,1:2|3:0,2:0:0:0:
477,124,61873,6,0,P|406:104|350:216,1,207,2|0,1:2|2:0,2:0:0:0:
265,292,62119,2,0,P|258:242|214:219,1,103.5,0|0,1:0|3:0,2:0:0:0:
0,21,62282,6,0,B|6:50|6:50|125:118|130:290,1,310.5,2|0,1:2|3:0,2:0:0:0:
157,52,62610,2,0,B|186:58|186:58|254:177|426:182,1,310.5,2|0,1:2|2:0,2:0:0:0:
486,18,62938,5,2,1:2:0:0:
494,23,63020,1,0,3:0:0:0:
499,30,63102,1,0,3:0:0:0:
499,40,63184,1,0,3:0:0:0:
493,48,63266,1,0,3:0:0:0:
482,52,63348,1,0,3:0:0:0:
471,49,63430,1,0,3:0:0:0:
464,40,63512,1,0,3:0:0:0:
445,69,63594,5,0,3:0:0:0:
428,48,63676,1,0,3:0:0:0:
391,41,63758,1,0,3:0:0:0:
344,56,63840,1,0,3:0:0:0:
301,98,63922,1,0,3:0:0:0:
248,131,64004,1,0,3:0:0:0:
175,144,64086,1,0,3:0:0:0:
102,112,64168,1,0,3:0:0:0:
43,42,64250,6,0,L|-28:26,1,58.5,0|0,1:2|2:0,2:0:0:0:
168,283,64414,5,0,3:0:0:0:
168,283,64496,1,0,3:0:0:0:
168,283,64578,2,0,B|198:322|127:468|-64:308|69:166|116:212|231:253|328:38|153:-19|-11:101|156:143|122:196,1,540,4|0,1:2|2:0,2:0:0:0:
34,264,65069,6,0,P|94:218|310:211,1,270,0|0,1:2|2:0,2:0:0:0:
512,35,65397,2,0,P|506:92|520:144,1,90,0|0,1:2|2:0,2:0:0:0:
138,63,65561,6,0,P|211:81|284:137,1,103.5,4|2,1:0|3:2,2:0:0:0:
386,165,65725,1,2,3:2:0:0:
372,63,65807,2,0,P|413:147|502:249,1,207,2|2,3:2|3:2,2:0:0:0:
379,263,66053,2,0,P|320:191|277:176,1,103.5,2|2,3:2|3:2,2:0:0:0:
270,0,66217,6,0,P|284:190|266:325,1,310.5,2|0,1:2|3:0,2:0:0:0:
100,190,66545,6,0,P|41:160|11:110,1,103.5,0|0,1:2|2:0,2:0:0:0:
112,218,66709,2,0,P|47:202|-6:221,1,103.5,0|0,1:2|3:0,2:0:0:0:
240,95,66873,6,0,L|271:87,1,27,2|0,1:2|3:0,2:0:0:0:
31,362,67201,6,0,B|35:335|28:311|28:311|39:295|39:295|147:272|201:160,1,270,2|0,1:2|3:0,2:0:0:0:
477,293,67528,2,0,B|453:305|440:327|440:327|419:328|419:328|332:260|212:292,1,270,2|0,1:2|3:0,2:0:0:0:
320,157,67856,5,2,1:2:0:0:
400,124,67938,2,0,P|472:220|442:309,1,180,2|0,3:2|2:0,2:0:0:0:
156,358,68184,6,0,P|127:295|150:259,1,90,2|2,1:2|3:2,2:0:0:0:
379,217,68348,1,2,3:2:0:0:
462,221,68430,2,0,B|470:241|470:241|463:267|463:267|370:319|369:445,1,180,2|2,3:2|3:2,2:0:0:0:
254,228,68676,2,0,P|220:257|221:301,1,90,2|2,3:2|3:2,2:0:0:0:
306,305,68840,6,0,B|308:220|264:168|264:168|263:154|263:154|232:147|213:131,1,216,0|0,1:2|3:0,2:0:0:0:
47,23,69086,2,0,P|54:78|12:115,1,117,0|0,1:2|2:0,2:0:0:0:
300,59,69332,6,0,P|299:28|297:62,1,135,8|0,3:1|3:0,2:0:0:0:
172,57,69496,6,0,L|138:51,1,27,0|0,1:2|3:0,2:0:0:0:
313,151,69823,6,0,B|315:63|387:-10|484:-10|484:-10|490:0|490:0|466:37|486:77,1,324,2|0,1:2|3:0,2:0:0:0:
248,236,70151,2,0,B|214:152|122:108|32:141|32:141|29:153|29:153|64:181|59:225,1,324,2|0,1:2|3:0,2:0:0:0:
396,234,70479,6,0,P|435:177|500:151,1,108,2|2,1:2|3:2,2:0:0:0:
512,255,70643,2,0,P|445:237|378:259,1,108,2|0,1:2|2:0,2:0:0:0:
95,282,70807,5,2,1:2:0:0:
144,272,70889,1,2,3:2:0:0:
172,316,70971,1,2,3:2:0:0:
101,367,71053,2,0,B|129:282|219:232|311:260|311:260|314:273|314:273|281:302|289:346,1,324,2|2,3:2|3:2,2:0:0:0:
371,338,71381,1,2,1:2:0:0:
222,384,71463,6,0,B|162:312|185:210|185:210|146:144,1,216,2|0,1:2|3:0,2:0:0:0:
379,189,71709,2,0,B|450:128|445:24|445:24|495:-34,1,216,2|0,1:2|2:0,2:0:0:0:
294,148,71955,6,0,P|293:117|291:151,1,135,8|0,3:1|3:0,2:0:0:0:
389,100,72119,6,0,L|411:98,1,18,0|0,1:2|3:0,2:0:0:0:
294,148,72364,6,0,P|217:67|49:58,1,216,2|0,1:2|3:0,2:0:0:0:
0,174,72610,2,0,P|76:100|182:92,1,216,2|0,1:2|3:0,2:0:0:0:
304,239,72856,1,2,1:2:0:0:
230,197,72938,6,0,B|231:177|231:177|277:168|311:131,1,90,0|0,1:2|3:0,2:0:0:0:
379,189,73102,2,0,B|395:199|395:199|380:244|395:292,1,90,2|0,1:2|3:0,2:0:0:0:
306,329,73266,2,0,B|288:338|288:338|257:302|208:291,1,90,2|0,1:2|3:0,2:0:0:0:
16,271,73430,6,0,P|46:256|74:238,1,67.5,2|0,1:2|3:0,2:0:0:0:
142,329,73594,2,0,P|181:326|268:303,1,85.5,2|0,1:2|3:0,2:0:0:0:
232,149,73758,2,0,P|268:133|327:84,1,103.5,2|0,1:2|3:0,2:0:0:0:
503,187,73922,5,2,1:2:0:0:
512,212,74004,1,0,3:0:0:0:
444,275,74086,2,0,B|425:259|425:259|426:204|392:141|392:141|412:107,1,171,2|2,1:2|1:2,2:0:0:0:
318,73,74332,1,0,3:0:0:0:
486,71,74414,2,0,B|502:112|502:112|412:223|392:338|392:338|346:343,1,337.5,2|0,1:2|3:0,2:0:0:0:
512,352,74742,6,0,P|435:273|273:230,1,216,4|2,1:0|3:0,2:0:0:0:
256,198,74987,1,2,3:2:0:0:
407,209,75069,2,0,P|363:244|311:264,1,108,10|0,1:2|2:0,2:0:0:0:
187,288,75233,5,2,3:2:0:0:
167,328,75315,1,2,3:2:0:0:
247,349,75397,2,0,P|177:257|26:186,1,216,2|2,1:2|3:0,2:0:0:0:
11,159,75643,1,2,3:0:0:0:
161,189,75725,2,0,P|111:217|57:227,1,108,10|0,1:2|2:0,2:0:0:0:
41,342,75889,5,2,3:2:0:0:
8,320,75971,1,2,3:2:0:0:
40,251,76053,2,0,P|151:260|208:332,1,108,2|0,1:2|2:2,2:2:0:0:
341,224,76217,1,2,3:2:0:0:
356,199,76299,1,2,3:2:0:0:
319,173,76381,2,0,P|261:244|293:290,1,108,10|0,1:2|2:2,2:2:0:0:
153,360,76545,5,2,3:2:0:0:
123,336,76627,1,2,3:2:0:0:
153,280,76709,2,0,P|261:308|304:389,1,108,2|0,1:2|2:2,2:2:0:0:
479,324,76873,1,2,3:2:0:0:
503,292,76955,1,2,3:2:0:0:
463,255,77037,2,0,P|393:314|417:365,1,108,10|0,1:2|2:2,2:2:0:0:
244,310,77201,5,2,3:2:0:0:
234,370,77282,1,2,3:2:0:0:
318,384,77364,2,0,P|448:327|530:200,1,216,2|2,1:2|3:2,2:2:0:0:
323,254,77610,1,2,3:2:0:0:
429,317,77692,2,0,P|289:280|225:188,1,216,10|2,1:2|3:2,2:2:0:0:
158,250,77938,1,2,3:2:0:0:
178,341,78020,2,0,P|296:258|325:150,1,216,2|2,1:2|3:2,2:2:0:0:
88,301,78266,1,2,3:2:0:0:
86,384,78348,6,0,P|52:321|64:260,1,108,10|0,1:2|2:2,2:2:0:0:
0,324,78512,2,0,P|14:253|62:214,1,108,2|0,3:2|3:2,2:2:0:0:
305,220,78676,6,0,P|462:257|543:316,1,216,2|2,1:2|3:2,2:2:0:0:
500,181,78922,1,2,3:2:0:0:
393,254,79004,2,0,P|257:326|205:391,1,216,10|2,1:2|3:2,2:2:0:0:
318,384,79250,1,2,3:2:0:0:
249,298,79332,2,0,P|152:207|25:169,1,216,2|2,1:2|3:2,2:2:0:0:
11,323,79578,1,2,3:2:0:0:
87,377,79660,5,10,1:2:0:0:
121,347,79742,1,2,3:2:0:0:
115,302,79823,2,0,P|30:289|-24:323,1,108,2|0,3:2|3:2,2:2:0:0:
50,43,79987,6,0,B|89:37|89:37|164:110,1,112.5,4|0,2:1|2:0,2:0:0:0:
255,69,80151,2,0,B|238:98|238:98|153:108|153:108|63:163,1,225,0|4,1:0|1:3,2:0:0:0:
349,0,80479,1,12,2:0:0:0:
512,205,80643,2,0,B|481:172|481:172|471:61|471:61|460:45|460:45|437:-16,1,225,0|4,1:0|1:3,2:0:0:0:
122,87,80971,5,12,2:0:0:0:
96,77,81053,1,0,2:0:0:0:
75,68,81135,1,4,1:3:0:0:
49,59,81217,1,0,1:0:0:0:
0,132,81299,6,0,B|32:128|32:128|123:37,1,112.5,12|0,2:0|2:0,2:0:0:0:
386,208,81463,2,0,B|357:198|357:198|367:138|367:138|326:8,1,225,0|4,1:0|1:3,2:0:0:0:
99,199,81791,1,4,2:1:0:0:
393,118,81955,1,0,1:0:0:0:
303,24,82119,1,4,1:3:0:0:
503,172,82282,5,12,2:0:0:0:
505,155,82364,1,0,2:0:0:0:
509,136,82446,1,4,1:3:0:0:
512,117,82528,1,0,1:0:0:0:
448,41,82610,6,0,B|450:61|450:61|396:155,1,112.5,4|0,2:1|2:0,2:0:0:0:
106,118,82774,2,0,B|133:90|133:90|293:68|293:68|324:17,1,225,0|8,1:0|1:3,2:0:0:0:
47,44,83102,1,12,2:0:0:0:
334,177,83266,2,0,B|318:128|318:128|320:105|320:105|234:17|234:17|227:-15,1,225,0|4,1:0|1:3,2:0:0:0:
149,165,83594,5,4,2:1:0:0:
134,168,83676,1,4,2:3:0:0:
118,171,83758,1,4,1:3:0:0:
103,174,83840,1,0,1:0:0:0:
168,252,83922,6,0,B|187:230|187:230|180:169|197:104,1,148.5,12|0,1:2|2:0,2:0:0:0:
296,278,84250,2,0,B|285:250|285:250|315:196|324:129,1,148.5,12|0,1:2|2:0,2:0:0:0:
178,104,84578,6,0,P|163:69|125:33,1,58.5,12|0,1:2|2:0,2:0:0:0:
344,136,84742,2,0,P|364:104|408:75,1,58.5,2|0,2:3|2:0,2:0:0:0:
202,164,84905,2,0,P|206:135|197:107,1,58.5,12|0,1:2|2:0,2:0:0:0:
306,192,85069,2,0,P|309:163|323:137,1,58.5,2|0,2:3|2:0,2:0:0:0:
0,301,85233,6,0,P|149:258|215:262,1,216,4|2,1:2|3:2,2:2:0:0:
127,348,85479,1,2,3:2:0:0:
106,226,85561,2,0,P|177:264|199:312,1,108,10|0,1:2|2:2,2:2:0:0:
350,331,85725,5,2,3:2:0:0:
326,378,85807,1,2,3:2:0:0:
255,338,85889,2,0,P|381:246|444:228,1,216,2|2,1:2|3:2,2:2:0:0:
402,340,86135,1,2,3:2:0:0:
324,233,86217,2,0,P|404:245|441:282,1,108,10|0,1:2|2:2,2:2:0:0:
488,346,86381,5,2,3:2:0:0:
511,328,86463,1,2,3:2:0:0:
512,242,86545,2,0,P|421:296|409:322,1,108,2|0,1:2|2:2,2:2:0:0:
161,346,86709,1,2,3:2:0:0:
144,316,86791,1,2,3:2:0:0:
185,280,86873,2,0,P|251:362|254:391,1,108,10|0,1:2|2:2,2:2:0:0:
347,311,87037,5,2,3:2:0:0:
381,299,87119,1,2,3:2:0:0:
390,217,87201,2,0,P|291:254|275:278,1,108,2|0,1:2|2:2,2:2:0:0:
49,238,87364,1,2,3:2:0:0:
32,207,87446,1,2,3:2:0:0:
70,178,87528,2,0,P|136:260|139:289,1,108,10|0,1:2|2:2,2:2:0:0:
99,371,87692,5,2,3:2:0:0:
47,384,87774,1,2,3:2:0:0:
0,318,87856,2,0,P|104:246|259:234,1,216,2|2,1:2|3:2,2:2:0:0:
201,309,88102,1,2,3:2:0:0:
69,214,88184,2,0,P|211:282|304:386,1,216,10|2,1:2|3:2,2:2:0:0:
417,251,88430,1,2,3:2:0:0:
337,190,88512,2,0,P|245:294|223:377,1,216,2|2,1:2|3:2,2:2:0:0:
504,269,88758,1,2,3:2:0:0:
457,348,88840,6,0,P|374:336|328:276,1,108,10|0,1:2|2:2,2:2:0:0:
338,357,89004,2,0,P|294:286|310:213,1,108,2|0,3:2|3:2,2:2:0:0:
8,384,89168,6,0,P|126:364|244:249,1,216,2|2,1:2|3:2,2:2:0:0:
323,253,89414,1,2,3:2:0:0:
286,371,89496,2,0,P|351:286|375:181,1,216,10|2,1:2|3:2,2:2:0:0:
294,173,89742,1,2,3:2:0:0:
401,299,89823,2,0,P|270:258|195:203,1,216,2|2,1:2|3:2,2:2:0:0:
34,264,90069,1,2,3:2:0:0:
121,249,90151,5,10,1:2:0:0:
113,206,90233,1,2,3:2:0:0:
68,184,90315,2,0,P|74:228|43:301,1,108,2|0,3:2|3:2,2:2:0:0:
0,111,90479,5,0,1:0:0:0:
54,49,90561,1,0,3:0:0:0:
126,23,90643,1,2,1:3:0:0:
204,28,90725,1,0,3:0:0:0:
263,68,90807,1,8,1:2:0:0:
325,106,90889,1,0,3:0:0:0:
388,123,90971,1,2,1:3:0:0:
446,122,91053,1,0,3:0:0:0:
484,100,91135,1,0,1:0:0:0:
501,65,91217,1,0,3:0:0:0:
500,29,91299,1,2,1:3:0:0:
488,14,91381,1,0,3:0:0:0:
477,8,91463,5,8,1:2:0:0:
485,21,91545,1,0,3:0:0:0:
488,37,91627,1,2,1:3:0:0:
478,68,91709,1,0,3:0:0:0:
449,90,91791,5,0,1:0:0:0:
456,65,91873,1,0,3:0:0:0:
441,45,91955,1,2,1:3:0:0:
413,24,92037,1,0,3:0:0:0:
393,44,92119,5,8,1:2:0:0:
375,25,92201,1,0,3:0:0:0:
334,14,92282,1,2,1:3:0:0:
295,22,92364,1,0,3:0:0:0:
317,53,92446,5,0,1:0:0:0:
294,87,92528,1,0,3:0:0:0:
250,119,92610,1,2,1:3:0:0:
203,125,92692,1,0,3:0:0:0:
182,89,92774,5,8,1:2:0:0:
135,93,92856,1,0,3:0:0:0:
86,74,92938,1,2,1:3:0:0:
53,32,93020,1,0,3:0:0:0:
39,96,93102,5,8,1:2:0:0:
87,56,93184,1,0,3:0:0:0:
137,32,93266,1,8,1:2:0:0:
191,13,93348,1,0,3:0:0:0:
251,0,93430,1,8,1:2:0:0:
307,0,93512,1,0,3:0:0:0:
363,4,93594,1,8,1:2:0:0:
422,22,93676,1,0,3:0:0:0:
503,53,93758,5,8,1:2:0:0:
427,49,93840,1,0,3:0:0:0:
356,61,93922,1,8,1:2:0:0:
285,80,94004,1,0,3:0:0:0:
217,113,94086,1,8,1:2:0:0:
156,156,94168,1,0,3:0:0:0:
103,208,94250,1,8,1:2:0:0:
62,273,94332,1,0,3:0:0:0:
46,349,94414,6,0,P|14:351|-19:373,2,45,0|0|0,1:2|2:0|2:0,2:0:0:0:
113,328,94742,2,0,P|86:323|47:333,2,45,0|0|0,3:2|2:0|2:0,2:0:0:0:
128,246,95069,6,0,B|126:196|159:167|196:203|158:248|158:211|131:216|127:245,1,135,0|0,3:2|2:0,2:0:0:0:
341,151,95397,6,0,B|270:87|177:102|187:203|307:207|249:155|295:122|342:151,1,270,8|0,3:1|2:0,2:0:0:0:
512,263,95725,6,0,B|481:303|511:361|511:361|503:372|503:372|477:368|344:288|488:231|409:161|409:161|366:158|339:122|339:122,1,445.5,4|0,1:2|2:0,2:0:0:0:
262,0,96053,6,0,B|294:53|407:21|407:21|439:39|410:75,1,216,8|2,2:1|2:3,2:0:0:0:
401,239,96299,6,0,P|311:306|294:359,1,135,0|0,1:0|2:0,2:0:0:0:
468,166,96545,2,0,P|501:168|529:180,1,45,2|0,1:3|2:0,2:0:0:0:
227,99,96709,6,0,B|216:92|362:164|348:352|348:352|377:384,1,337.5,8|0,2:1|2:0,2:0:0:0:
211,198,97037,6,0,B|196:212|179:218|179:218|130:341|215:396|292:367|314:231|159:262,1,297,0|2,1:0|2:3,2:0:0:0:
150,135,97282,1,0,2:0:0:0:
135,246,97364,6,0,P|46:224|-51:236,1,135,8|2,2:1|2:3,2:0:0:0:
211,198,97610,6,0,P|342:169|387:30,1,288,0|0,1:0|2:0,2:0:0:0:
199,0,97856,5,2,1:3:0:0:
159,31,97938,1,0,1:0:0:0:
193,107,98020,2,0,B|237:96|237:96|250:85|250:85|326:66,1,108,8|0,2:1|2:0,2:0:0:0:
496,185,98184,2,0,B|451:173|451:173|438:162|438:162|394:151,1,108,2|0,1:3|2:0,2:0:0:0:
109,50,98348,6,0,B|85:61|82:88|82:88|144:199|59:307|59:307|38:298|38:298|52:227|-13:180,1,405,0|0,1:0|2:0,2:0:0:0:
0,118,98676,6,0,P|108:146|161:274,1,216,8|2,2:1|2:3,2:0:0:0:
2,384,98922,6,0,P|-3:313|17:296,1,90,0|0,1:0|2:0,2:0:0:0:
166,326,99168,6,0,P|192:349|240:350,1,72,2|0,1:3|2:0,2:0:0:0:
90,282,99332,2,0,P|170:268|206:222,1,112.5,8|0,2:1|2:0,2:0:0:0:
348,278,99496,2,0,P|410:224|418:167,1,112.5,2|0,2:3|2:0,2:0:0:0:
115,195,99660,6,0,B|75:126|121:55|121:55|112:28,1,175.5,0|0,1:0|2:0,2:0:0:0:
46,147,99987,6,0,P|91:115|166:128,1,108,8|0,2:1|2:0,2:0:0:0:
326,188,100151,1,0,1:0:0:0:
203,207,100233,6,0,B|225:135|293:105|293:105|311:72,1,162,0|0,1:0|2:0,2:0:0:0:
233,175,100479,6,0,P|227:220|273:243,1,80.9999999999999,2|0,1:3|2:0,2:0:0:0:
418,197,100643,6,0,P|423:143|370:116,1,94.5,8|0,2:1|2:0,2:0:0:0:
115,195,100807,2,0,P|103:282|159:319,1,121.5,2|0,1:3|2:0,2:0:0:0:
493,329,100971,6,0,B|495:288|519:259|519:259|503:245|503:245|432:323|325:339|239:296|239:296|226:246|161:235,1,458.999999999999,4|0,1:2|2:0,2:0:0:0:
21,342,101299,6,0,B|50:337|64:319|64:319|145:365|240:319,1,225,8|2,2:1|2:3,2:0:0:0:
418,197,101545,6,0,P|361:290|374:340,1,117,0|0,1:0|2:0,2:0:0:0:
257,137,101791,2,0,P|282:183|280:234,1,58.5,2|0,1:3|2:0,2:0:0:0:
430,384,101955,6,0,B|339:266|150:247|150:247|186:234|201:198,1,378,8|0,2:1|2:0,2:0:0:0:
456,275,102282,6,0,B|444:159|499:66|499:66|470:112|402:103,1,297,0|2,1:0|2:3,2:0:0:0:
428,19,102528,1,0,2:0:0:0:
335,99,102610,6,0,P|423:138|431:217,1,153,8|2,2:1|2:3,2:0:0:0:
512,292,102856,6,0,P|414:209|255:189,1,270,0|0,1:0|2:0,2:0:0:0:
185,343,103102,5,2,1:3:0:0:
221,380,103184,1,0,1:0:0:0:
300,329,103266,2,0,P|318:276|289:181,1,135,8|0,2:1|2:0,2:0:0:0:
111,238,103430,2,0,P|92:198|55:175,1,90,2|0,1:3|2:0,2:0:0:0:
237,40,103594,6,0,B|276:37|316:77|316:77|312:100|312:100|231:103|135:187|150:262|150:262|186:250|216:262,1,432,0|0,1:0|2:0,2:0:0:0:
409,269,103922,6,0,P|313:232|251:151,1,207,8|2,2:1|2:3,2:0:0:0:
112,55,104168,6,0,P|163:127|136:156,1,117,0|0,1:0|2:0,2:0:0:0:
51,81,104414,2,0,P|80:46|150:66,1,72,2|0,1:3|2:0,2:0:0:0:
254,13,104578,6,0,B|250:47|250:47|65:140|64:371,1,364.5,8|0,2:1|2:0,2:0:0:0:
2,187,104905,5,2,1:2:0:0:
16,172,104987,1,0,3:0:0:0:
31,165,105069,1,0,3:0:0:0:
45,164,105151,1,0,3:0:0:0:
54,168,105233,1,0,3:0:0:0:
59,176,105315,1,0,3:0:0:0:
60,183,105397,1,0,3:0:0:0:
58,187,105479,1,0,3:0:0:0:
33,212,105561,5,2,3:2:0:0:
61,226,105643,1,0,3:0:0:0:
99,224,105725,1,0,3:0:0:0:
145,197,105807,1,0,3:0:0:0:
203,187,105889,1,0,3:0:0:0:
263,210,105971,1,0,3:0:0:0:
322,259,106053,1,0,3:0:0:0:
394,300,106135,1,0,3:0:0:0:
488,295,106217,6,0,B|591:325|478:503|346:369|375:211|455:209|409:127|409:127|390:130|390:130|388:166|353:188,1,499.5,4|0,1:2|2:0,2:0:0:0:
211,384,106545,6,0,B|190:360|190:360|62:351|-17:259,1,216,8|2,2:1|2:3,2:0:0:0:
302,352,106791,6,0,P|404:266|429:265,1,117,0|0,1:0|2:0,2:0:0:0:
203,328,107037,2,0,P|205:375|226:396,1,58.5,2|0,1:3|2:0,2:0:0:0:
487,90,107201,6,0,P|504:53|513:20,1,67.5,8|0,2:1|2:0,2:0:0:0:
342,155,107528,6,0,B|378:190|384:276|305:314|240:251|273:194|273:194|247:178|223:212,1,297,0|2,1:0|2:3,2:0:0:0:
275,280,107774,1,0,2:0:0:0:
185,275,107856,6,0,P|73:232|20:234,1,144,8|2,2:1|2:3,2:0:0:0:
196,365,108102,6,0,P|257:342|275:279,1,135,0|0,1:0|2:0,2:0:0:0:
99,108,108266,1,0,2:0:0:0:
41,183,108348,5,2,1:3:0:0:
73,220,108430,1,0,2:0:0:0:
130,204,108512,2,0,P|130:163|104:96,1,90,8|0,2:1|2:0,2:0:0:0:
262,71,108676,2,0,P|252:114|232:155,1,90,2|0,1:3|2:0,2:0:0:0:
507,277,108840,6,0,B|413:299|402:156|313:211|313:211|386:268|359:372|227:318|272:252|296:239,1,432,0|0,1:0|2:0,2:0:0:0:
352,171,109168,6,0,P|425:265|341:401,1,216,8|2,2:1|2:3,2:0:0:0:
176,347,109414,6,0,B|140:346|140:346|83:300|-6:318,1,153,0|0,1:0|2:0,2:0:0:0:
239,272,109660,2,0,P|276:276|349:231,1,76.5,2|0,1:3|2:0,2:0:0:0:
18,65,109823,6,0,P|6:33|1:0,1,67.5,8|0,2:1|2:0,2:0:0:0:
302,0,110151,6,0,B|336:-2|341:23|341:23|288:71|289:169|289:169|278:188|252:188,1,243,0|0,1:0|2:0,2:0:0:0:
219,42,110479,5,8,2:1:0:0:
184,139,110561,1,0,1:2:0:0:
145,123,110643,2,0,P|139:94|127:67,1,58.5,2|0,1:3|2:0,2:0:0:0:
118,39,110807,6,0,P|107:96|53:173,1,90,0|0,1:0|2:0,2:0:0:0:
267,198,110971,2,0,P|278:141|332:64,1,90,2|0,1:3|2:0,2:0:0:0:
53,113,111135,6,0,P|58:61|101:30,1,108,8|0,2:1|2:0,2:0:0:0:
388,138,111299,2,0,P|395:203|350:250,1,135,2|0,1:3|2:0,2:0:0:0:
4,296,111463,6,0,B|7:248|-26:220|-26:220|-10:202|-10:202|134:255|292:118|292:118|254:160|274:229,1,524.999999999999,0|0,1:0|2:0,2:0:0:0:
62,202,111791,6,0,P|161:230|233:303,1,207,8|2,2:1|2:3,2:0:0:0:
413,370,112037,6,0,P|447:326|502:333,1,117,0|0,1:0|2:0,2:0:0:0:
315,281,112282,2,0,P|331:304|329:333,1,58.5,2|0,1:3|2:0,2:0:0:0:
407,42,112446,6,0,L|410:26,6,11.25,8|0|0|0|2|0|0,2:1|2:0|2:0|2:0|2:3|2:0|2:0,2:0:0:0:
512,128,112774,6,0,B|443:98|358:126|333:226|369:261|432:252|439:220|393:205,1,270,0|2,1:0|2:3,2:0:0:0:
370,134,113020,1,0,2:0:0:0:
504,229,113102,6,0,P|484:151|441:139,1,117,8|2,2:1|2:3,2:0:0:0:
283,187,113348,6,0,B|236:188|236:188|140:286|0:279,1,270,0|0,1:0|2:0,2:0:0:0:
141,75,113594,5,2,1:3:0:0:
158,102,113676,1,0,2:0:0:0:
102,179,113758,2,0,P|70:166|24:163,1,58.5,8|0,2:1|2:0,2:0:0:0:
44,77,113922,2,0,P|57:45|60:-1,1,58.5,2|0,1:3|2:0,2:0:0:0:
276,96,114086,6,0,B|337:14|372:61|463:17|463:17|467:31|467:31|352:83|421:199|483:133|483:113,1,432,0|0,1:0|2:0,2:0:0:0:
512,6,114414,6,0,P|465:76|471:135,1,112.5,8|0,2:1|2:0,2:0:0:0:
337,161,114578,1,2,1:3:0:0:
345,20,114660,6,0,B|349:118|417:178|417:178|410:235,1,225,8|0,2:1|3:0,2:0:0:0:
480,370,114905,2,0,B|380:347|332:267|332:267|288:264,1,225,8|0,2:1|3:0,2:0:0:0:
287,357,115151,2,0,B|186:361|119:296|119:296|78:305,1,225,8|0,2:1|2:0,2:0:0:0:
40,201,115397,6,0,P|57:203|72:213,1,36,2|0,1:2|2:0,2:0:0:0:
126,150,115561,2,0,P|144:152|159:163,1,36,2|0,2:0|2:0,2:0:0:0:
167,192,115725,2,0,P|185:194|200:205,1,36,2|0,2:0|2:0,2:0:0:0:
269,156,115889,2,0,P|286:158|301:168,1,36,2|0,2:0|2:0,2:0:0:0:
18,34,116053,6,0,P|72:10|118:85,1,135,8|0,1:2|2:0,2:0:0:0:
132,343,116217,2,0,P|190:356|222:275,1,135,8|0,1:2|2:0,2:0:0:0:
253,39,116381,2,0,P|307:15|353:90,1,135,8|0,1:2|2:0,2:0:0:0:
362,343,116545,2,0,P|420:356|452:275,1,135,8|0,1:2|2:0,2:0:0:0:
508,39,116709,6,0,B|459:176|475:364|475:364|444:353|408:356|408:356|467:174|449:33,1,724.5,2|0,1:0|2:0,2:0:0:0:
501,144,117364,6,0,B|494:143|494:143|489:127|489:127|491:161|491:161|481:126|481:126|484:163|484:163|472:126|472:126|474:165|474:165|464:126|464:126|466:166|466:166|455:128|455:128|457:166|457:166|446:129|446:129|448:167|448:167|438:132|438:132|440:166|440:166|436:146|436:146|426:148,1,540,8|0,1:0|2:0,2:0:0:0:
363,202,117692,2,0,B|356:201|356:201|351:185|351:185|353:219|353:219|343:184|343:184|346:221|346:221|334:184|334:184|336:223|336:223|326:184|326:184|328:224|328:224|317:186|317:186|319:224|319:224|308:187|308:187|310:225|310:225|300:190|300:190|302:224|302:224|298:204|298:204|288:206,1,540,2|0,2:3|2:0,2:0:0:0:
368,352,118020,6,0,L|376:315,1,22.5,0|0,1:0|2:0,2:0:0:0:
363,78,118184,2,0,L|372:29,1,45,2|2,2:0|2:3,2:0:0:0:
354,36,118512,2,0,L|362:-1,1,22.5,2|0,2:0|2:0,2:0:0:0:
249,382,118676,2,0,L|258:333,1,45,8|0,1:0|2:0,2:0:0:0:
235,361,119004,2,0,L|244:312,1,45,2|0,2:3|2:0,2:0:0:0:
215,379,119332,6,0,L|223:342,1,22.5,0|0,1:0|2:0,2:0:0:0:
224,67,119496,2,0,L|233:18,1,45,2|2,2:0|2:3,2:0:0:0:
214,26,119823,2,0,L|222:-11,1,22.5,2|0,2:0|2:0,2:0:0:0:
107,384,119987,2,0,L|116:335,1,45,8|0,1:0|2:0,2:0:0:0:
93,363,120315,2,0,L|102:314,1,45,2|0,2:3|2:0,2:0:0:0:
71,370,120643,6,0,L|79:333,1,22.5,0|0,1:0|2:0,2:0:0:0:
80,66,120807,2,0,L|89:17,1,45,2|2,2:0|2:3,2:0:0:0:
65,21,121135,2,0,L|73:-16,1,22.5,0|0,2:0|2:0,2:0:0:0:
2,252,121299,6,0,B|38:244|38:244|50:226,1,45,8|0,1:0|2:0,2:0:0:0:
94,165,121463,2,0,B|88:156|88:156|52:148,1,45,0|0,2:0|2:0,2:0:0:0:
131,334,121627,6,0,B|180:341|215:354|215:354|274:303,1,112.5,2|0,2:0|2:0,2:0:0:0:
278,89,121791,2,0,B|327:81|362:68|362:68|421:119,1,112.5,0|0,2:0|2:0,2:0:0:0:
509,347,121955,6,0,B|487:229|397:43|397:43|428:13|465:31|465:31|431:230|453:364,1,724.5,2|0,1:0|2:0,2:0:0:0:
503,214,122610,6,0,B|487:224|487:224|497:243|497:243|473:207|473:207|490:250|490:250|467:211|467:211|481:255|481:255|461:219|461:219|470:260|470:260|453:216|453:216|460:262|460:262|449:231|449:231|450:263|450:263|443:218|443:218|439:263|439:263|433:218|433:218|430:262|430:262|428:239|428:239|406:236,1,675,8|0,1:0|2:0,2:0:0:0:
359,173,122938,2,0,B|340:175|340:175|341:196|341:196|334:153|334:153|332:200|332:200|326:156|326:156|320:201|320:201|318:159|318:159|309:200|309:200|316:154|316:154|299:198|299:198|302:165|302:165|290:195|290:195|302:151|302:151|280:190|280:190|293:147|293:147|272:185|272:185|280:163|280:163|261:151,1,675,2|0,2:3|2:0,2:0:0:0:
350,318,123266,6,0,L|347:296,1,22.5,0|0,1:0|2:0,2:0:0:0:
265,44,123430,2,0,L|259:0,1,45,2|2,2:0|2:3,2:0:0:0:
249,62,123758,2,0,L|246:40,1,22.5,2|0,2:0|2:0,2:0:0:0:
221,368,123922,2,0,L|215:324,1,45,8|0,1:0|2:0,2:0:0:0:
205,354,124250,2,0,L|199:310,1,45,2|0,2:3|2:0,2:0:0:0:
72,0,124578,6,0,B|42:71|-12:100|-12:100|7:142|7:142,1,162,2|0,1:2|2:0,2:0:0:0:
165,157,124823,2,0,B|151:168|186:138|186:138|149:88|152:12,1,162,2|0,1:2|2:0,2:0:0:0:
85,131,125069,1,2,1:2:0:0:
311,214,125233,6,0,B|377:251|384:330|384:330|367:355,1,162,2|0,1:2|2:0,2:0:0:0:
243,384,125479,2,0,B|226:375|226:375|192:303|231:238,1,162,2|0,1:2|2:0,2:0:0:0:
296,313,125725,1,2,1:2:0:0:
479,213,125889,5,2,1:2:0:0:
499,190,125971,1,0,2:0:0:0:
509,170,126053,1,0,2:0:0:0:
511,154,126135,1,0,2:0:0:0:
511,141,126217,1,0,2:0:0:0:
508,132,126299,1,0,2:0:0:0:
504,125,126381,1,0,2:0:0:0:
501,121,126463,1,0,2:0:0:0:
497,117,126545,1,0,2:0:0:0:
491,114,126627,1,0,2:0:0:0:
484,114,126709,1,0,2:0:0:0:
476,116,126791,1,0,2:0:0:0:
470,122,126873,1,0,2:0:0:0:
465,133,126955,1,0,2:0:0:0:
462,148,127037,1,0,2:0:0:0:
464,169,127119,1,0,2:0:0:0:
472,191,127201,6,0,P|480:216|480:243,1,53.9999999999999,4|0,2:1|2:0,2:0:0:0:
512,115,127528,1,2,2:0:0:0:
481,93,127692,1,0,2:0:0:0:
500,191,127856,2,0,P|500:164|508:138,1,53.9999999999999,2|0,2:3|2:0,2:0:0:0:
419,27,128184,6,0,P|343:-1|322:-1,1,80.9999999999998,0|0,2:1|2:0,2:0:0:0:
330,12,128512,1,2,2:0:0:0:
401,61,128676,1,0,2:0:0:0:
512,21,128840,2,0,P|485:13|462:0,1,53.9999999999999,2|0,2:3|2:0,2:0:0:0:
304,39,129168,6,0,P|248:14|206:7,1,80.9999999999998,0|0,2:1|2:0,2:0:0:0:
146,60,129496,2,0,P|185:37|258:25,1,108,2|2,2:0|2:3,2:0:0:0:
86,0,129987,1,0,2:0:0:0:
29,102,130151,6,0,P|21:62|0:28,1,80.9999999999998,0|0,2:1|2:0,2:0:0:0:
17,192,130479,2,0,P|45:147|64:84,1,108,2|2,2:0|2:3,2:0:0:0:
29,279,131135,6,0,P|5:231|2:162,1,108,0|2,2:3|2:0,2:0:0:0:
57,269,131627,1,0,2:0:0:0:
30,382,131791,2,0,P|4:365|-6:363,2,35.9999999999999,2|0|0,2:3|2:0|2:0,2:0:0:0:
49,364,132119,5,0,2:1:0:0:
137,349,132446,1,2,2:0:0:0:
29,295,132774,2,0,P|-3:284|-21:274,1,53.9999999999999,2|0,2:3|2:0,2:0:0:0:
134,384,133102,6,0,P|168:358|211:342,1,80.9999999999998,0|0,2:3|2:0,2:0:0:0:
221,358,133430,1,2,2:0:0:0:
131,366,133594,1,0,2:0:0:0:
71,308,133758,2,0,P|134:316|166:337,1,80.9999999999998,2|0,2:3|2:0,2:0:0:0:
244,384,134086,6,0,P|275:356|341:339,1,108,0|2,2:0|2:0,2:0:0:0:
495,323,134578,2,0,P|452:342|403:394,1,108,0|0,2:0|2:0,2:0:0:0:
494,348,135069,6,0,P|516:289|517:250,1,80.9999999999998,8|0,2:3|2:0,2:0:0:0:
504,256,135397,1,2,2:0:0:0:
448,325,135561,1,0,2:0:0:0:
512,381,135725,2,0,P|518:361|537:329,1,53.9999999999999,2|0,2:3|2:0,2:0:0:0:
487,227,136053,6,0,P|509:168|510:129,1,80.9999999999998,0|0,2:1|2:0,2:0:0:0:
512,60,136381,1,2,2:0:0:0:
451,129,136545,1,0,2:0:0:0:
512,204,136709,2,0,P|518:181|534:151,1,53.9999999999999,2|0,2:3|2:0,2:0:0:0:
425,15,137037,6,0,P|457:26|513:21,1,80.9999999999998,4|0,2:3|2:0,2:0:0:0:
291,34,137364,2,0,P|250:16|171:7,1,108,2|2,2:0|2:3,2:0:0:0:
310,8,137856,1,0,2:0:0:0:
183,38,138020,6,0,P|138:52|82:52,1,80.9999999999998,0|0,2:1|2:0,2:0:0:0:
33,94,138348,2,0,P|69:53|94:-7,1,108,2|2,2:0|2:3,2:0:0:0:
5,71,139004,6,0,P|4:111|18:150,1,80.9999999999998,8|0,2:3|2:0,2:0:0:0:
28,171,139332,1,2,2:0:0:0:
106,131,139496,1,0,2:0:0:0:
61,38,139660,2,0,P|45:59|35:84,1,53.9999999999999,2|0,2:3|2:0,2:0:0:0:
0,170,139905,5,0,2:0:0:0:
0,170,139987,2,0,P|-1:210|12:248,1,80.9999999999998,0|0,2:1|2:0,2:0:0:0:
32,255,140315,1,2,2:0:0:0:
21,171,140643,2,0,P|12:142|12:137,1,26.9999999999999,2|0,2:3|2:0,2:0:0:0:
0,335,140807,5,0,2:0:0:0:
0,335,140889,1,0,2:0:0:0:
0,335,140971,2,0,P|53:353|104:388,1,108,4|2,2:3|2:0,2:0:0:0:
109,292,141463,1,0,2:0:0:0:
203,371,141627,2,0,P|236:347|275:335,1,80.9999999999998,2|0,2:3|2:0,2:0:0:0:
408,369,141955,6,0,P|368:359|252:299,2,162,2|0|2,2:1|2:0|2:1,2:0:0:0:
512,305,143266,5,2,2:0:0:0:
466,220,143594,1,2,2:3:0:0:
499,328,143922,1,0,2:1:0:0:
445,200,144250,1,2,2:0:0:0:
508,113,144578,1,2,2:3:0:0:
485,212,144905,1,0,2:1:0:0:
512,100,145233,1,2,2:0:0:0:
444,46,145561,1,2,2:3:0:0:
504,117,145889,1,0,2:1:0:0:
393,32,146217,1,2,2:0:0:0:
479,0,146545,1,2,2:3:0:0:
409,62,146873,1,0,2:1:0:0:
310,4,147201,1,2,2:0:0:0:
234,41,147528,1,2,2:3:0:0:
317,44,147856,1,0,2:1:0:0:
152,68,148184,1,2,2:0:0:0:
102,3,148512,1,2,2:3:0:0:
174,67,148840,1,0,2:1:0:0:
73,16,149168,1,2,2:0:0:0:
10,81,149496,1,2,2:3:0:0:
101,32,149823,1,0,2:1:0:0:
199,164,150151,6,0,B|161:58|301:17|388:140|272:237|179:268|218:344|218:344|226:281|296:268,1,504,2|0,2:0|2:0,2:0:0:0:
303,358,150807,5,4,1:0:0:0:
401,184,150971,2,0,B|458:169|505:132|505:132|549:141,1,135,0|0,2:0|0:0,2:0:0:0:
405,87,151299,1,0,3:0:0:0:
462,289,151463,2,0,B|449:246|418:205|418:205|425:181|425:181|423:70,1,202.5,2|0,2:0|2:0,2:0:0:0:
512,101,151791,1,0,3:0:0:0:
512,101,151955,1,0,3:0:0:0:
413,64,152119,2,0,B|399:19|399:19|409:-7,1,67.5,2|0,2:0|2:0,2:0:0:0:
451,189,152282,2,0,B|462:225|462:225|519:281|519:281|503:326,1,135,2|0,2:0|0:0,2:0:0:0:
401,88,152610,2,0,B|397:145|417:210|417:210|390:242,1,135,2|0,2:0|0:0,2:0:0:0:
391,203,152938,1,0,3:0:0:0:
465,384,153102,2,0,B|455:364|455:364|508:212,1,135,2|0,2:0|0:0,2:0:0:0:
483,355,153430,2,0,B|459:312|459:312|462:270,1,67.5,2|0,3:2|2:0,2:0:0:0:
415,127,153594,2,0,B|413:78|458:26|458:26|452:4,1,135,2|0,2:0|0:0,2:0:0:0:
505,106,153922,1,0,3:0:0:0:
427,0,154086,2,0,L|512:229,1,202.5,2|0,2:0|2:0,2:0:0:0:
453,289,154414,1,0,3:0:0:0:
453,289,154578,1,0,3:0:0:0:
481,68,154742,2,0,B|466:82|466:82|452:138,1,67.5,2|0,2:0|2:0,2:0:0:0:
405,200,154905,2,0,B|425:242|425:242|423:262,1,67.5,2|0,2:0|2:0,2:0:0:0:
512,105,155069,5,8,2:3:0:0:
467,93,155151,1,8,2:3:0:0:
428,83,155233,1,4,2:3:0:0:
311,159,155397,5,4,2:3:0:0:
288,182,155479,1,4,2:3:0:0:
267,183,155561,1,0,1:3:0:0:
242,185,155643,1,0,1:3:0:0:
200,235,155725,5,8,2:3:0:0:
178,210,155807,1,8,2:3:0:0:
129,204,155889,1,4,2:3:0:0:
77,197,155971,1,4,2:3:0:0:
25,265,156053,5,4,2:0:0:0:
102,63,156217,2,0,B|116:50|116:50|169:38|219:-1,1,135,2|0,2:0|0:0,2:0:0:0:
28,16,156545,1,0,3:0:0:0:
98,225,156709,2,0,B|120:190|120:190|109:173|109:173|104:102|142:25,1,202.5,2|0,2:0|2:0,2:0:0:0:
218,109,157037,1,0,3:0:0:0:
218,109,157201,1,0,3:0:0:0:
96,92,157364,2,0,B|112:99|112:99|147:160,1,67.5,2|0,2:0|2:0,2:0:0:0:
124,307,157528,2,0,B|104:323|104:323|85:323|85:323|2:345|2:345|-28:393,1,135,2|0,2:0|0:0,2:0:0:0:
44,166,157856,2,0,B|52:223|39:285|39:285|60:319,1,135,2|0,2:0|0:0,2:0:0:0:
12,264,158184,1,0,3:0:0:0:
188,109,158348,2,0,L|124:253,1,135,2|0,2:0|0:0,2:0:0:0:
187,135,158676,2,0,B|199:150|199:150|219:225|217:225,1,67.5,2|0,3:2|2:0,2:0:0:0:
163,279,158840,2,0,B|122:276|122:276|99:287,1,67.5,2|0,2:0|2:0,2:0:0:0:
369,195,159004,5,4,2:0:0:0:
209,207,159168,6,0,B|189:188|189:188|177:139,1,67.5,0|0,3:0|2:0,2:0:0:0:
116,27,159332,2,0,B|100:51|100:51|102:70|102:70|71:180|71:180|44:210,1,202.5,2|0,2:0|2:0,2:0:0:0:
0,97,159660,1,0,3:0:0:0:
0,97,159823,1,0,3:0:0:0:
30,360,159987,5,4,2:0:0:0:
247,13,160315,1,4,2:0:0:0:
468,365,160643,2,0,L|519:375,3,45,4|0|0|0,2:0|3:0|3:0|3:0,2:0:0:0:
305,240,160971,5,4,2:0:0:0:
290,244,161053,1,0,3:0:0:0:
279,248,161135,1,0,3:0:0:0:
265,251,161217,1,0,3:0:0:0:
271,290,161299,5,4,1:0:0:0:
217,244,161381,1,0,2:0:0:0:
159,246,161463,1,0,1:0:0:0:
101,212,161545,1,0,1:0:0:0:
39,199,161627,2,0,B|50:177|50:177|140:158|140:158|158:145|158:145|234:120,1,198,4|0,1:2|1:0,2:0:0:0:
112,359,161955,1,12,2:0:0:0:
0,15,162119,2,0,B|39:26|39:26|90:105|90:105|90:123|90:123|120:230|120:230|180:296,1,297,0|0,2:3|1:0,2:0:0:0:
239,235,162446,1,0,1:0:0:0:
145,30,162610,2,0,B|123:44|123:44|108:115,1,98.9999999999999,4|0,1:2|2:0,2:0:0:0:
25,223,162774,1,0,1:0:0:0:
15,243,162856,1,0,1:0:0:0:
1,242,162938,1,4,1:2:0:0:
237,343,163102,2,0,B|188:293|188:293|193:274|193:274|186:180|186:180|168:150,1,198,0|12,1:3|2:0,2:0:0:0:
0,377,163430,1,0,1:0:0:0:
104,227,163594,2,0,B|86:244|86:244|69:333,1,98.9999999999999,4|0,1:2|1:0,2:0:0:0:
261,127,163758,2,0,B|268:103|268:103|241:23,1,98.9999999999999,0|0,1:2|2:0,2:0:0:0:
381,332,163922,5,4,1:2:0:0:
408,316,164004,1,0,2:0:0:0:
438,320,164086,1,0,1:0:0:0:
466,312,164168,1,0,1:0:0:0:
511,240,164250,2,0,B|498:219|498:219|408:138|408:138|402:104,1,162,4|0,1:2|1:0,2:0:0:0:
299,252,164578,1,12,2:0:0:0:
481,30,164742,2,0,B|465:57|465:57|437:220,1,162,0|4,2:0|1:2,2:0:0:0:
361,143,164987,1,0,1:0:0:0:
361,143,165069,1,0,1:0:0:0:
467,384,165233,1,4,1:2:0:0:
445,369,165315,1,0,2:0:0:0:
422,382,165397,1,0,1:0:0:0:
405,363,165479,1,0,1:0:0:0:
385,358,165561,1,4,1:2:0:0:
479,139,165725,2,0,B|471:181|471:181|512:312,1,162,0|12,1:2|2:0,2:0:0:0:
452,286,166053,2,0,B|503:250|503:250|505:223,1,80.9999999999999,0|0,1:0|2:0,2:0:0:0:
307,268,166217,1,8,1:3:0:0:
310,252,166299,1,0,1:0:0:0:
298,233,166381,1,4,1:3:0:0:
294,221,166463,1,4,1:3:0:0:
371,204,166545,5,4,1:0:0:0:
297,181,166627,1,0,2:0:0:0:
234,147,166709,1,0,1:0:0:0:
161,152,166791,1,0,1:0:0:0:
94,111,166873,2,0,B|63:137|63:137|38:239|38:239|42:255|42:255|17:300,1,198,4|0,1:2|1:0,2:0:0:0:
9,39,167201,1,12,2:0:0:0:
245,315,167364,2,0,B|223:274|223:274|180:73|180:73|181:59|181:59|139:37,1,297,0|0,2:3|1:0,2:0:0:0:
229,110,167692,1,0,1:0:0:0:
64,0,167856,2,0,B|58:40|58:40|50:50|50:50|37:103,1,98.9999999999999,4|0,1:2|2:0,2:0:0:0:
119,326,168020,1,0,1:0:0:0:
133,305,168102,1,0,1:0:0:0:
183,300,168184,1,4,1:2:0:0:
5,184,168348,2,0,B|30:182|30:182|108:249,1,98.9999999999999,0|0,1:3|2:0,2:0:0:0:
230,384,168512,2,0,B|189:188|189:188|169:162|169:162|212:91|212:91,1,297,12|0,2:0|2:0,2:0:0:0:
113,84,168840,2,0,B|84:96|84:96|-12:67,1,98.9999999999999,4|0,1:2|1:0,2:0:0:0:
153,321,169004,2,0,B|172:300|172:300|258:283,1,98.9999999999999,0|0,1:2|2:0,2:0:0:0:
355,30,169168,6,0,B|352:71|352:71|322:149|322:149|330:220,1,162,4|0,1:2|1:0,2:0:0:0:
393,293,169414,1,0,1:0:0:0:
400,275,169496,2,0,B|469:245|469:245|501:200,1,80.9999999999999,4|0,1:2|2:0,2:0:0:0:
507,123,169660,2,0,B|484:136|484:136|431:120,1,80.9999999999999,0|0,1:0|2:0,2:0:0:0:
317,127,169823,1,12,2:0:0:0:
478,342,169987,2,0,B|444:325|444:325|378:179,1,162,0|4,2:0|1:2,2:0:0:0:
307,278,170233,1,0,1:0:0:0:
307,278,170315,1,0,1:0:0:0:
464,112,170479,1,4,1:2:0:0:
480,103,170561,1,0,1:0:0:0:
485,88,170643,1,0,1:0:0:0:
486,74,170725,1,0,1:0:0:0:
510,56,170807,1,4,1:2:0:0:
480,216,170971,2,0,B|474:200|474:200|427:186|427:186|402:204,1,80.9999999999999,0|0,1:2|2:0,2:0:0:0:
161,294,171135,6,0,B|126:415|287:451|376:305|237:204|130:176|168:87|168:87|181:158|262:167,1,567,12|0,2:0|2:0,2:0:0:0:
255,74,171791,5,2,1:0:0:0:
263,58,171873,1,0,1:0:0:0:
277,58,171955,1,0,1:0:0:0:
286,43,172037,1,0,1:0:0:0:
300,46,172119,1,4,1:2:0:0:
311,32,172201,1,0,1:0:0:0:
325,35,172282,1,0,1:0:0:0:
336,23,172364,1,0,1:0:0:0:
351,27,172446,1,12,1:2:0:0:
362,15,172528,1,0,1:0:0:0:
377,20,172610,1,0,1:0:0:0:
388,10,172692,1,0,1:0:0:0:
403,15,172774,1,4,1:2:0:0:
415,6,172856,1,0,1:0:0:0:
430,12,172938,1,0,1:0:0:0:
441,4,173020,1,0,1:0:0:0:
512,47,173102,5,2,1:0:0:0:
475,56,173184,1,0,1:0:0:0:
455,82,173266,1,0,1:0:0:0:
417,102,173348,1,0,1:0:0:0:
398,132,173430,1,4,1:2:0:0:
367,153,173512,1,0,1:0:0:0:
349,183,173594,1,0,1:0:0:0:
321,202,173676,1,0,1:0:0:0:
300,236,173758,1,12,1:2:0:0:
273,258,173840,1,0,1:0:0:0:
261,291,173922,1,0,1:0:0:0:
235,319,174004,1,0,1:0:0:0:
226,373,174086,6,0,B|252:341|295:376|310:359|310:359|349:349,1,90,4|0,1:2|2:0,2:0:0:0:
430,225,174250,2,0,B|438:255|467:289|467:289|471:318,1,90,0|0,1:0|2:0,2:0:0:0:
107,384,174414,2,0,B|105:277|109:256|109:256|134:225|134:225|145:153|161:132|161:132|110:73,1,297,8|0,1:0|1:0,2:0:0:0:
50,144,174742,1,4,1:2:0:0:
330,57,174905,1,0,1:0:0:0:
287,374,175069,2,0,B|237:357|237:357|174:271|92:335|47:285|47:285|-5:262,1,297,12|0,2:0|1:0,2:0:0:0:
198,228,175397,5,4,1:2:0:0:
272,254,175479,1,0,1:0:0:0:
322,226,175561,1,0,1:0:0:0:
331,179,175643,1,0,1:2:0:0:
210,127,175725,5,4,1:2:0:0:
229,205,175807,1,0,1:0:0:0:
272,254,175889,1,0,1:0:0:0:
326,283,175971,1,0,1:0:0:0:
378,295,176053,1,4,1:2:0:0:
425,290,176135,1,0,1:0:0:0:
451,273,176217,1,0,1:3:0:0:
462,255,176299,1,0,1:0:0:0:
504,187,176381,5,12,2:0:0:0:
462,199,176463,1,0,1:0:0:0:
433,194,176545,1,0,1:0:0:0:
412,180,176627,1,0,1:0:0:0:
365,164,176709,5,4,1:2:0:0:
395,167,176791,1,8,1:3:0:0:
431,150,176873,1,4,1:3:0:0:
475,105,176955,1,4,1:3:0:0:
506,28,177037,5,4,1:0:0:0:
491,26,177119,1,0,2:0:0:0:
479,15,177201,1,0,1:0:0:0:
466,16,177282,1,0,1:0:0:0:
445,0,177364,2,0,B|462:51|462:51|467:141|467:141|511:210,1,180,4|0,1:2|1:0,2:0:0:0:
303,34,177692,5,12,2:0:0:0:
215,159,177856,1,0,2:3:0:0:
410,270,178020,1,4,1:2:0:0:
238,141,178184,1,0,1:0:0:0:
74,287,178348,5,4,1:2:0:0:
137,97,178512,1,0,1:0:0:0:
384,66,178676,1,4,1:2:0:0:
482,359,178840,1,0,1:3:0:0:
173,219,179004,1,12,2:0:0:0:
336,171,179168,5,0,1:0:0:0:
343,150,179250,1,0,2:0:0:0:
321,143,179332,2,0,B|336:204|355:223|355:223|389:225,1,90,4|0,1:2|1:0,2:0:0:0:
209,384,179496,2,0,B|189:370|189:370|127:378|127:378|95:416,1,90,0|0,1:2|2:0,2:0:0:0:
7,182,179660,2,0,B|66:122|71:60|71:60|95:16,1,180,4|0,1:2|1:0,2:0:0:0:
0,6,179905,5,0,1:0:0:0:
0,6,179987,1,4,1:2:0:0:
147,223,180151,1,0,1:0:0:0:
374,77,180315,2,0,B|405:53|405:53|426:16|426:16|468:6,1,90,12|0,2:0|2:0,2:0:0:0:
295,4,180479,5,0,2:0:0:0:
509,98,180643,1,4,1:2:0:0:
344,328,180807,2,0,B|367:338|367:338|396:343|432:317,1,90,0|0,1:0|1:2,2:0:0:0:
470,197,180971,5,4,1:2:0:0:
439,204,181053,1,0,1:0:0:0:
413,214,181135,1,0,1:0:0:0:
391,228,181217,1,0,1:0:0:0:
494,240,181299,5,4,1:2:0:0:
446,205,181381,1,0,1:0:0:0:
388,177,181463,1,0,1:2:0:0:
324,168,181545,1,0,1:0:0:0:
242,225,181627,6,0,B|152:231|94:265|94:265|52:245,1,180,12|0,2:0|1:0,2:0:0:0:
73,227,181873,1,8,2:0:0:0:
171,292,181955,5,8,1:3:0:0:
209,241,182037,1,0,1:0:0:0:
203,168,182119,1,8,1:2:0:0:
152,96,182201,1,0,1:0:0:0:
75,39,182282,6,0,B|95:63|95:63|156:37|211:64|211:64|209:72|209:72|226:114|279:138|279:138|306:128|357:135,1,297,4|0,1:0|1:0,2:0:0:0:
409,206,182610,1,4,1:2:0:0:
193,18,182774,1,0,1:0:0:0:
440,384,182938,2,0,B|430:363|430:363|442:303|473:287|473:287|498:244,1,162,12|0,2:0|2:3,2:0:0:0:
507,46,183266,5,4,1:2:0:0:
487,28,183348,1,0,1:0:0:0:
444,31,183430,1,0,1:0:0:0:
409,87,183512,1,0,1:2:0:0:
417,172,183594,2,0,B|386:171|386:171|373:160|373:160|314:155|282:182|282:182|287:210|270:235,1,180,4|0,1:2|1:0,2:0:0:0:
235,297,183840,1,0,1:0:0:0:
235,297,183922,1,4,1:2:0:0:
1,136,184086,1,0,1:3:0:0:
362,75,184250,6,0,B|386:54|386:54|394:10|394:10|407:-2,1,90,12|0,2:0|2:0,2:0:0:0:
95,46,184414,1,0,1:0:0:0:
85,55,184496,1,0,2:0:0:0:
90,81,184578,2,0,B|97:93|114:99|114:99|110:112|110:112|153:157|151:227|151:227|163:274,1,180,4|0,1:2|1:2,2:0:0:0:
21,363,184905,5,4,1:0:0:0:
1,286,184987,1,0,2:0:0:0:
34,236,185069,1,0,1:0:0:0:
73,233,185151,1,0,1:0:0:0:
114,163,185233,5,4,1:2:0:0:
173,159,185315,1,0,2:0:0:0:
203,192,185397,1,0,1:0:0:0:
205,226,185479,1,0,2:0:0:0:
178,305,185561,5,12,2:0:0:0:
201,254,185643,1,0,2:0:0:0:
240,240,185725,1,0,2:3:0:0:
261,257,185807,1,0,1:0:0:0:
323,315,185889,5,4,1:2:0:0:
369,293,185971,1,0,1:0:0:0:
374,260,186053,1,0,1:0:0:0:
359,240,186135,1,0,1:2:0:0:
344,162,186217,5,4,1:2:0:0:
389,137,186299,1,0,2:0:0:0:
422,144,186381,1,0,1:0:0:0:
430,170,186463,1,0,1:0:0:0:
502,198,186545,5,4,1:2:0:0:
512,226,186627,1,0,2:0:0:0:
498,245,186709,1,0,1:3:0:0:
484,246,186791,1,0,2:0:0:0:
418,198,186873,6,0,P|397:186|346:177,3,45,12|0|0|0,2:0|2:0|1:0|2:0,2:0:0:0:
355,205,187201,5,4,1:2:0:0:
331,211,187282,1,0,1:0:0:0:
295,226,187364,1,0,1:2:0:0:
245,256,187446,1,0,2:0:0:0:
191,318,187528,6,0,B|179:304|179:304|152:301|121:310|121:310|89:303,1,90,4|0,1:0|2:0,2:0:0:0:
158,37,187692,1,0,1:0:0:0:
197,8,187774,1,0,1:0:0:0:
219,23,187856,2,0,B|227:69|198:123|198:123|181:136|181:136|169:168|180:235,1,180,6|0,1:2|1:0,2:0:0:0:
423,275,188184,5,12,2:0:0:0:
512,161,188348,1,2,2:0:0:0:
307,47,188512,1,4,1:2:0:0:
342,340,188676,1,0,1:0:0:0:
242,384,188840,5,6,1:2:0:0:
0,198,189004,1,0,1:0:0:0:
205,0,189168,1,4,1:2:0:0:
64,271,189332,1,0,1:3:0:0:
367,181,189496,5,12,2:0:0:0:
368,93,189605,5,0,1:0:0:0:
284,115,189714,5,0,1:0:0:0:
328,186,189823,6,0,B|379:191|398:213|398:213|440:224,1,90,4|0,1:2|1:0,2:0:0:0:
162,315,189987,2,0,B|147:304|147:304|112:308|75:291,1,90,0|0,1:2|2:0,2:0:0:0:
484,143,190151,6,0,B|470:158|449:170|449:170|452:215|423:267|423:267|394:278|384:334,1,225,4|0,1:0|2:0,2:0:0:0:
152,56,190479,5,8,1:3:0:0:
105,20,190561,1,0,1:0:0:0:
47,86,190643,2,0,B|59:105|77:116|77:116|71:161|95:215|95:215|123:228|128:285,1,225,12|0,1:2|2:0,2:0:0:0:
468,82,190971,5,4,1:3:0:0:
476,106,191053,1,0,1:0:0:0:
451,120,191135,1,8,1:2:0:0:
436,115,191217,1,8,1:3:0:0:
422,110,191299,1,4,1:3:0:0:
408,105,191381,1,0,1:0:0:0:
376,30,191463,6,0,B|397:40|407:53|407:53|409:70|409:70|450:130|437:200|437:200|477:286,1,225,12|0,1:2|2:0,2:0:0:0:
69,202,191791,5,8,1:3:0:0:
39,160,191873,1,0,1:0:0:0:
118,119,191955,2,0,B|100:131|90:147|90:147|91:164|91:164|62:231|87:297|87:297|62:388,1,225,4|0,1:0|2:0,2:0:0:0:
512,124,192282,5,2,1:2:0:0:
344,265,192446,1,8,1:2:0:0:
217,86,192610,1,4,1:3:0:0:
293,367,192774,5,4,1:2:0:0:
306,380,192856,1,0,1:0:0:0:
321,378,192938,1,0,1:0:0:0:
336,375,193020,1,0,1:0:0:0:
351,371,193102,1,10,1:2:0:0:
366,368,193184,1,0,1:0:0:0:
381,365,193266,1,0,1:0:0:0:
396,363,193348,1,0,1:0:0:0:
417,312,193430,5,2,1:2:0:0:
395,331,193512,1,0,1:0:0:0:
363,329,193594,1,0,1:0:0:0:
336,325,193676,1,0,1:0:0:0:
307,322,193758,1,10,1:2:0:0:
279,319,193840,1,0,1:0:0:0:
247,316,193922,1,0,1:0:0:0:
222,313,194004,1,0,1:0:0:0:
191,260,194086,5,2,1:2:0:0:
218,284,194168,1,0,1:0:0:0:
261,278,194250,1,0,1:0:0:0:
304,270,194332,1,0,1:0:0:0:
347,258,194414,1,10,1:2:0:0:
390,249,194496,1,0,1:0:0:0:
434,241,194578,1,0,1:0:0:0:
477,235,194660,1,0,1:0:0:0:
502,249,194742,5,2,1:2:0:0:
500,185,194823,1,0,1:0:0:0:
451,142,194905,1,0,1:0:0:0:
385,144,194987,1,0,1:0:0:0:
337,193,195069,1,10,1:2:0:0:
295,251,195151,1,0,1:0:0:0:
232,276,195233,1,0,1:0:0:0:
164,252,195315,1,0,1:0:0:0:
130,190,195397,5,2,1:2:0:0:
156,216,195479,1,0,1:0:0:0:
186,212,195561,1,0,1:0:0:0:
216,206,195643,1,0,1:0:0:0:
246,198,195725,1,10,1:2:0:0:
276,192,195807,1,0,1:0:0:0:
306,186,195889,1,0,1:0:0:0:
336,182,195971,1,0,1:0:0:0:
378,119,196053,5,2,1:2:0:0:
333,161,196135,1,0,1:0:0:0:
283,155,196217,1,0,1:0:0:0:
232,144,196299,1,0,1:0:0:0:
181,131,196381,1,10,1:2:0:0:
131,121,196463,1,0,1:0:0:0:
80,111,196545,1,0,1:0:0:0:
29,104,196627,1,0,1:0:0:0:
0,29,196709,5,2,1:2:0:0:
57,83,196791,1,0,1:0:0:0:
122,75,196873,1,0,1:0:0:0:
188,61,196955,1,0,1:0:0:0:
254,44,197037,1,10,1:2:0:0:
319,31,197119,1,0,1:0:0:0:
385,18,197201,1,0,1:0:0:0:
452,9,197282,1,0,1:0:0:0:
496,48,197364,5,2,1:2:0:0:
498,59,197446,1,0,1:0:0:0:
498,72,197528,1,0,1:0:0:0:
494,80,197610,1,0,1:0:0:0:
469,126,197692,5,10,1:2:0:0:
408,77,197774,1,8,1:2:0:0:
336,53,197856,1,8,1:2:0:0:
257,56,197938,1,8,1:2:0:0:
184,91,198020,6,0,B|200:130|200:130|425:133|465:377|465:377|482:374|482:374|471:333|492:298|492:298,1,540,4|0,1:2|1:0,2:0:0:0:
446,221,198676,5,2,1:2:0:0:
509,144,198785,5,0,1:0:0:0:
469,217,198895,5,0,1:0:0:0:
395,152,199004,5,10,1:2:0:0:
327,294,199113,5,0,1:0:0:0:
305,212,199222,5,0,1:0:0:0:
316,313,199332,5,2,1:2:0:0:
233,303,199441,5,0,1:0:0:0:
221,261,199550,5,0,1:0:0:0:
183,335,199660,6,0,B|159:327|148:308|148:308|122:311|122:311|64:277|-8:325|-8:325|42:294|65:225,1,300,10|0,1:2|2:0,2:0:0:0:
74,381,199987,1,2,1:2:0:0:
199,97,200151,6,0,P|191:53|186:45,2,42,0|0|0,1:0|2:0|2:0,2:0:0:0:
263,157,200315,2,0,P|273:130|288:107,2,51,10|0|0,1:2|2:0|2:0,2:0:0:0:
144,176,200479,2,0,P|129:149|90:128,2,71.9999999999999,0|0|0,1:0|2:0|2:0,2:0:0:0:
236,260,200643,6,0,B|269:243|306:242|306:242|339:203,1,108,2|0,1:2|2:0,2:0:0:0:
89,38,200807,1,0,1:0:0:0:
193,336,200971,2,0,B|178:329|174:317|174:317|143:325|143:325|79:271|-32:268,1,216,10|0,1:2|1:0,2:0:0:0:
328,215,201299,6,0,B|322:177|301:146|301:146|315:97,1,108,2|0,1:2|2:0,2:0:0:0:
512,0,201463,1,0,1:0:0:0:
295,324,201627,2,0,B|310:317|314:305|314:305|345:313|345:313|408:259|520:256,1,216,10|0,1:2|1:0,2:0:0:0:
114,382,201955,6,0,P|73:280|12:192,1,216,2|0,1:2|1:0,2:0:0:0:
455,286,202282,2,0,P|476:179|522:82,1,198,10|0,1:2|1:0,2:0:0:0:
186,194,202610,2,0,P|173:86|137:-4,1,180,2|0,1:2|1:0,2:0:0:0:
512,167,202938,5,10,1:2:0:0:
439,147,203020,1,8,1:2:0:0:
365,161,203102,1,8,1:2:0:0:
303,206,203184,1,8,1:2:0:0:
270,279,203266,6,0,P|296:290|314:313,3,58.5,2|0|0|0,1:2|1:0|1:0|1:0,2:0:0:0:
401,300,203594,5,10,1:2:0:0:
403,279,203676,1,0,1:0:0:0:
422,251,203758,1,0,1:0:0:0:
475,246,203840,1,0,1:0:0:0:
512,316,203922,6,0,B|489:325|489:325|426:311|376:353,1,117,2|0,1:2|2:0,2:0:0:0:
430,149,204168,6,0,B|387:138|387:138|312:37|208:27,1,216,2|0,2:0|2:0,2:0:0:0:
0,131,204414,6,0,B|-1:158|-1:158|34:197|40:256|40:256|82:286,1,153,2|0,1:2|1:0,2:0:0:0:
193,366,204660,6,0,B|171:336|186:283|186:283|166:278|166:278|149:330|100:348,1,180,2|0,2:0|1:0,2:0:0:0:
271,157,204905,6,0,B|247:190|263:266|263:266|234:273|234:273|215:198|169:178,1,252,10|0,1:2|1:0,2:0:0:0:
346,364,205151,6,0,B|378:366|378:366|410:278|483:231,1,207,2|0,2:0|2:0,2:0:0:0:
413,89,205397,5,0,1:0:0:0:
481,140,205479,1,0,2:0:0:0:
400,126,205561,5,10,1:2:0:0:
367,148,205643,1,0,2:0:0:0:
361,178,205725,1,0,1:0:0:0:
370,192,205807,1,0,2:0:0:0:
384,195,205889,2,0,P|399:141|393:117,3,54,2|0|0|0,1:2|1:0|1:0|1:0,2:0:0:0:
261,103,206217,5,10,1:2:0:0:
251,113,206299,1,0,1:0:0:0:
239,120,206381,1,0,1:0:0:0:
224,124,206463,1,0,1:0:0:0:
224,31,206545,2,0,B|283:75|302:157|302:157|297:171|297:171|303:235,1,189,2|0,1:2|1:0,2:0:0:0:
132,88,206873,5,10,1:2:0:0:
115,79,206955,1,0,1:0:0:0:
88,75,207037,1,0,1:0:0:0:
46,91,207119,1,0,1:0:0:0:
0,155,207201,5,2,1:2:0:0:
65,118,207282,1,0,1:0:0:0:
101,127,207364,1,0,1:0:0:0:
113,142,207446,1,0,1:0:0:0:
113,163,207528,6,0,P|56:177|35:197,1,63,10|0,1:2|1:0,2:0:0:0:
210,173,207692,2,0,P|185:210|208:281,1,90
458,274,207856,6,0,B|465:257|465:257|495:253|540:197,5,75,2|0|0|0|0|0,1:2|2:0|2:0|2:0|2:0|2:0,2:0:0:0:
361,335,208184,5,10,1:2:0:0:
348,295,208266,1,8,1:2:0:0:
320,264,208348,1,8,1:2:0:0:
281,246,208430,1,8,1:2:0:0:
182,278,208512,6,0,B|154:275|154:275|65:366|-66:363,1,225,12|0,1:2|2:0,2:0:0:0:
79,201,208758,2,0,P|95:242|92:287,1,90,4|0,1:3|1:2,2:0:0:0:
367,163,208922,5,0,1:2:0:0:
272,153,209004,2,0,B|275:181|275:181|184:270|187:401,1,225,4|0,2:1|2:0,2:0:0:0:
350,257,209250,2,0,P|308:240|263:243,1,90,4|0,1:3|1:2,2:0:0:0:
84,69,209414,5,0,1:2:0:0:
175,62,209496,2,0,B|172:90|172:90|263:179|260:310,1,225,12|0,1:2|2:0,2:0:0:0:
88,166,209742,2,0,P|129:149|174:152,1,90,4|0,1:3|1:2,2:0:0:0:
506,140,209905,5,0,1:2:0:0:
512,29,209987,2,0,B|483:30|483:30|412:135|282:155,1,225,4|0,2:1|2:0,2:0:0:0:
388,0,210233,2,0,P|390:44|374:86,1,90,4|0,1:3|1:2,2:0:0:0:
192,305,210397,5,0,1:2:0:0:
270,265,210479,2,0,P|296:130|189:217,1,360,12|0,1:2|1:2,2:0:0:0:
203,223,210889,5,8,1:3:0:0:
217,218,210971,1,0,1:3:0:0:
230,214,211053,1,0,1:3:0:0:
291,155,211135,6,0,B|275:138|275:138|165:116|71:-1,1,225,12|0,1:2|0:3,2:0:0:0:
0,307,211381,2,0,P|54:268|120:259,1,135,0|0,1:3|1:2,2:0:0:0:
199,384,211627,6,0,B|214:361|214:361|143:264|140:168,1,225,4|0,2:1|0:3,2:0:0:0:
450,96,211873,2,0,P|411:151|390:214,1,135,0|0,1:3|1:2,2:0:0:0:
421,322,212119,6,0,B|441:319|441:319|467:271|507:258,1,112.5,12|0,1:2|0:3,2:0:0:0:
281,16,212282,1,4,1:3:0:0:
54,213,212446,5,10,1:2:0:0:
110,141,212528,1,0,2:0:0:0:
185,105,212610,1,0,1:0:0:0:
258,104,212692,1,0,2:0:0:0:
316,133,212774,1,10,1:2:0:0:
361,176,212856,1,0,2:0:0:0:
412,201,212938,1,0,1:0:0:0:
461,196,213020,1,0,2:0:0:0:
480,173,213102,5,10,1:2:0:0:
467,172,213184,1,0,2:0:0:0:
447,170,213266,1,0,1:0:0:0:
415,165,213348,1,0,2:0:0:0:
380,155,213430,1,10,1:2:0:0:
322,136,213512,1,0,2:0:0:0:
247,107,213594,1,0,1:0:0:0:
166,68,213676,1,0,1:0:0:0:
76,21,213758,6,0,B|60:46|60:46|124:133|113:255,1,225,4|0,1:0|1:0,2:0:0:0:
216,285,214004,1,0,1:0:0:0:
220,372,214086,2,0,B|192:383|192:383|118:305|-4:294,1,225,4|0,1:2|1:0,2:0:0:0:
301,217,214414,1,12,2:0:0:0:
469,360,214578,1,0,2:3:0:0:
138,243,214742,1,4,1:2:0:0:
252,55,214905,1,0,1:0:0:0:
339,384,215069,5,4,1:2:0:0:
23,155,215233,1,0,1:0:0:0:
22,123,215315,1,0,1:0:0:0:
38,116,215397,1,4,1:2:0:0:
161,16,215561,2,0,P|127:65|159:128,1,112.5,0|0,1:3|2:0,2:0:0:0:
452,195,215725,1,12,2:0:0:0:
267,34,215889,1,0,1:0:0:0:
43,281,216053,2,0,P|129:211|239:191,1,225,4|0,1:2|1:2,2:0:0:0:
431,325,216381,6,0,B|462:323|494:295|494:295|496:326|522:356,1,112.5,4|0,1:2|2:0,2:0:0:0:
358,237,216545,2,0,B|237:162|229:35|229:35|185:86|83:92,1,337.5,0|0,1:0|2:0,2:0:0:0:
58,135,216873,1,0,1:0:0:0:
43,115,216955,1,0,2:0:0:0:
102,1,217037,2,0,P|143:140|58:314,1,337.5,12|0,2:0|1:0,2:0:0:0:
134,384,217364,1,4,1:2:0:0:
7,232,217528,1,0,1:0:0:0:
241,346,217692,5,4,1:2:0:0:
461,129,217856,1,0,1:0:0:0:
467,97,217938,1,0,1:0:0:0:
452,85,218020,1,4,1:2:0:0:
314,65,218184,2,0,P|264:133|310:181,1,112.5,0|0,1:3|2:0,2:0:0:0:
512,384,218348,1,12,2:0:0:0:
457,228,218512,6,0,B|434:221|434:221|388:250|318:237,1,112.5,0|0,1:0|2:0,2:0:0:0:
269,327,218676,2,0,B|252:310|252:310|198:312|144:265,1,112.5,4|0,1:2|1:0,2:0:0:0:
159,113,218840,2,0,B|149:91|149:91|98:75|62:13,1,112.5,0|0,1:2|2:0,2:0:0:0:
0,361,219004,6,0,B|49:279|51:224|51:224|101:214|158:173,1,225,4|0,1:0|1:0,2:0:0:0:
215,182,219250,1,0,1:0:0:0:
311,238,219332,2,0,B|389:191|390:111|390:111|332:115|301:63,1,225,4|0,1:2|1:0,2:0:0:0:
110,362,219660,1,12,2:0:0:0:
17,256,219823,1,0,2:3:0:0:
221,32,219987,1,4,1:2:0:0:
133,218,220151,1,0,1:0:0:0:
460,335,220315,5,4,1:2:0:0:
342,44,220479,1,0,1:0:0:0:
311,68,220561,1,0,1:0:0:0:
316,88,220643,1,4,1:2:0:0:
505,87,220807,2,0,P|451:100|406:133,1,112.5,0|0,1:3|2:0,2:0:0:0:
342,364,220971,1,12,2:0:0:0:
190,113,221135,1,0,1:0:0:0:
248,316,221299,2,0,P|143:217|33:185,1,225,4|0,1:2|1:2,2:0:0:0:
397,253,221627,6,0,B|409:243|403:223|403:223|368:252|292:232,1,112.5,4|0,1:2|2:0,2:0:0:0:
105,337,221791,2,0,B|85:367|32:345|32:345|140:221|76:57,1,337.5,0|0,1:0|2:0,2:0:0:0:
98,12,222119,1,0,1:0:0:0:
67,21,222201,1,0,2:0:0:0:
0,123,222282,2,0,P|134:185|224:361,1,337.5,12|0,2:0|1:0,2:0:0:0:
322,384,222610,1,4,1:2:0:0:
495,283,222774,1,0,1:0:0:0:
171,95,222938,6,0,P|154:64|148:30,1,63,4|0,1:2|2:0,2:0:0:0:
292,97,223594,2,0,P|268:95|253:77,3,45,0|0|0|0,3:0|3:0|3:0|3:0,2:0:0:0:
306,116,223922,5,0,3:0:0:0:
329,96,224004,1,0,3:0:0:0:
371,84,224086,1,0,3:0:0:0:
434,92,224168,1,0,3:0:0:0:
499,138,224250,5,2,1:2:0:0:
494,145,224332,1,0,1:0:0:0:
497,150,224414,1,0,1:0:0:0:
492,157,224496,1,0,1:0:0:0:
484,165,224578,1,10,1:2:0:0:
479,172,224660,1,0,1:0:0:0:
482,177,224742,1,0,1:0:0:0:
478,184,224823,1,0,1:0:0:0:
480,192,224905,1,2,1:2:0:0:
475,199,224987,1,0,1:0:0:0:
478,204,225069,1,0,1:0:0:0:
473,211,225151,1,0,1:0:0:0:
469,216,225233,1,10,1:2:0:0:
464,223,225315,1,0,1:0:0:0:
467,228,225397,1,0,1:0:0:0:
462,235,225479,1,0,1:0:0:0:
495,278,225561,5,2,1:2:0:0:
435,261,225643,1,0,1:0:0:0:
395,306,225725,1,0,1:0:0:0:
369,254,225807,5,0,1:0:0:0:
346,227,225889,1,10,1:2:0:0:
304,232,225971,1,0,1:0:0:0:
284,269,226053,5,0,1:0:0:0:
242,304,226135,1,0,1:0:0:0:
193,283,226217,1,2,1:2:0:0:
209,326,226299,5,0,1:0:0:0:
200,356,226381,1,0,1:0:0:0:
164,368,226463,1,0,1:0:0:0:
150,384,226545,5,10,1:2:0:0:
123,327,226627,1,0,1:0:0:0:
76,323,226709,1,0,1:0:0:0:
65,352,226791,1,0,1:0:0:0:
33,358,226873,5,4,1:2:0:0:
55,335,226955,1,0,1:0:0:0:
63,291,227037,1,0,1:0:0:0:
62,252,227119,1,0,1:0:0:0:
44,206,227201,1,10,1:2:0:0:
0,158,227282,5,0,1:0:0:0:
42,162,227364,1,0,1:0:0:0:
91,180,227446,1,0,1:0:0:0:
142,208,227528,1,2,1:2:0:0:
191,252,227610,1,0,1:0:0:0:
235,317,227692,5,0,1:0:0:0:
222,250,227774,1,0,1:0:0:0:
259,216,227856,1,10,1:2:0:0:
296,256,227938,1,0,1:0:0:0:
366,262,228020,1,0,1:0:0:0:
438,233,228102,1,0,1:0:0:0:
464,154,228184,5,2,1:2:0:0:
452,113,228266,1,0,1:0:0:0:
428,127,228348,5,0,1:0:0:0:
445,146,228430,1,0,1:0:0:0:
463,137,228512,5,10,1:2:0:0:
461,115,228594,1,0,1:0:0:0:
436,114,228676,5,0,1:0:0:0:
450,134,228758,1,0,1:0:0:0:
434,90,228840,5,2,1:2:0:0:
428,88,228922,1,0,1:0:0:0:
422,86,229004,1,0,1:0:0:0:
416,84,229086,1,0,1:0:0:0:
334,78,229168,5,10,1:2:0:0:
401,114,229250,1,8,1:2:0:0:
444,180,229332,1,8,1:2:0:0:
461,256,229414,1,8,1:2:0:0:
447,338,229496,6,0,B|409:337|409:337|392:280|327:218|258:279|213:232|112:60|316:-114|545:128|345:299|254:299|254:299|230:336,1,724.500013818741,4|0,1:0|0:0,2:0:0:0:
155,355,230151,6,0,P|104:353|37:413,1,80.9999999999999,2|0,1:2|1:0,2:0:0:0:
168,264,230315,1,0,1:0:0:0:
168,264,230397,2,0,P|136:223|47:211,1,80.9999999999999,2|8,1:2|1:2,2:0:0:0:
252,216,230561,1,0,1:0:0:0:
252,216,230643,2,0,P|253:165|193:98,1,80.9999999999999,2|0,1:2|1:0,2:0:0:0:
423,335,230807,6,0,P|473:328|545:383,1,94.5,2|0,1:2|1:0,2:0:0:0:
372,207,230971,1,0,1:0:0:0:
372,207,231053,2,0,P|399:164|487:143,1,94.5,2|8,1:2|1:2,2:0:0:0:
217,144,231217,1,0,1:0:0:0:
217,144,231299,2,0,P|210:93|265:21,1,94.5,2|0,1:2|1:0,2:0:0:0:
97,360,231463,6,0,P|58:326|-31:331,1,112.5,2|0,1:2|1:0,2:0:0:0:
116,138,231627,1,0,1:0:0:0:
116,138,231709,2,0,P|108:87|37:31,1,112.5,2|8,1:2|1:2,2:0:0:0:
340,103,231873,1,0,1:0:0:0:
340,103,231955,2,0,P|366:59|348:-28,1,112.5,2|0,1:2|1:0,2:0:0:0:
254,380,232119,5,2,1:2:0:0:
243,380,232201,1,0,1:0:0:0:
233,376,232282,1,0,1:0:0:0:
226,369,232364,1,0,1:0:0:0:
286,341,232446,5,10,1:2:0:0:
307,336,232528,1,0,1:0:0:0:
327,324,232610,1,0,1:0:0:0:
343,307,232692,1,0,1:0:0:0:
252,286,232774,5,2,1:2:0:0:
219,279,232856,1,0,1:0:0:0:
188,265,232938,1,0,1:0:0:0:
162,243,233020,1,0,1:0:0:0:
256,222,233102,5,10,1:2:0:0:
305,220,233184,1,0,1:0:0:0:
349,197,233266,1,0,1:0:0:0:
378,156,233348,1,0,1:0:0:0:
365,271,233430,5,12,1:2:0:0:
322,235,233512,1,8,1:3:0:0:
293,195,233594,1,4,1:3:0:0:
281,145,233676,1,0,1:3:0:0:
284,99,233758,1,0,1:2:0:0:
250,125,233840,1,0,1:2:0:0:
244,172,233922,5,4,2:1:0:0:
209,120,234004,1,8,1:3:0:0:
153,85,234086,1,4,1:3:0:0:
93,81,234168,1,0,1:3:0:0:
31,104,234250,1,0,1:2:0:0:
54,80,234332,1,0,1:2:0:0:
57,5,234414,5,12,1:2:0:0:
130,46,234496,1,8,1:3:0:0:
189,108,234578,1,4,1:3:0:0:
232,182,234660,1,0,1:3:0:0:
240,267,234742,6,0,B|276:165|126:141|120:259|158:312|158:312|102:301|39:250|24:141|130:5|331:39|389:188|330:305|300:342|300:342|331:372|368:350|368:350|320:242|378:137|459:135|422:54|422:54|403:51|403:51|388:107|331:119,1,1397.25,4|0,1:0|2:0,2:0:0:0:
512,326,238676,6,0,B|506:276|450:324|447:261|447:261|462:242|462:242|424:239|406:172|350:345|327:266|266:312|266:312|258:263|243:227|313:235|313:235|249:190|246:92|210:303|162:190|103:212|103:212|129:174|150:209|170:183|170:183|96:90|79:165|34:115,1,928.124999999999,8|0,2:3|2:0,2:0:0:0:
29,38,239987,6,0,P|8:31|-16:15,1,51.75,4|0,1:0|2:0,2:0:0:0:
226,45,243922,6,0,B|262:26|263:51|299:51|299:51|249:58|195:96|242:111|204:161|204:161|230:118|272:104|310:128|370:87|370:87|294:138|363:186|233:155|276:216|227:294|227:294|288:206|364:247|401:162|401:162|407:224|333:227|313:248|360:258|342:295|314:317|314:317|351:320|370:246|417:264,1,1198.125,4|0,2:3|2:0,2:0:0:0:
474,326,245233,6,0,P|478:350|487:375,1,51.75,4|0,1:0|2:0,2:0:0:0:
504,107,249168,6,0,B|481:78|429:67|413:107|454:111|454:111|462:132|392:90|403:202|376:184|391:160|392:159|392:159|379:123|314:108|278:141|313:160|314:159|314:159|338:203|256:163|300:261|272:263|259:263|259:263|265:220|219:193|167:220|167:220|158:249|188:257|188:257|187:286|78:262|175:374|129:377,1,793.124999999998,8|0,2:3|2:0,2:0:0:0:
55,349,250479,6,0,P|29:357|5:359,1,51.75,4|0,1:0|2:0,2:0:0:0:
60,339,254414,5,2,3:1:0:0:
65,329,254495,2,0,L|96:324,1,31.5,0|0,1:0|1:0,2:0:0:0:
119,331,254700,1,0,1:0:0:0:
126,316,254782,1,0,1:0:0:0:
132,301,254864,2,0,L|194:291,1,62.9999999999999,0|0,1:0|1:0,2:0:0:0:
160,276,255192,2,0,L|210:269,1,47.25,0|0,1:0|2:0,2:0:0:0:
213,250,255479,1,0,1:0:0:0:
222,230,255561,2,0,L|253:225,1,31.5,0|0,1:0|1:0,2:0:0:0:
510,317,255726,6,0,B|467:334|449:384|449:384|431:379|431:379|447:326|420:289,1,207,0|0,1:0|3:0,2:0:0:0:
488,228,255971,1,0,3:0:0:0:
348,343,256053,6,0,B|333:388|285:374|285:374|258:219|85:222|85:222|58:262|22:254,1,405,8|0,2:0|1:3,2:0:0:0:
63,286,256381,5,2,1:3:0:0:
38,289,256463,1,0,3:0:0:0:
121,201,256545,6,0,P|195:244|221:314,1,135,8|0,2:1|2:0,2:0:0:0:
441,320,256709,6,0,P|462:322|440:325,6,63,0|0|0|0|0|0|0,3:0|2:0|2:0|2:0|3:0|2:0|2:0,2:0:0:0:
348,343,257037,6,0,P|341:321|339:299,1,45,2|0,1:3|2:0,2:0:0:0:
497,144,257201,6,0,P|444:178|406:228,1,126,8|0,2:0|2:0,2:0:0:0:
84,116,257365,6,0,B|73:122|-79:98|-114:-58|51:-106|131:24|43:13|25:71|83:118,1,378,0|0,3:0|2:0,2:0:0:0:
258,146,257693,6,0,L|325:137,1,45,2|0,1:3|2:0,2:0:0:0:
182,190,257857,6,0,P|121:196|85:231,1,112.5,8|0,2:1|2:0,2:0:0:0:
495,227,258021,6,0,B|476:290|510:364|510:364|477:377|477:377|462:266|370:206|370:206|396:179|401:130,1,445.5,0|0,3:0|3:0,2:0:0:0:
361,67,258348,6,0,B|408:113|413:209|413:209|409:110|449:40,1,310.5,2|0,1:3|2:0,2:0:0:0:
512,137,258676,6,0,B|485:130|485:130|440:168|364:190|364:190|352:223|356:253|356:253|311:207|235:224,1,297,8|0,2:0|3:0,2:0:0:0:
204,178,258922,1,0,1:3:0:0:
154,308,259004,6,0,P|186:312|212:292,1,67.5,2|0,1:3|2:0,2:0:0:0:
154,342,259168,6,0,P|121:275|128:210,1,126,8|0,2:1|2:0,2:0:0:0:
80,6,259332,6,0,P|59:4|81:1,6,63,0|0|0|0|8|0|4,3:0|2:0|2:0|2:0|3:0|2:0|3:0,2:0:0:0:
37,93,259660,5,2,1:3:0:0:
147,67,259742,2,0,B|138:94|138:94|75:94|37:124,1,135,8|0,3:0|2:0,2:0:0:0:
139,109,259988,6,0,P|208:130|238:180,1,108,8|0,2:0|2:0,2:0:0:0:
292,295,260152,1,0,1:0:0:0:
80,0,260316,6,0,B|56:30|56:30|114:111|113:221|113:221|183:254,1,270,8|0,2:1|3:0,2:0:0:0:
244,375,260562,2,0,B|283:380|283:380|325:287|424:231|424:231|417:152,1,288,8|0,2:1|3:0,2:0:0:0:
376,47,260807,2,0,B|365:26|365:26|322:27|282:1|282:1|229:28,1,135,8|0,2:1|2:0,2:0:0:0:
266,182,260971,6,0,P|300:125|263:180,1,202.5,0|0,1:0|3:0,2:0:0:0:
153,156,261299,6,0,B|168:54|85:0|85:0|137:-17|137:-17|204:55|132:207,1,418.5,8|0,2:0|1:3,2:0:0:0:
155,247,261627,5,2,1:3:0:0:
147,260,261709,1,0,3:0:0:0:
63,212,261791,6,0,B|53:184|22:174|22:174|13:197|13:197|41:193|68:216,1,135,8|0,2:1|2:0,2:0:0:0:
241,323,261955,6,0,B|283:283|276:182|120:177|110:322|191:384|191:384|137:389|113:327,1,405,0|0,3:0|2:0,2:0:0:0:
51,302,262283,6,0,L|-4:292,1,45,2|0,1:3|2:0,2:0:0:0:
133,157,262447,6,0,P|121:210|147:259,1,112.5,8|0,2:0|2:0,2:0:0:0:
384,365,262611,6,0,B|468:323|453:210|453:210|435:210|435:210|435:247|419:282,1,252,0|0,3:0|2:0,2:0:0:0:
335,239,262857,2,0,B|357:146|261:86|261:86|249:99|249:99|282:119|295:158,1,252,0|0,1:0|2:0,2:0:0:0:
403,105,263103,2,0,P|370:35|390:-12,1,108,8|0,2:1|2:0,2:0:0:0:
164,29,263266,6,0,P|304:75|425:265,1,337.5,0|0,3:0|3:0,2:0:0:0:
458,297,263594,6,0,B|506:283|578:134|313:125|385:318|481:329,1,310.5,2|0,1:3|2:0,2:0:0:0:
512,384,263922,5,8,2:0:0:0:
341,327,264004,2,0,B|260:314|192:366|192:366|178:341|191:322|191:322|152:327|81:282,1,270,2|0,2:0|1:3,2:0:0:0:
44,340,264250,6,0,L|-27:350,1,45,2|0,1:3|2:0,2:0:0:0:
341,327,264414,6,0,B|178:321|66:172|66:172|79:219|49:281,1,405,8|0,2:1|2:0,2:0:0:0:
128,308,264742,6,0,P|179:267|177:202,1,135,8|4,3:0|3:0,2:0:0:0:
12,19,264906,6,0,B|46:105|-10:211|-10:211|45:106|143:83,1,405,2|0,1:3|2:0,2:0:0:0:
278,69,265234,6,0,B|305:51|311:13|311:13|305:51|324:77,1,135,8|0,2:0|2:0,2:0:0:0:
504,118,265398,1,0,1:0:0:0:
201,1,265562,6,0,B|156:8|151:48|151:48|280:61|312:194,1,270,8|0,2:1|3:0,2:0:0:0:
420,30,265807,2,0,B|441:22|453:38|453:38|400:76|413:152,1,135,8|0,2:1|3:0,2:0:0:0:
350,327,265971,1,0,3:0:0:0:
282,268,266053,2,0,B|259:271|257:291|257:291|321:298|348:370,1,135,8|0,2:1|2:0,2:0:0:0:
477,278,266217,6,0,B|490:245|517:235|517:235|469:188|401:206|390:265,1,202.5,0|0,1:0|3:0,2:0:0:0:
490,384,266545,6,0,B|474:370|450:357|450:357|446:257|386:168|386:168|401:143|395:104,1,288,8|0,2:0|3:0,2:0:0:0:
332,33,266791,1,0,1:3:0:0:
474,85,266873,2,0,P|487:102|488:124,1,45,2|0,1:3|2:0,2:0:0:0:
397,133,267037,6,0,B|333:136|286:112|286:112|258:133,1,135,8|0,2:1|2:0,2:0:0:0:
115,286,267201,6,0,P|113:307|110:285,6,63,0|0|0|0|0|0|0,3:0|2:0|2:0|2:0|3:0|2:0|2:0,2:0:0:0:
0,297,267529,6,0,P|9:339|0:381,1,67.5,2|0,1:3|2:0,2:0:0:0:
197,174,267693,6,0,P|175:130|191:44,1,135,8|0,2:0|2:0,2:0:0:0:
0,40,267857,6,0,P|80:62|4:53,1,270,0|0,3:0|2:0,2:0:0:0:
202,39,268103,2,0,P|229:47|194:44,1,135,0|2,2:0|1:3,2:0:0:0:
281,151,268266,1,0,3:0:0:0:
123,142,268348,6,0,B|75:159|89:183|39:205|39:205|43:218|43:218|218:145|330:149|294:238|402:214|402:214|478:231|474:314|390:313|425:218,1,630,8|0,2:1|3:0,2:0:0:0:
370,134,268840,6,0,B|372:69|417:15|417:15|357:19|354:69,1,202.5,2|0,1:3|2:0,2:0:0:0:
181,19,269168,6,0,B|174:46|174:46|282:100|319:264|319:264,1,270,8|0,2:0|3:0,2:0:0:0:
210,339,269414,1,0,1:3:0:0:
288,294,269496,2,0,P|299:256|270:221,1,45,2|0,1:3|2:0,2:0:0:0:
97,315,269660,6,0,P|186:259|242:261,1,135,8|0,2:1|2:0,2:0:0:0:
505,285,269824,6,0,P|526:287|504:290,6,63,0|0|0|0|8|0|4,3:0|2:0|2:0|2:0|3:0|2:0|3:0,2:0:0:0:
430,314,270152,6,0,B|419:294|426:269|426:269|386:289|380:390|491:407|555:325|513:230|470:201|470:201|454:164|484:137,1,409.5,2|0,1:3|2:0,2:0:0:0:
486,145,270480,6,0,P|403:143|391:214,1,135,8|0,2:0|2:0,2:0:0:0:
326,376,270644,1,0,1:0:0:0:
265,39,270807,6,0,B|217:23|196:78|196:78|304:131|316:292,1,288,8|0,2:1|3:0,2:0:0:0:
109,365,271053,2,0,B|15:344|20:246|20:246|41:319|134:327,1,288,8|0,2:1|3:0,2:0:0:0:
243,343,271299,2,0,P|245:309|237:347,1,144,8|0,2:1|2:0,2:0:0:0:
102,125,271463,6,0,B|190:217|130:387|130:387|181:365|181:365|196:233|97:117,1,594,0|8,1:0|2:0,2:0:0:0:
156,57,271873,1,0,2:0:0:0:
0,0,271955,2,0,P|12:53|74:25,1,135,0|0,3:0|1:3,2:0:0:0:
223,137,272119,5,2,1:3:0:0:
233,157,272201,1,0,2:0:0:0:
323,110,272283,6,0,P|176:43|18:346,1,540.000000000001,8|0,2:1|3:0,2:0:0:0:
172,376,272693,1,0,2:0:0:0:
172,376,272775,2,0,P|184:341|160:303,1,45,2|0,1:3|2:0,2:0:0:0:
92,333,272939,6,0,P|86:268|140:225,1,135,8|0,2:0|2:0,2:0:0:0:
333,204,273103,2,0,B|376:218|376:218|432:314|535:337,1,216,0|0,3:0|3:0,2:0:0:0:
447,224,273348,2,0,P|323:234|253:303,1,180,0|0,3:0|2:0,2:0:0:0:
273,379,273594,6,0,P|306:331|292:273,1,108,8|0,2:1|2:0,2:0:0:0:
403,77,273758,6,0,B|325:102|375:252|384:309|553:305|549:110|359:127,1,445.5,0|0,3:0|3:0,2:0:0:0:
280,73,274086,6,0,B|208:67|191:126|191:126|205:132|205:132|236:87|300:110|300:110,1,202.5,2|0,1:3|2:0,2:0:0:0:
28,235,274414,6,0,B|102:127|228:182|228:182|218:205|218:205|120:173|55:282,1,405,8|0,2:0|1:3,2:0:0:0:
33,342,274742,2,0,P|40:362|80:342,1,67.5,2|0,1:3|2:0,2:0:0:0:
86,66,274906,6,0,B|49:-7|-20:11|-20:11|33:27|40:112,1,234,8|0,2:1|3:0,2:0:0:0:
31,106,275234,6,0,P|87:129|105:72,1,135,8|4,3:0|3:0,2:0:0:0:
354,258,275398,6,0,B|373:290|372:452|268:424|175:347|292:263|338:284,1,324,2|0,1:3|3:0,2:0:0:0:
487,92,275644,6,0,B|505:28|473:-10|401:66|491:43|489:88,1,135,2|0,3:0|2:0,2:0:0:0:
420,194,275889,6,2,B|496:244|335:349|560:411|661:269|508:168|412:166|398:133|370:167|370:167|343:163|295:126|334:59|373:75|373:75|364:33|284:23|374:246|172:102|280:203|280:203|234:193|236:235|167:222|207:187|188:141|140:176|140:176|125:143|85:137,1,1012.5,0|0,3:2|3:2,3:2:0:0:
66,217,276709,6,0,B|-15:242|-111:416|188:401|57:302|16:295|69:212,1,337.5,0|0,1:0|3:0,2:0:0:0:
201,137,277037,6,0,B|231:101|222:60|222:60|276:64|281:109|281:109|149:169|140:333,1,405,8|0,2:0|1:3,2:0:0:0:
98,366,277365,5,2,1:3:0:0:
72,339,277447,1,0,2:0:0:0:
192,228,277529,6,0,P|242:261|232:332,1,112.5,8|0,2:1|2:0,2:0:0:0:
383,363,277693,2,0,P|362:361|384:358,6,63,0|0|0|0|0|0|0,3:0|2:0|2:0|2:0|3:0|2:0|2:0,2:0:0:0:
332,264,278021,2,0,P|338:231|362:208,1,67.5,2|0,1:3|2:0,2:0:0:0:
441,5,278185,6,0,B|460:41|507:56|507:56|507:84,1,112.5,8|0,2:0|2:0,2:0:0:0:
512,291,278348,6,0,B|480:307|480:307|462:295|462:295|473:148|356:64,1,270,0|0,3:0|2:0,2:0:0:0:
156,2,278594,2,0,B|117:92|47:104|47:104|53:131|53:131|122:122|208:181,1,297,0|0,1:0|2:0,2:0:0:0:
317,52,278840,6,0,B|322:23|322:23|310:13|310:13|275:59|197:87,1,148.5,8|0,2:1|2:0,2:0:0:0:
234,335,279004,6,0,B|257:335|271:353|271:353|299:342|299:342|257:225|306:148|306:148,1,261,0|0,3:0|3:0,2:0:0:0:
84,233,279250,2,0,B|68:280|31:300|31:300|51:325|51:325|118:251|193:259,1,252,0|0,3:0|2:0,2:0:0:0:
170,66,279496,6,0,B|153:50|145:29|145:29|124:29|124:29|127:64|94:104,1,126,0|0,3:0|2:0,2:0:0:0:
165,155,279660,1,8,2:0:0:0:
250,187,279742,6,0,B|289:128|347:100|347:100|327:78|327:78|290:130|208:142,1,252,0|0,1:0|0:3,2:0:0:0:
108,85,279988,2,0,B|72:88|43:75|43:75|41:90|41:90|73:87|104:115,1,126,2|0,1:3|2:0,2:0:0:0:
165,155,280152,6,0,B|192:156|214:146|214:146|216:158|216:158|193:162|167:177,1,108,8|0,2:1|2:0,2:0:0:0:
157,358,280316,2,0,B|90:355|39:383|39:383|33:357|33:357|91:357|125:317,1,252,0|8,3:0|2:3,2:0:0:0:
306,355,280562,1,4,3:0:0:0:
221,297,280644,6,0,P|232:239|227:299,1,175.5,2|0,1:3|2:0,2:0:0:0:
109,228,280971,6,0,P|45:218|2:155,1,126,8|0,2:0|2:0,2:0:0:0:
0,384,281135,1,0,1:0:0:0:
203,124,281299,6,0,B|196:158|196:158|61:172|0:278,1,270.000010299683,8|0,2:1|3:0,2:0:0:0:
124,84,281545,2,0,B|245:62|338:164|338:164|394:137,1,270.000010299683,8|0,2:1|3:0,2:0:0:0:
493,259,281791,2,0,P|448:321|388:302,1,135.000005149842
298,96,281955,6,0,B|303:70|295:49|295:49|329:45|356:28|356:28|362:50|384:67,1,161.999995056153,0|0,1:0|3:0,2:0:0:0:
316,270,282283,6,0,B|254:170|291:34|291:34|261:30|261:30|259:125|182:195,1,432,8|0,2:0|1:3,2:0:0:0:
180,275,282611,5,2,1:3:0:0:
212,267,282693,1,0,2:0:0:0:
122,342,282775,6,0,B|101:303|50:287|50:287|59:267|86:270,1,135,8|0,2:1|2:0,2:0:0:0:
315,182,282939,6,0,B|364:201|405:157|405:157|453:210|381:335|381:335|417:270|490:254,1,405,0|0,3:0|2:0,2:0:0:0:
492,345,283266,6,0,P|510:352|521:381,1,45,2|0,1:3|2:0,2:0:0:0:
286,312,283430,6,0,P|345:279|414:296,1,112.5,8|0,2:0|2:0,2:0:0:0:
511,383,283594,6,0,B|470:387|456:353|456:353|517:298|508:217|508:217|478:205|456:179|456:179|477:211|471:269,2,337.5,0|0|8,3:0|1:0|2:1,2:0:0:0:
384,231,284250,6,0,P|217:193|68:359,1,378,0|0,3:0|3:0,2:0:0:0:
0,278,284578,6,0,B|40:292|71:366|71:366|39:291|52:250,1,234,2|0,1:3|3:0,2:0:0:0:
131,199,284824,1,0,2:0:0:0:
263,295,284906,6,0,B|259:340|199:378|199:378|179:363|179:363|279:195|149:-5,1,445.5,8|0,2:0|1:3,2:0:0:0:
62,46,285234,6,0,P|14:73|20:128,1,117,2|0,1:3|2:0,2:0:0:0:
364,165,285398,6,0,B|329:89|229:54|137:107|137:107|223:117|232:229,1,351,8|0,2:1|2:0,2:0:0:0:
131,199,285725,1,8,3:0:0:0:
263,295,285807,2,0,P|269:250|289:210,1,90,4|8,3:0|3:0,2:0:0:0:
210,374,286053,6,0,B|184:391|124:339|147:287|197:251,1,148.5,4|0,3:0|2:0,2:0:0:0:
506,194,286217,6,0,P|453:208|403:241,1,108,8|0,2:0|2:0,2:0:0:0:
343,354,286381,1,0,1:0:0:0:
25,153,286545,6,0,B|-10:166|-10:166|-4:186|-4:186|91:263|101:127|209:174,1,270,8|0,2:1|3:0,2:0:0:0:
270,6,286791,2,0,B|238:-14|238:-14|225:1|225:1|217:122|334:52|358:168,1,270,8|0,2:1|3:0,2:0:0:0:
458,381,287037,2,0,P|513:348|513:284,1,135,8|0,2:1|2:0,2:0:0:0:
492,108,287201,6,0,B|426:170|422:282|422:282,1,189,0|0,1:0|3:0,2:0:0:0:
331,236,287529,5,8,2:0:0:0:
349,342,287611,2,0,B|332:336|332:336|323:250|236:203,1,135,0|0,3:0|3:0,2:0:0:0:
273,49,287775,1,0,1:3:0:0:
179,83,287857,2,0,P|179:53|188:26,1,58.5,2|0,1:3|2:0,2:0:0:0:
155,181,288021,6,0,B|213:186|255:138|255:138|276:144,1,135,8|0,2:1|2:0,2:0:0:0:
499,11,288185,6,0,P|520:9|498:6,6,63,0|0|0|0|0|0|0,3:0|2:0|2:0|2:0|3:0|2:0|2:0,2:0:0:0:
369,45,288512,6,0,P|383:15|413:-1,1,67.5,2|0,1:3|2:0,2:0:0:0:
500,118,288676,6,0,P|433:114|376:149,1,135,8|0,2:0|2:0,2:0:0:0:
192,69,288840,6,0,B|225:72|281:53|267:-21|213:-22|184:8|185:42|204:61,1,180,0|0,3:0|2:0,2:0:0:0:
106,32,289086,2,0,B|115:10|116:-29|64:-37|51:-4|64:21|85:29|103:21,1,117,0|0,3:0|2:0,2:0:0:0:
243,159,289332,6,0,B|307:251|222:321|27:264|324:209|330:139|225:41|103:-99|-160:-19|34:285|194:214|135:154|135:154|90:114|35:133|14:168|51:217,1,742.5,8|0,2:1|3:0,2:0:0:0:
5,217,289824,6,0,P|-11:259|13:221,1,135,2|0,1:3|2:0,2:0:0:0:
360,317,290152,6,0,P|234:272|102:290,1,270,8|0,2:0|3:0,2:0:0:0:
79,384,290398,1,0,1:3:0:0:
121,300,290480,2,0,P|177:329|191:357,1,67.5,2|0,1:3|2:0,2:0:0:0:
0,343,290644,6,0,P|54:285|144:291,1,135,8|0,2:1|2:0,2:0:0:0:
210,45,290807,6,0,P|208:24|205:46,6,63,0|0|0|0|8|0|4,3:0|2:0|2:0|2:0|3:0|2:0|3:0,2:0:0:0:
283,89,291135,6,0,B|328:117|287:208|203:187|155:147|155:147|102:104|131:33|259:4|243:176|227:216,1,445.5,2|0,1:3|2:0,2:0:0:0:
294,278,291463,6,0,P|273:320|265:394,1,112.5,8|0,2:0|2:0,2:0:0:0:
512,181,291627,1,0,1:0:0:0:
353,380,291791,6,0,B|265:356|289:273|193:266|193:266|190:255|190:255|129:248|100:201,1,297,8|0,2:1|3:0,2:0:0:0:
297,192,292037,2,0,B|308:196|321:188|321:188|329:165|329:165|404:177|493:95,1,148.5,8|0,2:1|3:0,2:0:0:0:
407,0,292201,1,0,3:0:0:0:
354,77,292283,2,0,B|343:80|329:74|329:74|321:51|321:51|240:63|158:-19,1,148.5,8|0,2:1|2:0,2:0:0:0:
1,39,292447,6,0,B|23:46|51:151|51:151|23:45|40:0,1,270,0|0,1:0|3:0,2:0:0:0:
125,36,292775,5,8,2:0:0:0:
118,221,292857,2,0,B|109:240|65:281|8:199|63:91|93:200,2,121.5,0|0|0,1:0|3:0|1:3,2:0:0:0:
136,144,293103,5,2,1:3:0:0:
136,144,293185,1,0,1:0:0:0:
68,94,293266,6,0,B|99:18|247:-22|321:278|267:350|224:407|113:351|122:294,1,540.000000000001,8|0,2:1|3:0,2:0:0:0:
197,257,293676,1,0,3:0:0:0:
197,257,293758,2,0,P|221:296|201:342,1,67.5,2|0,1:3|2:0,2:0:0:0:
47,350,293922,6,0,P|39:285|109:238,1,121.5,8|0,2:0|2:0,2:0:0:0:
384,286,294086,6,0,B|463:288|499:226|499:226|479:213|479:213|444:248|395:265|318:262|271:193,1,364.5,0|0,3:0|3:0,2:0:0:0:
248,142,294414,6,0,P|245:109|268:86,1,67.5,2|0,1:3|2:0,2:0:0:0:
448,125,294578,6,0,P|370:119|316:179,1,121.5,8|0,2:1|2:0,2:0:0:0:
0,157,294742,6,0,B|100:87|236:118|236:118|250:98|250:98|225:66|220:24|220:24|195:25|195:25|183:67|149:90,1,445.5,0|0,3:0|3:0,2:0:0:0:
75,92,295070,6,0,L|5:78,1,67.5,2|0,1:3|2:0,2:0:0:0:
107,11,295398,6,0,B|139:-7|139:-7|197:91|127:244|127:244|150:254|150:254|187:131|323:95,1,445.5,8|0,2:0|1:3,2:0:0:0:
383,87,295725,6,0,P|425:101|446:158,1,67.5,2|0,1:3|2:0,2:0:0:0:
36,174,295889,6,0,P|217:64|367:56,1,297,8|0,2:1|3:0,2:0:0:0:
279,37,296217,6,0,P|348:27|383:88,1,148.5,8|0,1:3|3:0,2:0:0:0:
131,276,296381,6,0,B|69:316|-7:262|-7:262|4:290|8:312|8:312|86:321|139:271,1,333,2|0,1:3|3:0,2:0:0:0:
371,173,296627,6,0,B|406:192|401:241|401:241|411:230|421:222|421:222|404:183|368:171,1,180,2|0,2:0|2:0,2:0:0:0:
178,189,296873,6,2,B|152:176|105:133|81:9|281:20|333:75|259:198|278:224|100:315|140:434|326:462|377:380|354:315|317:279|317:279|258:219|261:139|340:89|340:89|405:46|404:6|345:-73|289:-12|266:27|286:80|316:85,1,1125,0|8,3:2|1:3,3:2:0:0:
256,192,304250,12,0,305807,2:0:0:0:
256,192,305889,12,0,306791,2:0:0:0:
256,192,306873,12,0,308103,2:0:0:0:
265,129,308185,6,0,B|304:133|341:222|272:315|206:303|150:198|230:118|272:130,1,337.5,4|0,1:2|2:0,2:0:0:0:
0,380,308512,5,8,1:2:0:0:
189,330,308676,1,2,2:0:0:0:
189,330,308758,1,0,3:0:0:0:
189,330,308840,1,2,2:0:0:0:
2,217,309004,1,8,1:2:0:0:
68,299,309168,1,2,2:0:0:0:
68,299,309250,1,0,3:0:0:0:
68,299,309332,1,2,2:0:0:0:
238,215,309496,1,8,1:2:0:0:
52,325,309660,1,2,2:0:0:0:
199,384,309824,6,0,P|179:310|215:378,1,225,6|2,1:3|2:0,2:0:0:0:
81,15,310152,6,0,P|110:120|75:16,1,337.5,6|0,1:3|2:0,2:0:0:0:
10,232,310480,6,0,P|5:217|14:233,4,67.5000000000001,6|0|0|0|2,1:3|3:0|3:0|3:0|1:2,2:0:0:0:
205,149,310807,6,0,P|117:142|211:141,1,337.5,4|0,1:3|2:0,2:0:0:0:
0,13,311135,5,8,1:2:0:0:
64,110,311299,1,2,2:0:0:0:
64,110,311381,1,0,3:0:0:0:
64,110,311463,1,2,2:0:0:0:
234,0,311627,1,8,1:2:0:0:
31,23,311791,1,2,2:0:0:0:
31,23,311873,1,0,3:0:0:0:
31,23,311955,1,2,2:0:0:0:
120,84,312119,1,8,1:2:0:0:
0,162,312283,1,2,2:0:0:0:
183,9,312447,6,0,B|209:17|223:81|167:134|125:118|101:42|162:-2|189:11,1,225,6|2,1:3|2:0,2:0:0:0:
512,117,312775,6,0,B|528:148|462:240|348:204|327:138|406:61|500:77|512:117,1,337.5,6|0,1:3|2:0,2:0:0:0:
362,38,313103,2,0,B|357:24|340:24|322:29|339:44|356:44|373:36,6,56.25,6|0|0|0|2|0|0,1:3|3:0|3:0|3:0|1:2|2:0|2:0,2:0:0:0:
297,177,313430,6,0,B|258:165|237:69|321:-10|384:13|420:127|328:193|288:174,1,337.5,4|0,1:2|2:0,2:0:0:0:
288,23,313758,5,8,1:2:0:0:
492,94,313922,1,2,2:0:0:0:
492,94,314004,1,0,3:0:0:0:
492,94,314086,1,2,2:0:0:0:
416,170,314250,1,8,1:2:0:0:
308,53,314414,1,2,2:0:0:0:
308,53,314496,1,0,3:0:0:0:
308,53,314578,1,2,2:0:0:0:
399,366,314742,6,0,P|396:265|405:368,1,337.5,4|0,1:2|2:0,2:0:0:0:
490,309,315070,5,8,1:2:0:0:
309,245,315234,1,2,2:0:0:0:
309,245,315316,1,0,3:0:0:0:
309,245,315398,1,2,2:0:0:0:
385,365,315562,1,8,1:2:0:0:
469,286,315725,1,2,2:0:0:0:
469,286,315807,1,0,3:0:0:0:
469,286,315889,1,2,2:0:0:0:
140,345,316053,6,0,B|101:333|80:237|164:157|227:181|263:295|171:361|131:342,1,337.5,4|0,1:2|2:0,2:0:0:0:
81,17,316381,6,0,P|111:124|73:20,1,337.5,4|0,1:2|2:0,2:0:0:0:
473,71,316709,6,0,B|491:101|425:192|311:156|287:93|366:9|462:30|474:69,1,337.5,4|0,1:2|2:0,2:0:0:0:
458,358,317037,6,0,P|424:251|465:356,1,337.5,4|0,1:2|2:0,2:0:0:0:
253,163,317365,6,0,P|248:131|265:102,1,67.5,4|0,1:2|2:0,2:0:0:0:
250,323,318676,6,0,B|272:339|272:339|266:379|266:379|239:348|239:348|250:323|250:323|244:247,6,135,0|0|0|0|0|0|0,1:0|2:0|2:0|2:0|2:0|2:0|2:0,2:0:0:0:
258,304,319113,6,0,P|225:283|248:311,3,90.0000000000001,2|0|0|0,3:0|3:0|3:0|3:0,2:0:0:0:
69,279,319332,6,2,B|71:283|71:283|76:285|76:285|76:297|76:297|83:288|83:288|82:308|82:308|94:306|94:292|94:292|99:309|91:324|91:324|109:313|106:291|106:291|123:312|107:338|107:338|127:313|118:287|118:287|140:309|125:344|125:344|144:311|132:278|132:278|150:308|139:347|139:347|148:310|143:262|143:262|161:301|158:347|158:347|171:293|151:236|151:236|177:282|177:347|177:347|195:282|156:211|156:211|217:259|210:349|210:349|262:256|231:191|192:160|192:160|192:189|192:189|168:187|168:187|245:257|257:220|257:220|238:298|285:366|285:366|286:352|275:332|275:332|253:358|253:358|297:200|469:230|469:230|441:244|441:244|460:270|460:270|262:230|305:6|305:6|318:31|318:31|342:14|342:14|331:96|261:162,1,2646,14|0,2:1|2:0,1:0:0:0:
58,110,321299,6,0,B|28:79|-68:-17|69:-117|223:-21|116:110|53:74|25:155|108:238,1,405,0|0,1:0|2:0,2:0:0:0:
69,279,321627,6,0,P|81:287|96:291,1,30,2|0,3:0|2:0,2:0:0:0:
378,208,321955,6,0,P|444:188|512:179,1,138,8|0,2:1|2:0,2:0:0:0:
505,157,322174,1,0,3:0:0:0:
512,365,322283,6,0,P|355:173|127:251,1,480,2|0,3:0|2:0,2:0:0:0:
238,344,322611,6,0,B|283:364|337:251|221:192|187:323|238:344,1,225,0|0,3:0|2:0,2:0:0:0:
356,244,322939,6,0,P|368:201|373:194,1,30,2|0,1:3|2:0,2:0:0:0:
378,208,323157,1,0,3:0:0:0:
141,179,323266,6,0,P|79:147|24:105,1,138,8|0,2:1|2:0,2:0:0:0:
34,84,323485,1,0,3:0:0:0:
37,275,323594,6,0,P|194:83|433:136,1,480,2|0,3:0|2:0,2:0:0:0:
479,231,323922,6,0,B|482:261|476:280|476:280|494:287|507:273|507:273|491:258|478:230|478:230|475:211,6,135,0|0|0|0|0|0|0,1:0|2:0|2:0|2:0|2:0|2:0|2:0,2:0:0:0:
489,142,324359,6,0,P|487:131|491:143,3,45,2|0|0|0,3:0|3:0|3:0|3:0,2:0:0:0:
479,231,324578,6,2,B|464:233|455:232|455:232|439:230|439:230|450:233|450:233|437:235|426:241|426:241|442:234|442:234|428:227|428:227|436:234|417:244|417:244|430:236|417:222|417:222|425:238|408:247|408:247|422:237|408:217|408:217|416:239|399:254|399:254|410:240|399:210|399:210|406:240|387:260|387:260|399:241|389:200|389:200|390:245|368:267|368:267|381:247|379:188|379:188|374:250|325:278|325:278|365:255|370:173|370:173|352:254|257:293|257:293|341:254|363:151|363:151|311:262|200:287|149:302|149:302|174:311|174:311|179:322|179:322|236:283|141:167|71:195|71:195|73:207|89:219|89:219|90:227|86:238|86:238|127:251|226:196|198:64|141:35|141:35|125:57|132:79|132:79|121:89|105:90|105:90|143:150|253:193|361:36|361:36|333:30|314:40|314:40|301:32|299:20|299:20|232:82|263:185,1,2646,14|0,2:1|2:0,1:0:0:0:
211,257,326545,6,0,P|197:239|192:217,1,45.0000000000001,0|0,1:0|2:0,2:0:0:0:
47,353,326873,6,0,P|24:366|-23:351,6,51.75,2|0|0|0|0|0|0,3:0|2:0|2:0|2:0|2:0|2:0|2:0,2:0:0:0:
90,274,327201,6,0,P|238:293|391:345,1,270,8|0,2:1|2:0,2:0:0:0:
512,222,327419,5,0,3:0:0:0:
504,138,327529,2,0,P|507:118|513:105,1,30,2|0,3:0|2:0,2:0:0:0:
351,227,327857,6,0,B|468:161|590:257|635:392|458:477|319:302|529:283|399:207,1,480,4|0,3:0|2:0,2:0:0:0:
420,113,328185,6,0,B|356:42|370:-50|472:-41|475:78|423:20|390:66|420:113,1,270,2|0,1:3|2:0,2:0:0:0:
327,137,328512,6,0,B|263:110|162:83|162:83,1,150,8|0,2:1|2:0,2:0:0:0:
347,51,328840,6,0,P|368:30|403:39,5,45,2|0|0|0|0|0,3:0|2:0|3:0|2:0|3:0|2:0,2:0:0:0:
111,123,329168,6,0,L|86:123,1,22.5,0|0,1:0|2:0,2:0:0:0:
93,137,329605,6,0,P|74:137|96:140,3,90.0000000000001,2|0|0|0,3:0|3:0|3:0|3:0,2:0:0:0:
33,21,329824,6,2,B|50:21|68:32|68:32|48:27|48:27|92:50|92:50|41:31|41:31|112:88|112:88|51:48|51:48|122:120|122:120|57:63|57:63|122:151|122:151|59:70|59:70|109:182|109:182|62:89|62:89|85:204|85:204|58:118|58:118|70:207|70:207|45:150|45:150|59:219|59:219|33:178|33:178|50:224|50:224|29:199|29:199|41:227|41:227|28:218|28:218|41:235|41:235|31:235|31:235|47:240|47:240|39:243|39:243|49:252|49:252|40:253|40:253|45:256|45:256|73:307|159:334|223:266|223:266|197:278|158:261|158:261|264:327|339:214|339:214|343:247|343:247|363:256|363:256|281:290|283:370|283:370|251:359|251:359|236:377|236:377|181:347|132:203|246:112|246:112|247:129|247:129|280:142|280:142|223:148|207:201|207:201|215:194,1,2835,14|0,2:1|2:0,1:0:0:0:
284,222,331791,6,0,B|363:298|450:133|552:239|533:335|421:394|346:286|465:234|284:259,1,405.000001544952,0|0,1:0|2:0,2:0:0:0:
302,261,332119,6,0,P|283:274|278:282,1,30,2|0,3:0|2:0,2:0:0:0:
131,144,332447,6,0,P|63:130|2:100,1,138,8|0,2:1|2:0,2:0:0:0:
2,76,332665,1,0,3:0:0:0:
203,4,332775,6,0,P|242:236|56:381,1,495,2|0,3:0|2:0,2:0:0:0:
188,281,333103,6,0,B|173:292|44:307|94:241|106:165|185:258|189:282,1,225,0|0,3:0|2:0,2:0:0:0:
25,301,333430,6,0,P|4:291|-2:284,1,30,2|0,1:3|2:0,2:0:0:0:
0,267,333649,1,0,3:0:0:0:
255,215,333758,6,0,P|320:179|390:161,1,138.000002632141,8|0,2:1|2:0,2:0:0:0:
391,189,333977,1,0,3:0:0:0:
477,381,334086,6,0,P|290:236|329:3,1,495,2|0,3:0|2:0,2:0:0:0:
436,71,334414,6,0,B|409:46|384:75|384:75|417:64|443:75,7,112.5,0|0|0|0|0|0|0|0,1:0|2:0|2:0|2:0|2:0|2:0|2:0|2:0,2:0:0:0:
421,153,334851,6,0,P|425:175|419:152,3,90.0000000000001,2|0|0|0,3:0|3:0|3:0|3:0,2:0:0:0:
512,32,335070,6,2,B|506:46|506:46|506:36|506:36|498:48|498:62|498:62|493:52|499:39|499:39|486:56|481:89|481:89|479:66|487:46|487:46|468:71|454:119|454:119|453:78|474:51|474:51|440:87|419:146|419:146|426:96|456:57|456:57|400:100|379:166|379:166|377:102|428:64|428:64|348:103|333:186|333:186|328:96|404:68|404:68|334:74|281:140|285:200|285:200|263:187|259:171|259:171|242:182|237:201|237:201|192:94|94:113|94:113|95:93|102:76|102:76|84:50|84:50|147:-18|237:6|237:6|236:40|236:40|254:49|259:63|259:63|202:76|185:171|185:171|151:172|151:172|147:202|124:221|124:221|189:251|171:368|171:368|205:349|209:307|209:307|238:339|272:326|272:326|234:285|260:234,1,2457,14|0,2:1|2:0,1:0:0:0:
332,266,337037,6,0,P|335:236|339:219,1,45.0000000000001,0|0,1:0|2:0,2:0:0:0:
479,383,337365,6,0,P|493:381|483:385,6,51.75,2|0|0|0|0|0|0,3:0|2:0|2:0|2:0|2:0|2:0|3:0,2:0:0:0:
394,323,337693,6,0,B|389:300|389:300|353:265|352:205,1,117,8|0,2:1|2:0,2:0:0:0:
412,119,337857,2,0,P|438:130|435:199,1,90,0|0,3:0|2:0,2:0:0:0:
256,357,338021,6,0,B|87:380|35:207|35:207|50:188|50:188|67:274|148:276,1,432,2|0,3:0|2:0,2:0:0:0:
210,268,338348,6,0,P|212:237|221:205,1,54,6|0,3:0|2:0,2:0:0:0:
235,207,338512,2,0,P|237:176|246:144,1,54,0|0,2:0|2:0,2:0:0:0:
320,80,338676,1,8,1:2:0:0:
274,373,338840,2,0,P|276:342|285:310,1,54,2|0,2:0|3:0,2:0:0:0:
265,310,339004,2,0,P|267:279|276:247,1,54,2|0,2:0|3:0,2:0:0:0:
230,45,339168,1,8,1:2:0:0:
260,240,339332,2,0,P|262:209|271:177,1,54,2|0,2:0|3:0,2:0:0:0:
283,179,339496,2,0,P|285:148|294:116,1,54,2|0,2:0|3:0,2:0:0:0:
279,349,339660,6,0,P|270:362|281:348,6,112.5,0|0|0|0|0|0|0,1:0|2:0|2:0|2:0|2:0|2:0|2:0,2:0:0:0:
195,297,339988,6,0,P|261:169|358:308,1,351,0|0,1:3|2:0,2:0:0:0:
310,134,340316,6,0,B|302:153|287:169|287:169|269:244|275:342|287:352|287:352|300:341|283:246|256:169|256:169|234:157|224:123,1,472.5,2|0,3:0|2:0,2:0:0:0:
245,34,340644,6,0,P|273:14|304:63,4,80.9999999999999,0|0|0|0|0,3:0|3:0|3:0|3:0|3:0,2:0:0:0:
327,49,340971,6,2,B|322:66|322:66|242:57|189:135,1,118.800001132965,2|2,1:1|2:1,2:1:0:0:
96,201,341103,2,2,B|113:197|113:197|146:269|239:275,1,118.800001132965,2|0,3:2|2:0,2:1:0:0:
343,324,341234,2,2,B|331:311|331:311|377:246|336:163,1,118.800001132965,2|0,3:2|3:0,2:1:0:0:
271,187,341365,6,2,L|238:193,1,32.3999990112305,2|0,3:2|2:0,2:1:0:0:
192,45,341627,6,2,B|201:59|201:59|144:116|169:204,1,118.800001132965,10|0,1:0|2:0,2:1:0:0:
160,319,341758,2,2,B|168:304|168:304|245:325|309:258,1,118.800001132965,2|0,3:2|2:0,2:1:0:0:
414,209,341889,2,2,B|396:210|396:210|375:133|286:111,1,118.800001132965,2|2,3:2|3:0,2:1:0:0:
257,177,342021,6,2,L|250:208,1,32.3999990112305,2|0,3:2|2:0,2:1:0:0:
102,145,342283,6,2,B|119:147|119:147|126:227|210:265,1,118.800001132965,0|0,3:0|2:0,2:1:0:0:
292,346,342414,2,2,B|285:330|285:330|351:284|342:193,1,118.800001132965,2|0,3:2|2:0,2:1:0:0:
371,81,342545,2,2,B|360:95|360:95|288:61|214:116,1,118.800001132965,2|2,3:2|1:3,2:1:0:0:
93,125,342676,6,2,P|237:172|401:286,1,324.00001235962,2|0,3:2|2:0,2:1:0:0:
398,264,342939,6,2,B|381:259|381:259|388:179|311:128,1,118.800001132965,10|0,2:1|2:0,2:1:0:0:
245,34,343070,2,2,B|250:50|250:50|177:83|169:177,1,118.800001132965,2|0,3:2|2:0,2:1:0:0:
122,281,343201,2,2,B|135:269|135:269|200:315|283:274,1,118.800001132965,2|2,3:2|1:3,2:1:0:0:
255,208,343332,6,2,L|249:177,1,32.3999990112305,2|0,3:2|2:0,2:1:0:0:
71,212,343594,6,0,B|93:252|78:296|78:296|96:301|96:301|161:122|318:137|318:137|342:119|327:88,1,450,0|0,1:0|2:0,2:0:0:0:
426,71,343922,6,0,P|453:34|488:27,1,60,2|0,3:0|2:0,2:0:0:0:
487,38,344141,1,0,3:0:0:0:
430,248,344250,6,0,P|439:306|462:368,1,120,8|0,2:1|2:0,2:0:0:0:
509,209,344578,6,0,B|454:209|419:172|419:172|408:178|408:178|401:339|253:349|253:349|256:317|242:297,1,420,2|0,3:0|2:0,2:0:0:0:
327,373,344906,6,0,P|334:306|48:305,1,450,0|0,3:0|2:0,2:0:0:0:
115,384,345234,6,0,P|143:308|128:280,1,90,2|0,1:3|2:0,2:0:0:0:
160,284,345452,1,0,3:0:0:0:
35,114,345562,6,0,L|19:59,1,45,8|0,2:1|2:0,2:0:0:0:
47,97,345780,1,0,3:0:0:0:
22,254,345889,6,0,P|71:247|92:175,1,120,2|0,3:0|2:0,2:0:0:0:
353,62,346217,6,2,B|332:77|332:77|278:38|200:70,1,118.800001132965,2|0,1:3|2:0,2:1:0:0:
96,172,346348,2,2,B|119:182|119:182|113:249|179:301,1,118.800001132965,2|0,3:2|2:0,2:1:0:0:
318,339,346480,2,2,B|316:314|316:314|377:286|389:203,1,118.800001132965,2|2,3:2|3:0,2:1:0:0:
266,187,346611,6,2,L|226:195,1,32.3999990112305,2|0,3:2|2:0,2:1:0:0:
220,34,346873,6,2,B|218:59|218:59|153:77|128:156,1,118.800001132965,10|0,1:0|2:0,2:1:0:0:
138,301,347004,2,2,B|161:289|161:289|208:337|290:319,1,118.800001132965,2|0,3:2|2:0,2:1:0:0:
410,239,347135,2,2,B|389:224|389:224|407:159|350:97,1,118.800001132965,2|2,3:2|3:0,2:1:0:0:
299,41,347266,6,2,P|288:203|240:358,1,324.00001235962,2|0,3:2|2:0,2:1:0:0:
229,315,347529,6,2,B|225:294|225:294|170:280|149:213,1,108.000004119873,0|0,3:0|2:0,2:1:0:0:
161,107,347660,2,2,B|179:114|179:114|219:74|288:87,1,108.000004119873,2|0,3:2|2:0,2:1:0:0:
374,152,347791,2,2,B|360:166|360:166|373:219|327:272,1,108.000004119873,2|2,3:2|1:3,2:1:0:0:
206,358,347922,6,2,P|216:195|264:40,1,324.00001235962,0|0,3:2|2:0,2:1:0:0:
412,149,348185,6,2,B|385:154|385:154|368:89|289:63,1,118.800001132965,10|0,2:1|2:0,2:1:0:0:
142,77,348316,2,2,B|159:96|159:96|112:144|129:226,1,118.800001132965,2|0,3:2|2:0,2:1:0:0:
214,346,348447,2,2,B|221:321|221:321|288:339|349:282,1,118.800001132965,2|2,3:2|1:3,2:1:0:0:
271,193,348578,6,2,L|231:185,1,32.3999990112305,2|0,3:2|2:0,2:1:0:0:
426,226,348840,6,0,B|472:231|560:81|495:56|416:24|352:61|355:206|329:314|469:269|490:218,1,450,0|0,1:0|2:0,2:0:0:0:
453,349,349168,6,0,P|495:362|512:377,1,60,2|0,3:0|2:0,2:0:0:0:
385,155,349496,6,0,B|386:147|386:147|403:141|403:141|366:143|366:143|404:132|404:132|364:136|364:136|404:122|404:122|361:125|361:125|404:114|404:114|360:116|360:116|402:104|402:104|360:106|360:106|401:94|401:94|359:96|359:96|398:85|398:85|360:87|360:87|382:83|382:83|380:72,1,600,8|0,2:1|2:0,2:0:0:0:
485,5,349824,6,0,B|448:-2|448:-2|351:101|352:270|352:270|290:310,1,375,2|0,3:0|2:0,2:0:0:0:
219,336,350152,6,0,P|168:367|222:342,1,180,0|0,1:0|2:0,1:0:0:0:
259,144,350316,6,0,P|268:118|258:144,2,90,0|0|0,3:0|2:0|2:0,1:0:0:0:
154,234,350480,6,0,P|108:271|158:239,1,180,0|0,3:0|2:0,1:0:0:0:
164,89,350644,6,0,P|121:48|158:94,1,180,0|0,3:0|2:0,1:0:0:0:
18,176,350807,6,0,P|6:242|22:173,1,315,0|0,3:0|2:0,1:0:0:0:
100,153,351135,6,0,P|137:2|115:156,1,472.499999999999,0|0,3:0|2:0,1:0:0:0:
123,79,351463,6,2,B|145:89|145:89|126:155|174:212,1,118.800001132965,2|0,1:3|2:0,2:1:0:0:
224,363,351594,2,2,B|222:339|222:339|288:323|314:253,1,118.800001132965,2|0,3:2|2:0,2:1:0:0:
420,133,351725,2,2,B|400:147|400:147|353:97|279:110,1,118.800001132965,2|2,3:2|3:0,2:1:0:0:
182,175,351857,6,2,P|337:260|509:305,1,324.00001235962,2|0,3:2|2:0,2:1:0:0:
499,327,352119,6,2,B|481:314|481:314|438:358|372:347,1,108.000004119873,10|0,1:0|2:0,2:1:0:0:
233,376,352250,2,2,B|252:366|252:366|235:308|278:256,1,108.000004119873,2|0,3:2|2:0,2:1:0:0:
323,120,352381,2,2,B|321:141|321:141|381:155|404:219,1,108.000004119873,2|2,3:2|3:0,2:1:0:0:
348,260,352512,6,2,L|343:292,1,32.3999990112305,2|0,3:2|2:0,2:1:0:0:
0,312,352775,6,2,B|10:290|10:290|76:309|133:261,1,118.800001132965,0|0,3:0|2:0,2:1:0:0:
284,211,352906,2,2,B|260:213|260:213|244:147|174:121,1,118.800001132965,2|0,3:2|2:0,2:1:0:0:
54,15,353037,2,2,B|68:35|68:35|18:82|31:156,1,118.800001132965,2|2,3:2|1:3,2:1:0:0:
80,201,353168,6,2,P|221:121|438:92,1,324.00001235962,2|0,3:2|2:0,2:1:0:0:
450,0,353430,6,2,B|437:17|437:17|481:60|470:126,1,108.000004119873,10|0,2:1|2:0,2:1:0:0:
499,266,353562,2,2,B|489:246|489:246|431:263|379:220,1,108.000004119873,2|0,3:2|2:0,2:1:0:0:
243,176,353693,2,2,B|264:177|264:177|278:117|342:94,1,108.000004119873,2|2,3:2|1:3,2:1:0:0:
397,121,353824,6,2,L|394:158,1,32.3999990112305,2|0,3:2|2:0,2:1:0:0:
345,316,354086,6,0,B|290:379|221:332|221:332|221:318|221:318|317:280|343:162|248:70|248:70|237:35|276:20|276:20,1,495.000004720688,0|0,1:0|2:0,2:0:0:0:
156,85,354414,6,0,P|98:63|78:63,1,75,2|0,3:0|2:0,2:0:0:0:
203,281,354742,6,0,P|212:305|206:280,6,74.25,8|0|0|0|0|0|0,2:1|2:0|2:0|2:0|2:0|2:0|2:0,2:0:0:0:
292,225,355070,6,0,B|308:184|296:69|114:45|-50:150|-48:335|30:423|63:397,1,495,2|0,3:0|2:0,2:0:0:0:
109,384,355398,6,0,B|120:314|66:269|66:269|52:212,1,168,0|0,3:0|2:0,2:0:0:0:
261,47,355725,6,0,P|270:11|283:-13,1,60,2|0,1:3|2:0,2:0:0:0:
244,30,355944,1,0,3:0:0:0:
397,140,356053,6,0,P|391:176|372:189,1,60,8|0,2:1|2:0,2:0:0:0:
310,124,356272,1,0,3:0:0:0:
463,54,356381,6,0,B|508:68|496:106|532:125|532:125|522:145|522:145|369:70|184:234,1,420,2|0,3:0|2:0,2:0:0:0:
240,348,356709,6,2,B|238:333|238:333|283:313|307:244,1,118.800001132965,2|0,1:3|2:0,2:1:0:0:
360,111,356840,2,2,B|370:116|370:116|365:166|411:221,1,118.800001132965,2|0,3:2|2:0,2:1:0:0:
504,335,356971,2,2,B|491:341|491:341|451:312|380:325,1,118.800001132965,2|2,3:2|3:0,2:1:0:0:
276,361,357103,6,2,P|282:206|141:4,1,324.00001235962,2|0,3:2|2:0,2:1:0:0:
123,12,357365,6,2,B|112:21|112:21|132:69|103:139,1,118.800001132965,10|0,1:0|2:0,2:1:0:0:
46,279,357496,2,2,B|59:282|59:282|91:241|165:231,1,118.800001132965,2|0,3:2|2:0,2:1:0:0:
318,211,357627,2,2,B|314:196|314:196|262:189|216:130,1,118.800001132965,2|2,3:2|3:0,2:1:0:0:
18,73,357758,6,2,P|148:191|204:358,1,324.00001235962,2|0,3:2|2:0,2:1:0:0:
248,180,358021,6,2,B|253:165|253:165|307:167|366:113,1,118.800001132965,0|2,3:1|2:1,2:1:0:0:
481,7,358152,2,0,B|488:18|488:18|458:63|476:142,1,118.800001132965,2|0,3:2|2:0,2:0:0:0:
512,298,358283,2,2,B|495:298|495:298|471:249|394:225,1,118.800001132965,2|2,3:2|1:3,2:1:0:0:
332,276,358414,6,2,L|326:244,1,32.3999990112305,2|0,3:2|2:0,2:1:0:0:
252,98,358676,6,2,B|236:98|236:98|216:145|146:174,1,118.800001132965,10|0,2:1|2:0,2:1:0:0:
10,230,358807,2,2,B|16:242|16:242|67:234|127:281,1,118.800001132965,2|0,3:2|2:0,2:1:0:0:
247,373,358939,2,2,B|253:359|253:359|221:319|231:243,1,118.800001132965,2|2,3:2|1:3,2:1:0:0:
53,134,359070,6,2,P|145:283|300:367,1,324.00001235962,2|0,3:2|2:0,2:1:0:0:
369,358,359332,6,0,P|384:378|372:356,6,74.25,0|0|0|0|0|0|0,1:0|2:0|2:0|2:0|2:0|2:0|2:0,2:0:0:0:
445,186,359660,6,0,B|435:130|488:120|489:57,1,135,0|0,1:0|3:0,2:0:0:0:
422,276,359988,6,0,P|476:288|490:203,1,112.5,8|0,3:2|2:0,2:0:0:0:
374,25,360152,1,0,1:0:0:0:
374,25,360234,1,0,3:0:0:0:
374,25,360316,2,0,P|320:13|306:98,1,112.5,4|0,3:0|0:0,2:0:0:0:
420,167,360480,6,0,P|368:180|334:139,1,112.5,8|0,3:2|0:0,2:0:0:0:
163,294,360644,2,0,P|159:347|206:373,1,112.5,0|0,1:0|0:0,2:0:0:0:
237,143,360807,1,4,3:0:0:0:
159,67,360971,6,0,P|205:94|201:147,1,112.5,8|0,3:2|2:0,2:0:0:0:
67,339,361135,2,0,B|29:370|-16:358|-16:358|-18:343|-18:343|113:312|106:110,1,337.5,0|0,1:0|0:0,2:0:0:0:
59,84,361463,6,0,P|36:85|18:99,1,45,0|0,3:0|2:0,2:0:0:0:
163,294,361627,1,8,3:2:0:0:
221,232,361791,2,0,P|244:233|262:246,1,45,0|0,1:0|2:0,2:0:0:0:
0,189,361955,6,0,B|3:192|3:192|-2:202|-2:202|11:186|11:186|-1:208|-1:208|18:188|18:188|2:213|2:213|23:193|23:193|8:216|8:216|24:198|24:198|12:218|12:218|28:203|28:203|17:218|17:218|29:210|29:210|23:221|23:221|29:215|29:215|30:223|30:223|33:217|33:217|36:223|36:223|39:216|39:216|41:230|41:230|44:226|51:224|51:224|48:234|55:244|55:244|72:230|72:230|71:265|71:265|78:236|98:229|98:229|83:266|97:291|97:291|105:238|136:218|136:218|111:286|148:324|148:324|149:212|197:194|197:194|156:312|230:347|230:347|212:209|280:164|280:164|247:331|338:375,1,1485,4|0,3:1|2:0,2:0:0:0:
407,352,364742,2,0,P|432:367|451:368,1,45,2|0,0:2|2:0,2:0:0:0:
473,323,365398,2,0,P|506:314|512:307,1,45,2|0,0:2|2:0,2:0:0:0:
502,273,366381,2,0,P|513:250|512:227,1,45,2|0,0:2|2:0,2:0:0:0:
497,227,367529,2,0,P|487:206|467:197,1,45,2|0,0:2|2:0,2:0:0:0:
386,216,373144,6,0,P|384:222|384:214,1,22.5,0|0,2:0|2:0,1:0:0:0:
121,115,386873,6,0,P|145:145|186:317,1,215.999993408203,2|0,0:0|0:0,0:0:0:0:
165,229,388840,2,0,P|177:211|182:169,1,53.9999983520508,2|0,0:0|0:0,0:0:0:0:
358,54,389496,6,0,B|384:42|422:58|422:58|334:78|305:160,1,215.999993408203,2|0,0:0|0:0,0:0:0:0:
324,254,391135,2,0,P|347:272|370:261,2,53.9999983520508,2|2|2,0:0|0:0|0:0,0:0:0:0:
408,184,392119,5,2,0:0:0:0:
506,290,392611,1,2,0:0:0:0:
435,348,393103,1,2,0:0:0:0:
380,284,393430,5,2,0:0:0:0:
309,253,393758,1,2,0:0:0:0:
232,250,394086,2,0,P|227:239|227:230,2,17.9999994506836,2|0|0,0:0|0:0|0:0,0:0:0:0:
169,296,394414,1,2,0:0:0:0:
42,170,394742,6,0,P|95:177|139:207,2,108,2|0|0,2:0|2:0|2:0,2:0:0:0:
220,137,396053,6,0,P|176:204|177:283,1,162,2|0,2:0|2:0,2:0:0:0:
448,368,396709,6,0,P|339:258|334:105,1,315,2|0,2:0|2:0,2:0:0:0:
422,58,397365,6,0,P|452:14|497:-3,1,90,8|0,1:3|2:0,2:0:0:0:
0,269,397693,5,0,2:0:0:0:
174,66,398021,1,0,2:0:0:0:
416,150,398348,1,0,2:0:0:0:
210,0,398676,1,2,1:3:0:0:
55,188,399004,1,0,2:0:0:0:
326,333,399332,1,0,3:0:0:0:
331,248,399660,1,0,1:0:0:0:
44,143,399988,6,0,P|29:100|-13:60,1,90,2|0,1:0|2:0,2:0:0:0:
0,384,400316,5,0,2:0:0:0:
291,181,400644,1,0,2:0:0:0:
79,256,400971,1,0,2:0:0:0:
419,380,401299,1,2,1:3:0:0:
164,217,401627,1,0,2:0:0:0:
452,184,401955,1,0,3:0:0:0:
395,261,402283,1,0,1:0:0:0:
479,88,402611,6,0,P|491:38|518:1,1,90,8|0,1:3|2:0,2:0:0:0:
0,244,403103,6,0,P|24:282|34:326,1,90,4|0,1:3|2:0,2:0:0:0:
436,271,403594,5,0,3:0:0:0:
100,128,403922,1,4,1:2:0:0:
346,164,404414,1,0,3:0:0:0:
207,233,404906,1,0,3:0:0:0:
83,52,405234,6,0,P|28:39|-7:17,1,90,8|0,1:3|2:0,2:0:0:0:
429,345,405725,6,0,P|468:323|512:315,1,90,4|0,1:3|2:0,2:0:0:0:
224,50,406217,5,0,3:0:0:0:
309,333,406545,1,4,1:2:0:0:
191,221,406873,1,0,3:0:0:0:
377,244,407201,2,0,P|353:168|344:90,1,157.5,0|0,3:0|2:0,2:0:0:0:
370,94,407857,6,0,P|377:62|410:15,1,90,8|0,1:3|2:0,2:0:0:0:
248,384,408185,1,0,2:0:0:0:
149,199,408512,1,0,2:0:0:0:
0,253,408840,1,0,2:0:0:0:
242,31,409168,1,2,1:3:0:0:
56,183,409496,1,0,2:0:0:0:
325,344,409824,1,0,3:0:0:0:
256,256,410152,1,0,1:0:0:0:
426,54,410480,6,0,P|490:11|529:4,1,90,2|0,1:0|2:0,2:0:0:0:
137,62,410807,5,0,2:0:0:0:
299,274,411135,1,0,2:0:0:0:
449,203,411463,1,0,2:0:0:0:
339,55,411791,1,2,1:3:0:0:
451,230,412119,1,0,2:0:0:0:
205,323,412447,1,0,3:0:0:0:
166,229,412775,1,0,1:0:0:0:
432,58,413103,6,0,P|496:33|524:10,1,90,8|0,1:3|2:0,2:0:0:0:
96,332,413594,6,0,P|51:336|7:331,1,90,4|0,1:3|2:0,2:0:0:0:
103,21,414086,5,0,3:0:0:0:
356,172,414414,1,4,1:2:0:0:
300,344,414906,1,0,3:0:0:0:
418,250,415398,1,0,3:0:0:0:
34,85,415725,6,0,P|6:31|0:-9,1,90,8|0,1:3|2:0,2:0:0:0:
479,383,416217,6,0,P|501:344|511:301,1,90,4|0,1:3|2:0,2:0:0:0:
497,51,416709,5,0,3:0:0:0:
250,80,417037,1,4,1:2:0:0:
226,303,417365,1,0,3:0:0:0:
156,196,417693,1,2,1:2:0:0:
75,179,418021,1,0,2:0:0:0:
75,179,418185,1,2,3:2:0:0:
480,357,418348,6,0,P|496:360|512:365,1,33.75,4|0,1:0|2:0,2:0:0:0:
432,237,420971,6,0,B|420:208|420:208|435:165,1,60,2|0,1:0|2:0,2:0:0:0:
409,234,421298,5,0,3:2:0:0:
393,215,421408,1,0,3:0:0:0:
343,244,421517,1,0,3:0:0:0:
264,184,421626,2,0,P|243:147|239:114,1,60,0|0,1:0|2:0,2:0:0:0:
354,300,421845,2,0,P|393:291|431:291,2,60,2|0|2,2:0|2:0|2:3,2:0:0:0:
283,212,422173,1,0,3:0:0:0:
262,356,422282,6,0,B|274:327|274:327|259:284,1,60,0|0,1:0|2:0,2:0:0:0:
228,287,422501,1,0,2:0:0:0:
207,286,422610,1,2,2:0:0:0:
197,325,422719,1,0,3:0:0:0:
141,303,422828,1,0,3:0:0:0:
278,252,422938,2,0,P|290:223|289:170,1,60,0|0,1:0|2:0,2:0:0:0:
314,334,423156,1,2,2:0:0:0:
206,372,423266,6,0,P|176:329|167:296,1,60,0|2,2:0|2:3,2:0:0:0:
132,245,423484,1,0,3:0:0:0:
32,384,423593,6,0,P|15:379|-1:376,1,33.75,4|0,1:0|2:0,2:0:0:0:
127,324,426217,6,0,B|146:299|146:299|138:261,1,60,4|0,1:3|2:0,2:0:0:0:
134,352,426544,5,0,3:2:0:0:
150,328,426654,1,0,3:0:0:0:
193,326,426763,1,0,3:0:0:0:
246,232,426872,2,0,P|251:194|264:154,1,60,0|0,1:0|2:0,2:0:0:0:
118,248,427091,2,0,P|142:284|156:310,2,60,2|0|2,2:0|2:0|2:3,2:0:0:0:
249,322,427419,1,0,3:0:0:0:
139,216,427528,6,0,B|129:186|129:186|150:153,1,60,0|0,1:0|2:0,2:0:0:0:
262,150,427747,1,0,2:0:0:0:
280,165,427856,1,2,2:0:0:0:
258,198,427965,1,0,3:0:0:0:
252,169,428074,1,0,3:0:0:0:
112,118,428184,2,0,P|85:132|64:153,1,60,0|0,1:0|2:0,2:0:0:0:
98,232,428402,1,2,2:0:0:0:
216,124,428512,2,0,P|250:71|252:42,1,60,0|2,2:0|2:3,2:0:0:0:
185,0,428730,1,0,3:0:0:0:
12,48,428839,6,0,P|7:31|4:15,1,33.75,4|0,1:0|2:0,2:0:0:0:
68,152,431463,6,0,B|95:157|95:157|120:138,1,60,8|0,1:3|2:0,2:0:0:0:
93,130,431790,5,0,3:2:0:0:
91,109,431900,1,0,3:0:0:0:
129,78,432009,1,0,3:0:0:0:
190,182,432118,2,0,P|224:158|268:157,1,60,0|0,1:0|2:0,2:0:0:0:
356,97,432337,2,0,P|307:81|283:60,2,60,2|0|2,2:0|2:0|2:3,2:0:0:0:
225,119,432665,1,0,3:0:0:0:
381,184,432774,6,0,B|403:201|403:201|409:233,1,60,0|0,1:0|2:0,2:0:0:0:
284,224,432993,1,0,2:0:0:0:
284,203,433102,1,2,2:0:0:0:
239,209,433211,1,0,3:0:0:0:
275,179,433320,1,0,3:0:0:0:
407,246,433430,2,0,B|444:223|472:220|472:220,2,60,0|0|2,1:0|2:0|2:0,2:0:0:0:
330,165,433758,2,0,P|279:150|259:135,1,60,0|2,2:0|2:3,2:0:0:0:
312,56,433976,1,0,3:0:0:0:
501,34,434085,6,0,P|506:17|509:1,1,33.75,4|0,1:0|2:0,2:0:0:0:
407,91,436709,6,0,B|374:86|374:86|339:111,1,60,4|0,1:3|2:0,2:0:0:0:
436,87,437036,5,0,3:2:0:0:
473,131,437146,1,0,3:0:0:0:
512,114,437255,1,0,3:0:0:0:
402,164,437364,2,0,P|366:184|347:206,2,60,0|0|2,1:0|2:0|2:0,2:0:0:0:
489,238,437692,2,0,P|508:279|511:302,1,60,0|2,2:0|2:3,2:0:0:0:
510,152,437911,1,0,3:0:0:0:
375,282,438020,6,0,B|348:295|348:295|316:286,1,60,2|0,1:0|2:0,2:0:0:0:
314,184,438239,1,0,2:0:0:0:
337,141,438348,1,2,2:0:0:0:
358,164,438457,1,0,3:0:0:0:
314,202,438566,1,0,3:0:0:0:
446,238,438676,2,0,P|483:228|505:206,1,60,0|0,1:0|2:0,2:0:0:0:
512,116,438894,1,2,2:0:0:0:
421,253,439004,2,0,P|374:241|346:227,1,60,0|2,3:0|2:3,2:0:0:0:
422,147,439222,1,0,3:0:0:0:
228,192,439331,6,0,P|197:197|156:212,1,53.9999999999999,4|0,1:0|2:0,2:0:0:0:
266,217,440643,2,0,P|297:222|338:237,1,53.9999999999999,0|0,2:0|2:0,2:0:0:0:
272,322,441954,5,0,2:0:0:0:
225,214,442446,1,0,2:0:0:0:
276,134,442774,1,0,2:0:0:0:
226,42,443266,5,0,2:0:0:0:
261,101,443594,1,0,2:0:0:0:
232,138,443922,1,0,2:0:0:0:
267,285,444249,2,0,L|259:322,3,26.9999999999999,0|0|0|0,2:0|2:0|2:0|2:0,2:0:0:0:
327,217,444578,6,0,P|319:188|318:169,1,45,2|0,2:0|2:0,2:0:0:0:
223,57,445058,2,0,P|215:28|214:9,1,45,2|0,2:0|2:0,2:0:0:0:
181,254,445860,6,0,P|193:226|196:203,1,45,2|0,2:0|2:0,2:0:0:0:
312,75,446341,2,0,P|324:47|327:24,1,45,2|0,2:0|2:0,2:0:0:0:
339,369,447144,6,0,P|331:340|330:321,1,45,2|0,2:0|2:0,2:0:0:0:
223,218,447606,2,0,P|215:189|214:170,1,45,2|0,2:0|2:0,2:0:0:0:
157,329,448070,2,0,P|149:300|148:281,1,45,2|0,2:0|2:0,2:0:0:0:
304,260,448371,5,2,2:0:0:0:
209,181,448671,1,0,2:0:0:0:
289,90,448971,1,0,2:0:0:0:
229,31,449271,1,2,2:0:0:0:
332,101,449421,5,0,3:0:0:0:
332,101,449496,1,0,3:0:0:0:
332,101,449571,2,0,P|385:95|410:83,1,62.9999999999999,0|0,1:0|1:0,2:0:0:0:
252,175,449871,2,0,P|258:228|270:253,1,62.9999999999999,0|0,1:0|1:0,2:0:0:0:
165,110,450171,2,0,P|112:116|87:128,1,62.9999999999999,0|0,1:0|1:0,2:0:0:0:
220,16,450471,6,0,P|243:13|264:6,1,45,0|0,1:0|2:0,2:0:0:0:
274,17,450621,2,0,P|253:22|231:25,1,45,0|0,1:0|2:0,2:0:0:0:
131,126,450771,6,0,P|69:104|9:104,1,90,0|0,1:0|1:0,2:0:0:0:
214,271,451071,2,0,P|192:333|192:393,1,90,0|0,1:0|1:0,2:0:0:0:
361,187,451371,2,0,P|423:209|483:209,1,90,0|0,1:0|1:0,2:0:0:0:
279,56,451671,5,0,1:0:0:0:
279,56,451746,1,0,2:0:0:0:
279,56,451821,1,0,1:0:0:0:
279,56,451896,1,0,2:0:0:0:
279,56,451971,5,0,1:3:0:0:
176,88,452121,1,0,1:0:0:0:
211,184,452271,1,8,1:3:0:0:
408,113,452421,2,0,P|464:84|514:69,1,90,0|8,1:0|1:3,2:0:0:0:
233,169,452721,5,0,1:0:0:0:
352,215,452871,1,8,1:3:0:0:
297,333,453021,1,0,1:0:0:0:
96,168,453171,6,0,P|61:105|27:67,1,90,2|0,1:0|1:3,2:0:0:0:
166,84,453396,2,0,P|192:17|199:-33,1,90,8|0,2:3|2:0,2:0:0:0:
279,60,453621,1,8,1:3:0:0:
460,228,453771,5,8,1:3:0:0:
330,251,453921,1,8,1:3:0:0:
444,133,454071,6,0,P|459:116|468:96,1,45,8|0,1:3|2:0,2:0:0:0:
369,106,454221,2,0,P|371:83|378:62,1,45,8|0,1:3|2:0,2:0:0:0:
503,0,454371,5,8,1:3:0:0:
480,21,454446,1,0,1:0:0:0:
456,42,454521,1,8,1:3:0:0:
430,60,454596,1,0,1:0:0:0:
403,76,454671,1,8,1:3:0:0:
375,90,454746,1,0,1:0:0:0:
346,102,454821,1,8,1:3:0:0:
316,112,454896,1,0,1:0:0:0:
285,119,454971,1,8,1:3:0:0:
254,124,455046,1,0,1:0:0:0:
223,127,455121,1,8,1:3:0:0:
191,127,455196,1,0,1:0:0:0:
138,151,455271,5,8,1:3:0:0:
166,92,455346,1,0,1:0:0:0:
148,28,455421,1,8,1:3:0:0:
84,7,455496,1,0,1:0:0:0:
23,37,455571,5,8,1:3:0:0:
70,47,455646,1,0,1:0:0:0:
117,61,455721,1,8,1:3:0:0:
163,77,455796,1,0,1:0:0:0:
207,96,455871,1,8,1:3:0:0:
251,115,455946,1,0,1:0:0:0:
295,138,456021,1,8,1:3:0:0:
336,164,456096,1,0,1:0:0:0:
377,192,456171,1,8,1:3:0:0:
414,221,456246,1,0,1:0:0:0:
450,254,456321,1,8,1:3:0:0:
486,288,456396,1,0,1:0:0:0:
459,346,456471,5,8,1:3:0:0:
450,346,456546,1,0,1:0:0:0:
442,348,456621,1,8,1:3:0:0:
435,351,456696,1,0,1:0:0:0:
488,368,456771,6,0,P|455:352|441:334,1,45,8|8,1:3|1:3,2:0:0:0:
506,310,456846,2,0,P|471:297|455:280,1,45,0|0,1:0|1:0,2:0:0:0:
510,251,456921,2,0,P|474:246|455:233,1,45,8|8,1:3|1:3,2:0:0:0:
501,192,456996,2,0,P|464:193|442:183,1,45,0|0,1:0|1:0,2:0:0:0:
479,137,457071,2,0,P|442:144|420:137,1,45,8|8,1:3|1:3,2:0:0:0:
445,90,457146,2,0,P|410:102|387:99,1,45,0|0,1:0|1:0,2:0:0:0:
399,49,457221,2,0,P|366:67|343:67,1,45,8|8,1:3|1:3,2:0:0:0:
346,22,457296,2,0,P|317:45|294:49,1,45,0|0,1:0|1:0,2:0:0:0:
289,8,457371,2,0,P|264:35|241:42,1,45,8|8,1:3|1:3,2:0:0:0:
228,7,457446,2,0,P|207:37|186:48,1,45,0|0,1:0|1:0,2:0:0:0:
171,20,457521,2,0,P|155:53|137:67,1,45,8|8,1:3|1:3,2:0:0:0:
118,47,457596,2,0,P|108:82|91:99,1,45,0|0,1:0|1:0,2:0:0:0:
71,86,457671,2,0,P|66:123|53:142,1,45,8|8,1:3|1:3,2:0:0:0:
36,133,457746,2,0,P|37:169|27:191,1,45,0|0,1:0|1:0,2:0:0:0:
12,187,457821,2,0,P|19:223|12:245,1,45,8|8,1:3|1:3,2:0:0:0:
2,247,457896,2,0,P|14:281|11:304,1,45,0|0,1:0|1:0,2:0:0:0:
4,305,457971,6,0,B|3:315|0:327|0:327|16:337|29:366|29:366|34:336|26:316|26:316|14:311|4:305|4:305|2:296,1,148.5,2|0,2:0|2:0,2:0:0:0:
56,233,458871,5,0,3:0:0:0:
95,187,458946,1,0,3:0:0:0:
151,163,459021,1,0,3:0:0:0:
211,171,459096,1,0,3:0:0:0:
259,245,459171,6,0,P|237:300|236:365,1,85.5,4|0,1:0|2:0,2:0:0:0:
330,74,459321,2,0,P|322:40|292:-5,1,85.5,2|0,3:0|2:0,2:0:0:0:
452,199,459471,2,0,P|480:210|543:222,1,85.5,10|0,1:2|2:0,2:0:0:0:
66,42,459621,6,0,B|83:71|83:71|246:94|298:259,1,337.5,2|0,3:0|2:0,2:0:0:0:
342,366,459921,1,2,3:0:0:0:
113,164,460071,5,10,1:2:0:0:
54,168,460146,1,2,2:0:0:0:
13,208,460221,1,2,3:0:0:0:
0,264,460296,1,2,2:0:0:0:
24,318,460371,6,0,B|60:284|60:284|156:268,1,85.5,2|0,1:2|2:0,2:0:0:0:
155,103,460521,2,0,B|153:147|153:147|174:190,1,85.5,2|0,3:0|2:0,2:0:0:0:
409,179,460671,2,0,B|448:195|448:195|479:226,1,85.5,10|0,1:2|2:0,2:0:0:0:
501,12,460821,6,0,B|480:42|480:42|316:71|254:236,1,337.5,2|0,3:0|2:0,2:0:0:0:
168,330,461121,1,2,3:0:0:0:
373,99,461271,5,10,1:2:0:0:
425,84,461346,1,2,2:0:0:0:
479,97,461421,1,2,3:0:0:0:
512,143,461496,1,2,2:0:0:0:
509,198,461571,6,0,P|454:178|367:158,1,85.5,2|0,1:2|2:0,2:0:0:0:
264,111,461721,2,0,P|304:151|307:215,1,85.5,2|0,3:0|2:0,2:0:0:0:
170,384,461871,2,0,P|193:355|277:314,1,85.5,10|0,1:2|2:0,2:0:0:0:
170,251,462021,2,0,B|80:268|89:186|-27:225,1,171,2|0,3:0|1:2,2:0:0:0:
385,330,462321,6,0,P|346:320|315:275,1,85.5,2|0,3:0|2:0,2:0:0:0:
146,162,462471,2,0,P|126:126|103:73,1,85.5,10|0,1:2|2:0,2:0:0:0:
294,129,462621,2,0,P|260:150|247:204,1,85.5,2|0,3:0|2:0,2:0:0:0:
1,380,462771,6,0,B|46:362|46:362|86:280,1,94.5,2|0,1:2|2:0,2:0:0:0:
23,76,462921,1,2,3:0:0:0:
32,132,462996,2,0,B|69:166|69:166|161:155,1,94.5,2|8,2:0|1:2,2:0:0:0:
266,31,463146,1,2,2:0:0:0:
240,53,463221,2,0,B|233:102|233:102|284:176,1,94.5,2|0,3:0|2:0,2:0:0:0:
392,244,463371,5,2,1:2:0:0:
504,112,463521,1,2,3:0:0:0:
435,352,463671,5,2,3:2:0:0:
433,360,463746,1,2,2:0:0:0:
435,373,463821,1,2,3:0:0:0:
440,384,463896,1,2,2:0:0:0:
483,322,463971,6,0,B|487:297|487:297|509:276|531:202,1,85.5,6|0,1:2|2:0,2:0:0:0:
307,220,464121,2,0,B|295:205|295:205|290:166|258:134,1,85.5,2|0,3:0|2:0,2:0:0:0:
367,108,464271,2,0,B|355:93|355:93|366:58|362:14,1,85.5,10|0,1:2|2:0,2:0:0:0:
37,330,464421,6,0,B|69:342|69:342|218:244|158:38,1,337.5,2|0,3:0|2:0,2:0:0:0:
70,20,464721,1,2,3:0:0:0:
274,184,464871,5,10,1:2:0:0:
320,161,464946,1,2,2:0:0:0:
375,168,465021,1,2,3:0:0:0:
412,214,465096,1,2,2:0:0:0:
409,270,465171,6,0,B|390:256|390:256|345:277|284:255,1,85.4999977169037,2|0,1:2|2:0,2:0:0:0:
257,95,465321,2,0,B|240:89|240:89|230:46|197:8,1,85.4999977169037,2|0,3:0|2:0,3:0:0:0:
202,298,465471,2,0,B|196:282|196:282|158:279|126:256,1,85.4999977169037,10|0,1:2|2:0,2:0:0:0:
410,356,465621,6,0,B|378:368|378:368|229:270|289:64,1,337.5,2|0,3:0|2:0,2:0:0:0:
350,1,465921,1,2,3:0:0:0:
451,231,466071,6,0,P|406:248|389:228,1,67.5,10|0,1:2|2:0,2:0:0:0:
369,123,466221,2,0,P|435:93|465:139,1,108,2|0,3:0|2:0,2:0:0:0:
365,382,466371,6,0,P|312:342|225:351,1,94.5,2|0,1:2|2:0,2:0:0:0:
0,222,466521,1,2,3:0:0:0:
30,311,466596,2,0,P|83:265|138:261,1,94.5,2|8,3:2|1:2,2:0:0:0:
308,204,466746,1,2,3:2:0:0:
316,253,466821,2,0,P|263:194|199:185,1,94.5,2|0,3:0|2:0,2:0:0:0:
58,76,466971,6,0,P|23:63|0:42,1,67.5,2|0,1:2|2:0,2:0:0:0:
65,166,467121,2,0,P|27:194|12:197,1,45,2|0,0:0|0:0,0:0:0:0:
197,134,467271,2,0,P|232:147|255:168,1,67.5,10|0,1:2|2:0,2:0:0:0:
190,44,467421,2,0,P|227:15|242:12,1,45,2|0,0:0|0:0,0:0:0:0:
29,128,467571,6,0,P|71:123|108:104,1,85.5,2|0,1:2|2:0,2:0:0:0:
382,0,467721,1,2,3:0:0:0:
337,6,467796,2,0,P|312:37|299:84,1,85.5,2|8,3:2|1:2,2:0:0:0:
461,204,467946,1,2,3:2:0:0:
443,214,468021,2,0,P|400:200|384:156,1,85.5,2|0,3:0|2:0,2:0:0:0:
462,50,468171,5,2,1:2:0:0:
268,174,468321,1,2,3:0:0:0:
425,310,468471,5,10,1:2:0:0:
433,325,468546,1,2,3:0:0:0:
436,341,468621,1,2,3:0:0:0:
437,359,468696,1,2,3:0:0:0:
402,307,468771,6,0,P|328:295|291:304,1,85.5,4|0,1:0|2:0,2:0:0:0:
110,322,468921,2,0,P|89:362|43:376,1,85.5,2|0,3:0|2:0,2:0:0:0:
264,205,469071,2,0,P|237:234|217:281,1,85.5,10|0,1:2|2:0,2:0:0:0:
0,50,469221,6,0,B|81:4|168:50|150:90|222:164|314:79,1,337.5,2|0,3:0|2:0,2:0:0:0:
372,2,469521,1,2,3:0:0:0:
70,125,469671,5,10,1:2:0:0:
106,158,469746,1,2,2:0:0:0:
125,205,469821,1,2,3:0:0:0:
124,256,469896,1,2,2:0:0:0:
100,302,469971,6,0,P|131:269|190:250,1,85.5,2|0,1:2|2:0,2:0:0:0:
368,279,470121,2,0,P|384:238|423:222,1,85.5,2|0,3:0|2:0,2:0:0:0:
300,125,470271,2,0,P|338:106|384:121,1,85.5,10|0,1:2|2:0,2:0:0:0:
512,37,470421,6,0,B|430:-8|343:37|361:77|289:151|197:66,1,337.5,2|0,3:0|2:0,2:0:0:0:
133,0,470721,1,2,3:0:0:0:
363,261,470871,5,10,1:2:0:0:
402,240,470946,1,2,2:0:0:0:
422,202,471021,1,2,3:0:0:0:
425,159,471096,1,2,2:0:0:0:
399,124,471171,6,0,P|394:50|400:21,1,85.5,2|0,1:2|2:0,2:0:0:0:
127,138,471321,2,0,P|158:167|194:189,1,85.5,2|0,3:0|2:0,2:0:0:0:
298,77,471471,2,0,P|283:30|280:-17,1,85.5,10|2,1:2|2:0,2:0:0:0:
499,67,471621,2,0,P|437:174|399:310,1,256.5,2|0,3:0|2:0,2:0:0:0:
282,316,471921,6,0,B|319:342|319:342|335:406,1,85.5,2|0,3:0|2:0,2:0:0:0:
512,257,472071,2,0,P|501:296|496:351,1,85.5,10|0,1:2|2:0,2:0:0:0:
259,175,472221,2,0,B|253:220|253:220|194:270,1,85.5,2|0,3:0|2:0,2:0:0:0:
95,384,472371,6,0,P|87:329|110:268,1,94.5,2|0,1:2|2:0,2:0:0:0:
363,163,472521,1,2,3:0:0:0:
406,185,472596,2,0,P|394:146|360:97,1,94.5,2|8,3:2|1:2,2:0:0:0:
192,95,472746,1,2,3:2:0:0:
170,119,472821,2,0,P|171:62|204:8,1,94.5,2|0,3:0|2:0,2:0:0:0:
292,24,472971,5,2,1:2:0:0:
233,199,473121,1,2,3:0:0:0:
78,44,473271,5,10,1:2:0:0:
63,33,473346,1,2,3:0:0:0:
48,29,473421,1,2,3:0:0:0:
32,27,473496,1,2,3:0:0:0:
112,39,473571,6,0,P|147:100|132:160,1,85.5,6|0,1:2|2:0,2:0:0:0:
192,251,473721,2,0,B|198:205|198:205|258:156,1,85.5,2|0,3:0|2:0,2:0:0:0:
20,256,473871,2,0,P|99:230|138:232,1,85.5,10|0,1:2|2:0,2:0:0:0:
458,362,474021,6,0,P|322:275|351:134,1,324,2|0,3:0|2:0,2:0:0:0:
478,70,474321,1,2,3:0:0:0:
311,304,474471,5,10,1:2:0:0:
324,254,474546,1,2,2:0:0:0:
364,220,474621,1,2,3:0:0:0:
415,213,474696,1,2,2:0:0:0:
471,280,474771,6,0,B|435:307|435:307|419:376,1,85.5,6|0,1:2|2:0,2:0:0:0:
407,175,474921,2,0,P|392:112|370:88,1,85.5,2|0,3:0|2:0,2:0:0:0:
322,334,475071,2,0,P|280:325|237:325,1,85.5,10|0,1:2|2:0,2:0:0:0:
38,281,475221,6,0,P|174:194|145:53,1,324,2|0,3:0|2:0,2:0:0:0:
24,37,475521,1,2,3:0:0:0:
173,384,475671,2,0,P|160:256|270:171,1,256.5,10|0,1:2|2:0,2:0:0:0:
428,64,475971,5,6,1:2:0:0:
352,197,476121,2,0,P|376:144|355:199,2,180,2|2|2,3:0|3:0|3:0,2:0:0:0:
372,124,477021,2,0,P|333:147|315:187,1,67.5,2|0,3:0|2:0,2:0:0:0:
210,331,477171,6,4,P|211:354|223:373,2,45.0000017166138,4|4|4,1:3|1:3|1:3,1:3:0:0:
129,355,477321,5,4,1:3:0:0:
121,336,477396,1,4,1:3:0:0:
109,352,477471,1,4,1:3:0:0:
105,335,477546,1,4,1:3:0:0:
93,346,477621,1,4,1:3:0:0:
91,329,477696,1,0,1:3:0:0:
58,341,477771,6,0,P|47:312|22:276,1,63,0|0,1:3|2:0,2:0:0:0:
54,146,477921,2,0,P|82:135|118:110,1,63,0|0,1:3|2:0,2:0:0:0:
240,155,478071,2,0,P|251:183|275:219,1,63,0|0,1:3|2:0,2:0:0:0:
243,349,478221,2,0,P|214:360|178:384,1,63,0|0,1:3|2:0,2:0:0:0:
149,248,478371,5,6,1:0:0:0:
426,183,481521,6,0,B|442:151|442:151|494:124,1,72,2|0,2:0|2:0,2:0:0:0:
450,46,481671,2,0,B|414:48|414:48|364:16,1,72,2|0,2:0|2:0,2:0:0:0:
321,95,481821,2,0,B|340:124|340:124|338:183,1,72,2|0,2:0|2:0,2:0:0:0:
170,328,481971,6,0,B|152:332|152:332|95:228|-19:194,1,225,6|0,1:2|2:0,2:0:0:0:
241,138,482196,2,0,B|252:152|252:152|362:109|471:156,1,225,6|0,1:2|2:0,2:0:0:0:
131,71,482421,2,0,B|105:94|108:120|108:120|135:136|148:162,1,112.5,6|0,1:2|2:0,2:0:0:0:
274,275,482571,6,0,P|318:245|391:239,1,108,6|0,1:2|3:0,2:0:0:0:
136,184,482871,1,8,3:2:0:0:
136,184,482946,1,8,0:3:0:0:
136,184,483021,2,0,P|133:206|137:229,1,45,8|8,2:3|2:3,2:0:0:0:
0,361,483171,6,0,B|17:368|17:368|51:347|105:348,1,85.5,4|0,1:0|2:0,2:0:0:0:
183,320,483321,2,0,B|188:337|188:337|226:350|260:392,1,85.5,2|0,3:0|2:0,2:0:0:0:
84,102,483471,2,0,B|66:107|66:107|53:145|12:179,1,85.5,10|0,1:2|2:0,2:0:0:0:
348,378,483621,6,0,B|347:246|460:180|460:180|498:62,1,337.5,2|0,3:0|2:0,2:0:0:0:
433,2,483921,1,2,3:0:0:0:
510,316,484071,5,10,1:2:0:0:
452,335,484146,1,2,2:0:0:0:
397,318,484221,1,2,3:0:0:0:
357,269,484296,1,2,2:0:0:0:
370,205,484371,6,0,B|419:170|419:170|488:169,1,85.5,2|0,1:2|2:0,2:0:0:0:
327,117,484521,2,0,B|321:57|321:57|354:-3,1,85.5,2|0,3:0|2:0,2:0:0:0:
164,321,484671,2,0,B|121:363|121:363|54:376,1,85.5,10|0,1:2|2:0,2:0:0:0:
182,7,484821,6,0,B|262:100|223:230|223:230|270:345,1,337.5,2|0,3:0|2:0,2:0:0:0:
348,372,485121,1,2,3:0:0:0:
119,76,485271,5,10,1:2:0:0:
103,61,485346,1,2,2:0:0:0:
84,54,485421,1,2,3:0:0:0:
63,54,485496,1,2,2:0:0:0:
36,104,485571,6,0,P|63:136|68:199,1,98.9999999999999,2|0,1:2|2:0,2:0:0:0:
256,320,485721,1,2,3:0:0:0:
177,336,485796,2,0,P|181:287|210:248,1,98.9999999999999,2|8,3:2|1:2,2:0:0:0:
445,99,485946,1,2,3:2:0:0:
473,116,486021,2,0,P|468:67|439:28,1,98.9999999999999,2|0,3:0|2:0,2:0:0:0:
184,62,486171,6,0,P|149:49|126:28,1,67.5,2|0,1:2|2:0,2:0:0:0:
191,152,486321,2,0,P|153:180|138:183,1,45,2|0,0:0|0:0,0:0:0:0:
323,120,486471,2,0,P|358:133|381:154,1,67.5,10|0,1:2|2:0,2:0:0:0:
316,30,486621,2,0,P|353:1|368:-1,1,45,2|0,0:0|0:0,0:0:0:0:
109,266,486771,6,0,P|135:269|186:313,1,90,2|0,1:2|2:0,2:0:0:0:
366,384,486921,1,2,3:0:0:0:
316,381,486996,2,0,P|347:349|390:339,1,90,2|8,3:2|1:2,2:0:0:0:
486,232,487146,1,2,3:2:0:0:
458,240,487221,2,0,P|457:195|481:157,1,90,2|0,3:0|2:0,2:0:0:0:
493,40,487371,5,2,1:2:0:0:
406,7,487521,1,2,3:0:0:0:
354,185,487671,5,10,1:2:0:0:
360,195,487746,1,2,3:0:0:0:
365,206,487821,1,2,3:0:0:0:
368,217,487896,1,2,3:0:0:0:
440,248,487971,6,0,P|486:201|564:194,1,94.5,4|0,1:0|2:0,2:0:0:0:
324,40,488121,1,2,3:0:0:0:
370,6,488196,2,0,P|386:69|354:140,1,94.5,2|8,3:2|1:2,2:0:0:0:
286,248,488346,1,2,3:2:0:0:
286,248,488421,1,2,3:0:0:0:
74,362,488571,6,0,P|27:315|-50:308,1,94.5,0|0,1:2|2:0,2:0:0:0:
172,151,488721,1,2,3:3:0:0:
131,117,488796,2,0,P|115:180|147:251,1,94.5,2|8,3:2|1:2,2:0:0:0:
235,364,488946,1,2,3:2:0:0:
235,364,489021,1,2,3:0:0:0:
440,248,489171,6,0,P|486:201|564:194,1,94.5,0|0,1:2|2:0,2:0:0:0:
319,0,489321,1,2,3:0:0:0:
370,6,489396,2,0,P|386:69|354:140,1,94.5,2|8,3:2|1:2,2:0:0:0:
286,248,489546,1,2,3:2:0:0:
286,248,489621,1,2,3:0:0:0:
74,362,489771,6,0,P|27:315|-50:308,1,94.5,0|0,1:2|2:0,2:0:0:0:
186,104,489921,1,2,3:0:0:0:
131,117,489996,2,0,P|115:180|147:251,1,94.5,2|8,3:2|1:2,2:0:0:0:
235,364,490146,1,2,3:2:0:0:
235,364,490221,1,2,3:0:0:0:
488,217,490371,5,2,1:2:0:0:
499,139,490446,1,2,3:2:0:0:
432,97,490521,2,0,P|385:166|442:197,1,108,2|0,3:0|3:0,2:0:0:0:
103,200,490671,5,10,1:2:0:0:
61,173,490746,1,2,3:2:0:0:
65,121,490821,2,0,P|104:94|157:133,1,80.9999999999999,2|0,3:0|3:0,2:0:0:0:
214,16,490971,6,0,P|222:51|231:99,1,67.5,2|0,1:2|3:0,2:0:0:0:
280,159,491121,2,0,P|271:126|265:93,1,67.5,2|0,3:0|3:0,2:0:0:0:
191,169,491271,6,0,P|166:200|193:265,1,94.5,10|0,1:2|2:0,2:0:0:0:
452,377,491421,2,0,P|479:340|468:295,1,94.5,2|0,3:0|2:0,2:0:0:0:
248,316,491571,6,0,P|277:279|315:251,1,94.5,2|0,1:2|2:0,2:0:0:0:
405,39,491721,1,2,3:0:0:0:
353,11,491796,2,0,P|372:87|403:131,1,94.5,2|8,3:2|1:2,2:0:0:0:
496,177,491946,1,2,3:2:0:0:
499,143,492021,2,0,P|442:198|420:247,1,94.5,2|0,3:0|2:0,2:0:0:0:
355,381,492171,5,2,1:2:0:0:
307,281,492321,1,2,3:0:0:0:
147,332,492471,5,8,1:2:0:0:
135,329,492546,1,0,3:0:0:0:
121,326,492621,1,2,3:0:0:0:
109,322,492696,1,0,3:0:0:0:
60,384,492771,6,0,B|48:283|48:283|59:261|59:261|11:164,1,189,12|0,1:2|1:0,2:0:0:0:
467,125,493071,1,0,1:0:0:0:
486,143,493146,1,0,2:0:0:0:
417,191,493221,2,0,B|449:94|449:94|463:75|463:75|454:53|454:53|457:0,1,189,4|0,1:0|1:0,2:0:0:0:
305,15,493521,2,0,B|349:55|349:55|348:89,1,94.5,0|0,1:0|2:0,2:0:0:0:
404,304,493671,5,12,1:2:0:0:
385,316,493746,1,0,1:0:0:0:
380,339,493821,1,0,1:0:0:0:
390,361,493896,1,0,1:0:0:0:
473,359,493971,6,0,B|430:298|430:298|427:195|427:195|397:182,1,189,4|0,1:0|1:0,2:0:0:0:
30,130,494271,1,0,1:0:0:0:
0,143,494346,1,0,2:0:0:0:
46,208,494421,2,0,B|62:194|62:194|107:42|107:42|70:-16,1,189,12|0,1:2|1:0,2:0:0:0:
3,28,494721,2,0,B|41:21|41:21|92:65,1,94.5,0|0,1:0|2:0,2:0:0:0:
111,295,494871,1,4,1:0:0:0:
81,93,495021,2,0,B|114:73|114:73|177:97,1,94.5,0|0,1:0|2:0,2:0:0:0:
249,11,495171,5,8,1:0:0:0:
302,384,496371,5,2,2:0:0:0:
302,384,496671,1,2,2:0:0:0:
379,229,496971,6,0,B|384:204|384:204|372:162,1,45,2|8,3:2|2:3,2:0:0:0:
481,283,497121,2,0,B|461:280|461:280|437:290,1,45,4|0,2:3|1:3,2:0:0:0:
351,317,497271,5,10,3:2:0:0:
342,303,497346,1,0,2:0:0:0:
321,287,497421,1,0,2:0:0:0:
276,267,497496,1,0,2:0:0:0:
216,264,497571,5,4,1:0:0:0:
295,384,497721,1,0,2:0:0:0:
496,64,497871,1,10,2:0:0:0:
104,240,498021,1,0,1:0:0:0:
238,176,498171,6,0,P|240:91|221:9,1,171,2|0,2:0|1:0,2:0:0:0:
379,327,498471,2,0,P|457:248|543:206,1,171,10|0,2:0|2:0,2:0:0:0:
512,88,498696,1,0,2:0:0:0:
512,88,498771,2,0,P|409:101|298:80,1,171,2|0,1:2|1:0,2:0:0:0:
434,4,499071,1,10,2:0:0:0:
81,120,499221,2,0,P|182:138|246:184,1,171,0|2,1:0|2:0,2:0:0:0:
401,309,499521,1,0,1:0:0:0:
62,356,499671,2,0,B|137:271|254:288|254:288|323:262,1,256.5,10|0,2:0|2:0,2:0:0:0:
355,183,499971,5,4,1:2:0:0:
512,384,500121,1,0,1:2:0:0:
229,190,500271,1,10,2:0:0:0:
512,0,500421,1,0,1:0:0:0:
477,149,500571,6,0,P|412:94|335:59,1,171,2|0,2:0|1:0,2:0:0:0:
349,307,500871,2,0,P|265:290|181:300,1,171,10|0,2:0|2:0,2:0:0:0:
0,305,501096,1,0,2:0:0:0:
0,305,501171,2,0,P|58:243|133:202,1,171,2|0,1:2|1:0,2:0:0:0:
245,384,501471,1,10,2:0:0:0:
412,166,501621,2,0,P|404:73|432:-13,1,171,0|2,1:0|2:0,2:0:0:0:
512,296,501921,1,0,1:0:0:0:
498,114,502071,6,0,B|465:92|425:82|425:82|414:50,1,108,10|0,2:0|2:0,2:0:0:0:
346,250,502221,2,0,B|306:254|269:272|269:272|240:254,1,108,8|0,2:0|2:0,2:0:0:0:
2,94,502371,5,4,1:0:0:0:
89,1,502521,1,0,2:0:0:0:
320,157,502671,1,10,2:0:0:0:
48,384,502821,1,0,1:0:0:0:
162,308,502971,6,0,P|136:209|89:121,1,171,2|0,2:0|1:0,2:0:0:0:
460,80,503271,2,0,P|424:157|404:240,1,171,10|0,2:0|2:0,2:0:0:0:
476,363,503496,1,0,2:0:0:0:
476,363,503571,1,2,1:2:0:0:
318,123,503721,2,0,P|213:84|138:30,1,171,0|10,1:0|2:0,2:0:0:0:
0,368,504021,2,0,P|72:323|153:296,1,171,0|2,1:0|2:0,2:0:0:0:
0,204,504321,1,0,1:0:0:0:
285,339,504471,5,10,2:0:0:0:
305,351,504546,1,8,1:3:0:0:
324,367,504621,1,4,1:3:0:0:
339,384,504696,1,0,1:3:0:0:
268,348,504771,6,0,P|257:278|260:232,1,85.5,12|0,2:0|2:0,2:0:0:0:
407,22,504921,5,0,2:0:0:0:
470,33,504996,1,0,2:0:0:0:
502,69,505071,1,2,1:2:0:0:
508,104,505146,1,0,1:0:0:0:
490,133,505221,5,4,2:1:0:0:
447,95,505296,1,0,2:0:0:0:
397,96,505371,1,2,2:0:0:0:
362,118,505446,1,0,2:0:0:0:
354,154,505521,1,0,1:2:0:0:
369,186,505596,1,0,1:0:0:0:
409,188,505671,5,12,2:0:0:0:
413,178,505746,1,0,2:0:0:0:
418,174,505821,1,0,1:0:0:0:
423,173,505896,1,0,2:0:0:0:
440,207,505971,5,0,1:2:0:0:
446,197,506046,1,0,1:0:0:0:
458,201,506121,1,4,2:1:0:0:
467,190,506196,1,0,2:0:0:0:
500,268,506271,5,2,2:0:0:0:
466,234,506346,1,0,2:0:0:0:
406,218,506421,1,0,1:2:0:0:
332,220,506496,1,0,1:0:0:0:
258,260,506571,2,0,P|158:314|96:366,1,171,12|0,2:0|1:0,2:0:0:0:
512,91,506871,6,0,P|479:91|453:72,1,67.5,12|0,2:0|2:0,2:0:0:0:
394,0,507171,5,4,1:0:0:0:
419,284,507321,1,0,2:0:0:0:
135,311,507471,1,10,2:0:0:0:
99,28,507621,6,0,P|53:8|31:10,1,67.5,0|0,1:0|2:0,2:0:0:0:
141,113,507921,1,0,1:0:0:0:
80,375,508071,5,10,2:0:0:0:
60,382,508146,1,0,2:0:0:0:
32,374,508221,1,0,2:0:0:0:
8,348,508296,1,0,2:0:0:0:
0,294,508371,2,0,P|93:288|182:183,1,171,2|0,1:2|1:0,2:0:0:0:
0,184,508671,1,10,2:0:0:0:
393,294,508821,2,0,P|315:242|290:106,1,171,0|2,1:0|2:0,2:0:0:0:
272,371,509121,1,0,1:0:0:0:
453,61,509271,6,0,P|468:14|482:-6,1,67.5,10|0,2:0|2:0,2:0:0:0:
361,16,509571,5,4,1:2:0:0:
77,226,509721,1,0,1:2:0:0:
110,336,509871,1,10,2:0:0:0:
461,368,510021,6,0,P|490:351|513:326,1,67.5,0|0,1:0|2:0,2:0:0:0:
501,226,510321,1,0,1:0:0:0:
266,101,510471,5,10,2:0:0:0:
250,122,510546,1,0,2:0:0:0:
248,152,510621,1,0,2:0:0:0:
266,190,510696,1,0,2:0:0:0:
319,216,510771,2,0,P|385:163|467:142,1,171,2|0,1:2|1:0,2:0:0:0:
114,98,511071,1,10,2:0:0:0:
301,340,511221,2,0,P|242:278|163:247,1,171,0|2,1:0|2:0,2:0:0:0:
393,342,511521,1,0,1:0:0:0:
419,132,511671,6,0,B|397:117|397:117|373:150|325:164,1,108,10|0,2:0|2:0,2:0:0:0:
141,265,511821,2,0,B|116:271|116:271|104:232|64:202,1,108,8|0,2:0|2:0,2:0:0:0:
69,15,511971,5,4,1:0:0:0:
274,85,512121,1,0,2:0:0:0:
217,384,512271,1,10,2:0:0:0:
0,384,512421,6,0,P|5:355|50:322,1,67.5,0|0,1:0|2:0,2:0:0:0:
0,250,512721,5,0,1:0:0:0:
300,327,512871,2,0,P|387:283|459:196,1,171,10|0,2:0|2:0,2:0:0:0:
103,384,513171,5,2,1:2:0:0:
245,103,513321,2,0,P|236:206|175:294,1,171,0|10,1:0|2:0,2:0:0:0:
490,348,513621,2,0,P|426:292|398:212,1,171,0|2,1:0|2:0,2:0:0:0:
265,85,513921,1,0,1:0:0:0:
94,349,514071,5,10,2:0:0:0:
71,345,514146,1,8,1:3:0:0:
51,334,514221,1,4,1:3:0:0:
37,317,514296,1,0,1:3:0:0:
87,383,514371,6,0,B|116:364|116:364|115:288|167:225,1,171,12|0,2:0|2:0,2:0:0:0:
484,202,514671,1,2,1:2:0:0:
510,222,514746,1,0,1:0:0:0:
489,302,514821,2,0,B|459:283|459:283|460:207|408:144,1,171,4|2,2:1|2:0,2:0:0:0:
28,99,515121,1,0,1:2:0:0:
0,113,515196,1,0,1:0:0:0:
25,190,515271,2,0,B|54:171|54:171|53:95|105:32,1,171,12|0,2:0|1:0,2:0:0:0:
256,352,515571,5,4,2:1:0:0:
283,347,515646,1,0,1:0:0:0:
268,327,515721,1,0,1:0:0:0:
295,322,515796,1,0,1:0:0:0:
273,297,515871,1,2,1:2:0:0:
300,292,515946,1,0,1:0:0:0:
271,272,516021,1,12,2:0:0:0:
298,267,516096,1,0,1:0:0:0:
263,242,516171,1,2,2:0:0:0:
290,237,516246,1,0,1:0:0:0:
251,214,516321,1,0,1:2:0:0:
278,209,516396,1,0,1:0:0:0:
244,186,516471,1,4,2:1:0:0:
271,181,516546,1,0,1:0:0:0:
245,154,516621,1,0,1:0:0:0:
275,150,516696,1,0,1:0:0:0:
258,120,516771,6,0,P|274:86|269:33,1,90,8|0,1:0|2:0,2:0:0:0:
361,0,517371,2,0,P|378:42|413:68,1,90,0|0,2:0|2:0,2:0:0:0:
409,167,517971,1,2,2:1:0:0:
330,204,518271,1,0,2:0:0:0:
289,121,518571,1,0,2:0:0:0:
154,100,518871,1,0,2:0:0:0:
11,278,519133,1,0,0:0:0:0:
11,278,519171,2,0,P|-4:318|-2:367,1,90,4|0,2:0|2:0,2:0:0:0:
240,316,519771,2,0,B|286:331|316:353,2,67.5,0|0|0,2:0|2:0|2:0,2:0:0:0:
153,349,520333,1,0,0:0:0:0:
153,349,520371,1,2,2:1:0:0:
153,349,521271,6,0,P|133:307|131:295,1,45,0|0,2:0|2:0,2:0:0:0:
174,220,521571,1,4,2:0:0:0:
251,251,521871,1,0,2:0:0:0:
265,333,522171,1,0,2:0:0:0:
265,235,522471,1,0,2:0:0:0:
420,181,522771,1,2,2:1:0:0:
420,181,522804,1,0,0:0:0:0:
360,104,523071,2,0,P|366:83|366:75,2,22.5,0|0|0,2:0|2:0|2:0,2:0:0:0:
277,113,523371,1,0,2:0:0:0:
232,33,523671,1,0,2:0:0:0:
316,5,523971,1,4,2:0:0:0:
169,234,524204,1,0,0:0:0:0:
169,234,524271,1,0,2:0:0:0:
104,157,524571,1,0,2:0:0:0:
186,107,525021,1,0,2:0:0:0:
186,107,525171,1,2,2:1:0:0:
243,198,526071,6,0,P|251:231|256:243,1,36,0|0,2:0|2:0,2:0:0:0:
270,220,526221,2,0,P|278:253|283:265,1,36,0|0,2:0|2:0,2:0:0:0:
455,373,526371,2,0,B|426:390|300:390|373:275|252:259|201:276|201:276|248:277|310:334|207:443|150:331,1,504,8|0,1:3|2:0,2:0:0:0:
109,276,527571,1,0,1:0:0:0:
91,262,528171,1,0,3:0:0:0:
3,370,528471,1,0,2:0:0:0:
213,87,528771,6,0,B|242:94|265:73|265:73|303:163|409:165|409:165|431:102|498:102,1,315,4|0,1:3|2:0,2:0:0:0:
493,187,529371,5,8,1:3:0:0:
286,384,529596,5,4,1:3:0:0:
0,266,529821,5,0,1:3:0:0:
290,2,529971,6,0,B|280:31|294:58|294:58|239:70|230:122|230:122|283:240|202:333,1,360,4|0,1:0|2:0,2:0:0:0:
122,282,531096,5,0,2:0:0:0:
122,282,531171,2,0,P|153:262|207:280,1,90,2|2,2:1|2:0,2:0:0:0:
233,171,531771,2,0,P|196:167|166:118,1,90,2|0,2:3|2:0,2:0:0:0:
45,218,532371,1,4,2:0:0:0:
153,99,532671,1,2,2:0:0:0:
244,135,532971,1,2,2:3:0:0:
340,292,533271,1,0,2:0:0:0:
445,227,533571,6,0,L|473:222,15,22.5,4|0|0|0|0|0|0|0|0|0|0|0|0|0|0|0,2:0|2:0|2:0|2:0|2:0|2:0|2:0|2:0|2:0|2:0|2:0|2:0|2:0|2:0|2:0|2:0,2:0:0:0:
436,237,534771,2,0,L|431:215,1,22.5,2|0,2:1|2:0,2:0:0:0:
216,332,535671,6,0,L|209:372|209:372,3,22.5,0|0|0|0,2:0|2:0|2:0|2:0,2:0:0:0:
159,256,535971,2,0,L|118:247,9,26.9999991760254,8|0|0|0|0|0|0|0|4|0,2:3|2:0|2:0|2:0|2:0|2:0|2:0|2:0|2:0|2:0,2:0:0:0:
118,264,536718,2,0,B|105:250|105:250|110:212|93:190|93:190,2,80.9999975280763,0|0|2,2:0|2:0|2:1,2:0:0:0:
256,192,537285,12,0,538367,2:0:0:0:
212,204,538433,6,0,B|228:189|228:189|228:161|247:124,1,90,4|0,1:0|2:0,2:0:0:0:
227,105,538687,1,0,3:0:0:0:
446,326,538814,2,0,B|455:303|455:303|404:221|421:137,1,180,0|0,1:0|2:0,2:0:0:0:
386,160,539195,6,0,P|389:113|403:95,1,45,0|0,3:0|2:0,2:0:0:0:
332,246,539322,2,0,P|311:203|314:181,1,45,0|0,3:0|2:0,2:0:0:0:
223,338,539449,6,0,B|211:319|211:319|183:314|150:289,2,90,0|0|0,1:0|2:0|2:0,2:0:0:0:
160,267,539831,1,0,3:0:0:0:
5,238,539958,2,0,P|59:231|93:192,1,90,0|0,1:0|2:0,2:0:0:0:
113,62,540212,6,0,P|86:22|66:14,1,45,0|0,3:0|2:0,2:0:0:0:
205,186,540339,2,0,P|218:140|211:119,1,45,0|0,1:0|2:0,2:0:0:0:
348,76,540466,6,0,P|406:44|456:33,2,90,4|0|0,1:3|2:0|3:0,2:0:0:0:
121,82,540848,2,0,P|219:120|246:147,1,135,0|0,1:0|2:0,2:0:0:0:
258,138,541102,6,0,P|252:170|266:205,1,45,0|0,2:0|2:0,2:0:0:0:
336,213,541229,2,0,P|335:245|355:277,1,45,0|0,3:0|2:0,2:0:0:0:
461,280,541356,2,0,P|466:312|491:340,1,45,0|0,3:0|2:0,2:0:0:0:
512,200,541483,6,0,B|500:166|467:148|467:148|443:115,1,90,4|0,1:2|3:0,2:0:0:0:
364,266,541738,1,0,3:0:0:0:
272,137,541865,2,0,B|290:105|282:69|282:69|292:29,1,90,0|0,1:0|3:0,2:0:0:0:
169,158,542119,1,0,3:0:0:0:
196,231,542246,6,0,P|199:187|187:167,1,45,0|0,3:0|2:0,2:0:0:0:
39,372,542373,2,0,P|13:336|-9:328,1,45,0|0,1:0|2:0,2:0:0:0:
279,276,542500,5,4,1:0:0:0:
98,247,542627,2,0,B|89:190|59:157|59:157|58:108,1,135,0|0,2:0|2:0,2:0:0:0:
82,112,542882,1,0,1:0:0:0:
297,176,543009,2,0,P|320:119|353:82,1,90,0|0,2:0|2:0,2:0:0:0:
131,21,543263,6,0,P|159:46|161:64,1,45,0|0,3:0|2:0,2:0:0:0:
241,53,543390,2,0,P|222:106|208:116,1,45,0|0,3:0|2:0,2:0:0:0:
295,269,543517,2,0,P|223:308|192:278,1,135,0|0,1:0|2:0,2:0:0:0:
391,261,543771,2,0,P|472:263|484:304,1,135,0|0,2:0|2:0,2:0:0:0:
470,357,544026,6,0,P|458:308|458:294,1,45,0|0,1:0|2:0,2:0:0:0:
380,370,544153,2,0,P|351:328|347:314,1,45,0|0,2:0|2:0,2:0:0:0:
332,195,544280,2,0,P|303:153|299:139,1,45,0|0,3:0|2:0,2:0:0:0:
164,185,544407,2,0,P|123:155|114:144,1,45,0|0,1:0|2:0,2:0:0:0:
203,0,544534,6,0,B|207:17|207:17|198:48|205:88,1,90,4|0,1:3|2:0,2:0:0:0:
114,47,544788,1,0,3:0:0:0:
347,56,544916,2,0,P|401:79|467:148,1,135,0|0,1:0|2:0,2:0:0:0:
476,116,545170,6,0,P|438:117|421:134,1,45,0|0,2:0|2:0,2:0:0:0:
388,193,545297,2,0,P|352:206|342:228,1,45,0|0,3:0|2:0,2:0:0:0:
346,307,545424,2,0,P|317:332|315:356,1,45,0|0,3:0|2:0,2:0:0:0:
144,377,545551,6,0,P|134:320|92:290,1,90,4|0,1:2|3:0,2:0:0:0:
231,324,545805,1,0,3:0:0:0:
15,379,545933,6,0,P|5:328|22:310,1,45,0|0,1:0|2:0,2:0:0:0:
89,319,546060,2,0,P|124:282|149:285,1,45,0|0,3:0|2:0,2:0:0:0:
90,187,546187,2,0,P|109:140|134:133,1,45,0|0,1:0|2:0,2:0:0:0:
213,241,546314,2,0,P|263:235|280:253,1,45,0|0,1:0|2:0,2:0:0:0:
250,55,546441,2,0,P|296:35|317:49,1,45,0|0,1:0|2:0,2:0:0:0:
512,146,546568,6,0,P|446:155|419:205,1,90,4|0,1:0|2:0,2:0:0:0:
336,166,546759,2,0,P|400:183|440:221,1,90,8|0,3:0|2:0,2:0:0:0:
440,292,546949,1,8,3:0:0:0:
130,296,547077,6,0,B|96:348|40:368|40:368|28:408,2,135,8|8|8,3:0|3:0|3:0,2:0:0:0:
5,74,547585,6,0,P|71:83|98:133,1,90,0|0,1:3|2:0,2:0:0:0:
181,94,547776,2,0,P|117:111|77:149,1,90,8|0,3:0|2:0,2:0:0:0:
74,221,547966,1,8,3:0:0:0:
315,346,548094,6,0,P|313:292|268:217,1,135,8|8,3:0|3:0,2:0:0:0:
291,137,548348,1,0,2:0:0:0:
291,137,548411,1,0,2:0:0:0:
291,137,548475,2,0,P|298:92|312:75,1,45,8|0,3:0|2:0,2:0:0:0:
446,242,548602,6,0,P|503:203|521:150,1,90,8|0,1:3|2:0,2:0:0:0:
452,262,548793,2,0,P|470:195|450:143,1,90,8|0,3:0|2:0,2:0:0:0:
377,179,548983,1,8,1:3:0:0:
256,114,549110,6,0,P|322:96|357:53,1,90,8|0,1:3|2:0,2:0:0:0:
254,134,549301,2,0,P|294:77|293:21,1,90,8|0,3:0|2:0,2:0:0:0:
212,31,549492,1,8,1:3:0:0:
125,215,549619,6,0,P|154:152|143:97,1,90,8|0,1:3|2:0,2:0:0:0:
139,229,549810,2,0,P|121:162|78:127,1,90,8|0,1:3|2:0,2:0:0:0:
33,195,550000,1,8,1:3:0:0:
16,384,550127,6,0,B|43:377|43:377|89:316|173:321|173:321|203:299,1,202.5,8|8,1:3|3:0,2:0:0:0:
269,238,550382,1,8,1:3:0:0:
269,238,550445,1,0,2:0:0:0:
269,238,550509,2,0,P|319:252|339:288,1,63,8|0,1:3|2:0,2:0:0:0:
426,336,550636,6,0,P|383:352|333:320,1,76.5,8|0,1:3|3:0,2:0:0:0:
346,259,550763,2,0,P|330:224|338:188,1,76.5,8|0,1:3|3:0,2:0:0:0:
499,148,550890,6,0,P|483:104|426:87,1,76.5,8|0,1:3|3:0,2:0:0:0:
388,137,551017,2,0,P|350:147|328:176,1,76.5,8|0,1:3|3:0,2:0:0:0:
265,290,551144,6,0,P|257:335|204:362,1,76.5,8|0,1:3|3:0,2:0:0:0:
152,320,551271,2,0,P|113:316|86:291,1,76.5,8|0,1:3|3:0,2:0:0:0:
100,114,551399,6,0,P|84:71|78:10,1,67.5,8|0,1:3|3:0,2:0:0:0:
183,83,551526,2,0,P|190:37|216:-17,1,67.5,8|0,1:3|3:0,2:0:0:0:
244,151,551653,6,0,P|242:190|236:212,1,49.5,8|0,1:3|3:0,2:0:0:0:
150,226,551780,2,0,P|157:200|162:173,1,49.5,8|0,1:3|3:0,2:0:0:0:
323,128,551907,6,0,P|280:151|238:164,1,76.5,8|0,1:3|3:0,2:0:0:0:
74,204,552034,2,0,P|122:205|165:215,1,76.5,8|0,1:3|3:0,2:0:0:0:
352,329,552161,6,0,P|333:295|270:277,1,94.5,8|0,1:3|3:0,2:0:0:0:
193,339,552288,2,0,P|216:308|281:299,1,94.5,8|0,1:3|3:0,2:0:0:0:
433,147,552416,6,0,P|389:208|405:246,1,94.5,8|0,1:3|3:0,2:0:0:0:
468,356,552543,2,0,P|512:295|496:257,1,94.5,8|0,1:3|3:0,2:0:0:0:
497,55,552670,5,8,1:3:0:0:
474,49,552733,1,8,1:3:0:0:
451,45,552797,1,8,1:3:0:0:
429,44,552860,1,8,1:3:0:0:
407,45,552924,1,8,1:3:0:0:
384,47,552988,1,8,1:3:0:0:
361,51,553051,1,8,1:3:0:0:
339,58,553115,1,8,1:3:0:0:
319,65,553178,1,8,1:3:0:0:
299,76,553242,1,8,1:3:0:0:
278,87,553305,1,8,1:3:0:0:
260,100,553369,1,8,1:3:0:0:
243,116,553433,1,8,1:3:0:0:
226,131,553496,1,8,1:3:0:0:
212,149,553560,1,8,1:3:0:0:
200,167,553623,1,8,1:3:0:0:
192,185,553687,6,0,P|183:201|195:184,2,90,4|0|0,1:3|2:0|2:0,2:0:0:0:
378,214,554449,6,0,B|408:147|486:148|486:148|490:168|498:188|498:188|429:156|374:218,1,310.5,8|0,2:1|2:0,2:0:0:0:
421,328,554704,6,0,P|451:264|425:233,1,76.5,0|0,1:0|2:0,2:0:0:0:
484,118,554831,1,0,1:0:0:0:
217,375,554958,6,0,B|130:398|60:357|60:357|15:377,1,189,8|8,1:2|2:3,2:0:0:0:
14,270,555212,5,0,1:0:0:0:
14,270,555276,1,0,3:0:0:0:
14,269,555339,2,0,P|29:225|58:206,1,67.5,0|0,3:0|3:0,2:0:0:0:
160,281,555466,5,8,1:2:0:0:
160,281,555530,1,0,3:0:0:0:
160,281,555594,2,0,P|215:260|238:224,1,85.5,0|0,3:0|3:0,2:0:0:0:
156,68,555721,5,0,1:0:0:0:
156,68,555784,1,0,3:0:0:0:
156,68,555848,2,0,P|211:47|252:60,1,94.5,0|0,3:0|3:0,2:0:0:0:
336,313,555975,5,8,1:2:0:0:
336,313,556038,1,0,3:0:0:0:
336,313,556102,2,0,P|392:295|418:260,1,103.5,0|0,3:0|3:0,2:0:0:0:
386,9,556229,5,0,1:0:0:0:
386,9,556293,1,0,3:0:0:0:
386,9,556356,2,0,P|445:8|489:50,1,112.5,0|0,3:0|3:0,2:0:0:0:
512,171,556483,5,8,1:2:0:0:
512,171,556547,2,0,P|482:149|512:173,1,144,0|0,2:0|2:0,2:0:0:0:
373,140,556738,6,0,B|238:148|166:264|166:264|115:238|53:256,1,337.5,0|0,1:0|2:0,2:0:0:0:
0,63,556992,6,0,B|9:32|0:8|0:8|17:2|17:2|27:32|57:45,1,135,8|0,1:2|2:0,2:0:0:0:
46,144,557246,5,0,1:0:0:0:
46,144,557310,2,0,P|77:144|128:194,1,63,0|8,3:0|2:3,2:0:0:0:
203,90,557437,1,0,1:0:0:0:
203,90,557500,2,0,P|208:120|270:165,1,80.9999999999999,8|0,2:0|2:0,2:0:0:0:
230,324,557627,2,0,P|288:305|345:322,1,90,0|0,1:0|2:0,2:0:0:0:
476,238,557755,6,0,B|485:257|485:257|478:285|455:318|455:318|408:325,1,108,0|0,1:0|2:0,2:0:0:0:
325,291,557882,2,0,B|309:276|309:276|305:247|317:208|317:208|358:186,1,108,0|0,3:0|2:0,2:0:0:0:
493,190,558009,6,0,B|513:197|513:197|515:231|529:266|529:266|496:302,1,117,8|0,1:2|2:0,2:0:0:0:
253,368,558136,2,0,B|230:362|230:362|223:329|202:297|202:297|228:256,1,117,0|0,3:0|2:0,2:0:0:0:
314,119,558263,6,0,B|346:149|374:154|374:154|359:193|369:232,2,138,0|8|8,1:0|3:0|3:0,2:0:0:0:
97,150,558517,5,8,1:2:0:0:
74,155,558581,1,0,1:0:0:0:
51,163,558644,1,0,1:0:0:0:
30,172,558708,1,0,1:0:0:0:
0,205,558771,6,0,B|-3:211|54:130|44:17|44:17|64:15,1,216,4|0,1:2|2:0,2:0:0:0:
219,188,558962,5,0,2:0:0:0:
219,188,559026,2,0,B|229:257|258:306|258:306|227:359,1,144,4|0,1:2|3:0,2:0:0:0:
331,100,559195,2,0,B|268:75|214:78|214:78|184:28,1,144,4|0,1:2|3:0,2:0:0:0:
19,305,559365,2,0,B|85:292|128:263|128:263|180:289,1,144,4|0,1:2|3:0,2:0:0:0:
438,59,559534,2,0,B|420:116|426:165|426:165|382:196,1,144,4|0,1:2|3:0,2:0:0:0:
454,367,559704,1,4,1:2:0:0:
454,367,559788,2,0,B|339:325|296:192|296:192|254:221|184:210,1,324,4|0,1:2|2:0,2:0:0:0:
1,225,560043,2,0,B|72:124|211:117|211:117|188:65|125:82,1,324,4|0,1:2|2:0,2:0:0:0:
25,86,560297,5,4,1:2:0:0:
25,86,560360,2,0,P|63:135|85:133,1,81.0000000000001,0|0,2:0|2:0,2:0:0:0:
207,216,560551,6,0,B|207:206|218:202|230:201|223:214|212:218|200:217,6,38.25,0|0|0|0|0|0|0,1:2|2:0|2:0|2:0|1:2|2:0|2:0,2:0:0:0:
137,341,560805,6,0,P|122:245|254:179,1,216,4|0,1:2|2:0,2:0:0:0:
468,135,560996,5,0,2:0:0:0:
468,135,561060,2,0,P|412:73|330:91,1,144,4|0,1:2|3:0,2:0:0:0:
83,153,561229,2,0,P|162:149|188:233,1,144,4|0,1:2|3:0,2:0:0:0:
512,256,561399,2,0,P|455:322|376:285,1,144,4|0,1:2|3:0,2:0:0:0:
141,296,561568,2,0,P|210:236|266:244,1,144,4|0,1:2|3:0,2:0:0:0:
348,193,561738,5,4,1:2:0:0:
348,193,561822,2,0,P|352:209|353:224,1,31.5,4|0,1:2|2:0,2:0:0:0:
194,283,562331,6,0,B|216:291|216:291|228:309,1,45,8|0,2:3|2:0,2:0:0:0:
251,329,562458,2,0,B|263:308|263:308|283:300,1,45,4|0,2:3|2:0,2:0:0:0:
437,217,562585,6,0,B|481:233|479:283|479:283|390:169|240:224,1,324,8|0,2:0|2:0,2:0:0:0:
83,256,562839,6,0,B|35:253|-53:286|-72:420|70:432|183:354|51:267|122:220|160:204,1,405,2|0,1:0|2:0,2:0:0:0:
387,123,563094,6,0,P|405:94|413:86,1,40.5,2|0,2:0|2:0,2:0:0:0:
25,91,563348,6,0,P|118:67|343:164,1,283.5,8|0,2:1|2:0,2:0:0:0:
295,353,563602,6,0,P|273:354|254:365,1,45,2|0,2:0|2:0,2:0:0:0:
187,308,563729,1,2,1:3:0:0:
432,72,563856,6,0,B|443:41|468:-24|545:13|528:94|464:82|430:72,1,202.5,0|0,3:0|2:0,2:0:0:0:
416,166,564110,6,0,P|392:167|370:177,1,40.5,2|0,1:2|2:0,2:0:0:0:
512,344,564365,6,0,B|475:385|351:370|380:281|323:195|217:249,1,324,8|0,2:1|2:0,2:0:0:0:
65,353,564619,6,0,P|41:354|19:364,1,40.5,2|0,2:0|2:0,2:0:0:0:
46,218,564873,6,0,B|128:241|166:331|166:331|112:199|149:102,1,405,0|0,1:0|2:0,2:0:0:0:
398,148,565127,6,0,P|405:167|405:187,1,40.5,2|0,2:0|2:0,2:0:0:0:
347,337,565382,6,0,B|309:342|270:368|270:368|258:359|258:359|327:277|313:157,1,297,8|0,2:1|2:0,2:0:0:0:
49,78,565636,6,0,P|11:118|13:144,1,58.5,2|0,2:0|2:0,2:0:0:0:
95,149,565763,1,2,1:3:0:0:
265,87,565890,6,0,B|265:77|265:77|246:75|246:75|282:75|282:75|246:68|246:68|282:67|282:67|247:59|247:59|273:62|273:62|249:51|249:51|285:59|285:59|251:43|251:43|283:53|283:53|256:34|256:34|290:48|290:48|261:28|261:28|293:44|293:44|266:22|266:22|281:32|281:32|289:20,1,540,0|0,3:0|2:0,2:0:0:0:
208,226,566144,2,0,B|206:211|206:211|223:207|223:207|189:211|189:211|224:199|224:199|188:205|188:205|222:191|222:191|190:197|190:197|220:182|220:182|184:194|184:194|216:175|216:175|191:184|191:184|211:168|211:168|180:187|180:187|206:161|206:161|175:181|175:181|200:156|200:156|185:167|185:167|172:155,1,540,2|0,1:2|2:0,2:0:0:0:
442,325,566399,2,0,B|456:326|456:326|461:309|461:309|457:344|457:344|468:309|468:309|465:345|465:345|477:311|477:311|471:336|471:336|484:313|484:313|472:348|472:348|492:316|492:316|479:347|479:347|500:321|500:321|483:354|483:354|506:326|506:326|487:358|487:358|510:333|510:333|500:346|500:346|511:357,1,540,8|0,2:1|2:0,2:0:0:0:
317,273,566653,6,0,B|268:269|149:385|395:484|393:278|307:235,1,310.5,2|0,1:2|2:0,2:0:0:0:
179,72,566907,6,0,B|113:9|-10:52|-10:52|6:15|6:15|112:-5|184:76,1,432,2|0,1:0|2:0,2:0:0:0:
464,213,567161,6,0,P|484:219|503:220,1,40.5,2|0,2:0|2:0,2:0:0:0:
411,117,567416,6,0,B|397:138|396:152|396:152|297:142|181:191|181:191|155:160|144:158,1,297,8|0,2:1|2:0,2:0:0:0:
254,123,567670,2,0,P|266:168|220:215,1,90,2|0,2:0|2:0,2:0:0:0:
53,380,567797,6,0,P|25:365|10:366,1,45,2|0,1:3|2:0,2:0:0:0:
324,265,568178,6,0,P|341:242|338:226,1,40.5,2|0,1:2|2:0,2:0:0:0:
102,274,568433,6,0,P|178:363|429:266,1,351,8|0,2:1|2:0,2:0:0:0:
508,125,568687,6,0,P|499:104|487:99,6,22.5,2|0|0|0|2|0|0,2:0|2:0|2:0|2:0|3:0|2:0|2:0,2:0:0:0:
512,351,568941,6,0,B|497:273|460:315|447:244|443:223,1,135,2|0,1:0|2:0,2:0:0:0:
464,206,569132,2,0,B|403:255|402:199|345:245|329:259,1,135,0|0,1:0|2:0,2:0:0:0:
257,222,569322,2,0,P|239:256|207:287,1,67.5,0|0,1:0|2:0,2:0:0:0:
405,135,569449,6,0,B|351:78|342:134|292:81|278:65,1,135,0|0,1:0|2:0,2:0:0:0:
286,39,569640,2,0,B|262:114|230:67|208:136|202:157,1,135,0|0,1:0|2:0,2:0:0:0:
120,175,569831,2,0,P|129:212|125:256,1,67.5,0|0,1:0|2:0,2:0:0:0:
244,372,569958,5,8,1:0:0:0:
244,372,570212,1,0,2:0:0:0:
244,372,570466,1,0,2:0:0:0:
17,146,570721,6,0,P|152:180|152:318,1,297,0|0,2:0|2:0,2:0:0:0:
22,375,570975,5,6,1:0:0:0:
27,362,571038,1,0,1:0:0:0:
32,349,571102,1,8,1:3:0:0:
37,337,571166,1,0,1:0:0:0:
42,324,571229,1,2,1:2:0:0:
47,312,571293,1,0,1:0:0:0:
53,299,571356,1,8,1:3:0:0:
59,287,571420,1,0,1:0:0:0:
65,275,571483,1,2,1:3:0:0:
71,263,571547,1,0,1:0:0:0:
77,251,571610,1,2,1:2:0:0:
84,240,571674,1,0,1:0:0:0:
91,228,571738,1,10,1:3:0:0:
98,216,571801,1,0,1:0:0:0:
105,205,571865,1,0,1:0:0:0:
113,194,571928,1,0,1:0:0:0:
120,183,571992,5,2,1:2:0:0:
134,185,572055,1,0,1:0:0:0:
148,187,572119,1,8,1:3:0:0:
161,189,572183,1,0,1:0:0:0:
175,191,572246,1,2,1:3:0:0:
188,192,572310,1,0,1:0:0:0:
202,194,572373,1,2,1:2:0:0:
215,194,572437,1,0,1:0:0:0:
229,195,572500,1,10,1:3:0:0:
242,196,572564,1,0,1:0:0:0:
255,197,572627,1,0,1:2:0:0:
268,196,572691,1,0,1:0:0:0:
282,195,572755,6,0,P|291:172|303:119,3,67.5,2|0|2|0,1:2|1:0|1:2|1:0,2:0:0:0:
489,279,573009,5,4,1:2:0:0:
478,287,573072,1,0,1:0:0:0:
467,294,573136,1,8,1:3:0:0:
455,301,573199,1,0,1:0:0:0:
443,308,573263,1,2,1:2:0:0:
432,315,573327,1,0,1:0:0:0:
420,321,573390,1,8,1:3:0:0:
408,327,573454,1,0,1:0:0:0:
396,333,573517,1,2,1:3:0:0:
384,339,573581,1,0,1:0:0:0:
371,345,573644,1,2,1:2:0:0:
359,350,573708,1,0,1:0:0:0:
346,355,573771,1,10,1:3:0:0:
334,360,573835,1,0,1:0:0:0:
321,365,573899,1,0,1:0:0:0:
309,370,573962,1,0,1:0:0:0:
294,374,574026,5,2,1:2:0:0:
300,362,574089,1,0,1:0:0:0:
306,350,574153,1,8,1:3:0:0:
313,338,574216,1,0,1:0:0:0:
320,326,574280,1,2,1:3:0:0:
326,314,574344,1,0,1:0:0:0:
333,302,574407,1,2,1:2:0:0:
341,292,574471,1,0,1:0:0:0:
348,281,574534,1,10,1:3:0:0:
356,269,574598,1,0,1:0:0:0:
364,258,574661,1,0,1:2:0:0:
372,247,574725,1,0,1:0:0:0:
380,236,574788,6,0,P|403:245|455:259,3,67.5,2|0|2|0,1:2|1:0|1:2|1:0,2:0:0:0:
136,208,575043,5,4,1:0:0:0:
131,195,575106,1,0,1:0:0:0:
126,182,575170,1,8,1:3:0:0:
121,170,575233,1,0,1:0:0:0:
116,157,575297,1,2,1:2:0:0:
111,145,575360,1,0,1:0:0:0:
105,132,575424,1,8,1:3:0:0:
99,120,575488,1,0,1:0:0:0:
93,108,575551,1,2,1:3:0:0:
87,96,575615,1,0,1:0:0:0:
81,84,575678,1,2,1:2:0:0:
74,73,575742,1,0,1:0:0:0:
67,62,575805,1,10,1:3:0:0:
60,49,575869,1,0,1:0:0:0:
53,38,575933,1,0,1:0:0:0:
45,27,575996,1,0,1:0:0:0:
35,16,576060,5,2,1:2:0:0:
51,16,576123,1,0,1:0:0:0:
64,16,576187,1,8,1:3:0:0:
78,17,576250,1,0,1:0:0:0:
92,17,576314,1,2,1:3:0:0:
104,18,576377,1,0,1:0:0:0:
118,20,576441,1,2,1:2:0:0:
131,23,576505,1,0,1:0:0:0:
144,24,576568,1,10,1:3:0:0:
158,26,576632,1,0,1:0:0:0:
172,28,576695,1,0,1:2:0:0:
185,32,576759,1,0,1:0:0:0:
199,36,576822,6,0,P|190:59|176:111,3,67.5,2|0|2|0,1:2|1:0|1:2|1:0,2:0:0:0:
384,181,577077,6,0,B|245:204|277:64|126:100|126:100|185:132|187:219|187:219|213:177|265:176,1,504,4|0,1:0|1:0,2:0:0:0:
164,323,578094,5,8,2:0:0:0:
164,323,578348,5,8,2:0:0:0:
334,196,578602,5,8,2:0:0:0:
349,156,578666,1,8,2:0:0:0:
367,114,578729,1,8,2:0:0:0:
386,79,578793,1,8,2:0:0:0:
360,29,578856,6,0,P|373:158|482:224,1,256.5,8|0,2:3|2:0,2:0:0:0:
512,313,579110,5,4,1:0:0:0:
467,31,579238,1,0,1:0:0:0:
156,97,579365,2,0,B|148:80|148:80|65:68|2:-23,1,171,10|0,2:0|1:0,2:0:0:0:
265,46,579619,5,2,1:2:0:0:
50,149,579746,2,0,P|19:171|0:248,1,85.4999977169037,0|0,1:0|2:0,2:0:0:0:
166,384,579873,2,0,B|170:364|170:364|114:302|125:192,1,170.999995433807,10|0,2:0|1:0,2:0:0:0:
512,320,580127,6,0,P|412:263|310:253,1,171,2|0,1:2|1:0,2:0:0:0:
353,4,580382,1,10,2:0:0:0:
140,263,580509,2,0,P|231:183|306:152,2,171,0|2|0,1:0|1:2|1:0,2:0:0:0:
455,136,580890,6,0,P|470:83|454:48,1,85.5,10|0,2:0|2:0,2:0:0:0:
223,0,581017,1,0,1:0:0:0:
410,220,581144,2,0,B|438:213|438:213|456:150|529:75,1,171,2|0,1:0|1:0,2:0:0:0:
64,32,581399,6,0,P|141:59|149:140,1,171,10|0,2:0|1:0,2:0:0:0:
16,119,581653,1,2,1:2:0:0:
213,364,581780,2,0,P|160:298|87:253,1,171,0|10,1:0|2:0,2:0:0:0:
265,101,582034,1,0,1:0:0:0:
0,307,582161,6,0,P|71:240|162:263,1,171,2|0,1:2|1:0,2:0:0:0:
451,178,582416,1,10,2:0:0:0:
509,384,582543,1,0,1:0:0:0:
252,273,582670,2,0,B|257:241|257:241|341:213|373:112,1,171,2|0,1:2|1:0,2:0:0:0:
0,12,582924,5,8,2:0:0:0:
5,67,582988,1,8,2:0:0:0:
18,116,583051,1,8,2:0:0:0:
37,163,583115,1,8,2:0:0:0:
73,203,583178,2,0,P|121:135|98:56,1,171,12|0,1:0|1:0,2:0:0:0:
512,134,583433,6,0,B|448:120|400:55|400:55|344:68,1,171,10|0,2:0|1:0,2:0:0:0:
108,317,583687,1,2,1:2:0:0:
281,111,583814,2,0,P|271:70|234:51,1,85.5,0|0,1:0|2:0,2:0:0:0:
0,212,583941,2,0,P|101:159|213:190,1,171,10|0,2:0|1:0,2:0:0:0:
492,42,584195,5,2,1:2:0:0:
238,215,584322,1,0,1:0:0:0:
470,384,584449,2,0,P|432:292|435:205,1,170.999995433807,10|0,2:0|1:0,2:0:0:0:
79,68,584704,2,0,P|75:151|31:235,1,170.999995433807,2|0,1:2|1:0,2:0:0:0:
361,51,584958,5,10,2:0:0:0:
186,294,585085,2,0,P|148:256|147:215,1,85.5,0|0,1:0|2:0,2:0:0:0:
262,73,585212,5,2,2:1:0:0:
413,270,585339,1,0,1:0:0:0:
200,384,585466,1,0,1:0:0:0:
359,153,585594,2,0,B|378:84|423:43|423:43|427:-17,1,170.999995433807,4|0,2:1|1:0,2:0:0:0:
237,114,585848,5,0,1:0:0:0:
511,300,585975,2,0,P|521:218|465:158,1,171,12|0,2:0|1:0,2:0:0:0:
219,16,586229,5,4,2:1:0:0:
78,299,586356,1,0,1:0:0:0:
382,384,586483,1,0,1:0:0:0:
101,154,586610,2,0,B|81:85|36:44|36:44|32:-16,1,170.999995433807,4|0,2:1|1:0,2:0:0:0:
327,33,586865,1,0,1:0:0:0:
40,297,586992,5,8,2:0:0:0:
101,257,587055,1,8,2:0:0:0:
172,232,587119,1,8,2:0:0:0:
245,215,587183,1,8,2:0:0:0:
319,211,587246,1,6,2:1:0:0:
256,192,587318,12,0,588327,2:0:0:0:
256,192,588399,12,0,589481,2:0:0:0:
256,192,589553,12,0,590635,2:0:0:0:
256,192,590707,12,0,591789,2:0:0:0:
302,77,591861,6,0,B|289:84|290:101|290:101|360:88|494:207|494:207|411:143|356:160|356:160|345:200|361:233|361:233|339:205|324:162|324:162|306:176|274:180|274:180|248:222|253:336|253:336|245:232|237:181|237:181|197:181|177:162|177:162|168:205|135:230|135:230|162:198|147:155|147:155|97:135|14:187|14:187|114:106|213:105|213:105|211:89|195:82,1,1544.39999528687,4|0,1:2|2:0,2:0:0:0:
