osu file format v14

[General]
AudioFilename: audio.mp3
AudioLeadIn: 0
PreviewTime: 127185
Countdown: 0
SampleSet: Soft
StackLeniency: 0.2
Mode: 0
LetterboxInBreaks: 0
WidescreenStoryboard: 1

[Editor]
Bookmarks: 22308,53784,64275,74767,95751,111488,127226,150833,171816,192800,213784,234767,255751,276734,297718,297800,297882,297964,298046,298128,298210,298292,298374,298456,298538,298620,298702,298784,298865,298947,299029,299111,299193,299275,299357,299439,299521,299603,299685,299767,299849,299931,300013,300095,300177,300259,300341,300423,300505,300587,300669,300751,300833,300915,300997,301079,301161,301243,301324,301406,301488,301570,301652,301734,301816,301898,301980,302062,302144,302226,302308,302390,302472,302554,302636,302718,302800,302882,302964,303046,303128,303210,303292,303374,303456,303538,303620,303702,303784,303865,303947,304029,304111,304193,304275,304357,304439,304521,304603,304685,304767,304849,304931,305013,305095,305177,305259,305341,305423,305505,305587,305669,305751,305833,305915,305997,306079,306161,306243,306324,306406,306488,306570,306652,306734,306816,306898,306980,307062,307144,307226,307308,307390,307472,307554,307636,307718,307800,307882,307964,308046,308128,308210,318702,339685,351324,361980,376406,397390,418374,439357,459206,473606,488006,497606,516806,538480,554751,562886,571022,579157,587293,599552
DistanceSpacing: 0.1
BeatDivisor: 12
GridSize: 32
TimelineZoom: 7.499995

[Metadata]
Title:RoquiRa : Between Life and Death
TitleUnicode:RoquiRa : Between Life and Death
Artist:Raphiiel
ArtistUnicode:Raphiiel
Creator:Cubby
Version:Requiem
Source:
Tags:featured artist fa pocket- pocket realazy regou cubbby electronic instrumental HARDCORE UTOPIA 3 neurofunk 200step metal j-core jcore iii shota_on_osu
BeatmapID:3322736
BeatmapSetID:1508499

[Difficulty]
HPDrainRate:4.5
CircleSize:4
OverallDifficulty:9
ApproachRate:9.7
SliderMultiplier:1.83
SliderTickRate:1

[Events]
//Background and Video events
0,0,"Webp.net-resizeimage.jpg",0,0
//Break Periods
2,297917,307715
2,370622,372687
2,373463,375584
2,592108,599057
2,606963,609874
//Storyboard Layer 0 (Background)
//Storyboard Layer 1 (Fail)
//Storyboard Layer 2 (Pass)
//Storyboard Layer 3 (Foreground)
//Storyboard Layer 4 (Overlay)
//Storyboard Sound Samples

[TimingPoints]
1325,327.868852459016,4,2,1,60,1,0
11161,-100,4,2,1,65,0,0
11816,-66.6666666666667,4,2,1,65,0,0
12144,-133.333333333333,4,2,1,50,0,0
17062,-83.3333333333333,4,2,1,50,0,0
17390,-133.333333333333,4,2,1,50,0,0
22308,-100,4,2,1,50,0,0
33456,-250,4,2,1,50,0,0
38374,-125,4,2,1,50,0,0
38702,-250,4,2,1,50,0,0
43292,-83.3333333333333,4,2,1,60,0,0
48538,-83.3333333333333,4,2,1,65,0,0
49521,-66.6666666666667,4,2,1,65,0,0
49849,-83.3333333333333,4,2,1,65,0,0
50341,-83.3333333333333,4,2,1,70,0,0
50833,-66.6666666666667,4,2,1,70,0,0
51161,-66.6666666666667,4,2,1,75,0,0
52472,-333.333333333333,4,2,2,75,0,0
53456,-47.6190476190476,4,2,2,60,0,0
53784,-40,4,2,5,80,0,0
54111,-50,4,2,5,80,0,0
56079,-100,4,2,5,80,0,0
56406,-40,4,2,5,80,0,0
56734,-50,4,2,5,80,0,0
58374,-33.3333333333333,4,2,5,80,0,0
58620,-40,4,2,5,80,0,0
58784,-200,4,2,5,80,0,0
59029,-40,4,2,5,80,0,0
59357,-50,4,2,5,80,0,0
61324,-100,4,2,5,80,0,0
61652,-50,4,2,5,80,0,0
62964,-50,4,2,2,50,0,0
63620,-50,4,2,5,60,0,0
64275,-66.6666666666667,4,2,5,80,0,0
64603,-33.3333333333333,4,2,5,80,0,0
65997,-44.4444444444445,4,2,5,80,0,0
66243,-33.3333333333333,4,2,5,80,0,0
66570,-25,4,2,5,80,0,0
66898,-33.3333333333333,4,2,5,80,0,0
69084,-55.5555555555556,4,2,5,80,0,0
69357,-133.333333333333,4,2,5,80,0,0
69521,-33.3333333333333,4,2,5,80,0,0
71243,-44.4444444444445,4,2,5,80,0,0
72964,-28.5714285714286,4,2,5,80,0,0
73456,-50,4,2,5,80,0,0
74111,-40,4,2,5,80,0,0
74439,-44.4444444444445,4,2,5,80,0,0
74767,-66.6666666666667,4,2,5,80,0,0
77718,-33.3333333333333,4,2,5,80,0,0
78046,-100,4,2,5,80,0,0
78702,-33.3333333333333,4,2,5,80,0,0
79685,-33.3333333333333,4,2,4,80,0,0
80013,-100,4,2,4,80,0,0
81324,-50,4,2,4,80,0,0
81652,-133.333333333333,4,2,4,80,0,0
81980,-50,4,2,4,80,0,0
82636,-40,4,2,4,80,0,0
82964,-133.333333333333,4,2,4,80,0,0
85259,-66.6666666666667,4,2,5,80,0,0
88210,-33.3333333333333,4,2,5,80,0,0
88865,-100,4,2,5,80,0,0
89193,-33.3333333333333,4,2,5,80,0,0
90177,-33.3333333333333,4,2,4,80,0,0
93128,-33.3333333333333,4,2,4,100,0,0
94767,-33.3333333333333,4,2,1,60,0,0
95751,-40,4,2,3,80,0,0
96079,-33.3333333333333,4,2,3,80,0,0
96284,-125,4,2,3,80,0,0
96734,-40,4,2,3,80,0,0
97718,-66.6666666666667,4,2,3,80,0,0
98046,-50,4,2,3,80,0,0
98374,-33.3333333333333,4,2,3,80,0,0
98702,-40,4,2,3,80,0,0
98906,-125,4,2,3,80,0,0
99357,-40,4,2,3,80,0,0
99849,-66.6666666666667,4,2,3,80,0,0
100505,-66.6666666666667,4,2,6,80,0,0
100587,-66.6666666666667,4,2,3,80,0,0
100669,-33.3333333333333,4,2,3,80,0,0
100997,-28.5714285714286,4,2,6,80,0,0
101324,-40,4,2,3,80,0,0
101529,-125,4,2,3,80,0,0
101980,-33.3333333333333,4,2,3,80,0,0
102308,-40,4,2,3,80,0,0
102636,-33.3333333333333,4,2,3,80,0,0
102964,-66.6666666666667,4,2,3,80,0,0
103292,-50,4,2,3,80,0,0
103620,-500,4,2,3,80,0,0
103947,-33.3333333333333,4,2,3,80,0,0
104152,-100,4,2,3,80,0,0
104603,-33.3333333333333,4,2,3,80,0,0
104931,-166.666666666667,4,2,3,50,0,0
105587,-100,4,2,3,60,0,0
106243,-40,4,2,3,60,0,0
106570,-33.3333333333333,4,2,3,60,0,0
106775,-125,4,2,3,60,0,0
107226,-33.3333333333333,4,2,3,60,0,0
107554,-40,4,2,3,60,0,0
107882,-33.3333333333333,4,2,3,60,0,0
108210,-66.6666666666667,4,2,3,60,0,0
108538,-50,4,2,3,60,0,0
108865,-33.3333333333333,4,2,3,60,0,0
109193,-40,4,2,3,60,0,0
109398,-125,4,2,3,60,0,0
109849,-40,4,2,3,60,0,0
110177,-50,4,2,3,60,0,0
110341,-66.6666666666667,4,2,3,60,0,0
110833,-40,4,2,3,60,0,0
110997,-66.6666666666667,4,2,6,80,0,0
111079,-66.6666666666667,4,2,3,80,0,0
111161,-33.3333333333333,4,2,3,80,0,0
111488,-30.7692307692308,4,2,6,80,0,0
111816,-33.3333333333333,4,2,3,80,0,0
112021,-125,4,2,3,80,0,0
112472,-26.6666666666667,4,2,3,80,0,0
112800,-50,4,2,3,80,0,0
113128,-40,4,2,3,80,0,0
113456,-100,4,2,3,80,0,0
113784,-50,4,2,3,80,0,0
114111,-80,4,2,3,80,0,0
114439,-33.3333333333333,4,2,3,80,0,0
115423,-50,4,2,6,50,0,0
116079,-33.3333333333333,4,2,6,60,0,0
116734,-66.6666666666667,4,2,3,80,0,0
117390,-28.5714285714286,4,2,3,80,0,0
118046,-133.333333333333,4,2,3,80,0,0
121324,-40,4,2,3,80,0,0
121488,-133.333333333333,4,2,3,80,0,0
121652,-40,4,2,3,80,0,0
121816,-133.333333333333,4,2,3,80,0,0
121980,-66.6666666666667,4,2,3,80,0,0
122636,-28.5714285714286,4,2,3,80,0,0
123292,-133.333333333333,4,2,3,80,0,0
124603,-66.6666666666667,4,2,3,80,0,0
125997,-66.6666666666667,4,2,3,60,0,0
127226,327.868852459016,3,2,1,60,1,0
127226,-200,4,2,7,40,0,0
127554,-200,4,2,3,50,0,0
129521,-133.333333333333,4,2,3,50,0,0
137390,-100,4,2,3,50,0,0
144275,-250,4,2,3,50,0,0
150177,-58.8235294117647,4,2,3,50,0,0
150833,327.868852459016,4,2,1,60,1,0
150833,-66.6666666666667,4,2,4,70,0,0
150997,-100,4,2,2,70,0,0
151488,-76.9230769230769,4,2,2,70,0,0
151980,-100,4,2,2,70,0,0
152308,-76.9230769230769,4,2,2,70,0,0
153128,-200,4,2,2,70,0,0
153620,-100,4,2,2,70,0,0
154111,-76.9230769230769,4,2,2,70,0,0
154603,-100,4,2,2,70,0,0
154931,-76.9230769230769,4,2,2,70,0,0
155095,-76.9230769230769,4,2,4,70,0,0
156243,-100,4,2,2,70,0,0
156734,-76.9230769230769,4,2,2,70,0,0
157226,-100,4,2,2,70,0,0
157554,-76.9230769230769,4,2,2,70,0,0
158374,-200,4,2,2,70,0,0
159029,-200,4,2,4,70,0,0
161324,-200,4,2,1,80,0,0
161488,-76.9230769230769,4,2,1,80,0,0
171161,-66.6666666666667,4,2,1,80,0,0
171181,-66.6666666666667,4,2,5,60,0,0
171816,-100,4,2,4,80,0,0
174439,-76.9230769230769,4,2,4,80,0,0
175095,-62.5,4,2,4,80,0,0
176406,-100,4,2,4,80,0,0
177144,-62.5,4,2,4,80,0,0
180997,-100,4,2,4,80,0,0
181652,-76.9230769230769,4,2,4,80,0,0
181980,-62.5,4,2,4,80,0,0
183292,-76.9230769230769,4,2,4,80,0,0
184275,-62.5,4,2,4,80,0,0
186898,-250,4,2,4,80,0,0
187554,-76.9230769230769,4,2,4,80,0,0
188210,-62.5,4,2,4,80,0,0
189521,-76.9230769230769,4,2,4,80,0,0
190013,-50,4,2,4,80,0,0
190177,-62.5,4,2,4,80,0,0
192308,-62.5,4,2,2,50,0,0
192472,-62.5,4,2,4,80,0,0
192800,-76.9230769230769,4,2,4,80,0,0
198046,-62.5,4,2,4,80,0,0
200669,-62.5,4,2,4,80,0,0
203401,-62.5,4,2,2,80,0,0
203620,-62.5,4,2,4,80,0,0
203729,-62.5,4,2,2,80,0,0
205423,-62.5,4,2,4,80,0,0
205915,-100,4,2,4,80,0,0
206570,-62.5,4,2,4,80,0,0
207718,-62.5,4,2,2,80,0,0
207882,-62.5,4,2,4,80,0,0
207991,-62.5,4,2,2,80,0,0
208210,-62.5,4,2,4,80,0,0
208538,-50,4,2,4,80,0,0
210997,-50,4,2,2,80,0,0
211161,-50,4,2,4,80,0,0
211215,-50,4,2,2,80,0,0
211488,-50,4,2,4,80,0,0
211706,-50,4,2,2,80,0,0
211979,-50,4,2,4,80,0,0
213784,-62.5,4,2,4,80,0,0
218374,-50,4,2,4,80,0,0
219357,-62.5,4,2,4,80,0,0
222964,-83.3333333333333,4,2,4,80,0,0
223620,-83.3333333333333,4,2,1,60,0,0
224275,-83.3333333333333,4,2,4,80,0,0
224357,-83.3333333333333,4,2,1,80,0,0
225505,-50,4,2,1,80,0,0
234767,-64.9350649350649,4,2,1,80,0,0
234788,-64.9350649350649,4,2,2,50,0,0
237390,-64.9350649350649,4,2,2,5,0,0
237472,-200,4,2,2,50,0,0
238620,-200,4,2,2,5,0,0
238702,-66.6666666666667,4,2,2,50,0,0
240013,-66.6666666666667,4,2,1,50,0,0
240034,-66.6666666666667,4,2,2,50,0,0
242636,-66.6666666666667,4,2,2,5,0,0
242718,-200,4,2,2,50,0,0
243865,-200,4,2,2,5,0,0
243947,-66.6666666666667,4,2,2,50,0,0
245259,-66.6666666666667,4,2,1,50,0,0
245279,-66.6666666666667,4,2,2,50,0,0
247882,-66.6666666666667,4,2,2,5,0,0
247964,-200,4,2,2,50,0,0
249111,-200,4,2,2,5,0,0
249193,-66.6666666666667,4,2,2,50,0,0
250505,-66.6666666666667,4,2,1,50,0,0
250525,-66.6666666666667,4,2,2,50,0,0
253128,-66.6666666666667,4,2,2,5,0,0
253210,-200,4,2,2,50,0,0
254439,-100,4,2,2,50,0,0
255751,-33.3333333333333,4,2,3,80,0,0
256079,-40,4,2,3,80,0,0
256406,-100,4,2,3,80,0,0
256570,-40,4,2,3,80,0,0
256734,-33.3333333333333,4,2,3,80,0,0
257062,-40,4,2,3,80,0,0
257226,-33.3333333333333,4,2,3,80,0,0
257554,-100,4,2,3,80,0,0
257882,-33.3333333333333,4,2,3,80,0,0
258702,-40,4,2,3,80,0,0
259029,-100,4,2,3,80,0,0
259193,-40,4,2,3,80,0,0
259357,-33.3333333333333,4,2,3,80,0,0
259767,-100,4,2,3,80,0,0
260013,-40,4,2,3,80,0,0
260341,-33.3333333333333,4,2,3,80,0,0
261243,-40,4,2,3,80,0,0
261652,-100,4,2,3,80,0,0
261816,-40,4,2,3,80,0,0
261980,-33.3333333333333,4,2,3,80,0,0
262636,-66.6666666666667,4,2,3,80,0,0
263128,-33.3333333333333,4,2,3,80,0,0
263947,-40,4,2,3,80,0,0
264275,-100,4,2,3,80,0,0
264439,-40,4,2,3,80,0,0
264931,-33.3333333333333,4,2,3,80,0,0
265259,-40,4,2,3,80,0,0
265423,-100,4,2,3,80,0,0
265587,-40,4,2,3,80,0,0
266243,-33.3333333333333,4,2,3,80,0,0
266570,-40,4,2,3,80,0,0
266816,-100,4,2,3,80,0,0
267062,-40,4,2,3,80,0,0
267226,-33.3333333333333,4,2,3,80,0,0
267554,-100,4,2,3,80,0,0
267718,-40,4,2,3,80,0,0
268128,-100,4,2,3,80,0,0
268374,-40,4,2,3,80,0,0
268456,-44.4444444444445,4,2,3,80,0,0
268538,-50,4,2,3,80,0,0
268620,-57.1428571428571,4,2,3,80,0,0
268702,-133.333333333333,4,2,3,80,0,0
268865,-33.3333333333333,4,2,3,80,0,0
269193,-40,4,2,3,80,0,0
269480,-100,4,2,3,80,0,0
269521,-100,4,2,3,80,0,0
269685,-40,4,2,3,80,0,0
269849,-33.3333333333333,4,2,3,80,0,0
270177,-33.3333333333333,4,2,3,80,0,0
270505,-40,4,2,3,80,0,0
270669,-33.3333333333333,4,2,3,80,0,0
270833,-31.25,4,2,3,80,0,0
271079,-31.25,4,2,3,80,0,0
271324,-33.3333333333333,4,2,3,80,0,0
271488,-33.3333333333333,4,2,3,80,0,0
271816,-33.3333333333333,4,2,3,80,0,0
272144,-100,4,2,3,80,0,0
272308,-33.3333333333333,4,2,3,80,0,0
272636,-33.3333333333333,4,2,3,80,0,0
272964,-40,4,2,3,80,0,0
273128,-33.3333333333333,4,2,3,80,0,0
273456,-100,4,2,3,80,0,0
273620,-33.3333333333333,4,2,3,80,0,0
273947,-25,4,2,3,80,0,0
274111,-33.3333333333333,4,2,3,80,0,0
274439,-40,4,2,3,80,0,0
274767,-100,4,2,3,80,0,0
274931,-40,4,2,3,80,0,0
275423,-31.6455696202532,4,2,3,80,0,0
275669,-31.626970175257,4,2,3,80,0,0
275915,-31.6694171692693,4,2,3,70,0,0
276161,-31.6421585132861,4,2,3,60,0,0
276406,-66.6666666666667,4,2,3,50,0,0
276734,-50,4,2,3,80,0,0
277390,-133.333333333333,4,2,3,80,0,0
277718,-33.3333333333333,4,2,3,80,0,0
278210,-40,4,2,3,80,0,0
278497,-133.333333333333,4,2,3,80,0,0
278865,-50,4,2,3,80,0,0
279685,-25,4,2,3,80,0,0
280341,-40,4,2,3,80,0,0
280751,-50,4,2,3,80,0,0
280997,-28.5714285714286,4,2,3,80,0,0
281324,-50,4,2,3,80,0,0
282144,-100,4,2,3,80,0,0
282308,-50,4,2,3,80,0,0
282554,-133.333333333333,4,2,3,80,0,0
282964,-33.3333333333333,4,2,3,80,0,0
283743,-66.6666666666667,4,2,3,80,0,0
284111,-50,4,2,3,80,0,0
284767,-25,4,2,3,80,0,0
285915,-50,4,2,3,80,0,0
286243,-100,4,2,3,80,0,0
286570,-44.4444444444445,4,2,3,80,0,0
287226,-50,4,2,3,80,0,0
287800,-133.333333333333,4,2,3,80,0,0
288210,-33.3333333333333,4,2,3,80,0,0
288702,-40,4,2,3,80,0,0
288988,-133.333333333333,4,2,3,80,0,0
289357,-25,4,2,3,80,0,0
290833,-40,4,2,3,80,0,0
291488,-133.333333333333,4,2,3,80,0,0
291816,-50,4,2,3,80,0,0
292800,-40,4,2,3,80,0,0
293046,-25,4,2,3,80,0,0
293784,-133.333333333333,4,2,3,80,0,0
294275,-44.4444444444445,4,2,3,80,0,0
294603,-50,4,2,3,80,0,0
295751,-25,4,2,3,80,0,0
296406,-71.4285714285714,4,2,3,80,0,0
297718,-71.4285714285714,4,2,7,50,0,0
308210,-50,4,2,1,70,0,0
308702,-100,4,2,1,70,0,0
309029,-50,4,2,1,70,0,0
309193,-100,4,2,1,70,0,0
309521,-57.1428571428571,4,2,1,70,0,0
309849,-40,4,2,1,70,0,0
310341,-50,4,2,1,70,0,0
310505,-100,4,2,1,70,0,0
310669,-50,4,2,1,70,0,0
310833,-33.3333333333333,4,2,1,70,0,0
311161,-50,4,2,1,70,0,0
311324,-100,4,2,1,70,0,0
311652,-50,4,2,1,70,0,0
311815,-100,4,2,1,70,0,0
312144,-50,4,2,1,70,0,0
312472,-40,4,2,1,70,0,0
312964,-50,4,2,1,70,0,0
313128,-100,4,2,1,70,0,0
313292,-50,4,2,1,70,0,0
313456,-40,4,2,1,70,0,0
313784,-50,4,2,1,70,0,0
313947,-100,4,2,1,70,0,0
314275,-50,4,2,1,70,0,0
314438,-100,4,2,1,70,0,0
314767,-33.3333333333333,4,2,1,70,0,0
315095,-50,4,2,1,70,0,0
315258,-100,4,2,1,70,0,0
315586,-50,4,2,1,70,0,0
315749,-100,4,2,1,70,0,0
316079,-40,4,2,1,70,0,0
318702,-25,4,2,1,80,0,0
319111,-66.6666666666667,4,2,3,80,0,0
319357,-26.6666666666667,4,2,8,80,0,1
320669,-50,4,2,8,80,0,1
321324,-66.6666666666667,4,2,1,80,0,0
321652,-50,4,2,1,80,0,0
322199,-100,4,2,1,80,0,0
322308,-50,4,2,1,80,0,0
322527,-100,4,2,1,80,0,0
322636,-40,4,2,3,80,0,0
322964,-333.333333333333,4,2,1,80,0,0
323182,-100,4,2,1,80,0,0
323292,-50,4,2,1,80,0,0
323510,-100,4,2,1,80,0,0
323620,-50,4,2,1,80,0,0
323838,-100,4,2,1,80,0,0
323947,-25,4,2,1,80,0,0
324357,-66.6666666666667,4,2,3,80,0,0
324603,-26.6666666666667,4,2,8,80,0,1
326570,-66.6666666666667,4,2,1,80,0,0
326898,-50,4,2,1,80,0,0
327445,-100,4,2,1,80,0,0
327554,-44.4444444444445,4,2,1,80,0,0
327882,-44.4444444444445,4,2,3,80,0,0
327964,-36.3636363636364,4,2,3,80,0,0
328128,-36.3636363636364,4,2,1,80,0,0
328538,-33.3333333333333,4,2,1,80,0,0
328865,-66.6666666666667,4,2,1,80,0,0
329193,-25,4,2,1,80,0,0
329603,-66.6666666666667,4,2,3,80,0,0
329849,-26.6666666666667,4,2,8,80,0,1
331816,-66.6666666666667,4,2,1,80,0,0
332144,-50,4,2,1,80,0,0
332691,-100,4,2,1,80,0,0
332800,-50,4,2,1,80,0,0
333018,-100,4,2,1,80,0,0
333128,-40,4,2,3,80,0,0
333456,-40,4,2,1,80,0,0
333674,-100,4,2,1,80,0,0
333784,-50,4,2,1,80,0,0
334002,-100,4,2,1,80,0,0
334111,-50,4,2,1,80,0,0
334330,-100,4,2,1,80,0,0
334439,-25,4,2,1,80,0,0
334849,-66.6666666666667,4,2,3,80,0,0
335095,-27.3972602739726,4,2,8,80,0,1
337062,-66.6666666666667,4,2,1,80,0,0
337390,-40,4,2,1,80,0,0
337827,-30.7692307692308,4,2,1,80,0,0
338155,-57.1428571428571,4,2,1,80,0,0
338374,-57.1428571428571,4,2,3,80,0,0
338702,-57.1428571428571,4,2,1,80,0,0
339685,-28.5714285714286,4,2,3,80,0,0
340013,-25.3807106598985,4,2,3,80,0,0
340341,-25.3807106598985,4,2,1,80,0,0
340669,-100,4,2,3,80,0,0
340997,-50,4,2,1,80,0,0
341062,-50,4,2,3,80,0,0
341652,-50,4,2,1,80,0,0
341784,-50,4,2,3,80,0,0
342308,-50,4,2,1,80,0,0
342439,-50,4,2,3,80,0,0
342964,-50,4,2,1,80,0,0
343095,-50,4,2,3,80,0,0
343620,-33.3333333333333,4,2,3,80,0,0
343947,-133.333333333333,4,2,3,80,0,0
344275,-50,4,2,1,80,0,0
345587,-25,4,2,1,80,0,0
345915,-100,4,2,3,80,0,0
346243,-50,4,2,1,80,0,0
346374,-50,4,2,3,80,0,0
346898,-50,4,2,1,80,0,0
347029,-50,4,2,3,80,0,0
347554,-50,4,2,1,80,0,0
347685,-50,4,2,3,80,0,0
348210,-50,4,2,1,80,0,0
348341,-50,4,2,3,80,0,0
349521,-50,4,2,1,80,0,0
349849,-76.9230769230769,4,2,1,80,0,0
351324,-76.9230769230769,4,2,3,80,0,0
351488,-50,4,2,1,80,0,0
351620,-50,4,2,3,80,0,0
352144,-50,4,2,1,80,0,0
352276,-50,4,2,3,80,0,0
352800,-50,4,2,1,80,0,0
352932,-50,4,2,3,80,0,0
353456,-50,4,2,1,80,0,0
353588,-50,4,2,3,80,0,0
354767,-33.3333333333333,4,2,1,80,0,0
355095,-50,4,2,1,80,0,0
355423,-66.6666666666667,4,2,1,80,0,0
355751,-50,4,2,1,80,0,0
356079,-25,4,2,1,80,0,0
356406,-100,4,2,3,80,0,0
356734,-50,4,2,1,80,0,0
356865,-50,4,2,3,80,0,0
357390,-50,4,2,1,80,0,0
357521,-50,4,2,3,80,0,0
358046,-50,4,2,1,80,0,0
358177,-50,4,2,3,80,0,0
358702,-50,4,2,1,80,0,0
358833,-50,4,2,3,80,0,0
360013,-50,4,2,1,80,0,0
360177,-100,4,2,1,80,0,0
360505,-50,4,2,1,80,0,0
361324,-100,4,2,1,80,0,0
361980,-100,4,2,1,70,0,0
362308,-100,4,2,1,70,0,0
362495,-100,4,2,1,60,0,0
362636,-66.6666666666667,4,2,1,60,0,0
362800,-71.4285714285714,4,2,1,60,0,0
362964,-76.9230769230769,4,2,1,60,0,0
363128,-83.3333333333333,4,2,1,60,0,0
363292,-90.9090909090909,4,2,1,60,0,0
363401,-90.9090909090909,4,2,1,55,0,0
363456,-100,4,2,1,55,0,0
363620,-133.333333333333,4,2,1,55,0,0
363784,-133.333333333333,4,2,1,5,0,0
363947,-166.666666666667,4,2,1,50,0,0
364111,-133.333333333333,4,2,1,5,0,0
364275,-222.222222222222,4,2,1,45,0,0
364439,-133.333333333333,4,2,1,5,0,0
364767,-333.333333333333,4,2,1,40,0,0
364931,-133.333333333333,4,2,1,5,0,0
365423,-666.666666666667,4,2,1,35,0,0
365587,-133.333333333333,4,2,1,5,0,0
366406,-666.666666666667,4,2,1,35,0,0
366570,-133.333333333333,4,2,1,5,0,0
367554,-666.666666666667,4,2,1,35,0,0
367718,-133.333333333333,4,2,1,5,0,0
368865,-90.9090909090909,4,2,1,25,0,0
370505,-200,4,2,1,25,0,0
371161,-200,4,2,1,15,0,0
373128,-50,4,2,1,25,0,0
376079,-200,4,2,1,25,0,0
376406,-100,4,2,3,30,0,0
377718,-125,4,2,3,30,0,0
379029,-166.666666666667,4,2,3,30,0,0
380341,-200,4,2,3,30,0,0
382144,-100,4,2,3,30,0,0
382964,-100,4,2,3,30,0,0
383620,-133.333333333333,4,2,3,30,0,0
384275,-100,4,2,3,30,0,0
385587,-83.3333333333333,4,2,3,30,0,0
386243,-166.666666666667,4,2,3,30,0,0
386898,-100,4,2,3,30,0,0
388210,-125,4,2,3,30,0,0
389521,-166.666666666667,4,2,3,30,0,0
393456,-83.3333333333333,4,2,3,30,0,0
394767,-100,4,2,3,30,0,0
396734,-66.6666666666667,4,2,3,30,0,0
397390,-100,4,2,1,50,0,0
397718,-100,4,2,3,50,0,0
398702,-100,4,2,1,50,0,0
399029,-100,4,2,3,50,0,0
400013,-80,4,2,1,50,0,0
400341,-80,4,2,3,50,0,0
400669,-100,4,2,3,50,0,0
401324,-100,4,2,1,50,0,0
401652,-100,4,2,3,50,0,0
402636,-66.6666666666667,4,2,1,60,0,0
403947,-100,4,2,1,60,0,0
405259,-66.6666666666667,4,2,1,60,0,0
406570,-100,4,2,1,60,0,0
406898,-100,4,2,3,60,0,0
407882,-80,4,2,1,60,0,0
408210,-80,4,2,3,60,0,0
408538,-100,4,2,3,60,0,0
409193,-100,4,2,1,60,0,0
409521,-100,4,2,3,60,0,0
410505,-80,4,2,1,60,0,0
410833,-80,4,2,3,60,0,0
411161,-100,4,2,3,60,0,0
411816,-100,4,2,1,60,0,0
412144,-100,4,2,3,60,0,0
413128,-66.6666666666667,4,2,1,70,0,0
414439,-100,4,2,1,70,0,0
415751,-66.6666666666667,4,2,1,70,0,0
417062,-133.333333333333,4,2,1,70,0,0
418702,-80,4,2,1,50,0,0
418988,-80,4,2,1,5,0,0
419029,-100,4,2,1,50,0,0
419316,-100,4,2,1,5,0,0
419357,-133.333333333333,4,2,1,50,0,0
419644,-133.333333333333,4,2,1,5,0,0
419685,-500,4,2,1,50,0,0
420341,-100,4,2,1,50,0,0
420997,-66.6666666666667,4,2,1,50,0,0
423947,-80,4,2,1,50,0,0
424234,-80,4,2,1,5,0,0
424275,-100,4,2,1,50,0,0
424562,-100,4,2,1,5,0,0
424603,-133.333333333333,4,2,1,50,0,0
424890,-133.333333333333,4,2,1,5,0,0
424931,-500,4,2,1,50,0,0
425587,-100,4,2,1,50,0,0
426243,-66.6666666666667,4,2,1,50,0,0
429193,-80,4,2,1,50,0,0
429480,-80,4,2,1,5,0,0
429521,-100,4,2,1,50,0,0
429808,-100,4,2,1,5,0,0
429849,-133.333333333333,4,2,1,50,0,0
430136,-133.333333333333,4,2,1,5,0,0
430177,-200,4,2,1,50,0,0
430915,-100,4,2,1,50,0,0
431488,-66.6666666666667,4,2,1,50,0,0
434439,-80,4,2,1,50,0,0
434726,-80,4,2,1,5,0,0
434767,-100,4,2,1,50,0,0
435054,-100,4,2,1,5,0,0
435095,-133.333333333333,4,2,1,50,0,0
435382,-133.333333333333,4,2,1,5,0,0
435423,-285.714285714286,4,2,1,50,0,0
436161,-100,4,2,1,50,0,0
436734,-57.1428571428571,4,2,1,50,0,0
439357,-100,4,2,1,50,0,0
439685,-100,4,2,3,40,0,0
439849,-133.333333333333,4,2,3,40,0,0
444603,320.855614973262,4,2,3,40,1,0
447169,309.278350515464,4,2,3,50,1,0
447246,-100,4,2,3,5,0,0
447632,-100,4,2,3,50,0,0
447710,-100,4,2,3,5,0,0
447942,-100,4,2,3,50,0,0
448406,300,4,2,3,50,1,0
449606,-100,4,2,5,60,0,0
450806,-100,4,2,5,65,0,0
452006,-83.3333333333333,4,2,5,70,0,0
452681,-83.3333333333333,4,2,5,5,0,0
452756,-83.3333333333333,4,2,5,70,0,0
452831,-83.3333333333333,4,2,5,5,0,0
452906,-83.3333333333333,4,2,5,70,0,0
452981,-83.3333333333333,4,2,5,5,0,0
453056,-83.3333333333333,4,2,5,70,0,0
453131,-83.3333333333333,4,2,5,5,0,0
453206,-83.3333333333333,4,2,5,75,0,0
453506,-71.4285714285714,4,2,5,75,0,0
454406,-71.4285714285714,4,2,5,80,0,0
455606,-71.4285714285714,4,2,5,85,0,0
456843,-71.4285714285714,4,2,5,60,0,0
457106,-50,4,2,5,60,0,0
457406,-25,4,2,5,60,0,0
457706,-16.6666666666667,4,2,5,60,0,0
458006,-100,4,2,1,80,0,0
459206,-66.6666666666667,4,2,5,80,0,0
459356,-50,4,2,5,80,0,0
463856,-100,4,2,5,80,0,0
464006,-50,4,2,5,80,0,0
466106,-40,4,2,5,80,0,0
466256,-33.3333333333333,4,2,5,80,0,0
466406,-50,4,2,5,80,0,0
466706,-100,4,2,5,80,0,0
467006,-50,4,2,5,80,0,0
468506,-100,4,2,5,80,0,0
468806,-50,4,2,5,80,0,0
473306,-100,4,2,5,80,0,0
473606,-50,4,2,5,80,0,0
476006,-66.6666666666667,4,2,5,80,0,0
476456,-66.6666666666667,4,2,1,70,0,0
477206,-133.333333333333,4,2,5,80,0,0
477431,-66.6666666666667,4,2,5,80,0,0
477731,-50,4,2,5,80,0,0
478106,-40,4,2,5,80,0,0
478406,-200,4,2,1,60,0,0
479606,-133.333333333333,4,2,1,60,0,0
481556,-50,4,2,1,60,0,0
482006,-40,4,2,1,80,0,0
483206,-50,4,2,5,80,0,0
486056,-40,4,2,5,80,0,0
486206,-50,4,2,5,80,0,0
487406,-200,4,2,5,80,0,0
488006,-50,4,2,5,80,0,0
490706,-57.1428571428571,4,2,5,80,0,0
491006,-66.6666666666667,4,2,5,80,0,0
491306,-50,4,2,5,80,0,0
492806,-79.9999999999999,4,2,4,80,0,0
494906,-100,4,2,4,80,0,0
495206,-133.333333333333,4,2,1,80,0,0
497006,-66.6666666666667,4,2,4,80,0,0
497606,-62.5,4,2,4,80,0,0
515906,-62.5,4,2,4,85,0,0
516206,-62.5,4,2,4,90,0,0
516506,-62.5,4,2,4,95,0,0
516806,-62.5,4,2,1,60,0,0
517706,-62.5,4,2,2,50,0,0
518006,-133.333333333333,4,2,2,50,0,0
526406,-100,4,2,1,50,0,0
527606,-100,4,2,2,50,0,0
528806,-100,4,2,1,50,0,0
529406,-100,4,2,1,60,0,0
531056,-100,4,2,2,40,0,0
531206,-303.030303030303,4,2,2,40,0,0
532406,-200,4,2,2,40,0,0
533606,-200,4,2,2,30,0,0
536006,309.278350515464,4,2,2,30,1,0
536006,-200,4,2,2,30,0,0
537243,-100,4,2,2,30,0,0
538460,254.237288135593,4,2,1,60,1,0
538460,-100,4,2,1,60,0,0
542527,-100,4,2,1,65,0,0
546595,-80,4,2,1,70,0,0
550663,-66.6666666666667,4,2,5,75,0,0
551680,-66.6666666666667,4,2,5,80,0,0
552697,-66.6666666666667,4,2,5,85,0,0
554731,-100,4,2,5,90,0,0
554985,-133.333333333333,4,2,5,90,0,0
555748,-50,4,2,5,90,0,0
556510,-44.4444444444445,4,2,5,90,0,0
556765,-33.3333333333333,4,2,5,90,0,0
557019,-333.333333333333,4,2,5,90,0,0
557273,-66.6666666666667,4,2,5,90,0,0
557464,-50,4,2,5,90,0,0
557654,-40,4,2,5,90,0,0
557782,-66.6666666666667,4,2,5,90,0,0
558036,-50,4,2,5,90,0,0
558544,-200,4,2,5,90,0,0
558798,-40,4,2,5,90,0,0
559561,-33.3333333333333,4,2,5,90,0,0
560006,-50,4,2,5,90,0,0
560260,-200,4,2,5,90,0,0
560324,-100,4,2,5,90,0,0
560515,-66.6666666666667,4,2,5,90,0,0
560832,-50,4,2,5,90,0,0
561087,-40,4,2,5,90,0,0
561214,-40,4,2,5,90,0,0
561256,-33.3333333333333,4,2,5,90,0,0
562358,-133.333333333333,4,2,5,90,0,0
562866,-33.3333333333333,4,2,5,90,0,0
563121,-200,4,2,5,90,0,0
563375,-50,4,2,5,90,0,0
563883,-25,4,2,5,90,0,0
564137,-133.333333333333,4,2,5,90,0,0
564392,-33.3333333333333,4,2,5,90,0,0
564646,-133.333333333333,4,2,5,90,0,0
564900,-40,4,2,5,90,0,0
565154,-133.333333333333,4,2,5,90,0,0
565409,-40,4,2,5,90,0,0
565917,-50,4,2,5,90,0,0
566426,-40,4,2,5,90,0,0
566680,-100,4,2,5,90,0,0
566934,-28.5714285714286,4,2,5,90,0,0
567188,-200,4,2,5,90,0,0
567443,-40,4,2,5,90,0,0
567951,-133.333333333333,4,2,5,90,0,0
568205,-33.3333333333333,4,2,5,90,0,0
568460,-40,4,2,5,90,0,0
568714,-133.333333333333,4,2,5,90,0,0
568968,-50,4,2,5,90,0,0
569985,-44.4444444444445,4,2,5,90,0,0
570219,-44.4444444444445,4,2,5,90,0,0
570239,-66.6666666666667,4,2,2,70,0,0
570748,-44.4444444444445,4,2,2,70,0,0
570982,-44.4444444444445,4,2,2,70,0,0
571002,-50,4,2,1,80,0,0
571637,-76.9230769230769,4,2,1,80,0,0
577846,-76.9230769230769,4,2,1,80,0,0
577866,-76.9230769230769,4,2,4,90,0,0
577993,-50,4,2,4,90,0,0
579137,-57.1428571428571,4,2,4,90,0,1
585239,-50,4,2,4,90,0,1
587293,288.461538461538,4,2,1,70,1,0
587293,-133.333333333333,4,2,1,70,0,0
588374,-133.333333333333,4,2,1,50,0,0
590610,-222.222222222222,4,2,1,50,0,0
591908,-222.222222222222,4,2,1,70,0,0
598831,-200,4,2,1,70,0,0
599408,-1000,4,2,1,20,0,0
607242,-1000,4,2,1,15,0,0
610369,-200,4,2,9,15,0,0
618446,-1000,4,2,1,10,0,0
621908,-1000,4,2,1,15,0,0
628254,-200,4,2,1,15,0,0
629504,-1000,4,2,1,15,0,0
641667,-500,4,2,1,15,0,0

[Colours]
Combo1 : 0,128,255
Combo2 : 250,185,50
Combo3 : 250,250,5
Combo4 : 128,128,255

[HitObjects]
32,96,1325,54,0,P|64:32|112:80,1,137.25,6|0,0:1|0:0,0:0:0:0:
99,139,1652,1,2,0:0:0:0:
155,306,1816,6,0,P|107:255|-26:232,1,183,2|0,0:1|0:0,0:0:0:0:
1,362,2308,2,0,P|36:363|37:310,1,91.5,2|2,0:0|0:1,0:0:0:0:
98,139,2636,6,0,P|117:126|140:123,1,45.75,2|0,0:1|0:0,0:0:0:0:
180,195,2800,1,0,0:0:0:0:
200,204,2881,1,0,0:0:0:0:
214,222,2963,1,2,0:0:0:0:
132,272,3128,1,2,0:1:0:0:
341,296,3292,6,0,P|278:317|259:380,1,137.25
336,373,3620,1,2,0:0:0:0:
214,222,3784,1,2,0:1:0:0:
437,231,3947,6,0,L|442:167,1,45.75,2|0,0:1|0:0,0:0:0:0:
449,110,4111,1,0,0:0:0:0:
449,98,4192,1,0,0:0:0:0:
450,87,4274,1,2,0:0:0:0:
315,15,4439,6,0,P|317:55|376:64,2,91.5,2|0|0,0:1|0:0|0:0,0:0:0:0:
417,0,4931,1,2,0:0:0:0:
336,256,5095,5,2,0:1:0:0:
281,303,5259,2,0,B|374:304|326:272|438:272,1,137.25,2|0,0:1|0:0,0:0:0:0:
489,296,5587,1,2,0:0:0:0:
428,352,5751,1,2,0:1:0:0:
211,254,5915,6,0,P|183:288|193:331,1,91.5
281,303,6243,1,2,0:0:0:0:
226,69,6406,1,2,0:1:0:0:
151,166,6570,6,0,B|270:155|270:155|275:149|275:149|353:142,1,183,6|2,0:1|0:0,0:0:0:0:
512,300,7062,1,2,0:1:0:0:
451,235,7226,2,0,P|483:291|456:358,1,137.25
375,381,7554,1,2,0:0:0:0:
451,235,7718,1,2,0:1:0:0:
387,295,7882,6,0,L|341:291,1,45.75,2|0,0:1|0:0,0:0:0:0:
267,313,8046,1,0,0:0:0:0:
255,312,8127,1,0,0:0:0:0:
244,311,8209,1,2,0:0:0:0:
140,75,8374,1,2,0:1:0:0:
113,150,8538,5,0,0:0:0:0:
66,50,8702,1,0,0:0:0:0:
166,4,8865,1,2,0:0:0:0:
212,103,9029,1,2,0:1:0:0:
45,246,9193,6,0,P|66:260|83:300,1,45.75,2|0,0:1|0:0,0:0:0:0:
0,327,9357,1,0,0:0:0:0:
10,347,9438,1,0,0:0:0:0:
12,369,9520,1,2,0:0:0:0:
246,224,9685,6,0,P|267:210|284:170,1,45.75,2|0,0:1|0:0,0:0:0:0:
201,143,9849,1,0,0:0:0:0:
211,123,9930,1,0,0:0:0:0:
213,101,10012,1,0,0:0:0:0:
187,350,10177,5,2,0:0:0:0:
330,289,10341,1,2,0:1:0:0:
77,276,10505,6,0,P|56:262|39:222,1,45.75,2|0,0:1|0:0,0:0:0:0:
122,195,10669,1,0,0:0:0:0:
112,175,10750,1,0,0:0:0:0:
110,153,10832,1,2,0:0:0:0:
144,34,10997,5,2,0:1:0:0:
32,32,11161,5,2,0:1:0:0:
141,47,11324,5,2,0:1:0:0:
291,103,11488,5,2,0:1:0:0:
438,235,11652,5,2,0:1:0:0:
491,372,11816,6,0,P|469:364|492:368,1,68.6250026178361,6|0,0:1|0:0,0:0:0:0:
117,175,12144,2,0,B|154:200|125:244|125:244|127:209|105:181,2,137.250005235672,2|2|2,0:3|0:2|0:2,0:0:0:0:
18,367,13128,6,0,B|-1:334|52:310|42:255|42:255|52:310|108:309|106:354,1,240.187509162426,2|0,0:3|0:0,0:0:0:0:
197,291,13784,6,0,B|255:258|302:326|284:344|337:397|409:361,1,240.187509162426,2|0,0:2|0:0,0:0:0:0:
396,264,14439,6,0,B|368:293|368:293|345:206|411:114|451:82|451:82|394:18|262:30|173:141|173:141|209:76|209:76|285:58|477:137|505:265,1,1029.37503926754,6|0,0:3|0:0,0:0:0:0:
71,226,17062,6,0,P|36:216|71:223,1,109.79999664917,6|0,0:1|0:0,0:0:0:0:
110,319,17390,6,0,P|178:318|213:263,2,137.250005235672,2|2|2,0:3|0:2|0:2,0:0:0:0:
331,10,18374,6,0,B|255:68|326:145|326:145|339:94|406:81,1,240.187509162426,2|0,0:3|0:0,0:0:0:0:
400,244,19029,6,0,P|339:181|183:160,1,240.187509162426,2|0,0:2|0:0,0:0:0:0:
0,376,19685,6,0,B|37:247|161:295|78:383|296:272|371:77|58:-4|-84:49|-16:285|57:296|57:296|193:0,1,1029.37503926754,6|0,0:3|0:0,0:0:0:0:
219,363,22308,6,0,P|315:351|325:276,1,183,6|2,0:1|0:0,0:0:0:0:
508,357,22800,1,2,0:0:0:0:
503,364,22882,1,2,0:0:0:0:
498,372,22964,2,0,P|454:357|410:347,1,91.5,2|0,0:2|0:0,0:0:0:0:
412,101,23292,5,2,0:0:0:0:
412,101,23374,1,2,0:0:0:0:
412,101,23456,2,0,P|414:123|418:146,1,45.75,2|2,0:0|0:0,0:0:0:0:
488,218,23620,6,0,B|433:240|401:197|410:188|378:148|328:165,1,183,8|2,0:1|0:3,0:0:0:0:
491,55,24111,1,2,0:2:0:0:
339,13,24275,5,0,0:0:0:0:
338,13,24357,2,0,P|294:25|249:36,1,91.5
257,55,24603,2,0,P|213:42|168:31,1,91.5,2|2,0:0|0:0,0:0:0:0:
22,151,24931,6,0,B|35:216|82:192|94:263|94:263|82:192|132:197|118:134,1,274.5,8|2,0:1|0:2,0:0:0:0:
60,77,25587,5,0,0:0:0:0:
61,62,25751,1,0,0:0:0:0:
211,185,25915,5,2,0:0:0:0:
242,170,25996,1,2,0:0:0:0:
276,174,26078,1,2,0:0:0:0:
302,196,26160,1,2,0:0:0:0:
311,227,26243,2,0,P|396:229|417:147,1,183,8|2,0:1|0:3,0:0:0:0:
452,384,26734,1,2,0:2:0:0:
512,334,26898,2,0,P|491:294|448:286,1,91.5
241,372,27226,5,2,0:0:0:0:
209,367,27307,1,2,0:0:0:0:
177,363,27389,1,2,0:0:0:0:
145,359,27471,1,2,0:0:0:0:
114,353,27554,2,0,P|98:262|82:172,1,183,8|2,0:1|0:3,0:0:0:0:
6,342,28046,5,2,0:2:0:0:
3,350,28128,1,0,0:0:0:0:
0,358,28210,1,0,0:0:0:0:
190,225,28374,2,0,P|199:180|212:136,1,91.5,0|2,0:0|0:0,0:0:0:0:
211,136,28620,1,2,0:0:0:0:
211,136,28702,1,2,0:0:0:0:
0,14,28865,6,0,P|68:69|158:65,1,183,8|2,0:1|0:3,0:0:0:0:
291,214,29357,1,2,0:2:0:0:
291,214,29439,1,0,0:0:0:0:
291,214,29521,1,0,0:0:0:0:
402,154,29685,1,0,0:0:0:0:
285,33,29849,2,0,L|292:78,1,45.75,2|2,0:0|0:0,0:0:0:0:
296,38,30013,2,0,L|303:83,1,45.75,2|2,0:0|0:0,0:0:0:0:
363,306,30177,5,8,0:1:0:0:
4,145,32800,6,0,P|91:118|179:93,1,183,6|0,0:1|0:0,0:0:0:0:
52,47,33292,1,0,0:0:0:0:
191,210,33456,6,0,L|183:257,1,36.6,2|0,0:0|0:0,0:0:0:0:
166,357,33784,2,0,L|173:321,1,36.6
203,213,34111,6,0,L|195:260,1,36.6,2|0,0:0|0:0,0:0:0:0:
178,360,34439,2,0,L|184:323,1,36.6
294,303,34767,6,0,L|247:295,1,36.6,2|0,0:0|0:0,0:0:0:0:
111,273,35095,2,0,L|75:267,1,36.6
297,62,35423,6,0,P|304:79|308:97,1,36.6,2|0,0:3|0:0,0:0:0:0:
376,140,35751,2,0,P|373:158|370:176,1,36.6
345,0,36079,6,0,P|358:13|367:29,1,36.6,2|0,0:0|0:0,0:0:0:0:
376,140,36406,2,0,P|373:158|370:176,1,36.6
460,312,36734,6,0,P|467:295|471:277,1,36.6,2|0,0:0|0:0,0:0:0:0:
463,267,37062,2,0,P|455:283|451:301,1,36.6
304,384,37390,6,0,P|296:367|292:349,1,36.6,2|0,0:0|0:0,0:0:0:0:
364,325,37718,2,0,P|372:342|376:360,1,36.6
202,267,38047,6,0,L|194:220,1,36.6,2|0,0:3|0:0,0:0:0:0:
133,48,38374,2,0,P|112:78|106:113,1,73.2
214,264,38702,6,0,L|206:217,1,36.6,2|0,0:0|0:0,0:0:0:0:
189,117,39030,2,0,L|195:154,1,36.6
226,261,39357,6,0,L|218:214,1,36.6,2|0,0:0|0:0,0:0:0:0:
201,114,39685,2,0,L|207:151,1,36.6
161,329,40013,6,0,L|116:312,1,36.6,2|0,0:0|0:0,0:0:0:0:
38,283,40341,2,0,L|2:269,1,36.6
287,384,40669,6,0,L|320:367,1,36.6,2|0,0:3|0:0,0:0:0:0:
375,310,40997,2,0,L|411:303,1,36.6
236,320,41324,6,0,L|269:303,1,36.6,2|0,0:0|0:0,0:0:0:0:
375,310,41652,2,0,L|411:303,1,36.6
488,89,41980,5,2,0:0:0:0:
492,103,42144,1,0,0:0:0:0:
420,200,42308,5,0,0:0:0:0:
427,172,42472,1,0,0:0:0:0:
333,50,42636,5,2,0:0:0:0:
352,126,42800,1,0,0:0:0:0:
261,268,42964,5,0,0:0:0:0:
289,180,43128,1,0,0:0:0:0:
141,29,43292,6,0,P|88:29|58:73,1,109.79999664917,2|0,1:3|0:0,0:0:0:0:
40,65,43538,1,0,1:2:0:0:
40,65,43620,2,0,P|47:92|52:119,1,54.899998324585,2|0,0:0|0:0,0:0:0:0:
116,160,43784,2,0,P|113:187|108:214,1,54.899998324585,0|0,1:2|0:0,0:0:0:0:
12,275,43947,6,0,P|66:289|116:310,1,109.79999664917,2|0,1:3|0:0,0:0:0:0:
127,301,44193,1,0,1:2:0:0:
127,301,44275,2,0,P|133:327|139:354,1,54.899998324585,2|0,0:0|0:0,0:0:0:0:
214,338,44439,2,0,P|207:311|201:284,1,54.899998324585,0|0,1:2|0:0,0:0:0:0:
263,217,44603,6,0,P|316:203|366:182,1,109.79999664917,2|0,1:3|0:0,0:0:0:0:
384,194,44849,1,0,1:2:0:0:
384,194,44931,2,0,P|390:167|396:140,1,54.899998324585,2|0,0:0|0:0,0:0:0:0:
471,157,45095,2,0,P|464:183|458:210,1,54.899998324585,0|0,1:2|0:0,0:0:0:0:
509,278,45259,6,0,P|508:330|464:360,1,109.79999664917,2|0,1:3|0:0,0:0:0:0:
473,379,45505,1,0,1:2:0:0:
473,379,45587,2,0,P|446:372|419:367,1,54.899998324585,2|0,0:0|0:0,0:0:0:0:
378,303,45751,2,0,P|351:306|324:311,1,54.899998324585,0|0,1:2|0:0,0:0:0:0:
145,362,45915,6,0,P|220:340|216:277,1,109.79999664917,2|0,1:3|0:0,0:0:0:0:
247,327,46161,1,0,1:2:0:0:
247,327,46243,2,0,P|240:300|235:273,1,54.899998324585,2|0,0:0|0:0,0:0:0:0:
171,232,46407,2,0,P|173:204|178:177,1,54.899998324585,0|0,1:2|0:0,0:0:0:0:
103,282,46570,6,0,P|28:260|32:197,1,109.79999664917,2|0,1:3|0:0,0:0:0:0:
1,247,46816,1,0,1:2:0:0:
1,247,46898,2,0,P|8:220|13:193,1,54.899998324585,2|0,0:0|0:0,0:0:0:0:
77,152,47062,2,0,P|75:124|70:97,1,54.899998324585,0|0,1:2|0:0,0:0:0:0:
23,7,47226,6,0,P|76:18|130:28,1,109.79999664917,2|0,1:3|0:0,0:0:0:0:
144,42,47472,1,0,1:2:0:0:
144,42,47554,2,0,P|150:68|156:95,1,54.899998324585,2|0,0:0|0:0,0:0:0:0:
219,29,47718,2,0,P|226:56|232:82,1,54.899998324585,0|0,1:2|0:0,0:0:0:0:
292,144,47882,6,0,P|346:153|399:165,1,109.79999664917,2|0,1:3|0:0,0:0:0:0:
414,156,48129,1,0,1:2:0:0:
414,156,48211,1,2,0:0:0:0:
425,192,48292,1,0,0:0:0:0:
435,229,48374,1,0,1:2:0:0:
445,266,48456,1,0,1:0:0:0:
452,304,48538,6,0,P|452:331|447:358,2,54.899998324585,0|2|2,1:0|0:0|0:0,0:0:0:0:
375,321,48784,2,0,P|365:346|352:370,2,54.899998324585,0|2|2,1:0|0:0|0:0,0:0:0:0:
296,310,49029,2,0,P|278:331|257:349,2,54.899998324585,0|2|2,1:0|0:0|0:0,0:0:0:0:
225,272,49275,2,0,P|201:285|175:295,2,54.899998324585,0|2|2,1:0|0:0|0:0,0:0:0:0:
440,49,49521,6,0,P|439:83|425:113,1,68.6250026178361,0|2,1:0|0:0,0:0:0:0:
349,93,49685,2,0,P|349:58|363:28,1,68.6250026178361,0|2,1:0|0:0,0:0:0:0:
452,304,49849,6,0,P|452:331|447:358,2,54.899998324585,0|2|2,1:0|0:0|0:0,0:0:0:0:
296,310,50095,2,0,P|278:331|257:349,2,54.899998324585,0|2|2,1:0|0:0|0:0,0:0:0:0:
172,214,50341,2,0,P|145:218|117:219,2,54.899998324585,0|2|2,1:2|1:2|1:2,0:0:0:0:
139,61,50587,2,0,P|115:47|93:30,2,54.899998324585,0|2|2,1:2|1:2|1:2,0:0:0:0:
440,49,50833,6,0,P|439:83|425:113,1,68.6250026178361,0|2,1:2|1:2,0:0:0:0:
349,93,50997,2,0,P|349:58|363:28,1,68.6250026178361,0|2,1:2|1:2,0:0:0:0:
260,179,51161,5,2,1:2:0:0:
270,170,51243,1,2,1:2:0:0:
305,141,51324,5,2,1:2:0:0:
317,137,51406,1,2,1:2:0:0:
360,125,51488,5,2,1:2:0:0:
374,126,51570,1,2,1:2:0:0:
418,133,51652,5,2,1:2:0:0:
429,139,51734,1,2,1:2:0:0:
467,163,51816,5,2,1:2:0:0:
476,173,51898,1,2,1:2:0:0:
501,210,51980,5,2,1:2:0:0:
505,223,52062,1,2,1:2:0:0:
512,267,52144,5,2,1:2:0:0:
512,281,52226,1,2,1:2:0:0:
500,323,52308,5,2,1:2:0:0:
491,335,52390,1,2,1:2:0:0:
461,360,52472,6,0,P|408:348|354:335,1,109.79999664917,0|0,3:0|3:0,0:0:0:0:
393,344,53456,6,0,B|375:284|375:284|294:274|294:274|289:278|289:278|213:268|213:268|200:208,1,288.224991204071,12|0,0:1|0:0,0:0:0:0:
142,139,53784,6,0,B|166:81|166:81|113:-17|113:-17|99:94|99:94|141:140,1,343.125,12|0,1:3|0:0,0:0:0:0:
7,183,54111,6,0,B|142:171|142:171|142:175|142:175|276:163,1,274.5,12|0,1:3|0:0,0:0:0:0:
454,288,54439,6,0,B|486:237|446:149|257:228|308:314|364:326,1,274.5,12|0,1:3|0:0,0:0:0:0:
427,369,54767,6,0,B|521:352|521:352|490:176,1,274.5,12|0,1:3|0:0,0:0:0:0:
356,80,55095,6,0,P|344:118|381:164,1,91.5,12|2,1:3|0:0,0:0:0:0:
433,114,55259,1,2,0:0:0:0:
432,105,55341,1,2,0:0:0:0:
340,2,55423,6,0,P|301:10|279:65,1,91.5,12|2,1:3|0:0,0:0:0:0:
349,85,55587,1,2,0:0:0:0:
356,80,55669,1,2,0:0:0:0:
198,101,55751,6,0,L|247:421,1,274.5,12|0,1:3|0:0,0:0:0:0:
409,277,56079,6,0,B|441:290|439:267|465:247|465:247|421:246|408:273,1,137.25,4|0,1:3|0:0,0:0:0:0:
90,302,56406,2,0,B|106:264|166:274|166:274|324:302|324:302|388:313|410:276,1,343.125,12|0,1:3|0:0,0:0:0:0:
498,97,56734,6,0,B|461:129|472:192|472:192|505:382,1,274.5,12|0,1:3|0:0,0:0:0:0:
323,258,57062,6,0,B|244:240|98:296|215:352|101:380,1,274.5,12|0,1:3|0:0,0:0:0:0:
289,129,57390,2,0,B|334:147|345:210|345:210|379:399,1,274.5,12|0,1:3|0:0,0:0:0:0:
146,151,57718,6,0,L|153:59,1,91.5,12|2,1:3|0:0,0:0:0:0:
225,23,57882,1,2,0:0:0:0:
234,18,57964,1,2,0:0:0:0:
119,208,58046,6,0,L|111:116,1,91.5,12|2,1:3|0:0,0:0:0:0:
40,80,58210,1,2,0:0:0:0:
31,75,58292,1,2,0:0:0:0:
44,251,58374,6,0,B|26:265|4:288|4:288|97:238|182:266|182:266|160:266|138:279,1,274.500010471344,12|0,1:3|0:0,0:0:0:0:
96,347,58620,2,0,P|81:381|91:344,1,114.375,4|0,1:3|0:0,0:0:0:0:
256,320,58784,6,0,L|257:371,1,45.75,8|0,1:0|0:0,0:0:0:0:
378,223,59029,6,0,B|418:195|408:99|417:60|417:60|439:94|453:192|502:214,1,343.125,4|0,1:1|0:0,0:0:0:0:
508,340,59357,6,0,B|342:310|342:310|301:304|311:334|261:346|218:333,1,274.5,12|0,1:3|0:0,0:0:0:0:
26,65,59685,6,0,B|-6:97|10:145|10:145|109:93|202:177,1,274.5,12|0,1:3|0:0,0:0:0:0:
254,226,60013,6,0,P|264:249|246:225,2,91.5,12|0|0,1:3|0:0|0:0,0:0:0:0:
447,31,60341,6,0,P|427:53|435:121,1,91.5,12|2,1:3|0:0,0:0:0:0:
462,178,60505,1,2,0:0:0:0:
475,186,60587,1,2,0:0:0:0:
327,133,60669,6,0,P|336:161|398:188,1,91.5,12|2,1:3|0:0,0:0:0:0:
461,193,60833,1,2,0:0:0:0:
475,186,60915,1,2,0:0:0:0:
428,111,60997,6,0,B|368:33|256:64|256:64|318:48|341:0,1,274.5,12|0,1:3|0:0,0:0:0:0:
107,83,61324,6,0,B|81:54|40:76|40:76|72:70|104:93,1,137.25,4|0,1:3|0:0,0:0:0:0:
63,298,61652,6,0,P|15:202|63:154,1,183,12|0,1:3|0:0,0:0:0:0:
107,83,61898,6,0,B|155:115|219:83|267:179,1,183,12|0,1:3|0:0,0:0:0:0:
326,2,62144,2,0,B|323:40|363:66|323:125,1,91.5,12|0,1:3|0:0,0:0:0:0:
361,239,62308,6,0,B|313:230|276:256|276:256|71:220,1,274.5,12|0,1:3|0:0,0:0:0:0:
72,13,62636,6,0,B|62:46|136:45|136:45|232:45|263:176,1,274.5,4|0,1:3|0:0,0:0:0:0:
255,290,62964,5,2,0:0:0:0:
249,322,63045,1,2,0:0:0:0:
267,350,63127,1,2,0:0:0:0:
299,358,63209,1,2,0:0:0:0:
329,342,63292,5,2,0:0:0:0:
331,330,63373,1,2,0:0:0:0:
333,319,63455,1,2,0:0:0:0:
335,308,63537,1,2,0:0:0:0:
337,296,63619,5,2,0:0:0:0:
367,280,63702,1,2,0:0:0:0:
399,288,63784,1,2,0:0:0:0:
417,316,63866,1,2,0:0:0:0:
411,348,63947,5,2,0:0:0:0:
460,286,64028,5,2,0:0:0:0:
467,207,64110,5,2,0:0:0:0:
429,138,64192,5,2,0:0:0:0:
359,101,64275,6,0,L|350:177,1,68.6250026178361,4|0,1:0|1:0,0:0:0:0:
202,309,64439,2,0,L|193:233,1,68.6250026178361,0|0,1:0|1:0,0:0:0:0:
17,255,64603,6,0,B|-43:221|-38:123|49:91|109:133|116:186|116:186|57:275|152:411|315:345|315:214|243:163,1,686.250026178361,4|0,1:2|0:0,0:0:0:0:
280,37,65095,6,0,B|204:120|204:120|509:172,1,411.750015707017,4|0,1:2|0:0,0:0:0:0:
502,79,65423,2,0,B|475:53|476:18|476:18|459:51|420:72,1,137.250005235672,4|2,1:3|0:0,0:0:0:0:
405,341,65587,5,12,1:3:0:0:
413,349,65669,1,2,0:0:0:0:
421,357,65751,2,0,P|430:301|380:240,1,137.250005235672,2|2,0:0|0:0,0:0:0:0:
280,37,65915,1,4,1:3:0:0:
235,104,65997,2,0,P|245:210|251:331,1,205.875007853508,2|2,0:0|0:0,0:0:0:0:
421,357,66243,6,0,B|329:396|235:321|293:229|182:144|86:200,1,411.750015707017,12|0,1:3|0:0,0:0:0:0:
418,273,66570,6,0,B|284:243|284:243|251:281,1,183,0|0,1:3|0:0,0:0:0:0:
254,277,66734,2,0,B|224:311|224:311|90:281,1,183,0|0,1:3|0:0,0:0:0:0:
0,118,66898,6,0,B|58:125|75:175|68:220|68:220|38:409,1,274.500010471344,12|0,1:3|0:0,0:0:0:0:
65,363,67144,1,0,0:0:0:0:
96,384,67226,6,2,B|-107:249|-5:-96|380:-67|462:208|325:371|325:371|391:262|345:138|199:51|91:118|48:216|98:308|211:320|223:220,1,1509.75005759239,12|0,1:3|0:0,0:1:0:0:
272,286,68210,5,12,1:3:0:0:
359,293,68292,5,2,0:0:0:0:
432,260,68374,5,2,0:0:0:0:
481,207,68456,5,2,0:0:0:0:
498,145,68538,5,12,1:3:0:0:
498,88,68620,5,2,0:0:0:0:
484,38,68702,5,2,0:0:0:0:
459,0,68784,5,2,0:0:0:0:
396,74,68865,6,0,B|443:176|359:224|427:364,1,274.500010471344,12|0,1:3|0:0,0:0:0:0:
314,86,69084,2,0,B|361:188|277:236|345:376,1,274.500010471344,12|0,1:3|0:0,0:0:0:0:
127,94,69521,6,0,B|83:156|121:252|223:260|269:199|269:199|232:217|185:196|175:148|196:116,1,411.750015707017,4|0,1:1|0:0,0:0:0:0:
335,354,69849,2,0,B|410:361|474:280|430:187|354:178|354:178|389:201|394:252|357:285|319:283,1,411.750015707017,12|0,1:3|0:0,0:0:0:0:
456,35,70177,2,0,B|424:-34|322:-49|264:35|294:105|294:105|296:64|338:34|385:49|402:83,1,411.750015707017,12|0,1:3|0:0,0:0:0:0:
331,282,70505,6,0,B|349:267|349:267|362:126,1,137.250005235672,12|0,1:3|0:0,0:0:0:0:
444,294,70669,2,0,B|428:276|428:276|440:134,1,137.250005235672,0|0,1:3|0:0,0:0:0:0:
41,235,70833,5,4,1:0:0:0:
33,243,70915,1,2,0:0:0:0:
25,251,70997,2,0,P|16:195|66:134,1,137.250005235672,2|2,0:0|0:0,0:0:0:0:
114,28,71161,2,0,P|162:87|63:51,1,274.500010471344,12|0,1:3|0:0,0:0:0:0:
187,196,71406,1,2,0:0:0:0:
187,196,71488,6,0,P|203:207|130:217,1,205.875007853508,12|0,1:3|0:0,0:0:0:0:
319,79,71734,2,0,P|335:90|262:100,1,205.875007853508,12|0,1:3|0:0,0:0:0:0:
304,122,71980,1,8,1:0:0:0:
512,78,72144,6,0,B|491:39|503:-19|503:-19|489:40|489:40|427:91,1,205.875007853508,12|0,1:3|0:0,0:0:0:0:
449,158,72390,2,0,B|470:197|458:255|458:255|472:196|472:196|534:145,1,205.875007853508,12|0,1:3|0:0,0:0:0:0:
372,111,72636,6,0,B|326:90|274:133|274:133|219:174|151:131,1,205.875007853508,12|0,1:3|0:0,0:0:0:0:
51,90,72882,5,12,1:3:0:0:
39,82,72964,2,0,P|79:22|137:69,1,160.125001527071,4|0,1:3|0:0,0:0:0:0:
136,64,73128,2,0,P|206:49|214:124,1,160.125001527071,4|0,1:3|0:0,0:0:0:0:
217,120,73292,2,0,P|270:168|214:218,1,160.125001527071,4|0,1:3|0:0,0:0:0:0:
64,272,73456,5,0,1:0:0:0:
60,265,73538,1,0,1:0:0:0:
56,257,73620,2,0,L|69:167,1,91.5,0|0,1:0|1:0,0:0:0:0:
144,49,73784,1,0,1:2:0:0:
140,56,73866,1,0,1:0:0:0:
136,64,73948,2,0,L|149:154,1,91.5,0|0,1:0|1:0,0:0:0:0:
49,17,74111,6,0,L|107:371,1,343.125,0|0,1:0|1:0,0:0:0:0:
126,366,74439,1,0,1:0:0:0:
460,245,74603,5,0,1:2:0:0:
464,237,74685,1,0,1:0:0:0:
468,229,74767,2,0,P|472:287|401:344,1,137.250005235672,4|2,1:0|0:2,0:0:0:0:
341,364,75013,1,2,0:0:0:0:
335,338,75095,2,0,P|275:314|192:295,1,137.250005235672,8|2,1:0|0:0,0:0:0:0:
352,265,75341,1,2,0:0:0:0:
347,255,75423,2,0,P|287:231|204:212,1,137.250005235672,0|2,1:0|0:0,0:0:0:0:
375,187,75669,1,2,0:0:0:0:
363,157,75751,2,0,P|303:133|220:114,1,137.250005235672,8|2,1:0|0:0,0:0:0:0:
127,74,75997,5,2,0:0:0:0:
121,70,76079,2,0,P|65:54|53:133,1,137.250005235672,0|2,1:0|0:0,0:0:0:0:
0,190,76324,1,2,0:0:0:0:
17,237,76406,2,0,P|70:244|90:168,1,137.250005235672,8|2,1:0|0:0,0:0:0:0:
169,257,76652,1,2,0:0:0:0:
166,264,76734,2,0,P|236:279|301:295,1,137.250005235672,0|2,1:0|0:0,0:0:0:0:
314,148,76980,1,2,0:0:0:0:
325,202,77062,2,0,P|255:187|190:171,1,137.250005235672,8|2,1:0|0:0,0:0:0:0:
4,45,77308,5,2,0:0:0:0:
4,45,77390,2,0,P|-23:116|72:75,1,205.875007853508,0|2,1:0|0:0,0:0:0:0:
191,171,77718,6,0,P|165:284|55:185,1,274.5,8|2,1:0|0:0,0:0:0:0:
65,219,77964,1,2,0:0:0:0:
80,203,78046,1,0,1:0:0:0:
283,355,78210,5,2,0:0:0:0:
283,355,78292,1,2,0:0:0:0:
283,355,78374,2,0,L|377:355,1,91.5,8|2,1:0|0:0,0:0:0:0:
429,211,78702,6,0,P|513:213|425:221,1,274.500010471344,0|2,1:0|0:0,0:0:0:0:
307,98,78947,1,2,0:0:0:0:
307,98,79029,2,0,P|223:100|311:108,1,274.500010471344,8|2,1:0|0:0,0:0:0:0:
70,217,79275,5,2,0:0:0:0:
70,217,79357,2,0,P|244:153|490:66,1,411.750015707017,0|2,1:0|0:0,0:0:0:0:
359,0,79685,1,8,3:0:0:0:
365,16,79766,1,0,3:0:0:0:
371,32,79848,1,0,3:0:0:0:
377,48,79930,1,0,3:0:0:0:
346,121,80013,5,4,3:2:0:0:
359,164,80094,1,0,3:0:0:0:
371,208,80176,1,0,3:0:0:0:
381,253,80258,1,0,3:0:0:0:
391,298,80340,1,0,3:0:0:0:
399,343,80422,1,0,3:0:0:0:
325,373,80505,5,14,3:0:0:0:
280,380,80586,1,0,3:0:0:0:
239,361,80668,1,0,3:0:0:0:
217,322,80750,1,0,3:0:0:0:
222,277,80832,1,0,3:0:0:0:
252,243,80914,1,0,3:0:0:0:
206,165,80997,5,12,3:0:0:0:
212,149,81078,1,0,3:0:0:0:
218,133,81160,1,0,3:0:0:0:
224,117,81242,1,0,3:0:0:0:
312,93,81324,6,0,P|163:111|31:127,1,274.5,4|0,3:0|3:0,0:0:0:0:
26,211,81652,2,0,P|46:205|70:199,1,34.3125013089181,0|0,3:0|3:0,0:0:0:0:
81,201,81816,2,0,P|101:207|125:213,1,34.3125013089181,14|0,3:0|3:0,0:0:0:0:
135,211,81980,2,0,P|284:193|416:177,1,274.500010471344,0|0,3:0|3:0,0:0:0:0:
484,225,82309,1,12,3:0:0:0:
478,241,82390,1,0,3:0:0:0:
472,257,82472,1,0,3:0:0:0:
466,273,82554,1,0,3:0:0:0:
367,360,82636,6,0,P|320:186|270:-2,1,343.125,4|0,3:1|3:0,0:0:0:0:
159,61,82964,2,0,P|139:67|115:73,1,34.3125013089181,0|0,3:0|3:0,0:0:0:0:
104,71,83128,2,0,P|84:65|60:59,1,34.3125013089181,14|0,3:0|3:0,0:0:0:0:
0,0,83292,5,0,3:0:0:0:
18,48,83373,1,0,3:0:0:0:
35,96,83455,1,0,3:0:0:0:
52,145,83537,1,0,3:0:0:0:
68,194,83619,1,12,3:0:0:0:
84,243,83701,1,0,3:0:0:0:
99,292,83783,1,0,3:0:0:0:
113,341,83865,1,0,3:0:0:0:
18,378,83947,5,6,3:2:0:0:
18,378,84275,1,12,3:3:0:0:
341,184,84439,5,0,0:0:0:0:
192,249,84603,1,12,3:3:0:0:
275,108,84767,1,0,0:0:0:0:
290,271,84931,1,12,3:3:0:0:
182,148,85095,1,0,0:0:0:0:
491,222,85259,6,0,P|486:291|477:374,1,137.250005235672,4|2,1:0|0:2,0:0:0:0:
392,365,85505,1,2,0:0:0:0:
373,375,85587,2,0,P|319:328|355:260,1,137.250005235672,8|2,1:0|0:0,0:0:0:0:
349,121,85833,1,2,0:0:0:0:
356,115,85915,2,0,P|407:154|393:217,1,137.250005235672,0|2,1:0|0:0,0:0:0:0:
269,178,86161,1,2,0:0:0:0:
247,161,86243,2,0,P|254:92|259:24,1,137.250005235672,8|2,1:0|0:0,0:0:0:0:
135,31,86488,5,2,0:0:0:0:
131,24,86570,2,0,P|61:13|51:88,1,137.250005235672,0|2,1:0|0:0,0:0:0:0:
164,252,86816,1,2,0:0:0:0:
116,273,86898,2,0,P|125:189|132:108,1,137.250005235672,8|2,1:0|0:0,0:0:0:0:
11,157,87144,5,2,0:0:0:0:
4,160,87226,2,0,P|-23:209|31:263,1,137.250005235672,0|2,1:0|0:0,0:0:0:0:
261,215,87472,1,2,0:0:0:0:
213,236,87554,2,0,P|222:152|229:71,1,137.250005235672,8|2,1:0|0:0,0:0:0:0:
313,320,87800,5,2,0:0:0:0:
313,320,87882,2,0,P|361:258|257:257,1,205.875007853508,0|2,1:0|0:0,0:0:0:0:
37,290,88210,6,0,P|77:166|130:249,1,274.500010471344,8|2,1:0|0:0,0:0:0:0:
132,225,88456,1,2,0:0:0:0:
132,225,88538,1,0,1:0:0:0:
140,361,88702,5,2,0:0:0:0:
140,361,88784,1,2,0:0:0:0:
140,361,88865,2,0,L|240:361,1,91.5,8|2,1:0|0:0,0:0:0:0:
263,94,89193,6,0,P|347:92|259:84,1,274.500010471344,0|2,1:0|0:0,0:0:0:0:
406,268,89439,1,2,0:0:0:0:
406,268,89521,2,0,P|322:266|410:258,1,274.500010471344,8|2,1:0|0:0,0:0:0:0:
512,267,89767,5,2,0:0:0:0:
512,267,89849,2,0,P|352:245|71:203,1,411.750015707017,0|2,1:0|0:0,0:0:0:0:
36,252,90178,1,8,3:0:0:0:
42,268,90259,1,0,3:0:0:0:
48,284,90341,1,0,3:0:0:0:
54,300,90423,1,0,3:0:0:0:
60,318,90505,5,4,3:2:0:0:
109,331,90586,1,0,3:0:0:0:
160,331,90668,1,0,3:0:0:0:
209,316,90750,1,0,3:0:0:0:
253,289,90832,1,8,3:0:0:0:
287,251,90914,1,0,3:0:0:0:
309,204,90996,1,0,3:0:0:0:
318,154,91078,1,0,3:0:0:0:
312,103,91160,1,4,3:0:0:0:
310,145,91242,1,0,3:0:0:0:
295,186,91324,1,0,3:0:0:0:
270,220,91406,1,0,3:0:0:0:
236,246,91488,1,8,3:0:0:0:
196,261,91570,1,0,3:0:0:0:
154,265,91652,1,0,3:0:0:0:
112,255,91734,1,0,3:0:0:0:
74,235,91816,1,4,3:0:0:0:
98,241,91897,1,0,3:0:0:0:
124,242,91979,1,0,3:0:0:0:
149,237,92061,1,0,3:0:0:0:
172,227,92143,1,8,3:0:0:0:
193,211,92225,1,0,3:0:0:0:
209,191,92307,1,0,3:0:0:0:
220,167,92389,1,0,3:0:0:0:
256,261,92472,5,4,3:0:0:0:
256,266,92553,1,0,3:0:0:0:
257,270,92635,1,0,3:0:0:0:
258,274,92717,1,0,3:0:0:0:
259,278,92799,1,8,3:0:0:0:
260,283,92881,1,0,3:0:0:0:
261,287,92963,1,4,3:0:0:0:
261,291,93045,1,0,3:0:0:0:
261,291,93128,5,8,3:0:0:0:
293,350,93209,1,0,3:0:0:0:
351,384,93291,1,8,3:0:0:0:
419,383,93373,1,0,3:0:0:0:
477,347,93455,1,8,3:0:0:0:
507,287,93537,1,0,3:0:0:0:
502,219,93619,1,8,3:0:0:0:
462,164,93701,1,0,3:0:0:0:
400,138,93784,5,8,3:0:0:0:
332,151,93865,1,8,3:0:0:0:
265,164,93947,1,8,3:0:0:0:
198,177,94029,1,8,3:0:0:0:
130,191,94111,1,8,3:0:0:0:
198,201,94192,1,8,3:0:0:0:
266,212,94274,1,8,3:0:0:0:
334,223,94356,1,8,3:0:0:0:
401,233,94438,1,10,3:0:0:0:
473,188,94767,5,0,1:0:0:0:
484,188,95095,5,0,1:0:0:0:
497,188,95423,5,4,1:2:0:0:
128,117,95751,6,0,B|2:161|2:161|207:113,1,343.125,4|0,1:0|0:0,0:0:0:0:
266,166,96079,6,0,B|234:114|246:56|303:16|356:36|356:36|333:71|346:115,1,274.500010471344,8|0,1:2|0:0,0:0:0:0:
492,227,96284,2,0,B|475:263|475:263|421:277,1,91.5,0|0,1:0|0:0,0:0:0:0:
352,297,96570,1,0,1:0:0:0:
130,222,96734,6,0,B|349:167|349:167|352:117|394:85|439:87,1,343.125,8|0,1:2|0:0,0:0:0:0:
492,227,97062,6,0,B|501:281|438:298|438:298|434:248|396:213|346:216,1,228.75,4|0,1:3|0:0,0:0:0:0:
157,310,97308,1,0,0:0:0:0:
234,316,97390,6,0,B|182:324|146:276|177:289|138:221|81:211|32:241,1,228.75,8|0,1:2|0:0,0:0:0:0:
61,359,97636,1,0,0:0:0:0:
67,380,97718,2,0,P|81:349|77:315,1,68.6250026178361,0|0,3:2|0:0,0:0:0:0:
138,114,97882,1,0,1:0:0:0:
130,87,97964,1,0,1:0:0:0:
192,31,98046,6,0,P|223:0|267:6,1,91.5,8|0,1:2|0:0,0:0:0:0:
192,174,98210,2,0,P|172:213|129:222,1,91.5,0|0,3:0|0:0,0:0:0:0:
425,113,98374,6,0,B|446:-2|446:-2|269:38|269:38|329:134,1,411.750015707017,4|0,1:0|0:0,0:0:0:0:
291,208,98702,6,0,B|317:169|362:162|397:190|397:190|407:239|446:266|506:251,1,228.75,8|0,1:2|0:0,0:0:0:0:
431,82,98906,2,0,B|407:58|407:58|425:113,1,91.5,0|0,1:0|0:0,0:0:0:0:
476,174,99193,1,0,1:0:0:0:
164,232,99357,6,0,B|100:259|100:259|369:209,1,343.125,8|0,1:2|0:0,0:0:0:0:
469,255,99685,6,0,P|474:298|402:306,1,114.375,4|0,1:3|0:0,0:0:0:0:
294,206,99849,2,0,P|258:189|218:200,1,68.6250026178361
154,335,100013,5,8,1:2:0:0:
154,335,100095,2,0,L|163:386,2,45.7500017452241,0|0|0,1:0|0:0|0:0,0:0:0:0:
251,270,100259,2,0,B|284:288|272:330|272:330|256:294|220:285,1,137.250005235672,0|0,1:0|0:0,0:0:0:0:
224,287,100505,1,2,1:0:0:0:
72,152,100669,6,0,B|91:96|165:101|119:108|206:119|218:46|218:46|211:39|211:39|206:43|206:43|71:11|71:11|22:0|-2:48,1,411.750015707017,8|0,1:2|0:0,0:0:0:0:
144,184,100997,6,0,B|157:225|203:243|177:214|257:211|270:281|196:379|-41:366|-67:159|22:76,1,480.375004581213,14|0,0:0|0:0,0:0:0:0:
94,37,101324,6,0,P|197:86|310:82,1,228.75,8|0,1:2|0:0,0:0:0:0:
476,0,101529,2,0,B|509:34|509:34|498:76,1,91.5,0|0,1:0|0:0,0:0:0:0:
424,62,101816,1,0,1:0:0:0:
94,37,101980,6,0,B|141:48|141:48|188:7|188:7|265:2|351:50|342:185|342:185|323:166|296:160,1,411.750015707017,8|0,1:2|0:0,0:0:0:0:
162,244,102308,6,0,B|123:203|139:102|232:96|251:164|220:202,1,228.75,4|0,1:3|0:0,0:0:0:0:
265,315,102554,1,0,0:0:0:0:
328,268,102636,6,0,P|247:273|26:351,1,274.500010471344,8|0,1:2|0:0,0:0:0:0:
22,230,102882,1,0,0:0:0:0:
7,193,102964,2,0,P|30:218|62:231,1,68.6250026178361,0|0,3:0|0:0,0:0:0:0:
180,372,103128,1,0,1:0:0:0:
207,380,103210,1,0,1:0:0:0:
266,315,103292,6,0,P|284:276|328:268,1,91.5,8|0,1:2|0:0,0:0:0:0:
440,158,103456,2,0,P|443:201|410:230,1,91.5,0|0,3:0|0:0,0:0:0:0:
512,384,103620,6,0,L|505:357,1,27.45,4|0,1:0|0:0,0:0:0:0:
440,158,103947,6,0,B|451:112|451:112|515:234|421:335,1,274.500010471344,8|0,1:2|0:0,0:0:0:0:
335,186,104152,2,0,P|327:148|275:75,1,114.375,0|0,1:0|0:0,0:0:0:0:
286,85,104439,1,0,1:0:0:0:
14,169,104603,6,0,B|-49:206|-24:296|70:305|152:234|164:125|161:62|115:24,1,411.750015707017,8|0,1:2|0:0,0:0:0:0:
0,0,104931,6,0,L|6:26,3,27.4499991622925,4|0|0|0,1:3|3:0|3:0|3:0,0:0:0:0:
49,97,105259,1,0,3:0:0:0:
59,100,105341,1,0,3:0:0:0:
52,86,105423,1,0,3:0:0:0:
62,89,105505,1,0,3:0:0:0:
85,130,105587,6,0,L|71:186,1,45.75,2|2,3:2|3:2,0:0:0:0:
159,56,105751,2,0,L|144:0,1,45.75,2|2,3:2|3:2,0:0:0:0:
256,194,105916,5,2,3:2:0:0:
278,146,105998,5,2,3:2:0:0:
321,114,106080,5,2,3:2:0:0:
373,105,106162,5,2,3:2:0:0:
424,121,106243,6,0,B|419:107|419:107|465:-3|465:-3|437:182|437:182|413:215,1,343.125,4|0,1:0|0:0,0:0:0:0:
426,308,106570,6,0,B|467:362|539:314|528:238|443:195|375:220|356:276,1,274.500010471344,8|0,1:2|0:0,0:0:0:0:
251,353,106775,2,0,B|282:370|282:370|336:355,1,91.5,0|0,1:0|0:0,0:0:0:0:
409,331,107062,1,0,1:0:0:0:
497,97,107226,6,0,B|514:53|514:53|480:4|480:4|278:57|278:57|342:128,1,411.750015707017,8|0,1:2|0:0,0:0:0:0:
499,277,107554,6,0,B|528:295|542:330|505:379|505:379|464:324|397:333,1,228.75,4|0,1:3|0:0,0:0:0:0:
250,187,107800,1,0,0:0:0:0:
191,241,107882,6,0,B|8:280|8:280|62:269|91:294,1,274.500010471344,8|0,1:2|0:0,0:0:0:0:
23,171,108128,1,0,0:0:0:0:
12,146,108210,2,0,P|45:152|69:176,1,68.6250026178361,0|0,3:0|0:0,0:0:0:0:
232,356,108374,1,0,1:0:0:0:
232,356,108456,1,0,1:0:0:0:
232,356,108538,6,0,P|268:330|271:286,1,91.5,8|0,1:2|0:0,0:0:0:0:
162,166,108702,2,0,P|158:210|190:240,1,91.5,0|0,3:0|0:0,0:0:0:0:
334,381,108865,6,0,B|515:343|515:343|506:263|413:245|452:273|367:291|339:224,1,411.750015707017,4|0,1:0|0:0,0:0:0:0:
328,150,109193,6,0,B|285:200|333:252|333:252|409:242|405:175,1,228.75,8|0,1:2|0:0,0:0:0:0:
427,30,109398,2,0,B|403:6|403:6|421:61,1,91.5,0|0,1:0|0:0,0:0:0:0:
470,124,109685,1,0,1:0:0:0:
279,290,109849,6,0,B|259:238|195:229|161:264|161:264|167:317|135:373|64:367|43:296|100:264,1,343.125,8|0,1:2|0:0,0:0:0:0:
207,320,110177,6,0,P|187:360|145:385,1,91.5,4|0,1:3|0:0,0:0:0:0:
92,199,110341,2,0,P|125:205|147:230,1,68.6250026178361
280,110,110505,5,8,1:2:0:0:
280,110,110587,2,0,L|336:101,2,51.4687519633771,0|0|0,1:0|0:0|0:0,0:0:0:0:
380,384,110833,6,0,L|400:272,1,114.375
426,108,110997,2,0,L|438:40,1,68.6250026178361,2|0,1:0|1:0,0:0:0:0:
380,384,111161,6,0,B|528:357|528:357|526:259|438:255|478:283|352:262|376:140,1,411.750015707017,8|0,1:2|0:0,0:0:0:0:
177,54,111488,6,0,B|139:2|139:2|314:25|314:25|333:51|333:51|269:211,1,446.062512761951,14|0,0:0|0:0,0:0:0:0:
216,305,111816,6,0,B|229:329|229:329|342:309|342:309|326:285|326:285|225:303,1,274.500010471344,8|0,1:2|0:0,0:0:0:0:
78,230,112021,2,0,B|34:213|34:213|3:246,1,91.5,0|0,1:0|0:0,0:0:0:0:
57,303,112308,1,0,1:0:0:0:
58,76,112472,6,0,B|36:5|36:5|155:26|155:26|172:87|172:87|168:92|168:92|185:144|185:144|302:165|302:165|278:91,1,514.687512271106,8|0,1:2|0:0,0:0:0:0:
255,0,112800,6,0,B|203:16|197:69|197:69|213:26|258:11,1,183,4|0,1:3|0:0,0:0:0:0:
417,10,113046,1,0,0:0:0:0:
352,55,113128,6,0,B|363:87|363:87|465:105|465:105|496:19,1,228.75,8|0,1:2|0:0,0:0:0:0:
415,118,113374,1,0,0:0:0:0:
418,130,113456,2,0,L|433:173,1,45.75,0|0,3:0|0:0,0:0:0:0:
499,372,113620,5,0,1:0:0:0:
503,355,113702,1,0,1:0:0:0:
464,285,113784,2,0,P|420:281|394:316,1,91.5,8|0,1:2|0:0,0:0:0:0:
341,376,113947,2,0,P|297:379|271:344,1,91.5,0|0,3:0|0:0,0:0:0:0:
433,172,114111,6,0,P|498:140|501:213,1,171.5625,4|0,1:0|3:0,0:0:0:0:
464,285,114439,6,0,P|399:262|333:241,1,137.250005235672,8|0,1:2|0:0,0:0:0:0:
165,159,114603,1,0,1:0:0:0:
243,163,114685,6,0,B|370:196|435:57|311:25|286:83,1,274.500010471344,8|0,1:2|1:0,0:0:0:0:
121,223,114931,2,0,B|28:316|115:442|206:350|168:300,1,274.500010471344,8|0,1:2|1:0,0:0:0:0:
130,88,115177,2,0,B|95:-38|-57:-26|-23:97|39:90,1,274.500010471344,8|0,1:2|0:0,0:0:0:0:
279,305,115423,6,0,B|342:293|342:293|345:289|345:289|411:277,1,137.25,4|0,0:3|0:0,0:0:0:0:
414,285,115587,2,0,B|347:296|347:296|344:301|344:301|281:312,1,137.25,4|0,0:3|0:0,0:0:0:0:
284,320,115751,2,0,B|347:308|347:308|350:304|350:304|416:292,1,137.25,4|0,0:3|0:0,0:0:0:0:
419,300,115915,2,0,B|352:311|352:311|349:316|349:316|286:327,1,137.25,4|0,0:3|0:0,0:0:0:0:
229,381,116079,6,0,B|198:363|198:363|188:295|188:295|209:268,1,137.25,8|0,1:3|0:0,0:0:0:0:
467,226,116243,2,0,B|497:243|497:243|507:311|507:311|486:338,1,137.25,8|0,1:2|0:0,0:0:0:0:
290,190,116406,6,0,B|267:162|267:162|281:96|281:96|309:77,1,137.25,8|0,1:3|0:0,0:0:0:0:
386,94,116570,2,0,B|408:121|408:121|394:187|394:187|366:206,1,137.25,8|0,1:2|0:0,0:0:0:0:
79,326,116734,6,0,B|67:324|67:324|28:317|9:275|40:240|79:246|79:246|208:269,1,274.500010471344,4|0,1:3|0:0,0:0:0:0:
208,268,117390,2,0,B|314:286|314:286|368:296|412:248|387:189|333:179|333:179|47:129|47:129|-5:120|-30:60|12:13|66:22|66:22|184:43|184:43|230:51|252:102|214:143|168:135|168:135|85:120,1,1120.8750106895,8|0,1:2|0:0,0:0:0:0:
71,117,118046,5,0,1:0:0:0:
334,165,118210,2,0,L|231:176,1,102.937503926754,2|0,0:0|0:0,0:0:0:0:
231,176,118538,2,0,L|196:179,1,34.3125013089181,2|0,0:0|0:0,0:0:0:0:
504,145,118702,2,0,L|435:152,1,68.6250026178361,8|0,1:2|0:0,0:0:0:0:
436,153,119029,2,0,L|333:164,1,102.937503926754,2|0,0:0|0:0,0:0:0:0:
71,117,119357,5,0,1:0:0:0:
310,256,119521,2,0,L|207:267,1,102.937503926754,2|0,0:0|0:0,0:0:0:0:
207,267,119849,2,0,L|172:270,1,34.3125013089181,2|0,0:0|0:0,0:0:0:0:
480,236,120013,2,0,L|411:243,1,68.6250026178361,8|0,1:2|0:0,0:0:0:0:
412,244,120341,2,0,L|309:255,1,102.937503926754,2|0,0:0|0:0,0:0:0:0:
71,117,120669,5,0,1:0:0:0:
285,347,120833,2,0,L|182:358,1,102.937503926754,2|0,0:0|0:0,0:0:0:0:
182,358,121161,2,0,L|147:361,1,34.3125013089181,2|0,0:0|0:0,0:0:0:0:
485,199,121324,6,0,L|512:28,1,171.5625,8|0,1:2|0:0,0:0:0:0:
512,29,121488,2,0,L|489:2,1,34.3125013089181
395,226,121652,6,0,L|422:55,1,171.5625,2|0,3:2|0:0,0:0:0:0:
422,56,121816,2,0,L|399:29,1,34.3125013089181
320,279,121980,6,0,B|213:297|213:297|171:305|150:352|186:389|228:382|228:382|251:378,1,274.500010471344,4|0,1:3|0:0,0:0:0:0:
252,379,122636,2,0,B|378:356|378:356|425:348|448:295|408:253|361:262|361:262|77:312|77:312|31:320|-9:278|14:226|61:217|61:217|439:151,1,1120.8750106895,8|0,1:2|0:0,0:0:0:0:
453,148,123292,5,0,1:0:0:0:
169,29,123456,2,0,L|270:44,1,102.937503926754,2|0,0:0|0:0,0:0:0:0:
271,45,123784,2,0,L|304:50,1,34.3125013089181,2|0,0:0|0:0,0:0:0:0:
0,4,123948,2,0,L|67:14,1,68.6250026178361,8|0,1:2|0:0,0:0:0:0:
67,14,124275,2,0,L|168:29,1,102.937503926754,2|0,0:0|0:0,0:0:0:0:
360,149,124603,6,0,B|374:121|374:121|447:110|447:110|471:131,1,137.250005235672,4|0,1:2|0:0,0:0:0:0:
488,237,124849,2,0,B|473:264|473:264|400:275|400:275|376:254,1,137.250005235672,0|0,1:0|0:0,0:0:0:0:
424,193,125095,1,0,1:0:0:0:
166,328,125259,6,0,B|180:355|180:355|253:366|253:366|278:345,1,137.250005235672,4|0,1:2|0:0,0:0:0:0:
295,241,125505,2,0,B|280:213|280:213|207:202|207:202|183:223,1,137.250005235672,0|0,1:0|0:0,0:0:0:0:
231,285,125751,1,0,1:0:0:0:
124,17,125915,5,4,1:2:0:0:
120,28,125997,1,0,3:0:0:0:
117,44,126079,1,0,3:0:0:0:
119,60,126161,1,0,3:0:0:0:
123,77,126243,1,0,3:0:0:0:
132,94,126324,1,0,3:0:0:0:
142,114,126406,1,0,3:0:0:0:
153,135,126488,1,0,3:0:0:0:
155,160,126570,5,2,0:0:0:0:
149,188,126652,1,2,0:0:0:0:
128,215,126734,1,2,0:0:0:0:
99,240,126816,1,2,0:0:0:0:
53,246,126898,1,2,0:0:0:0:
13,224,126980,1,2,0:0:0:0:
0,178,127062,1,2,0:0:0:0:
33,135,127144,1,2,0:0:0:0:
45,148,127226,6,0,P|64:119|-14:2,1,183,4|2,0:0|0:0,0:0:0:0:
34,369,128210,6,0,L|221:339,1,183,2|2,0:0|0:0,0:0:0:0:
341,243,129193,6,0,P|320:231|343:239,1,68.625,2|0,0:0|0:0,0:0:0:0:
413,336,129521,6,0,B|371:326|348:354|348:354|324:384|273:374,1,137.250005235672,0|2,0:0|0:0,0:0:0:0:
214,340,130013,1,0,0:0:0:0:
326,114,130177,6,0,P|342:68|390:70,1,102.937503926754,2|0,0:0|0:0,0:0:0:0:
434,160,130505,2,0,L|210:144,1,205.875007853508
44,19,131161,6,0,B|45:51|-21:112|25:152|81:157|134:121|100:48|44:50,1,240.187509162426,2|0,0:0|0:0,0:0:0:0:
36,211,131816,6,0,L|31:258,3,34.3125013089181,2|0|0|0,0:0|0:0|0:0|0:0,0:0:0:0:
88,315,132144,1,2,0:0:0:0:
88,315,132472,6,0,B|118:346|113:378|113:378|118:346|172:327,1,137.250005235672,0|2,0:0|0:0,0:0:0:0:
373,74,133128,6,0,B|300:133|344:280|491:265|520:162|476:103|403:89,1,377.437514398099,2|0,0:0|0:0,0:0:0:0:
373,74,134111,6,0,L|379:44,1,17.156250654459,2|0,0:0|0:0,0:0:0:0:
256,240,134603,6,0,B|251:328|280:285|272:384,1,137.250005235672
36,202,135095,5,2,0:0:0:0:
139,104,135258,1,0,0:0:0:0:
66,130,135422,5,0,0:0:0:0:
207,140,135586,1,0,0:0:0:0:
79,53,135751,5,2,0:0:0:0:
323,191,136079,5,2,0:0:0:0:
426,289,136242,1,0,0:0:0:0:
353,263,136406,5,0,0:0:0:0:
494,253,136570,1,0,0:0:0:0:
366,340,136735,5,2,0:0:0:0:
127,116,137062,6,0,P|129:165|172:190,1,102.937503926754,2|0,0:0|0:0,0:0:0:0:
143,19,137390,6,0,P|259:83|269:218,1,274.5,0|2,0:0|0:0,0:0:0:0:
87,315,138046,5,2,0:0:0:0:
6,329,138210,1,0,0:0:0:0:
236,374,138374,5,0,0:0:0:0:
317,360,138538,1,0,0:0:0:0:
160,346,138702,5,2,0:0:0:0:
512,275,139029,5,2,0:0:0:0:
498,356,139193,1,0,0:0:0:0:
417,342,139357,1,0,0:0:0:0:
431,261,139521,1,0,0:0:0:0:
340,82,139685,6,0,L|357:191,1,91.5,2|0,0:0|0:0,0:0:0:0:
359,195,139931,1,0,0:0:0:0:
361,210,140013,2,0,L|252:193,1,91.5,2|0,0:0|0:0,0:0:0:0:
41,154,140341,6,0,L|182:176,1,137.25
183,98,140669,1,2,0:0:0:0:
80,253,140833,5,0,0:0:0:0:
81,264,140914,1,0,0:0:0:0:
83,275,140997,2,0,L|91:370,2,91.5,2|0|0,0:0|0:0|0:0,0:0:0:0:
348,57,141652,6,0,P|406:37|428:108,1,137.25,2|0,0:0|0:0,0:0:0:0:
212,141,141980,6,0,B|195:101|232:98|211:53|211:53|307:85|291:165,1,228.75,2|0,0:0|0:0,0:0:0:0:
339,227,142472,2,0,B|382:232|366:265|415:270|415:270|339:337|278:283,1,228.75
198,310,142964,6,0,B|155:365|121:316|76:382|76:382|43:222|167:180,1,366,2|2,0:0|0:0,0:0:0:0:
426,34,143947,5,2,0:0:0:0:
426,34,144275,2,0,L|421:81,1,36.6
414,152,144603,2,0,L|409:199,1,36.6,2|0,0:0|0:0,0:0:0:0:
471,290,144931,5,2,0:0:0:0:
471,290,145259,6,0,L|435:294,1,36.6
353,304,145587,2,0,L|316:307,1,36.6,2|0,0:0|0:0,0:0:0:0:
53,204,145915,5,2,0:0:0:0:
53,204,146242,6,0,L|89:208,1,36.6
171,217,146570,2,0,L|207:221,1,36.6,2|0,0:0|0:0,0:0:0:0:
256,16,146898,5,2,0:0:0:0:
336,160,147226,5,0,0:0:0:0:
507,132,147554,1,2,0:0:0:0:
363,212,147882,5,2,0:0:0:0:
391,383,148210,5,0,0:0:0:0:
507,132,148538,1,2,0:0:0:0:
311,239,148865,5,2,0:0:0:0:
140,267,149193,5,0,0:0:0:0:
391,383,149521,1,2,0:0:0:0:
140,267,149849,5,2,0:0:0:0:
464,237,150177,6,2,B|497:104|497:104|483:89|483:89|474:36|410:12|360:51|356:103|382:134|382:134|408:179|377:238|317:246|278:215|270:176,1,544.425010384083,0|0,0:0|0:0,0:1:0:0:
270,157,150833,1,4,3:2:0:0:
45,22,150997,6,0,B|76:12|109:31|116:62|116:62|112:30|137:1|168:0,1,183,2|0,0:2|0:0,0:0:0:0:
12,206,151488,2,2,P|105:187|111:56,1,237.899989109803,0|0,0:0|0:0,0:1:0:0:
39,77,151980,2,0,L|56:127,1,45.75
45,132,152144,1,2,0:0:0:0:
215,359,152308,6,0,B|245:155|245:155|202:93,2,237.899989109803
96,318,153128,2,0,L|145:310,1,45.75,2|0,0:0|0:0,0:0:0:0:
149,297,153456,1,2,0:0:0:0:
456,159,153620,6,0,B|425:149|392:168|385:199|385:199|389:167|364:138|333:137,1,183
489,343,154111,2,2,P|396:324|390:193,1,237.899989109803,0|0,0:0|0:0,0:1:0:0:
462,214,154603,2,0,L|445:264,1,45.75
456,269,154767,1,2,0:0:0:0:
319,364,154931,1,0,0:0:0:0:
250,313,155095,5,0,3:0:0:0:
244,305,155177,1,0,3:0:0:0:
238,297,155259,1,8,3:0:0:0:
167,275,155423,5,0,3:0:0:0:
161,267,155505,1,0,3:0:0:0:
155,259,155587,1,8,3:0:0:0:
149,251,155669,1,0,3:0:0:0:
84,210,155751,5,0,3:0:0:0:
91,191,155833,1,0,3:0:0:0:
99,173,155915,1,8,3:0:0:0:
107,154,155997,1,0,3:0:0:0:
144,81,156079,5,4,3:2:0:0:
184,152,156243,6,0,B|194:121|175:88|144:81|144:81|176:85|205:60|206:29,1,183,2|0,0:2|0:0,0:0:0:0:
0,185,156734,2,2,P|19:92|150:86,1,237.899989109803,0|0,0:0|0:0,0:1:0:0:
85,153,157226,2,0,L|102:203,1,45.75
91,208,157390,1,2,0:0:0:0:
240,369,157554,6,0,B|214:339|214:339|-17:372,2,237.899989109803
295,306,158374,2,0,L|344:314,1,45.75,2|0,0:0|0:0,0:0:0:0:
348,327,158702,1,2,0:0:0:0:
499,264,158865,1,0,0:0:0:0:
437,195,159029,5,10,3:0:0:0:
4,57,159357,6,2,L|14:160,1,91.5,0|0,0:0|0:0,0:1:0:0:
80,196,159849,1,0,0:0:0:0:
139,0,160013,5,10,3:0:0:0:
151,80,160341,1,10,3:0:0:0:
238,145,160669,5,4,3:0:0:0:
235,167,160750,1,0,3:0:0:0:
233,190,160832,1,0,3:0:0:0:
231,213,160914,1,0,3:0:0:0:
229,236,160996,1,12,3:0:0:0:
227,258,161078,1,0,3:0:0:0:
225,281,161160,1,0,3:0:0:0:
223,304,161242,1,0,3:0:0:0:
221,327,161324,1,6,3:0:0:0:
317,356,161488,5,0,3:2:0:0:
367,378,161569,1,0,3:2:0:0:
420,359,161651,1,0,3:2:0:0:
444,309,161733,1,0,3:2:0:0:
426,256,161815,1,0,3:2:0:0:
484,179,161980,5,10,3:0:0:0:
171,59,162308,1,0,3:2:0:0:
279,12,162472,5,0,3:0:0:0:
279,12,162554,1,0,3:0:0:0:
279,12,162636,1,6,3:0:0:0:
271,71,162717,1,0,3:0:0:0:
265,130,162799,1,0,3:0:0:0:
262,189,162881,1,0,3:0:0:0:
260,249,162963,1,0,3:2:0:0:
193,313,163128,1,0,3:2:0:0:
103,272,163292,6,0,P|89:180|73:53,1,178.424991832352,10|0,3:0|0:0,0:0:0:0:
22,41,163620,1,2,0:0:0:0:
0,303,163784,1,0,0:0:0:0:
193,313,163947,5,6,3:0:0:0:
243,335,164028,1,0,3:0:0:0:
296,316,164110,1,0,3:0:0:0:
320,266,164192,1,0,3:0:0:0:
302,213,164274,1,0,3:0:0:0:
367,150,164439,6,0,L|376:66,2,59.4749972774507,0|0|10,3:0|3:0|3:0,0:0:0:0:
420,235,164767,2,0,P|389:94|363:-36,1,237.899989109803,2|0,0:0|3:0,0:0:0:0:
362,16,165177,1,0,3:0:0:0:
352,25,165259,5,6,3:3:0:0:
346,84,165340,1,0,3:0:0:0:
340,143,165422,1,0,3:0:0:0:
333,202,165504,1,0,3:0:0:0:
325,261,165586,1,0,3:0:0:0:
404,338,165751,5,0,3:2:0:0:
482,185,165915,5,10,3:0:0:0:
412,227,166079,1,0,0:0:0:0:
259,162,166243,5,8,3:0:0:0:
165,80,166407,1,8,3:0:0:0:
125,124,166488,1,8,3:0:0:0:
71,102,166570,1,6,3:0:0:0:
24,226,166734,5,0,3:0:0:0:
6,279,166816,1,0,3:0:0:0:
30,329,166898,1,0,3:0:0:0:
83,348,166980,1,0,3:0:0:0:
133,326,167061,1,0,3:0:0:0:
221,367,167226,5,10,3:0:0:0:
291,17,167554,1,0,3:0:0:0:
499,134,167718,5,0,3:0:0:0:
499,134,167800,1,0,3:0:0:0:
499,134,167882,1,6,3:3:0:0:
440,126,167963,1,0,3:0:0:0:
381,120,168045,1,0,3:0:0:0:
322,117,168127,1,0,3:0:0:0:
262,115,168209,1,0,3:0:0:0:
180,177,168374,1,0,3:2:0:0:
0,16,168538,6,0,P|85:8|200:-3,1,178.424991832352,10|0,3:0|0:0,0:0:0:0:
147,80,168865,1,2,0:0:0:0:
259,232,169029,1,0,0:0:0:0:
18,117,169193,5,6,3:0:0:0:
0,170,169275,1,0,3:0:0:0:
24,220,169357,1,0,3:0:0:0:
77,239,169439,1,0,3:0:0:0:
127,217,169520,1,0,3:0:0:0:
265,172,169685,6,0,L|256:256,2,59.4749972774507,0|0|10,3:0|3:0|3:0,3:0:0:0:
212,86,170013,2,0,P|243:227|269:357,1,237.899989109803,2|0,0:0|3:0,0:0:0:0:
253,332,170423,1,0,3:0:0:0:
242,343,170504,1,6,3:3:0:0:
301,335,170587,1,0,3:0:0:0:
360,329,170669,1,0,3:0:0:0:
419,326,170751,1,0,3:0:0:0:
479,324,170833,1,0,3:0:0:0:
149,309,170997,5,0,3:2:0:0:
29,384,171161,6,2,B|24:347|45:320|44:331|59:313|41:267|15:268|15:268|7:274|7:274|-33:262|-34:232|-19:188|24:148|106:117|155:165|105:248,1,411.750015707017,10|0,3:0|0:0,3:0:0:0:
120,209,171816,6,0,L|131:155,1,45.75,2|0,3:3|3:2,0:0:0:0:
143,88,171980,2,0,L|154:34,5,45.75,0|0|2|0|0|0,3:2|3:2|3:2|3:2|3:2|3:2,0:0:0:0:
0,198,172472,6,0,L|54:187,3,45.75,14|0|0|0,3:0|3:2|3:2|3:2,0:0:0:0:
128,305,172800,1,2,3:2:0:0:
128,305,172882,2,0,L|83:295,2,45.75,0|0|0,3:2|3:2|3:2,0:0:0:0:
200,342,173128,6,0,P|188:367|186:391,1,45.75,6|0,3:0|3:2,0:0:0:0:
371,325,173292,2,0,P|358:305|341:291,1,45.75,0|0,3:2|3:2,0:0:0:0:
278,336,173456,2,0,P|278:358|286:380,1,45.75,2|0,3:2|3:2,0:0:0:0:
419,236,173620,2,0,P|394:224|370:222,1,45.75,0|0,3:2|3:2,0:0:0:0:
333,154,173784,5,14,3:0:0:0:
334,147,173865,1,0,3:2:0:0:
335,141,173947,1,0,3:2:0:0:
337,134,174029,1,0,3:2:0:0:
338,128,174111,2,0,L|327:72,1,45.75,2|0,3:2|3:0,0:0:0:0:
433,3,174275,2,0,L|423:47,1,45.75,0|0,3:0|3:0,0:0:0:0:
453,155,174439,5,4,3:1:0:0:
453,155,174603,2,0,P|387:135|330:127,1,118.949994554901,0|0,3:0|0:0,0:0:0:0:
141,86,174931,1,0,0:0:0:0:
343,0,175095,6,0,P|282:22|170:29,1,146.4,8|0,3:0|0:0,0:0:0:0:
121,131,175341,1,0,0:0:0:0:
127,136,175423,1,2,3:2:0:0:
141,86,175505,1,0,3:0:0:0:
105,49,175587,1,0,3:0:0:0:
55,62,175669,1,0,3:0:0:0:
41,111,175751,5,6,3:0:0:0:
76,147,175833,1,0,3:0:0:0:
21,202,175915,1,0,3:0:0:0:
42,276,175997,1,0,3:0:0:0:
118,295,176078,5,2,3:2:0:0:
130,281,176161,1,0,3:0:0:0:
146,272,176243,1,0,3:0:0:0:
163,266,176325,1,0,3:0:0:0:
181,265,176406,2,0,L|171:317,3,45.75,10|0|0|0,3:0|3:0|3:0|3:0,0:0:0:0:
338,179,176734,2,0,L|328:127,3,45.75,2|0|0|0,3:2|3:0|3:0|3:0,0:0:0:0:
499,284,177062,5,6,3:0:0:0:
511,272,177144,2,2,B|508:314|485:333|485:333|487:325|487:325|435:270|355:282|323:316|323:316|334:320|334:320|351:394|437:384,1,366,0|0,0:0|0:0,0:1:0:0:
430,258,177718,6,0,P|415:188|426:93,1,146.4,8|0,3:0|0:0,0:0:0:0:
421,113,178046,1,2,0:0:0:0:
399,37,178210,1,0,0:0:0:0:
216,0,178374,1,4,3:0:0:0:
194,76,178538,1,0,0:0:0:0:
312,136,178702,1,2,0:0:0:0:
399,37,178866,1,0,0:0:0:0:
165,105,179029,5,12,3:0:0:0:
219,158,179193,1,0,0:0:0:0:
192,182,179274,1,0,0:0:0:0:
157,182,179356,1,2,0:0:0:0:
9,132,179521,1,0,0:0:0:0:
27,286,179685,2,0,B|35:336|10:373|10:373|12:334|53:267|138:264|138:264|127:274|127:274|122:346|185:381|265:356,1,439.2,6|0,3:0|0:0,0:0:0:0:
366,247,180341,5,12,3:0:0:0:
227,278,180505,1,0,3:0:0:0:
427,384,180669,1,2,3:2:0:0:
428,377,180751,1,0,3:0:0:0:
429,371,180833,1,0,3:0:0:0:
431,364,180915,1,0,0:0:0:0:
432,358,180997,2,0,P|424:330|430:293,1,45.75,4|0,3:0|3:0,0:0:0:0:
503,299,181161,2,0,P|511:327|505:364,1,45.75,0|0,3:0|3:0,0:0:0:0:
350,289,181324,2,0,P|357:260|380:231,1,45.75,2|0,3:2|3:0,0:0:0:0:
499,303,181488,2,0,P|507:331|501:368,1,45.75,0|0,3:0|3:0,0:0:0:0:
312,185,181652,6,0,B|295:171|295:171|276:60,1,118.949994554901,12|0,3:0|3:0,0:0:0:0:
369,19,181898,1,8,3:0:0:0:
379,4,181980,2,0,B|387:41|387:41|353:92,1,73.2,10|8,3:2|3:0,0:0:0:0:
208,179,182144,1,8,3:0:0:0:
154,165,182225,1,8,3:0:0:0:
100,151,182308,6,2,B|108:195|161:207|161:207|155:201|155:201|202:169|186:82|116:61|116:61|148:42|183:67|183:67|189:77|189:77|222:104|299:81,1,439.2,6|0,3:0|0:0,0:1:0:0:
222,283,182964,2,0,P|146:245|-15:230,1,219.6,12|0,3:0|0:0,0:0:0:0:
85,263,183292,2,0,P|114:266|142:276,1,59.4749972774507,0|0,3:2|3:0,0:0:0:0:
221,268,183456,2,0,P|244:286|263:308,1,59.4749972774507,0|0,3:2|3:0,0:0:0:0:
440,359,183620,6,2,B|427:309|427:309|450:252|510:244|510:244|467:175|388:157|314:199,1,356.849983664704,6|0,3:0|0:0,0:1:0:0:
307,101,184275,2,0,B|348:70|349:15|349:15|320:60|329:148|373:198|440:231|440:231|426:181|478:127,1,439.2,12|0,3:0|0:0,0:0:0:0:
442,48,184931,5,6,3:0:0:0:
378,84,185012,1,0,3:2:0:0:
307,101,185094,1,0,3:2:0:0:
235,97,185176,1,0,3:2:0:0:
217,116,185259,1,2,3:2:0:0:
161,115,185340,1,0,3:2:0:0:
109,98,185422,1,0,3:2:0:0:
63,69,185504,1,0,3:2:0:0:
42,80,185587,6,0,P|40:116|29:151,1,73.2,14|0,3:0|3:2,0:0:0:0:
176,16,185751,2,0,P|189:49|194:85,1,73.2,0|0,3:2|3:2,0:0:0:0:
145,219,185915,2,0,P|143:182|132:147,1,73.2,2|0,3:2|3:0,0:0:0:0:
230,254,186079,2,0,P|243:220|248:184,1,73.2,0|0,3:0|3:0,0:0:0:0:
318,149,186243,1,6,3:0:0:0:
336,149,186324,1,0,3:2:0:0:
353,151,186406,1,0,3:2:0:0:
371,154,186488,1,0,3:2:0:0:
389,159,186570,1,2,3:2:0:0:
406,164,186652,1,0,3:2:0:0:
424,171,186734,1,0,3:2:0:0:
440,179,186816,1,0,3:2:0:0:
456,189,186898,6,0,L|461:211,1,18.3,14|0,3:0|3:2,0:0:0:0:
380,68,187062,6,0,L|386:46,1,18.3,0|0,3:2|3:2,0:0:0:0:
409,279,187226,6,0,L|389:295,1,18.3,10|8,3:2|3:0,0:0:0:0:
469,83,187390,6,0,L|494:79,1,18.3,8|8,3:0|3:0,0:0:0:0:
311,207,187554,6,2,B|262:200|223:246|223:246|308:275|326:365|326:365|316:350|316:350|280:369|237:349,1,356.849983664704,6|0,3:0|0:0,0:1:0:0:
193,216,188210,2,0,P|131:176|59:169,1,146.4,12|0,3:0|0:0,0:0:0:0:
59,169,188538,1,2,0:0:0:0:
39,246,188702,1,0,0:0:0:0:
95,301,188865,1,4,3:0:0:0:
150,147,189029,1,0,0:0:0:0:
297,76,189193,1,2,0:0:0:0:
451,129,189357,1,0,0:0:0:0:
204,86,189521,6,0,P|219:48|214:5,3,79.2999963699342,12|0|0|2,3:0|0:0|0:0|0:0,0:0:0:0:
215,10,190013,2,0,P|210:49|238:109,1,91.5
398,232,190177,6,0,P|342:186|270:177,1,146.4,12|0,3:2|0:0,0:0:0:0:
219,237,190423,1,0,0:0:0:0:
219,237,190505,2,0,P|249:255|299:251,1,73.2,0|0,3:0|3:0,0:0:0:0:
356,46,190669,6,0,P|284:52|227:97,1,146.4,12|0,3:2|0:0,0:0:0:0:
291,337,190915,1,0,0:0:0:0:
291,337,190997,2,0,P|324:328|357:290,1,73.2,0|0,3:0|3:0,0:0:0:0:
160,160,191161,5,12,3:2:0:0:
123,156,191242,1,0,3:0:0:0:
87,160,191324,1,0,3:0:0:0:
51,170,191406,1,0,3:0:0:0:
18,185,191488,5,12,3:2:0:0:
285,26,191816,1,0,3:0:0:0:
285,26,191898,1,0,3:0:0:0:
285,26,191980,1,12,3:2:0:0:
455,284,192308,1,8,3:1:0:0:
460,305,192472,1,8,3:0:0:0:
465,326,192636,1,0,3:0:0:0:
512,64,192800,5,4,3:2:0:0:
497,68,192881,1,0,3:0:0:0:
483,72,192963,1,0,3:0:0:0:
469,76,193045,1,0,3:0:0:0:
455,81,193127,1,12,3:0:0:0:
441,85,193210,1,0,3:0:0:0:
426,88,193292,2,0,P|418:116|412:145,1,59.4749972774507,0|0,3:0|3:0,0:0:0:0:
340,194,193456,5,2,3:2:0:0:
344,208,193537,1,0,3:0:0:0:
347,222,193619,1,0,3:0:0:0:
350,236,193701,1,0,3:0:0:0:
354,251,193783,1,12,3:0:0:0:
358,265,193866,1,0,3:0:0:0:
362,280,193948,2,0,P|341:301|318:320,1,59.4749972774507,0|0,3:0|3:0,0:0:0:0:
238,372,194111,5,2,3:2:0:0:
222,368,194192,1,0,3:0:0:0:
208,366,194274,1,0,3:0:0:0:
193,363,194356,1,0,3:0:0:0:
179,360,194438,1,12,3:0:0:0:
165,358,194521,1,0,3:0:0:0:
150,355,194603,1,0,3:0:0:0:
136,353,194686,1,0,3:0:0:0:
101,372,194767,5,2,3:2:0:0:
62,382,194848,1,0,3:0:0:0:
28,360,194930,1,0,3:0:0:0:
23,320,195012,1,0,3:0:0:0:
51,290,195094,1,12,3:0:0:0:
79,260,195177,1,0,3:0:0:0:
74,220,195259,1,0,3:0:0:0:
40,198,195341,1,0,3:0:0:0:
1,209,195423,5,6,3:3:0:0:
7,186,195505,1,0,3:0:0:0:
13,163,195587,1,0,3:0:0:0:
19,140,195669,1,0,3:0:0:0:
25,117,195751,1,12,3:0:0:0:
31,94,195833,1,0,3:0:0:0:
37,71,195915,2,0,P|31:41|27:12,1,59.4749972774507,0|0,3:0|3:0,0:0:0:0:
124,1,196079,5,2,3:2:0:0:
146,7,196161,1,0,3:0:0:0:
169,13,196243,1,0,3:0:0:0:
192,19,196325,1,0,3:0:0:0:
215,26,196407,1,12,3:0:0:0:
238,32,196489,1,0,3:0:0:0:
261,38,196571,2,0,P|266:67|271:96,1,59.4749972774507,0|0,3:0|3:0,0:0:0:0:
283,200,196734,5,2,3:2:0:0:
305,206,196816,1,0,3:0:0:0:
328,212,196898,1,0,3:0:0:0:
351,218,196980,1,0,3:0:0:0:
374,225,197062,1,12,3:0:0:0:
397,231,197144,1,0,3:0:0:0:
420,237,197226,1,0,3:0:0:0:
443,243,197308,1,0,3:0:0:0:
475,230,197390,5,2,3:2:0:0:
483,214,197472,1,0,3:0:0:0:
489,191,197554,1,0,3:0:0:0:
482,154,197636,1,0,3:0:0:0:
450,116,197718,5,12,3:0:0:0:
374,130,197799,1,8,3:0:0:0:
298,145,197881,1,8,3:0:0:0:
222,160,197964,1,8,3:0:0:0:
144,177,198046,6,0,B|76:200|7:145|21:79|21:79|79:66|90:13,1,292.8,6|8,3:0|3:0,0:0:0:0:
12,0,198538,1,0,0:0:0:0:
164,87,198702,5,4,3:0:0:0:
190,52,198811,1,2,0:0:0:0:
197,9,198920,1,2,0:0:0:0:
286,48,199029,5,8,3:0:0:0:
312,83,199138,1,2,0:0:0:0:
319,126,199247,1,2,0:0:0:0:
403,68,199357,5,4,3:0:0:0:
431,59,199467,1,2,0:0:0:0:
459,50,199576,1,2,0:0:0:0:
468,138,199685,5,8,3:0:0:0:
490,145,199795,1,2,0:2:0:0:
512,152,199904,1,2,0:2:0:0:
461,268,200013,6,0,P|461:243|454:220,5,48.8,6|0|0|0|0|0,3:0|3:0|3:0|3:0|3:0|3:0,0:0:0:0:
378,234,200341,2,0,P|377:258|384:281,5,48.8,12|0|0|0|0|0,3:0|3:0|3:0|3:0|3:0|3:0,0:0:0:0:
501,357,200669,6,0,B|316:317|316:317|287:271|301:217,1,292.8,6|8,3:0|3:0,0:0:0:0:
339,74,201161,1,0,0:0:0:0:
112,370,201324,6,0,B|19:355|19:355|214:314,1,292.8,4|8,3:0|3:0,0:0:0:0:
384,281,201816,1,0,3:2:0:0:
265,152,201980,6,0,P|163:153|140:54,1,219.6,4|0,3:0|0:0,0:0:0:0:
147,40,202308,2,0,P|45:29|14:126,1,219.6,8|0,3:0|0:0,0:0:0:0:
1,146,202636,2,0,P|105:112|213:89,1,219.6,4|0,3:0|3:0,0:0:0:0:
272,21,202964,5,8,3:0:0:0:
347,0,203045,1,8,3:0:0:0:
419,31,203127,1,8,3:0:0:0:
453,102,203209,1,8,3:0:0:0:
432,178,203292,6,0,P|419:224|411:272,1,97.6,6|2,3:0|0:0,0:0:0:0:
466,350,203510,1,2,0:0:0:0:
307,324,203620,6,0,P|293:277|285:229,1,97.6,8|2,3:0|0:0,0:0:0:0:
340,152,203838,1,2,0:0:0:0:
234,92,203947,6,0,P|165:100|146:167,1,146.4,2|0,0:0|0:0,0:0:0:0:
37,128,204193,2,0,P|78:183|146:167,1,146.4,2|0,0:0|0:0,0:0:0:0:
166,279,204439,2,0,P|193:216|146:166,1,146.4,2|0,0:0|0:0,0:0:0:0:
32,319,204685,6,0,P|103:302|175:291,1,146.4,2|0,0:0|0:0,0:0:0:0:
249,354,204931,2,0,P|320:370|392:381,1,146.4,2|0,0:0|0:0,0:0:0:0:
408,287,205177,2,0,P|335:275|264:259,1,146.4,2|0,0:0|0:0,0:0:0:0:
199,193,205423,1,0,3:0:0:0:
187,158,205504,1,0,3:0:0:0:
196,123,205586,1,8,3:0:0:0:
222,98,205668,1,0,3:0:0:0:
257,90,205750,1,0,3:0:0:0:
291,101,205832,1,0,3:0:0:0:
314,129,205915,6,0,P|320:150|324:173,3,45.75,4|0|0|0,3:0|3:0|3:0|3:0,0:0:0:0:
404,167,206243,2,0,P|401:189|395:211,3,45.75,8|0|0|0,3:0|3:0|3:0|3:0,0:0:0:0:
452,332,206570,6,0,P|455:295|462:259,1,73.2,4|0,3:0|3:0,0:0:0:0:
386,88,206734,1,0,3:0:0:0:
386,88,206816,1,0,3:0:0:0:
386,88,206898,2,0,P|379:52|375:15,1,73.2,8|0,3:0|3:0,0:0:0:0:
259,229,207062,1,0,3:0:0:0:
259,229,207144,1,0,3:0:0:0:
259,229,207226,1,4,3:0:0:0:
262,271,207307,1,0,3:0:0:0:
238,307,207389,1,0,3:0:0:0:
197,320,207471,1,0,3:0:0:0:
156,305,207553,1,8,3:0:0:0:
70,357,207718,6,0,P|67:321|62:285,1,73.2,2|2,0:0|0:0,0:0:0:0:
5,185,207882,5,2,3:2:0:0:
83,121,207991,1,2,0:2:0:0:
18,54,208100,1,2,0:2:0:0:
101,2,208210,5,8,3:0:0:0:
130,5,208291,1,8,3:0:0:0:
159,9,208373,1,8,3:0:0:0:
188,13,208455,1,8,3:0:0:0:
216,17,208538,6,0,P|295:53|289:139,1,183,6|0,3:0|0:0,0:0:0:0:
295,153,208784,2,0,P|250:161|206:170,1,91.5,0|4,3:0|3:0,0:0:0:0:
140,230,208947,1,4,3:0:0:0:
140,230,209029,6,0,P|61:266|67:352,1,183,14|0,3:0|0:0,0:0:0:0:
61,366,209275,2,0,P|106:374|150:383,1,91.5,2|0,0:2|0:0,0:0:0:0:
236,338,209439,1,0,0:0:0:0:
236,338,209521,6,0,P|325:319|415:302,1,183,14|0,3:0|0:0,0:0:0:0:
427,314,209767,2,0,P|441:270|456:227,1,91.5,2|0,0:2|0:0,0:0:0:0:
488,136,209931,1,0,0:0:0:0:
488,136,210013,6,0,P|398:154|308:171,1,183,14|0,3:0|0:0,0:0:0:0:
292,182,210259,2,0,P|277:138|262:95,1,91.5,2|0,0:2|0:0,0:0:0:0:
184,48,210423,1,0,0:0:0:0:
184,48,210505,6,0,P|100:53|97:137,1,183,14|0,3:0|0:0,0:0:0:0:
108,146,210751,1,2,0:2:0:0:
0,296,210997,5,2,0:0:0:0:
79,306,211079,1,2,0:0:0:0:
158,316,211161,6,0,L|180:259,5,61,14|2|2|2|2|2,3:0|0:0|0:0|0:0|0:0|0:0,0:0:0:0:
241,374,211488,1,2,0:0:0:0:
241,374,211570,1,2,0:0:0:0:
241,374,211652,2,0,L|263:317,5,61,14|2|2|2|2|2,3:0|0:0|0:0|0:0|0:0|0:0,0:0:0:0:
336,254,211980,1,2,0:0:0:0:
336,254,212062,1,2,0:0:0:0:
336,254,212144,1,14,3:0:0:0:
372,247,212225,1,2,0:0:0:0:
408,241,212307,1,2,0:0:0:0:
444,235,212389,1,2,0:0:0:0:
480,229,212472,6,0,P|513:199|518:155,1,91.5,12|0,3:0|0:0,0:0:0:0:
485,24,212636,1,2,0:2:0:0:
407,159,212800,6,0,P|409:114|382:79,1,91.5,12|0,3:0|0:0,0:0:0:0:
265,11,212964,1,2,0:2:0:0:
305,161,213128,6,0,P|275:127|231:122,1,91.5,12|0,3:0|0:0,0:0:0:0:
100,157,213292,1,2,0:2:0:0:
234,235,213456,6,0,P|189:232|154:259,1,91.5,12|0,3:0|0:0,0:0:0:0:
53,357,213620,1,2,0:2:0:0:
53,357,213702,1,0,0:0:0:0:
53,357,213784,2,2,L|517:309,1,439.2,6|0,3:0|0:0,0:1:0:0:
289,196,214439,6,0,P|254:205|233:234,1,73.2,8|0,3:0|0:0,0:0:0:0:
241,312,214603,1,2,0:0:0:0:
369,131,214767,1,0,3:0:0:0:
343,98,214849,1,0,3:0:0:0:
301,98,214930,1,2,3:2:0:0:
2,88,215095,5,4,3:0:0:0:
45,20,215259,2,0,P|116:9|135:81,1,146.4,2|4,0:0|3:0,0:0:0:0:
177,251,215587,2,0,P|169:285|137:301,1,73.2,2|0,0:0|0:0,0:0:0:0:
3,213,215751,6,0,L|82:206,1,73.2,8|0,3:0|0:0,0:0:0:0:
155,166,215915,2,0,L|234:159,1,73.2,2|0,0:0|0:0,0:0:0:0:
438,183,216079,6,0,P|390:135|358:247,1,219.6,4|0,3:0|3:0,0:0:0:0:
434,343,216406,2,0,P|444:309|426:278,1,73.2,6|0,3:0|0:0,0:0:0:0:
243,329,216570,6,0,P|218:302|183:303,1,73.2,2|0,0:0|0:0,0:0:0:0:
134,384,216734,2,2,L|157:141,1,219.6,0|0,0:0|0:0,0:1:0:0:
25,25,217062,5,8,3:0:0:0:
20,60,217143,1,0,3:0:0:0:
38,91,217225,1,2,3:2:0:0:
72,103,217307,1,0,3:0:0:0:
106,92,217389,1,4,3:0:0:0:
252,50,217554,2,0,P|245:86|197:94,1,73.2,2|0,0:0|0:0,0:0:0:0:
202,205,217718,5,4,3:0:0:0:
119,260,217882,2,0,P|223:241|309:305,1,219.6,2|0,3:2|0:0,0:0:0:0:
217,383,218210,2,0,P|198:363|212:316,1,73.2,2|0,0:0|0:0,0:0:0:0:
289,173,218374,6,0,P|308:149|291:175,1,91.5,8|0,3:0|0:0,0:0:0:0:
202,205,218538,1,2,0:0:0:0:
474,118,218702,1,0,3:0:0:0:
211,12,218865,1,2,0:2:0:0:
296,136,219029,5,6,3:0:0:0:
306,92,219110,1,0,0:0:0:0:
341,63,219192,1,0,0:0:0:0:
386,62,219274,1,0,0:0:0:0:
422,87,219357,6,0,L|410:315,1,219.6
329,342,219685,6,0,P|295:336|278:305,1,73.2,8|0,3:0|0:0,0:0:0:0:
453,194,219849,2,0,P|469:162|504:157,1,73.2,2|0,0:0|0:0,0:0:0:0:
492,340,220013,5,0,3:0:0:0:
490,358,220094,1,0,3:0:0:0:
488,376,220176,1,2,3:2:0:0:
239,323,220341,5,4,3:0:0:0:
329,342,220505,2,0,L|184:366,1,146.4,2|4,0:0|3:0,0:0:0:0:
80,121,220833,6,0,P|101:92|97:57,1,73.2,2|0,0:0|0:0,0:0:0:0:
9,252,220997,2,0,L|81:240,1,73.2,8|0,3:0|0:0,0:0:0:0:
165,237,221161,2,0,L|237:225,1,73.2,2|0,0:0|0:0,0:0:0:0:
435,147,221324,6,0,B|455:215|392:204|381:267|381:267|398:225|379:179,1,219.6,4|0,3:0|3:0,0:0:0:0:
442,234,221652,1,6,3:0:0:0:
292,110,221816,6,2,B|449:82|329:135|549:97,1,219.6,2|0,0:0|0:0,0:0:0:0:
482,18,222144,1,2,3:2:0:0:
482,18,222226,1,0,3:2:0:0:
482,18,222308,1,8,3:0:0:0:
472,72,222389,1,0,3:0:0:0:
462,126,222471,1,2,3:2:0:0:
452,180,222553,1,0,3:0:0:0:
442,234,222635,1,0,3:0:0:0:
353,270,222800,1,2,0:0:0:0:
176,2,222964,6,0,B|200:61|285:43|246:15|339:33|339:109|339:109|348:113|348:113|167:151,1,384.299988272095,4|0,3:2|0:0,0:0:0:0:
114,167,223620,6,0,L|105:262,3,54.899998324585,2|2|2|2,0:0|0:0|0:0|0:0,0:0:0:0:
17,188,223947,2,0,L|8:283,3,54.899998324585,2|2|2|2,0:0|0:0|0:0|0:0,0:0:0:0:
95,330,224275,5,6,3:2:0:0:
151,360,224356,1,2,3:2:0:0:
215,351,224438,1,2,3:2:0:0:
261,305,224520,1,2,3:2:0:0:
270,241,224602,1,10,3:0:0:0:
239,184,224684,1,2,3:2:0:0:
208,127,224767,1,2,3:2:0:0:
217,63,224849,1,2,3:2:0:0:
263,17,224931,1,2,3:0:0:0:
327,8,225013,1,2,3:2:0:0:
383,38,225095,5,2,3:2:0:0:
381,47,225176,1,2,3:2:0:0:
380,56,225258,1,10,3:0:0:0:
378,65,225340,1,2,3:2:0:0:
377,74,225422,1,2,3:2:0:0:
375,83,225504,1,2,3:2:0:0:
374,92,225587,6,0,L|353:219,1,91.5,4|2,3:0|3:2,0:0:0:0:
512,351,225751,5,2,3:2:0:0:
473,366,225832,1,2,3:2:0:0:
447,332,225915,2,0,P|419:318|426:251,1,91.5,10|2,3:0|3:2,0:0:0:0:
359,182,226079,5,2,3:2:0:0:
320,167,226160,1,2,3:2:0:0:
294,201,226243,5,2,3:0:0:0:
233,228,226324,1,2,3:2:0:0:
171,202,226406,1,2,3:2:0:0:
147,140,226488,1,2,3:2:0:0:
175,80,226570,5,10,3:0:0:0:
163,37,226651,1,2,3:2:0:0:
127,9,226733,1,2,3:2:0:0:
82,9,226815,1,2,3:2:0:0:
46,36,226898,6,0,L|55:151,1,91.5,8|2,3:1|3:2,0:0:0:0:
64,269,227062,1,2,3:2:0:0:
64,269,227144,1,2,3:2:0:0:
64,269,227226,2,0,L|73:384,1,91.5,10|2,3:0|3:2,0:0:0:0:
324,235,227390,5,2,3:2:0:0:
324,235,227472,1,2,3:2:0:0:
324,235,227554,2,0,L|209:226,1,91.5,2|2,3:0|3:2,0:0:0:0:
229,318,227718,2,0,L|320:325,1,91.5,2|2,3:2|3:2,0:0:0:0:
408,302,227882,5,10,3:0:0:0:
410,279,227964,1,2,3:2:0:0:
411,257,228045,1,2,3:2:0:0:
499,43,228209,5,6,3:0:0:0:
474,13,228292,1,2,3:2:0:0:
402,1,228374,5,2,3:2:0:0:
369,20,228456,1,2,3:2:0:0:
345,89,228538,5,10,3:0:0:0:
341,128,228620,1,2,3:2:0:0:
288,178,228702,5,2,3:2:0:0:
250,180,228784,1,2,3:2:0:0:
206,94,228865,6,0,L|234:367,1,274.5,2|2,3:0|3:2,0:0:0:0:
34,384,229193,5,10,3:0:0:0:
22,317,229274,1,10,3:0:0:0:
53,258,229356,1,10,3:0:0:0:
115,230,229438,1,10,3:0:0:0:
180,246,229521,6,0,P|308:275|381:153,1,274.5,6|0,3:2|0:0,0:0:0:0:
473,71,229849,6,0,L|153:39,1,274.5,10|0,3:0|0:0,0:0:0:0:
66,0,230177,6,0,B|50:86|50:86|55:83|55:83|37:185,1,183,2|0,3:0|0:0,0:0:0:0:
96,320,230423,5,2,0:0:0:0:
96,320,230505,2,0,P|143:328|184:369,1,91.5,10|0,3:0|0:0,0:0:0:0:
381,217,230669,5,2,0:0:0:0:
381,217,230751,2,0,P|344:247|329:303,1,91.5,2|2,0:0|3:0,0:0:0:0:
165,157,230915,5,2,0:0:0:0:
165,157,230997,2,0,P|201:187|216:243,1,91.5,2|2,0:0|0:0,0:0:0:0:
482,346,231161,5,10,3:0:0:0:
482,346,231243,2,0,P|434:354|393:395,1,91.5,2|2,0:0|0:0,0:0:0:0:
385,128,231406,5,2,0:0:0:0:
385,128,231488,2,0,B|440:129|470:181|470:181|468:188|468:188|520:86|431:37,1,274.5,2|2,3:0|0:0,0:0:0:0:
362,26,231816,6,0,P|329:32|360:36,1,91.5,10|0,3:0|0:0,0:0:0:0:
381,217,231980,1,2,0:0:0:0:
232,32,232144,5,6,3:2:0:0:
220,31,232225,1,2,3:2:0:0:
209,30,232307,1,2,3:2:0:0:
197,29,232389,1,2,3:2:0:0:
131,82,232472,5,10,3:0:0:0:
132,94,232553,1,2,3:2:0:0:
133,105,232635,1,2,3:2:0:0:
134,117,232717,1,2,3:2:0:0:
84,188,232800,5,2,3:0:0:0:
72,189,232881,1,2,3:2:0:0:
61,190,232963,1,2,3:2:0:0:
49,191,233045,1,2,3:2:0:0:
0,261,233128,5,10,3:0:0:0:
1,273,233209,1,2,3:2:0:0:
2,284,233291,1,2,3:2:0:0:
3,296,233373,1,2,3:2:0:0:
64,352,233456,6,0,L|256:320,1,183,6|2,3:2|0:0,0:0:0:0:
288,288,233702,1,2,3:2:0:0:
288,288,233784,2,0,L|279:383,1,91.5,2|2,0:2|0:0,0:0:0:0:
288,205,233947,6,0,L|480:237,1,183,10|2,3:0|3:2,0:0:0:0:
512,269,234193,1,2,3:2:0:0:
512,269,234275,2,0,L|503:173,1,91.5,2|2,3:2|3:2,0:0:0:0:
427,39,234439,5,10,3:0:0:0:
426,56,234521,5,10,3:0:0:0:
425,73,234603,5,10,3:0:0:0:
424,90,234685,5,10,3:0:0:0:
351,135,234767,6,0,B|300:41|416:-86|576:19|534:156|445:177|445:177|236:210|236:210|153:241|156:386|320:405|363:289|313:230|313:230|312:230|312:230|345:20|44:-142|-188:152|-32:383|150:376|150:376|43:365|-17:248|37:140|131:107|206:135,1,2254.55995527759,2|0,3:1|0:0,0:0:0:0:
204,134,237472,2,0,P|143:175|115:14,1,320.25
216,153,238702,6,2,B|213:141|214:128|214:128|209:127|209:127|214:126|214:126|215:113|220:103|220:103|225:103|225:103|221:100|221:100|227:89|234:80|234:80|232:76|232:76|236:78|236:78|245:70|255:64|255:64|259:68|259:68|258:63|258:63|268:57|281:55|281:55|282:51|282:51|284:55|284:55|296:54|307:56|307:56|307:61|307:61|310:57|310:57|321:60|332:66|332:66|336:62|336:62|334:68|334:68|344:74|352:83|352:83|349:87|349:87|354:86|354:86|361:95|365:106|365:106|370:106|370:106|366:108|366:108|370:120|370:132|370:132|365:133|365:133|370:135|370:135|370:146|366:158|366:158|370:161|370:161|365:161|365:161|361:172|354:182|354:182|349:180|349:180|352:183|352:183|344:193|335:200|335:200|336:204|336:204|332:201|332:201|321:207|310:210|310:210|307:205|307:205|307:210|307:210|299:212|289:212|289:212|291:215|292:217|292:217|297:216|297:216|294:220|294:220|300:230|302:241|302:241|298:243|298:243|303:244|303:244|304:257|303:268|303:268|306:270|306:270|302:271|302:271|300:282|294:293|294:293|289:292|289:292|292:295|292:295|286:306|278:313|278:313|280:318|280:318|276:315|276:315|266:323|255:328|255:328|252:324|252:324|252:329|252:329|242:333|229:334|229:334|228:339|228:339|227:334|227:334|214:334|203:331|203:331|203:326|203:326|201:331|201:331|189:326|179:319|179:319|175:322|175:322|177:317|177:317|168:311|161:300|161:300|164:296|164:296|159:298|159:298|153:288|150:276|150:276|145:276|145:276|149:274|149:274|146:262|147:250|147:250|152:249|152:249|148:247|148:247|149:236|154:224|154:224|150:221|150:221|154:222|154:222|160:211|169:202|169:202|172:204|172:204|171:201|171:201|179:192|190:186|190:186|189:182|189:182|191:185|191:185|196:183|201:182,1,960.750036649705,2|0,0:0|0:0,0:0:0:0:
83,209,240013,6,0,B|-12:195|-50:37|108:-38|202:53|184:139|184:139|119:334|119:334|146:415|275:428|324:306|259:230|190:233|190:233|78:80|245:-171|550:-38|526:207|382:279|382:279|480:239|499:104|402:22|300:36|257:86|257:86|331:155,1,2196.00008377076,2|0,3:1|0:0,0:0:0:0:
316,141,242718,2,0,P|318:271|402:180,1,320.25
99,183,243947,6,2,B|109:183|119:186|119:186|122:183|122:183|122:187|122:187|131:190|140:195|140:195|139:199|139:199|142:196|142:196|151:202|157:209|157:209|161:207|161:207|159:211|159:211|165:219|170:227|170:227|167:231|167:231|171:230|171:230|175:239|177:249|177:249|181:249|181:249|177:251|177:251|179:261|179:271|179:271|175:272|175:272|178:274|178:274|177:283|174:293|174:293|177:295|177:295|173:295|173:295|183:292|191:287|191:287|194:290|194:290|193:286|193:286|202:280|209:274|209:274|207:270|207:270|211:272|211:272|218:265|223:257|223:257|227:258|227:258|225:255|225:255|231:247|235:237|235:237|231:235|231:235|235:235|235:235|239:226|241:216|241:216|245:215|245:215|242:214|242:214|243:203|243:194|243:194|239:193|239:193|243:191|243:191|243:181|240:171|240:171|244:170|244:170|240:169|240:169|237:159|233:151|233:151|229:151|229:151|232:148|232:148|227:139|222:131|222:131|224:128|224:128|220:130|220:130|214:122|207:115|207:115|203:117|203:117|204:114|204:114|196:107|188:102|188:102|189:98|189:98|186:101|186:101|184:100|183:99|183:99|191:97|199:95|199:95|199:91|199:91|201:95|201:95|211:94|221:94|221:94|222:98|222:98|223:94|223:94|234:94|243:95|243:95|245:92|245:92|246:96|246:96|255:98|265:101|265:101|265:105|265:105|267:102|267:102|277:106|286:110|286:110|288:107|288:107|287:111|287:111|296:116|304:122|304:122|303:126|303:126|306:123|306:123|314:130|321:137|321:137|325:135|325:135|323:139|323:139|330:147|335:155|335:155|332:158|332:158|336:156|336:156|342:165|346:174|346:174|350:174|350:174|347:176|347:176|351:185|354:195|354:195|350:197|350:197|354:197|354:197|357:207|358:217|358:217|362:218|362:218|358:219|358:219|359:230|359:239|359:239|355:240|355:240|358:242|358:242|358:252|355:262|355:262|359:263|359:263|355:264|355:264|352:274|349:283|349:283|345:283|345:283|348:285|348:285|344:295|339:303|339:303|342:306|342:306|338:305|338:305|332:314|326:321|326:321|322:319|322:319|324:323|324:323|323:325|320:327,1,960.750036649705,2|0,0:0|0:0,0:0:0:0:
174,289,245259,6,0,B|97:387|-83:333|-77:138|56:79|144:129|144:129|335:214|335:214|438:267|569:157|501:-2|371:-15|308:52|308:52|132:25|-6:242|151:444|345:418|421:300|421:300|363:372|253:361|198:277|213:194|264:149,1,2196.00008377076,2|0,3:1|0:0,0:0:0:0:
251,163,247964,2,0,P|219:296|108:211,1,320.25
216,153,249193,6,2,B|213:141|214:128|214:128|209:127|209:127|214:126|214:126|215:113|220:103|220:103|225:103|225:103|221:100|221:100|227:89|234:80|234:80|232:76|232:76|236:78|236:78|245:70|255:64|255:64|259:68|259:68|258:63|258:63|268:57|281:55|281:55|282:51|282:51|284:55|284:55|296:54|307:56|307:56|307:61|307:61|310:57|310:57|321:60|332:66|332:66|336:62|336:62|334:68|334:68|344:74|352:83|352:83|349:87|349:87|354:86|354:86|361:95|365:106|365:106|370:106|370:106|366:108|366:108|370:120|370:132|370:132|365:133|365:133|370:135|370:135|370:146|366:158|366:158|370:161|370:161|365:161|365:161|361:172|354:182|354:182|349:180|349:180|352:183|352:183|344:193|335:200|335:200|336:204|336:204|332:201|332:201|321:207|310:210|310:210|307:205|307:205|307:210|307:210|299:212|289:212|289:212|291:215|292:217|292:217|297:216|297:216|294:220|294:220|300:230|302:241|302:241|298:243|298:243|303:244|303:244|304:257|303:268|303:268|306:270|306:270|302:271|302:271|300:282|294:293|294:293|289:292|289:292|292:295|292:295|286:306|278:313|278:313|280:318|280:318|276:315|276:315|266:323|255:328|255:328|252:324|252:324|252:329|252:329|242:333|229:334|229:334|228:339|228:339|227:334|227:334|214:334|203:331|203:331|203:326|203:326|201:331|201:331|189:326|179:319|179:319|175:322|175:322|177:317|177:317|168:311|161:300|161:300|164:296|164:296|159:298|159:298|153:288|150:276|150:276|145:276|145:276|149:274|149:274|146:262|147:250|147:250|152:249|152:249|148:247|148:247|149:236|154:224|154:224|150:221|150:221|154:222|154:222|160:211|169:202|169:202|172:204|172:204|171:201|171:201|179:192|190:186|190:186|189:182|189:182|191:185|191:185|196:183|201:182,1,960.750036649705,2|0,0:0|0:0,0:0:0:0:
350,321,250505,6,0,B|383:420|539:431|594:279|509:192|425:202|425:202|157:259|157:259|79:328|-50:285|-75:160|-12:79|65:67|65:67|205:-77|477:21|476:308|288:421|139:370|139:370|47:334|18:208|108:118|162:135,1,2196.00008377076,2|0,3:1|0:0,0:0:0:0:
148,133,253210,2,0,P|144:226|19:167,1,274.5
335,366,254521,6,0,L|345:308,1,45.75
337,105,254726,1,0,3:0:0:0:
337,105,254808,2,0,L|357:146,1,45.75,0|0,3:0|0:0,3:0:0:0:
489,316,255054,6,0,L|448:294,1,45.75,0|0,3:0|0:0,0:0:0:0:
241,234,255218,6,0,L|286:228,1,45.75,0|0,3:0|0:0,0:0:0:0:
490,154,255382,6,0,L|460:188,1,45.75,0|0,3:0|0:0,0:0:0:0:
379,236,255505,5,0,0:0:0:0:
379,236,255587,5,0,2:0:0:0:
137,185,255751,6,0,B|137:249|105:281|73:217|41:345|41:345|9:281|41:185|82:285|134:188,1,411.750015707017,4|0,1:0|0:0,0:0:0:0:
0,0,256079,6,0,B|66:-15|190:32|91:79|188:103,1,228.75,8|0,1:2|0:0,0:0:0:0:
47,147,256324,5,2,0:3:0:0:
46,137,256406,2,0,L|49:91,1,45.75,0|0,1:0|1:0,0:0:0:0:
266,10,256570,6,0,B|301:47|316:146|248:99|269:171,1,171.5625,8|0,1:2|0:0,0:0:0:0:
292,241,256734,6,0,B|286:252|286:252|290:256|290:256|284:255|284:255|279:264|279:264|274:263|274:263|278:267|278:267|272:279|272:279|273:277|273:277|275:279|275:279|272:279|272:279|278:289|278:289|273:293|273:293|279:292|279:292|285:302|285:302|290:300|290:300|286:304|286:304|291:314|291:314|288:318|288:318|293:317|293:317|298:326|298:326|303:325|303:325|299:329|299:329|304:338|304:338|307:343|307:343|308:337|308:337|310:337|310:337|306:341|306:341|307:344|307:344|313:343|313:343|309:347|309:347|311:350|311:350|312:342|312:342|317:342|317:342|312:339|312:339|314:328|314:328|309:326|309:326|314:325|314:325|317:315|317:315|322:314|322:314|317:311|317:311|318:300|318:300|313:298|313:298|319:298|319:298|320:287|320:287|326:286|326:286|321:283|321:283|323:270|323:270|322:273|322:273|318:271|318:271|323:270|323:270|315:263|315:263|317:258|317:258|313:261|313:261|311:259|311:259|314:254|314:254|309:257|309:257|311:256|311:256|312:260|312:260|309:257|309:257|301:249|301:249|303:244|303:244|298:247|298:247|293:240,1,411.750015707017,2|0,1:1|0:0,1:0:0:0:
123,319,257062,6,0,B|97:339|97:339|158:349|158:349|178:328|178:328|123:319,1,171.5625,2|0,1:3|0:0,0:0:0:0:
48,243,257226,6,0,B|44:214|44:214|6:193|6:193|20:234|20:234|48:243,1,137.250005235672,8|0,1:2|0:0,0:0:0:0:
111,124,257390,6,0,B|145:111|151:72|151:72|145:111|173:132,1,137.250005235672,2|0,0:3|0:0,0:0:0:0:
405,269,257554,6,0,B|368:300|368:300|415:276,1,91.5,0|2,1:0|0:3,0:0:0:0:
425,43,257800,1,2,0:3:0:0:
425,43,257882,2,0,B|454:55|508:49|508:49|330:80|242:237|242:237|312:78|416:45,1,686.250026178361,8|0,1:2|0:0,1:0:0:0:
405,269,258374,6,0,B|398:197|398:197|521:225|521:225|479:291,1,274.500010471344,4|0,1:0|0:0,0:0:0:0:
306,349,258620,5,0,0:0:0:0:
298,354,258702,2,0,B|140:326|140:326|134:284|87:252,1,228.75,8|0,1:2|0:0,0:0:0:0:
32,323,258947,5,2,0:3:0:0:
32,335,259029,2,0,L|26:398,1,45.75,0|0,1:0|1:0,0:0:0:0:
158,163,259193,6,0,B|50:202|50:202|32:178|-8:175,1,171.5625,8|0,1:2|0:0,0:0:0:0:
65,104,259357,6,0,B|59:93|59:93|63:89|63:89|57:90|57:90|52:81|52:81|47:82|47:82|51:78|51:78|45:66|45:66|46:68|46:68|48:66|48:66|45:66|45:66|51:56|51:56|46:52|46:52|52:53|52:53|58:43|58:43|63:45|63:45|59:41|59:41|64:31|64:31|61:27|61:27|66:28|66:28|71:19|71:19|76:20|76:20|72:16|72:16|77:7|77:7|80:2|80:2|81:8|81:8|83:8|83:8|79:4|79:4|80:1|80:1|86:2|86:2|82:-2|82:-2|84:-5|84:-5|85:3|85:3|90:3|90:3|85:6|85:6|87:17|87:17|82:19|82:19|87:20|87:20|90:30|90:30|95:31|95:31|90:34|90:34|91:45|91:45|86:47|86:47|92:47|92:47|93:58|93:58|99:59|99:59|94:62|94:62|96:75|96:75|95:72|95:72|91:74|91:74|96:75|96:75|88:82|88:82|90:87|90:87|86:84|86:84|84:86|84:86|87:91|87:91|82:88|82:88|84:89|84:89|85:85|85:85|82:88|82:88|74:96|74:96|76:101|76:101|71:98|71:98|66:105,1,411.750015707017,2|0,1:1|0:0,1:0:0:0:
163,290,259685,5,2,1:3:0:0:
163,290,259767,2,0,B|139:330|139:330|174:296,1,91.5,0|0,1:0|0:0,0:0:0:0:
235,202,260013,6,0,B|226:256|289:273|289:273|293:223|331:188|381:191,1,228.75,0|4,1:2|1:3,0:0:0:0:
451,264,260259,5,0,0:0:0:0:
451,264,260341,2,0,P|452:140|371:212,1,274.500010471344,12|0,1:2|0:0,0:0:0:0:
72,149,260587,6,0,P|71:25|152:97,1,274.500010471344,12|0,1:2|0:0,0:0:0:0:
319,75,260833,6,0,P|266:22|263:86,1,137.250005235672,12|0,1:2|0:0,0:0:0:0:
94,258,260997,6,0,B|78:229|47:226|51:242|-1:208|-1:208|32:296|139:298|125:249|185:262|204:309|204:309|164:331|162:364,1,411.750015707017,4|0,1:0|0:0,0:0:0:0:
465,353,261324,6,0,L|209:385,1,228.75,8|0,1:2|0:0,0:0:0:0:
364,298,261570,5,2,0:3:0:0:
364,298,261652,2,0,L|356:362,1,45.75,0|0,1:0|1:0,0:0:0:0:
490,162,261816,6,0,L|285:187,1,171.5625,8|0,1:2|0:0,0:0:0:0:
137,38,261980,6,0,B|47:22|47:22|22:17|18:42|43:46|43:46|141:64|141:64|190:72|255:134|206:126|201:165|226:190,1,411.750015707017,2|0,1:1|0:0,1:0:0:0:
84,147,262308,6,0,B|59:171|59:171|67:241|67:241|99:174|99:174|87:147,1,205.875007853508,0|0,1:0|0:0,0:0:0:0:
158,258,262472,6,0,B|151:281|151:281|181:321|181:321|176:269|176:269|160:257,1,137.250005235672,8|0,1:2|0:0,0:0:0:0:
272,312,262636,6,0,B|278:335|278:335|323:355|323:355|293:312|293:312|273:309,1,137.250005235672,2|0,1:3|0:0,0:0:0:0:
390,287,262882,6,0,B|406:304|406:304|456:298|456:298|409:276|409:276|390:284,1,137.250005235672,2|0,1:3|1:3,0:0:0:0:
187,384,263128,6,0,B|123:193|323:38|364:138|396:42|364:-21|364:-21|332:106|300:42|268:74|268:138,1,686.250026178361,4|0,1:2|0:0,1:0:0:0:
285,278,263620,6,0,B|337:254|337:254|478:308|478:308|326:321|326:321|285:278,1,411.750015707017,4|0,1:0|0:0,0:0:0:0:
91,116,263947,6,0,B|57:105|27:99|27:99|103:139|98:260,1,228.75,8|0,1:2|0:0,0:0:0:0:
5,214,264193,1,2,0:3:0:0:
5,214,264275,2,0,P|-10:214|6:207,1,45.75,0|0,1:0|1:0,0:0:0:0:
263,41,264439,6,0,B|246:22|230:8|230:8|262:59|216:130,1,171.5625,8|0,1:2|0:0,0:0:0:0:
196,204,264603,6,0,L|215:289,1,57.1875,2|0,1:1|0:0,1:0:0:0:
196,204,264685,2,0,L|451:226,1,228.75
404,134,264931,6,0,B|425:73|504:46|504:46|422:64|366:10|366:10|410:67|404:134,1,411.750015707017,2|0,1:3|0:0,0:0:0:0:
389,298,265259,6,0,P|390:351|442:361,1,114.375,4|0,0:3|0:0,0:0:0:0:
509,298,265423,2,0,L|513:250,1,45.75,0|0,1:0|0:0,0:0:0:0:
283,288,265587,6,0,B|123:304|123:304|92:308|111:338|47:344,1,228.75,4|0,1:2|0:0,0:0:0:0:
15,116,265833,6,0,B|174:132|174:132|205:136|186:166|250:172,1,228.75,4|0,1:2|0:0,0:0:0:0:
311,3,266079,6,0,B|193:15|193:15|170:17|184:40|137:44,1,171.5625,4|0,1:2|0:0,0:0:0:0:
33,361,266243,6,0,B|2:278|66:187|159:223|159:223|92:227|51:278|71:354,1,411.750015707017,4|0,1:0|0:0,0:0:0:0:
326,293,266570,6,0,P|201:355|147:303,1,228.75,8|0,1:2|0:0,0:0:0:0:
15,116,266816,5,2,0:3:0:0:
13,101,266898,2,0,L|8:53,1,45.75,0|0,1:0|1:0,0:0:0:0:
134,76,267062,6,0,P|192:133|272:116,1,171.5625,8|0,1:2|0:0,0:0:0:0:
378,119,267226,6,0,B|372:108|372:108|376:104|376:104|370:105|370:105|365:96|365:96|360:97|360:97|364:93|364:93|358:81|358:81|359:83|359:83|361:81|361:81|358:81|358:81|364:71|364:71|359:67|359:67|365:68|365:68|371:58|371:58|376:60|376:60|372:56|372:56|377:46|377:46|374:42|374:42|379:43|379:43|384:34|384:34|389:35|389:35|385:31|385:31|390:22|390:22|393:17|393:17|394:23|394:23|396:23|396:23|392:19|392:19|393:16|393:16|399:17|399:17|395:13|395:13|397:10|397:10|398:18|398:18|403:18|403:18|398:21|398:21|400:32|400:32|395:34|395:34|400:35|400:35|403:45|403:45|408:46|408:46|403:49|403:49|404:60|404:60|399:62|399:62|405:62|405:62|406:73|406:73|412:74|412:74|407:77|407:77|409:90|409:90|408:87|408:87|404:89|404:89|409:90|409:90|401:97|401:97|403:102|403:102|399:99|399:99|397:101|397:101|400:106|400:106|395:103|395:103|397:104|397:104|398:100|398:100|395:103|395:103|387:111|387:111|389:116|389:116|384:113|384:113|379:120,1,411.750015707017,2|0,1:1|0:0,1:0:0:0:
329,247,267554,6,0,L|325:292,1,45.75,2|0,1:3|1:0,0:0:0:0:
388,367,267718,6,0,L|535:354,1,114.375,8|0,1:2|0:0,0:0:0:0:
491,265,267882,6,0,B|459:219|488:216|466:159|466:159|524:207|487:268,1,228.75,2|0,0:3|1:0,0:0:0:0:
241,244,268128,1,0,0:0:0:0:
240,256,268210,2,0,L|236:301,1,45.75,2|2,0:3|0:3,0:0:0:0:
305,76,268374,6,0,P|311:48|301:22,1,57.1875,8|0,1:2|1:2,1:2:0:0:
303,86,268456,6,0,P|300:111|283:130,1,51.4687519633771,2|0,0:2|1:2,1:2:0:0:
200,48,268538,6,0,P|210:71|205:96,1,45.75,2|2,0:2|1:2,1:2:0:0:
88,60,268620,6,0,P|108:75|117:99,1,40.0312503817677,2|2,0:2|1:2,1:2:0:0:
0,110,268702,6,0,P|18:112|31:123,1,34.3125013089181,2|2,0:2|1:2,1:2:0:0:
361,236,268865,6,0,B|406:241|431:301|431:301|432:303|432:303|433:304|433:305|433:305|448:337|481:349|481:349|514:358|514:358|514:358|514:358|313:322,1,411.750015707017,4|0,1:0|0:0,0:0:0:0:
35,216,269193,6,0,B|10:272|79:326|79:326|89:270|158:260,1,228.75,8|0,1:2|0:0,0:0:0:0:
221,311,269439,1,2,0:3:0:0:
220,323,269521,2,0,L|214:386,1,45.75,0|0,1:0|1:0,0:0:0:0:
179,94,269685,6,0,B|134:112|135:176|135:176|177:154|225:187,1,171.5625,8|0,1:2|0:0,0:0:0:0:
337,180,269849,6,0,B|342:188|342:188|349:194|349:194|357:203|357:203|364:207|364:207|369:218|369:218|375:222|375:222|381:227|381:227|386:237|386:237|386:246|386:246|386:257|386:257|386:255|386:255|388:256|388:256|386:257|386:257|384:265|384:265|381:271|381:271|379:282|379:282|377:296|377:296|370:301|370:301|372:306|372:306|366:316|366:316|366:325|366:325|370:331|370:331|366:340|366:340|364:345|364:345|365:343|365:343|361:343|361:343|364:345|364:345|355:340|355:340|349:331|349:331|347:325|347:325|338:321|338:321|338:314|338:314|334:310|334:310|330:298|330:298|319:291|319:291|319:282|319:282|315:278|315:278|308:274|308:274|310:275|310:275|307:279|307:279|308:274|308:274|303:263|303:263|302:254|302:254|303:244|303:244|303:232|303:232|310:229|310:229|312:218|312:218|315:207|315:207|317:196|317:196|320:184,1,411.750015707017,2|0,1:1|0:0,1:0:0:0:
280,5,270177,6,0,B|243:25|203:15|203:15|334:38|334:38|340:36|340:36|469:59|469:59|432:58|399:73,1,411.750015707017,2|0,1:3|0:0,0:0:0:0:
504,214,270505,2,0,P|445:170|455:134,1,114.375,0|2,1:2|1:3,0:0:0:0:
470,60,270669,2,0,P|490:18|477:61,1,137.250005235672,4|0,1:3|0:0,0:0:0:0:
359,271,270833,6,0,B|334:276|324:295|324:295|313:314|319:333|319:333|322:345|328:353|328:353|333:350|333:350|330:355|330:355|348:373|369:371|369:371|391:369|405:354|405:354|412:346|414:337|414:337|419:337|419:337|415:333|415:333|421:312|408:292|408:292|399:281|389:275,1,292.8,12|0,1:2|0:0,0:0:0:0:
44,223,271079,6,0,B|20:228|9:246|9:246|-1:265|4:285|4:285|7:296|13:305|13:305|19:301|19:301|15:307|15:307|32:324|54:322|54:322|76:320|89:306|89:306|96:297|99:288|99:288|104:288|104:288|100:285|100:285|106:263|92:243|92:243|84:232|74:227,1,292.8,12|0,1:2|0:0,0:0:0:0:
209,275,271324,6,0,B|196:279|192:289|192:289|188:301|192:309|192:309|197:318|207:322|207:322|217:325|226:320|226:320|235:315|238:305|238:305|233:302|233:302|239:302|239:302|240:289|231:281|231:281|228:278|223:276,1,137.250005235672,12|0,1:2|0:0,0:0:0:0:
104,53,271488,6,0,B|109:84|46:95|46:95|298:51|298:51|235:62|246:125,1,411.750015707017,4|0,1:0|0:0,0:0:0:0:
308,261,271816,6,0,B|300:274|298:289|298:289|303:291|303:291|298:292|298:292|296:306|299:319|299:319|294:323|294:323|301:323|301:323|304:333|310:341|310:341|315:339|315:339|312:344|312:344|313:345|314:346|314:346|319:343|319:343|317:347|317:347|327:358|340:363|340:363|340:369|340:369|343:364|343:364|356:369|369:368|369:368|370:361|370:361|373:367|373:367|376:367|379:366|379:366|382:370|382:370|382:365|382:365|391:362|399:358|399:358|402:362|402:362|401:356|401:356|413:348|420:336|420:336|417:333|417:333|423:334|423:334|429:322|430:308|430:308|435:307|435:307|431:310|431:310|433:305|433:305|431:304|431:304|431:290|427:277|427:277|420:278|420:278|425:273|425:273|419:260|409:252|409:252|412:246|412:246|408:249|408:249|400:243|391:239,1,411.750015707017,8|2,1:2|0:3,0:0:0:0:
346,187,272144,1,0,1:0:0:0:
87,187,272308,6,0,B|94:266|39:338|39:338|102:265|186:312|186:312|110:264|90:186,1,480.375018324853,8|0,1:2|0:0,0:0:0:0:
171,231,272636,6,0,B|105:277|15:265|15:265|100:288|112:379|112:379|112:287|173:233,1,480.375018324853
248,174,272964,2,0,P|259:106|216:82,1,114.375,8|0,1:2|0:0,0:0:0:0:
136,46,273128,6,0,B|96:70|64:30|8:62|8:62|68:-10|136:46,1,274.500010471344,2|0,1:3|0:0,0:0:0:0:
337,29,273374,5,2,1:3:0:0:
352,27,273456,2,0,L|415:21,1,45.75,0|0,0:0|1:3,0:0:0:0:
253,149,273620,6,0,B|259:159|259:159|267:166|267:166|278:177|278:177|286:182|286:182|292:196|292:196|300:201|300:201|307:207|307:207|313:220|313:220|313:221|313:221|317:222|317:222|313:224|313:224|313:231|313:231|313:244|313:244|311:254|311:254|307:262|307:262|305:276|305:276|302:293|302:293|295:299|295:299|296:305|296:305|292:313|292:313|287:312|287:312|291:315|291:315|289:318|289:318|289:329|289:329|295:337|295:337|289:348|289:348|286:354|286:354|276:348|276:348|267:337|267:337|265:329|265:329|255:324|255:324|255:315|255:315|255:317|255:317|252:316|252:316|255:315|255:315|249:310|249:310|244:294|244:294|230:287|230:287|230:276|230:276|225:270|225:270|217:266|217:266|211:252|211:252|209:241|209:241|209:239|209:239|214:238|214:238|210:236|210:236|211:228|211:228|211:213|211:213|219:209|219:209|222:196|222:196|225:182|225:182|226:178,1,480.375018324853,4|0,1:2|0:0,1:0:0:0:
253,149,273947,6,0,B|254:149|254:149|251:151|251:151|253:149|253:149|247:143|247:143|245:141|245:141|246:144|246:144|247:143|247:143|244:145|244:145|246:142|246:142|244:140|244:140|241:142|241:142|243:139|243:139|238:135|238:135|241:134|241:134|239:133|239:133|238:135|238:135|240:126|240:126|236:125|236:125|240:124|240:124|241:117|241:117|244:117|244:117|241:115|241:115|241:109|241:109|239:106|239:106|241:108|241:108|237:110|237:110|239:106|239:106|241:106|241:106|244:100|244:100|247:99|247:99|244:98|244:98|245:90|245:90|241:89|241:89|245:89|245:89|246:83|246:83|247:85|247:85|244:88|244:88|248:88|248:88|249:90|249:90|246:91|246:91|248:91|248:91|248:88|248:88|251:91|251:91|253:97|253:97|251:100|251:100|254:99|254:99|257:104|257:104|261:104|261:104|259:106|259:106|262:113|262:113|261:110|261:110|257:114|257:114|262:113|262:113|259:115|259:115|263:114|263:114|266:121|266:121|270:120|270:120|267:123|267:123|271:129|271:129|269:129|269:129|270:130|270:130|271:129|271:129|267:137|267:137|269:139|269:139|266:138|266:138|263:144|263:144|259:144|259:144|261:146,1,274.5,0|0,0:2|0:0,1:0:0:0:
0,314,274111,6,0,B|-12:345|0:368|0:368|-42:302|-17:194|49:184|59:248|171:211|149:92,1,411.750015707017,4|0,1:0|0:0,0:0:0:0:
174,3,274439,6,0,P|62:25|59:129,1,228.75,8|0,1:2|0:0,0:0:0:0:
79,342,274685,1,2,0:3:0:0:
85,348,274767,2,0,L|148:353,1,45.75,0|0,1:0|1:0,0:0:0:0:
215,170,274931,6,0,B|341:192|341:192|324:307|203:233|239:401,1,343.125,8|0,1:2|0:0,0:0:0:0:
383,351,275259,6,0,L|478:359,1,57.1875,2|0,2:0|0:0,0:0:0:0:
383,351,275341,6,0,L|287:342,1,57.1875,2|0,0:0|0:0,0:0:0:0:
444,230,275423,6,0,B|490:231|522:199|522:199|524:197|526:195|526:195|523:199|520:202|520:202|523:207|523:207|518:205|518:205|494:238|501:278|501:278|503:287|505:294|505:294|504:291|503:288|503:288|507:285|507:285|502:285|502:285|489:252|459:237,1,288.466886698869,2|0,1:2|0:0,0:0:0:0:
363,115,275669,6,0,B|401:95|413:54|413:54|415:48|416:43|416:43|415:48|415:52|415:52|419:54|419:54|414:55|414:55|410:97|438:129|438:129|442:135|447:139|447:139|445:137|442:135|442:135|444:130|444:130|440:133|440:133|412:111|377:113,1,289.310050831337,2|0,3:2|0:0,0:0:0:0:
212,67,275915,6,0,B|235:30|225:-11|225:-11|223:-17|222:-21|222:-21|224:-16|226:-12|226:-12|231:-12|231:-12|227:-9|227:-9|246:30|286:43|286:43|292:45|297:46|297:46|293:45|289:45|289:45|289:40|289:40|287:44|287:44|252:39|223:59,1,288.922284238422,2|0,3:2|0:0,0:0:0:0:
245,219,276161,6,0,B|246:235|258:244|258:244|282:258|309:262|309:262|291:259|291:259|288:263|288:263|288:258|288:258|189:241|189:241|189:236|189:236|186:240|186:240|120:229,1,289.171181074857,2|0,3:2|0:0,0:0:0:0:
12,145,276406,6,0,B|-2:137|-7:122|-7:122|0:86|-5:50|-5:50|-1:49|-1:49|-4:52|-4:52|23:84|20:124|20:124|18:136|12:145,1,205.875007853508,2|0,3:2|0:0,0:0:0:0:
158,52,276734,6,0,B|235:14|235:14|276:41|276:41|193:83|193:83|143:55,1,274.5,4|0,1:0|0:0,0:0:0:0:
12,145,277062,6,0,P|-26:85|59:36,1,183,8|0,1:2|0:0,0:0:0:0:
227,181,277308,5,2,1:3:0:0:
211,186,277390,2,0,L|169:203,1,34.3125013089181,0|0,1:0|1:0,0:0:0:0:
164,210,277554,2,0,L|132:242,1,34.3125013089181,8|0,1:2|0:0,0:0:0:0:
64,61,277718,6,0,B|99:67|121:107|102:146|64:152|64:152|10:153|-29:207|3:268|57:280|92:256|92:256|136:227|201:272|188:343|136:366|97:350,1,549.000020942689,2|2,1:1|1:3,1:0:0:0:
92,260,278128,5,0,1:0:0:0:
84,276,278210,2,0,P|-2:254|120:167,1,343.125013089181,8|0,1:2|0:0,1:0:0:0:
190,228,278538,6,0,L|232:219,2,34.3125013089181
204,137,278865,6,0,B|197:124|197:124|201:120|201:120|195:121|195:121|189:111|189:111|183:112|183:112|188:107|188:107|181:94|181:94|182:96|182:96|184:94|184:94|181:94|181:94|188:83|188:83|182:78|182:78|189:79|189:79|196:68|196:68|201:70|201:70|197:66|197:66|202:55|202:55|199:50|199:50|205:51|205:51|210:41|210:41|216:42|216:42|211:38|211:38|217:28|217:28|220:22|220:22|221:29|221:29|224:29|224:29|219:25|219:25|220:21|220:21|227:22|227:22|223:18|223:18|225:14|225:14|226:23|226:23|232:23|232:23|226:27|226:27|228:39|228:39|223:41|223:41|228:42|228:42|232:54|232:54|237:55|237:55|232:58|232:58|233:70|233:70|227:73|227:73|234:73|234:73|235:85|235:85|242:86|242:86|236:89|236:89|238:104|238:104|237:101|237:101|233:103|233:103|238:104|238:104|229:112|229:112|232:117|232:117|227:114|227:114|225:116|225:116|228:122|228:122|223:119|223:119|225:120|225:120|226:115|226:115|223:119|223:119|214:128|214:128|216:133|216:133|210:130|210:130|205:138,1,457.5,8|0,1:2|0:0,1:0:0:0:
204,137,279357,1,4,1:0:0:0:
394,304,279521,5,0,0:0:0:0:
387,313,279603,1,0,0:0:0:0:
381,321,279685,2,0,B|432:330|432:330|441:273|441:273|385:264|385:264|378:306,1,183,8|0,1:2|0:0,0:0:0:0:
441,79,280013,5,0,1:0:0:0:
434,88,280095,1,0,1:0:0:0:
428,96,280177,2,0,B|479:105|479:105|488:48|488:48|432:39|432:39|425:81,1,183,8|0,1:2|0:0,0:0:0:0:
378,202,280341,6,0,B|452:175|535:239|518:342|446:373|446:373|484:346|481:290|440:259|399:262|373:286,1,457.5,2|2,1:1|1:3,1:0:0:0:
265,309,280751,5,0,1:0:0:0:
253,308,280833,2,0,P|256:280|312:242,1,91.5,8|0,1:2|0:0,0:0:0:0:
265,47,280997,6,0,B|379:280|379:280|213:124,1,480.375004581213,0|0,1:2|0:0,0:0:0:0:
218,129,281324,6,0,P|164:174|234:230,1,183,12|0,1:2|0:0,0:0:0:0:
155,65,281570,2,0,P|87:45|80:134,1,183,12|0,1:2|0:0,0:0:0:0:
89,144,281816,1,12,1:2:0:0:
91,246,281980,6,0,B|14:208|14:208|-27:235|-27:235|56:277|56:277|106:249,1,274.5,4|0,1:0|0:0,0:0:0:0:
280,322,282308,6,0,B|136:336|136:336|108:339|125:366|67:372,1,183,8|0,1:2|0:0,0:0:0:0:
96,254,282554,5,2,0:3:0:0:
91,238,282636,2,0,L|74:196,1,34.3125013089181,0|0,1:0|1:0,0:0:0:0:
66,191,282800,2,0,L|34:159,1,34.3125013089181,8|0,1:2|0:0,0:0:0:0:
239,71,282964,6,0,B|256:27|256:27|222:-22|222:-22|20:31|20:31|84:102,1,411.750015707017,2|0,1:1|0:0,1:0:0:0:
22,215,283292,5,0,1:0:0:0:
12,207,283374,1,0,1:0:0:0:
3,199,283456,2,0,B|-2:169|25:141|61:145|77:169|77:169|45:195|50:245|88:270|125:265|147:243,1,274.500010471344,8|2,1:2|1:3,0:0:0:0:
232,226,283865,5,2,1:3:0:0:
232,226,283947,2,0,B|226:183|226:183|179:167,1,68.6250026178361,0|0,0:0|1:3,0:0:0:0:
254,39,284111,6,0,B|274:118|368:153|445:108|469:36|448:-21|448:-21|459:7|442:40|403:49|399:15|349:9|314:26|288:57|291:93,1,549,4|4,1:2|1:0,1:0:0:0:
98,45,284767,5,0,0:0:0:0:
98,45,284849,1,0,0:0:0:0:
98,45,284931,2,0,B|105:73|105:73|161:98|161:98|124:45|124:45|99:41,1,183,8|0,1:2|0:0,0:0:0:0:
2,181,285259,5,0,1:0:0:0:
2,181,285341,1,0,1:0:0:0:
2,181,285423,2,0,B|27:196|27:196|85:173|85:173|20:162|20:162|0:177,1,183,8|0,1:2|0:0,0:0:0:0:
174,185,285587,6,0,L|344:207,1,91.5,2|0,1:1|0:0,1:0:0:0:
372,274,285915,5,2,1:3:0:0:
380,288,285997,2,0,P|442:294|434:180,1,183,0|0,1:0|0:0,0:0:0:0:
386,113,286243,2,0,L|333:120,1,45.75,4|0,0:3|0:0,0:0:0:0:
333,196,286406,2,0,L|386:189,1,45.75,0|0,1:0|0:0,0:0:0:0:
71,58,286570,6,0,B|96:44|127:49|146:70|151:95|151:95|135:66|144:30|172:11|201:12,1,205.875007853508,4|0,1:2|0:0,0:0:0:0:
215,97,286816,2,0,B|201:95|173:114|164:150|180:179|180:179|175:154|156:133|125:128|100:142,1,205.875007853508,4|0,1:2|0:0,0:0:0:0:
187,222,287062,1,4,1:2:0:0:
241,329,287226,6,0,B|318:367|318:367|359:340|359:340|276:298|276:298|226:326,1,274.5,4|0,1:0|0:0,0:0:0:0:
484,239,287554,6,0,P|522:299|437:348,1,183,8|0,1:2|0:0,0:0:0:0:
289,203,287800,5,2,1:3:0:0:
305,198,287882,2,0,L|347:181,1,34.3125013089181,0|0,1:0|1:0,0:0:0:0:
352,174,288046,2,0,L|384:142,1,34.3125013089181,8|0,1:2|0:0,0:0:0:0:
452,323,288210,6,0,B|417:317|395:277|414:238|452:232|452:232|506:231|545:177|513:116|459:104|424:128|424:128|380:157|315:112|328:41|380:18|419:34,1,549.000020942689,2|2,1:1|1:3,1:0:0:0:
424,124,288620,5,0,1:0:0:0:
432,108,288702,2,0,P|518:130|382:207,1,343.125013089181,0|0,1:2|0:0,1:0:0:0:
329,152,289029,6,0,L|287:162,3,34.3125013089181,0|2|2|2,1:0|1:3|1:3|1:3,0:0:0:0:
400,238,289357,6,2,B|475:292|442:429|295:431|244:339|283:265|283:265|327:179|222:67|81:157|112:278|189:304,1,732,8|0,1:2|0:0,1:0:0:0:
161,307,289767,1,0,0:0:0:0:
152,318,289849,6,0,L|177:44,1,183,4|0,1:0|0:0,0:0:0:0:
65,285,290177,2,0,B|14:294|14:294|5:237|5:237|61:228|61:228|68:270,1,183,8|0,1:2|0:0,0:0:0:0:
22,44,290505,5,0,1:0:0:0:
29,53,290587,1,0,1:0:0:0:
35,61,290669,2,0,B|-16:70|-16:70|-25:13|-25:13|31:4|31:4|38:46,1,183,8|0,1:2|0:0,0:0:0:0:
105,129,290833,6,0,B|148:109|148:109|264:153|264:153|138:164|138:164|105:129,1,343.125,2|0,1:1|0:0,1:0:0:0:
293,274,291161,6,0,B|240:250|240:250|208:36|208:36|144:10,1,343.125,2|0,1:3|0:0,0:0:0:0:
318,39,291488,2,0,L|311:78,1,34.3125013089181,0|2,1:0|1:3,0:0:0:0:
311,96,291652,2,0,L|318:135,1,34.3125013089181,4|0,1:3|0:0,0:0:0:0:
385,202,291816,6,0,P|463:220|454:113,1,183,12|0,1:2|0:0,0:0:0:0:
256,367,292062,2,0,P|267:284|349:294,1,183,12|0,1:2|0:0,0:0:0:0:
349,294,292308,1,12,1:2:0:0:
154,175,292472,6,0,B|166:220|166:220|255:248|255:248|245:201|245:201|163:173,1,274.5,4|0,1:0|0:0,0:0:0:0:
72,384,292800,2,0,B|109:390|144:356|139:311|109:291|109:291|77:331|15:325|-16:277|-10:231|17:204,1,343.125,8|2,1:2|0:3,0:0:0:0:
99,120,293128,5,0,1:0:0:0:
108,115,293210,2,0,B|131:98|131:98|99:265,2,183,0|8|0,1:0|1:2|0:0,0:0:0:0:
4,38,293702,5,0,0:0:0:0:
6,50,293784,2,0,L|12:92,1,34.3125013089181,0|0,1:0|1:0,0:0:0:0:
20,161,293947,5,8,1:2:0:0:
39,170,294111,5,2,0:3:0:0:
24,255,294275,6,0,P|146:245|159:58,1,308.812511780262,0|0,3:0|3:0,0:0:0:0:
49,127,294603,6,0,B|45:133|44:141|44:141|46:142|46:142|44:142|44:142|43:149|44:156|44:156|42:158|42:158|45:158|45:158|47:164|52:169|52:169|54:168|54:168|53:170|53:170|58:175|65:178|65:178|65:181|65:181|66:178|66:178|73:181|79:180|79:180|80:177|80:177|81:180|81:180|88:179|94:175|94:175|96:177|96:177|95:174|95:174|101:170|105:164|105:164|103:163|103:163|106:163|106:163|109:157|110:150|110:150|112:150|112:150|110:148|110:148|110:142|108:135|108:135|105:135|105:135|107:133|107:133|105:127|99:122|99:122|101:119|101:119|99:121|99:121|93:116|86:114|86:114|85:117|85:117|85:114|85:114|78:112|71:113|71:113|70:111|70:111|70:114|70:114|65:115|60:117|60:117|61:116|62:115|62:115|61:113|61:113|63:113|63:113|67:108|69:101|69:101|71:101|71:101|69:100|69:100|70:93|69:86|69:86|66:85|66:85|68:84|68:84|66:78|62:72|62:72|64:70|64:70|60:71|60:71|56:65|50:63|50:63|48:65|48:65|48:63|48:63|42:60|35:60|35:60|34:57|34:57|33:60|33:60|26:61|20:64|20:64|21:67|21:67|19:65|19:65|13:69|9:75|9:75|6:74|6:74|8:76|8:76|4:82|3:88|3:88|6:89|6:89|2:90|2:90|2:98|4:104|4:104|2:105|2:105|5:105|5:105|7:112|12:117|12:117|14:115|14:115|13:119|13:119|18:123|25:125|25:125|25:128|25:128|26:125|26:125|33:128|40:127|40:127|40:124|40:124|42:127|42:127|45:126|48:125,1,457.5,4|0,1:2|0:0,1:0:0:0:
131,17,295095,6,0,B|112:-14|112:-14|76:320,1,366,4|8,1:0|1:2,0:0:0:0:
12,371,295505,1,0,0:0:0:0:
454,167,295751,5,0,1:0:0:0:
454,167,295833,1,0,1:0:0:0:
454,167,295915,2,0,B|416:139|424:87|424:87|416:139|371:157,1,183,8|0,1:2|0:0,0:0:0:0:
416,262,296243,2,0,B|370:245|362:193|362:193|370:245|332:273,1,183,2|2,2:0|0:0,0:0:0:0:
199,332,296406,6,2,B|189:394|95:416|46:329|88:268|140:264|140:264|204:261|235:169|155:112|89:146|80:198|80:198|48:254|-48:242|-63:144|-3:100|46:115|46:115|-17:105|-40:11|45:-39|115:2|118:59,1,1024.79996872559,2|4,0:0|0:2,0:0:0:0:
34,47,308210,6,0,L|305:93,1,274.5,4|2,1:3|0:0,0:0:0:0:
305,93,308538,6,0,L|325:182,1,91.5,10|2,0:0|0:0,0:0:0:0:
391,82,308702,1,2,0:0:0:0:
393,95,308783,1,0,0:0:0:0:
396,108,308865,2,0,L|405:152,1,45.75,2|2,0:0|0:0,0:0:0:0:
375,333,309029,6,0,L|394:243,1,91.5,10|2,0:0|0:0,0:0:0:0:
461,345,309193,1,2,0:0:0:0:
463,332,309274,1,0,0:0:0:0:
466,319,309357,2,0,L|478:264,1,45.75,2|2,0:0|0:0,0:0:0:0:
289,355,309521,6,0,B|273:312|273:312|128:289|128:289|97:325,1,240.187502290606,10|0,0:0|0:0,0:0:0:0:
160,369,309849,6,0,B|188:335|188:335|177:265,1,114.375,2|2,0:0|0:0,0:0:0:0:
88,220,310013,5,2,0:0:0:0:
72,217,310095,1,2,0:0:0:0:
177,265,310177,6,0,B|160:151,1,114.375,2|0,3:0|0:0,0:0:0:0:
41,35,310341,6,0,B|15:13|15:13|46:111,1,137.25,2|0,0:0|0:0,0:0:0:0:
46,111,310505,2,0,L|68:116,2,22.875,10|2|2,3:0|0:0|0:0,0:0:0:0:
54,125,310669,2,0,L|142:147,1,91.5,2|0,0:0|0:0,0:0:0:0:
436,0,310833,6,0,B|394:130,1,137.250005235672,4|0,1:3|0:0,0:0:0:0:
394,130,311161,6,0,L|304:149,1,91.5,10|2,0:0|0:0,0:0:0:0:
259,70,311325,1,2,0:0:0:0:
272,67,311406,1,0,0:0:0:0:
285,64,311488,2,0,L|329:54,1,45.75,2|2,0:0|0:0,0:0:0:0:
275,236,311652,6,0,L|304:149,1,91.5,10|2,0:0|0:0,0:0:0:0:
205,167,311816,1,2,0:0:0:0:
201,180,311897,1,0,0:0:0:0:
197,192,311980,2,0,L|184:235,1,45.75,2|2,0:0|0:0,0:0:0:0:
355,360,312144,6,0,B|453:388|453:388|519:292|519:292|466:308,1,274.5,10|0,0:0|0:0,0:0:0:0:
355,360,312472,6,0,B|327:345|327:345|317:262,1,114.375,2|2,0:0|0:0,0:0:0:0:
400,230,312636,5,2,0:0:0:0:
421,235,312718,1,2,0:0:0:0:
317,262,312800,6,0,B|303:148,1,114.375,2|0,3:0|0:0,0:0:0:0:
464,0,312964,6,0,B|502:22|502:22|483:114,1,137.25,2|0,0:0|0:0,0:0:0:0:
483,113,313128,2,0,L|460:115,2,22.875,10|2|2,3:0|0:0|0:0,0:0:0:0:
481,125,313292,2,0,B|390:136,1,91.5,2|0,0:0|0:0,0:0:0:0:
59,73,313456,6,0,B|43:30|70:0|70:0|64:-6|64:-6|160:21|149:120|149:120|155:124|155:124|113:133|94:172,1,343.125,4|2,1:3|0:0,0:0:0:0:
159,218,313784,6,0,P|191:220|161:206,1,91.5,10|2,0:0|0:0,0:0:0:0:
40,277,313947,1,2,0:0:0:0:
61,281,314029,1,0,0:0:0:0:
80,288,314111,2,0,P|100:298|119:310,1,45.75,2|2,0:0|0:0,0:0:0:0:
159,218,314275,6,0,P|191:220|161:206,1,91.5,10|2,0:0|0:0,0:0:0:0:
179,367,314439,1,2,0:0:0:0:
200,363,314521,1,0,0:0:0:0:
219,356,314603,2,0,P|239:345|258:333,1,45.75,2|2,0:0|0:0,0:0:0:0:
431,49,314767,6,0,B|489:35|535:95|516:181|422:189|389:135|389:135|335:132|301:190|326:246,1,411.750015707017,10|0,0:0|0:0,0:0:0:0:
423,195,315095,6,0,B|451:219|451:219|397:208,1,91.5,2|2,0:0|0:0,0:0:0:0:
310,128,315259,1,2,0:0:0:0:
307,109,315341,1,2,0:0:0:0:
304,90,315423,2,0,L|296:27,1,45.75,2|0,3:0|0:0,0:0:0:0:
213,188,315587,6,0,B|185:164|185:164|238:174,1,91.5,2|0,0:0|0:0,0:0:0:0:
390,100,315751,1,10,3:0:0:0:
387,81,315833,1,2,0:0:0:0:
384,62,315915,2,0,L|376:-1,1,45.75,2|0,0:0|0:0,0:0:0:0:
357,276,316079,6,0,P|427:386|440:256,1,343.125,2|0,1:3|0:0,0:0:0:0:
238,174,316406,2,0,P|308:63|321:193,1,343.125,2|0,1:3|0:0,0:0:0:0:
119,276,316734,2,0,P|189:386|202:256,1,343.125,2|0,1:3|0:0,0:0:0:0:
0,174,317062,2,0,P|70:63|83:193,1,343.125,2|0,1:3|0:0,0:0:0:0:
27,251,317390,5,2,1:3:0:0:
0,337,318702,6,0,B|8:373|8:373|10:352|10:352|17:384,6,91.5,0|2|2|2|2|2|2,1:0|0:2|0:2|0:2|0:2|0:2|0:2,0:0:0:0:
27,251,319111,2,0,P|77:280|164:283,1,137.250005235672,4|0,0:1|0:0,0:0:0:0:
511,230,319357,6,0,B|500:241|500:241|513:216|513:216|491:255|491:255|497:219|497:219|479:266|479:266|481:219|481:219|465:274|465:274|465:217|465:217|450:278|450:278|450:209|450:209|432:278|432:278|437:198|437:198|416:274|416:274|428:186|428:186|402:266|402:266|421:171|421:171|390:255|390:255|419:155|419:155|381:242|381:242|386:219|386:219|317:287|317:287|344:262|344:262|228:297|228:297|264:290|264:290|151:252|151:252|184:269|184:269|116:170|116:170|132:202|132:202|134:81|134:81|128:117|128:117|200:21|200:21|174:48|174:48|289:12|289:12|253:18|253:18|367:57|367:57|335:40|335:40|383:96,1,2573.43756135553,4|0,0:1|0:0,0:1:0:0:
247,194,320751,1,2,0:0:0:0:
235,115,320915,1,2,0:0:0:0:
309,144,321079,1,2,0:0:0:0:
309,144,321324,6,0,B|301:114|301:114|263:191|316:264,1,183.000006980896,2|0,1:0|0:0,0:0:0:0:
454,369,321652,2,0,B|483:313|446:254|446:254|378:287|378:348,1,244,2|0,0:3|0:0,0:0:0:0:
205,368,321980,6,0,P|194:277|170:188,1,183,8|0,0:3|0:0,0:0:0:0:
170,188,322199,2,0,P|168:203|163:217,1,30.5
45,218,322308,6,0,P|91:297|124:383,1,183,8|0,0:1|0:0,0:0:0:0:
124,383,322527,2,0,P|125:367|122:352,1,30.5
226,92,322636,6,0,B|255:56|312:57|312:57|249:119|285:187|285:187|268:98|159:69|66:122,1,457.5,4|2,0:3|1:0,0:0:0:0:
112,102,323182,2,0,P|105:118|104:138,1,30.5
39,227,323292,6,0,P|92:301|133:383,1,183,8|0,0:3|0:0,0:0:0:0:
132,383,323510,2,0,P|132:368|128:353,1,30.5
211,361,323620,6,0,P|193:272|161:186,1,183,8|0,0:1|0:0,0:0:0:0:
161,185,323838,2,0,P|161:200|157:215,1,30.5
0,337,323947,6,0,B|8:373|8:373|10:352|10:352|17:384,6,91.5,0|2|2|2|2|2|2,1:0|0:2|0:2|0:2|0:2|0:2|0:2,0:0:0:0:
232,253,324357,2,0,P|299:249|348:293,1,137.250005235672,4|0,0:1|0:0,0:0:0:0:
76,0,324603,6,0,B|87:11|87:11|62:-2|62:-2|101:20|101:20|65:14|65:14|112:32|112:32|65:30|65:30|120:46|120:46|63:46|63:46|124:61|124:61|55:61|55:61|124:79|124:79|44:74|44:74|120:95|120:95|32:83|32:83|112:109|112:109|17:90|17:90|101:121|101:121|1:92|1:92|88:130|88:130|62:125|62:125|4:196|4:196|-15:175|-15:175|96:221|96:221|70:235|70:235|135:339|135:339|101:309|101:309|206:238|206:238|187:268|187:268|223:119|223:119|197:154|197:154|330:97|330:97|290:92|290:92|436:219|436:219|420:182|420:182|327:151,1,2573.43756135553,4|0,0:1|0:0,0:0:0:0:
144,44,325997,1,2,0:0:0:0:
264,169,326161,1,2,0:0:0:0:
416,89,326324,1,2,0:0:0:0:
416,89,326570,6,0,B|421:124|459:151|436:130|493:144|522:178|510:239,1,183.000006980896,2|0,1:0|0:0,0:0:0:0:
489,70,326898,2,0,B|502:47|524:46|524:46|437:127|436:218,1,244,2|0,0:3|0:0,0:0:0:0:
444,377,327226,6,0,P|362:336|272:322,1,183,8|0,0:3|0:0,0:0:0:0:
272,322,327445,2,0,P|283:332|306:340,1,30.5
444,377,327554,6,0,B|481:336|453:279|453:279|458:293|458:293|415:340|337:284|347:269|356:216|321:202|321:202|311:181|311:181|344:235|311:285,1,411.750015707017,8|4,0:1|0:3,0:0:0:0:
183,295,327964,2,0,B|135:392|-39:409|-28:281|99:245|177:275,1,377.437503599525,0|2,0:0|1:0,0:0:0:0:
397,211,328538,6,0,B|373:152|373:152|378:138|378:138|517:102|517:102|451:244|451:244|422:233,1,411.750015707017,8|2,0:3|0:0,0:0:0:0:
314,342,328865,2,0,P|298:333|277:333,1,34.3125013089181,8|0,0:1|0:0,0:0:0:0:
281,332,328947,2,0,P|272:347|272:368,1,34.3125013089181,2|0,0:3|0:0,0:0:0:0:
271,363,329029,2,0,P|286:371|307:371,1,34.3125013089181,2|0,0:3|0:0,0:0:0:0:
303,372,329111,2,0,P|311:356|311:335,1,34.3125013089181,2|0,0:3|0:0,0:0:0:0:
297,223,329193,6,0,B|289:187|289:187|287:208|287:208|280:176,6,91.5,0|2|2|2|2|2|2,1:0|0:2|0:2|0:2|0:2|0:2|0:2,0:0:0:0:
184,322,329603,2,0,P|119:328|39:369,1,137.250005235672,4|0,0:1|0:0,0:0:0:0:
28,61,329849,6,0,B|48:44|48:44|35:83|35:83|69:29|69:29|49:106|49:106|93:20|93:20|69:122|69:122|122:15|122:15|91:137|91:137|145:21|145:21|113:141|113:141|166:34|166:34|142:136|142:136|185:51|185:51|165:127|165:127|198:72|198:72|191:102|191:102|246:165|246:165|236:163|236:163|326:262|326:262|276:246|276:246|376:210|376:210|372:217|372:217|468:183|468:183|438:228|438:228|443:122|443:122|435:127|435:127|438:23|438:23|472:64|472:64|366:35|366:35|379:32|379:32|278:4|278:4|328:-14|328:-14|264:63,1,2573.43756135553,4|0,0:1|0:0,0:1:0:0:
64,254,331243,1,2,0:0:0:0:
102,100,331407,1,2,0:0:0:0:
256,138,331570,1,2,0:0:0:0:
256,138,331816,6,0,B|241:183|278:237|300:236|310:139|252:114,1,183.000006980896,2|0,1:0|0:0,0:0:0:0:
397,196,332144,2,0,B|347:169|275:169|302:318|270:170|209:201|175:244,1,244,2|0,0:3|0:0,0:0:0:0:
134,25,332472,6,0,P|121:116|96:203,1,183,8|0,0:3|0:0,0:0:0:0:
95,203,332691,2,0,P|105:192|113:176,1,30.5
7,2,332800,6,0,P|18:93|15:185,1,183,8|0,0:1|0:0,0:0:0:0:
15,184,333019,2,0,P|23:170|27:152,1,30.5
306,77,333128,6,0,B|323:105|321:127|321:127|268:26|177:-5|102:12|102:12|185:-3|243:53,1,457.5,4|2,0:3|1:0,0:0:0:0:
230,43,333674,2,0,P|228:26|218:14,1,30.5
16,0,333784,6,0,P|20:89|8:180,1,183,8|0,0:3|0:0,0:0:0:0:
8,180,334002,2,0,P|18:167|23:149,1,30.5
141,32,334111,6,0,P|120:121|87:206,1,183,8|0,0:1|0:0,0:0:0:0:
86,205,334330,2,0,P|98:195|106:180,1,30.5
297,223,334439,6,0,B|289:187|289:187|287:208|287:208|280:176,6,91.5,0|2|2|2|2|2|2,1:0|0:2|0:2|0:2|0:2|0:2|0:2,0:0:0:0:
471,281,334849,2,0,P|406:290|347:345,1,137.250005235672,4|0,0:1|0:0,0:0:0:0:
190,195,335095,6,0,B|122:208|122:208|122:208|122:208|47:233|47:233|84:226|84:226|13:251|13:251|13:251|13:251|-12:275|-12:275|16:263|16:263|-8:288|-8:288|31:296|31:296|36:288|36:288|70:300|70:300|156:294|156:294|139:290|139:290|217:286|217:286|217:286|217:286|318:266|318:266|285:268|285:268|379:251|379:251|379:251|379:251|456:224|456:224|418:231|418:231|491:206|491:206|517:181|517:181|484:194|484:194|513:170|513:170|471:161|471:161|463:169|463:169|432:158|432:158|432:158|432:158|346:163|346:163|362:168|362:168|285:171|285:171|256:159|256:159|263:174|263:174|229:151|229:151|229:151|229:151|186:153|186:153|200:161|200:161|159:161|159:161|159:161|159:161|125:188|125:188|142:187|142:187|109:211|109:211|97:253|97:253|110:242|110:242|97:281|97:281|112:322|112:322|116:305|116:305|129:345|129:345|129:345|129:345|166:369|166:369|159:353|159:353|193:377|193:377|193:377|193:377|236:375|236:375|222:367|222:367|263:366|263:366|298:339|298:339|280:340|280:340|313:317|313:317|324:274|324:274|312:286|312:286|324:246|324:246|324:246|324:246|310:205|310:205|306:222|306:222|277:153|277:153|229:119,1,2504.81246416837,4|0,0:1|0:0,0:0:0:0:
222,58,336488,1,2,0:0:0:0:
281,326,336652,1,2,0:0:0:0:
483,139,336816,1,2,0:0:0:0:
483,139,337062,6,0,B|502:97|492:41|446:-13|414:11|466:78,1,183.000006980896,2|0,1:0|0:0,0:0:0:0:
512,218,337390,2,0,B|517:291|517:291|368:245|368:245|415:186,1,305,2|0,0:3|0:0,0:0:0:0:
512,7,337718,1,8,0:3:0:0:
263,86,337827,6,0,B|175:103|122:10|152:-44|194:-62|283:16|261:48|256:100|193:135|212:104|170:133|157:180|182:236|182:236|199:198|259:196,1,495.625014179945
254,273,338155,2,0,P|304:278|332:235,1,106.750001018047
143,65,338374,5,4,0:3:0:0:
143,65,338702,2,0,P|107:46|68:38,1,80.0625007635355,2|2,1:0|2:0,0:0:0:0:
14,96,338865,1,2,2:3:0:0:
31,117,338946,1,2,2:0:0:0:
60,116,339028,1,2,0:0:0:0:
183,234,339193,2,0,P|147:215|108:207,1,80.0625007635355,8|2,0:1|0:0,0:0:0:0:
54,265,339357,1,2,0:0:0:0:
71,286,339439,1,2,0:0:0:0:
100,285,339521,1,2,0:3:0:0:
426,384,339685,6,0,B|424:371|420:358|420:358|424:355|424:355|419:355|419:355|415:343|409:333|409:333|404:334|404:334|407:330|407:330|401:319|393:309|393:309|396:305|396:305|391:307|391:307|383:297|374:289|374:289|370:292|370:292|372:287|372:287|362:279|352:272|352:272|353:267|353:267|349:271|349:271|338:264|326:260|326:260|323:264|323:264|324:259|324:259|312:255|300:252|300:252|299:247|299:247|297:252|297:252|284:249|272:249|272:249|270:254|270:254|269:249|269:249|256:249|244:251|244:251|242:246|242:246|241:251|241:251|239:252|238:252|238:252|246:260|251:270|251:270|256:269|256:269|253:272|253:272|259:284|260:296|260:296|255:298|255:298|261:299|261:299|261:312|256:323|256:323|260:327|260:327|255:326|255:326|249:337|238:344|238:344|235:341|235:341|236:346|236:346|224:352|212:351|212:351|210:356|210:356|209:351|209:351|197:350|188:343,1,480.375004581213,4|0,1:0|0:0,0:0:0:0:
512,254,340013,6,0,B|498:257|486:260|486:260|485:263|485:263|483:261|483:261|470:264|458:266|458:266|456:264|456:264|456:267|456:267|442:270|431:273|431:273|430:276|430:276|428:273|428:273|415:277|404:279|404:279|402:277|402:277|401:280|401:280|388:283|377:286|377:286|376:289|376:289|374:287|374:287|361:290|350:292|350:292|347:290|347:290|347:293|347:293|334:296|322:299|322:299|322:302|322:302|320:300|320:300|306:303|295:306|295:306|293:304|293:304|292:307|292:307|279:310|268:313|268:313|267:316|267:316|265:314|265:314|252:317|241:320|241:320|239:317|239:317|238:321|238:321|225:324|214:327|214:327|213:330|213:330|211:328|211:328|198:331|187:334|187:334|185:332|185:332|184:335|184:335|171:339|160:342|160:342|159:345|159:345|157:342|157:342|144:346|133:349|133:349|131:346|131:346|130:350|130:350|117:353|106:356|106:356|105:360|105:360|103:357|103:357|90:361|79:364|79:364|77:361|77:361|76:365|76:365|63:368|52:371|52:371|51:375|51:375|49:372|49:372|43:373|46:373,1,540.765001237713,2|0,3:2|0:0,0:0:0:0:
51,278,340341,6,0,B|76:263|76:263|35:257|35:257|85:242|85:242|32:232|32:232|97:216|97:216|29:206|29:206|95:190|95:190|41:183|41:183|86:170|86:170|57:166|57:166|77:144,1,540.765001237713,2|0,2:0|0:0,0:0:0:0:
76,144,340669,2,0,L|82:104,4,36.6,2|2|2|2|2,3:2|3:2|3:2|3:2|3:2,0:0:0:0:
96,31,340997,6,0,B|97:-1|93:21|81:-12|112:-20|120:3|97:27,1,73.2,6|0,1:3|0:0,0:0:0:0:
155,134,341128,2,0,B|182:150|165:136|199:142|191:173|167:168|157:136,1,73.2,2|0,3:2|0:0,0:0:0:0:
9,105,341259,2,0,B|-19:120|1:112|-20:139|-43:116|-27:98|5:106,1,73.2,2|0,3:2|0:0,0:0:0:0:
83,198,341390,2,0,B|113:159|168:131|197:264|172:130|237:130|282:154,1,219.6,2|0,3:2|0:0,0:0:0:0:
409,122,341653,6,0,B|408:90|412:112|424:79|393:71|385:94|408:118,1,73.2,10|0,1:3|0:0,0:0:0:0:
350,224,341784,2,0,B|323:240|340:226|306:232|314:263|338:258|348:226,1,73.2,2|0,3:2|0:0,0:0:0:0:
496,195,341915,2,0,B|524:210|504:202|525:229|548:206|532:188|500:196,1,73.2,2|0,3:2|0:0,0:0:0:0:
422,288,342046,2,0,B|391:249|336:221|307:354|332:220|267:220|222:244,1,219.6,2|0,3:2|0:0,0:0:0:0:
95,214,342308,6,0,B|96:182|92:204|80:171|111:163|119:186|96:210,1,73.2,2|0,1:2|0:0,0:0:0:0:
154,316,342439,2,0,B|181:332|164:318|198:324|190:355|166:350|156:318,1,73.2,2|0,3:2|0:0,0:0:0:0:
8,287,342570,2,0,B|-20:302|0:294|-21:321|-44:298|-28:280|4:288,1,73.2,2|0,3:2|0:0,0:0:0:0:
82,380,342701,2,0,B|112:341|167:313|196:446|171:312|236:312|281:336,1,219.6,2|0,3:2|0:0,0:0:0:0:
433,158,342964,6,0,B|434:126|430:148|418:115|449:107|457:130|434:154,1,73.2,10|0,1:3|0:0,0:0:0:0:
492,260,343095,2,0,B|519:276|502:262|536:268|528:299|504:294|494:262,1,73.2,2|0,3:2|0:0,0:0:0:0:
346,231,343226,2,0,B|318:246|338:238|317:265|294:242|310:224|342:232,1,73.2,2|0,3:2|0:0,0:0:0:0:
367,327,343357,2,0,B|349:179|370:291|345:99,1,219.6,2|0,3:2|0:0,0:0:0:0:
206,24,343620,6,0,B|244:-13|290:58|199:71|101:19|28:115|89:214|196:229|252:112,1,411.750015707017,6|0,0:3|0:0,0:0:0:0:
119,254,343947,2,0,P|151:271|121:338,1,102.937503926754,0|0,3:2|3:2,0:0:0:0:
0,145,344275,6,0,B|75:153|153:88|153:88|132:152|70:182,1,274.5,10|0,1:3|0:0,0:0:0:0:
226,367,344603,2,0,B|163:418|66:358|108:323|58:258|0:274,1,274.5,2|2,0:2|0:0,0:0:0:0:
33,206,344931,6,0,B|90:170|90:170|59:375,1,274.5,8|0,1:1|0:0,0:0:0:0:
159,266,345259,2,0,L|211:254,1,45.75,2|0,0:3|0:0,0:0:0:0:
363,138,345505,2,0,L|414:153,1,45.75,0|0,3:0|0:0,0:0:0:0:
488,170,345587,6,0,B|504:185|512:203|512:203|519:201|519:201|513:206|513:206|521:225|521:243|521:243|513:245|513:245|521:246|521:246|521:267|515:284|515:284|521:288|521:288|513:288|513:288|504:306|492:318|492:318|485:315|485:315|489:321|489:321|474:336|458:342|458:342|458:350|458:350|453:344|453:344|434:350|417:350|417:350|414:342|414:342|413:350|413:350|392:348|377:341|377:341|371:347|371:347|372:339|372:339|354:330|341:317|341:317|345:309|345:309|338:312|338:312|326:297|320:281|320:281|312:281|312:281|318:276|318:276|312:257|314:239|314:239|323:237|323:237|315:234|315:234|315:225|318:219,1,549,8|0,3:0|0:0,0:0:0:0:
316,223,345915,2,0,L|374:211,4,36.6,2|2|2|2|2,3:2|3:2|3:2|3:2|3:2,0:0:0:0:
367,58,346243,6,0,B|368:26|364:48|352:15|383:7|391:30|368:54,1,73.2,4|0,1:3|0:0,0:0:0:0:
288,73,346374,2,0,B|289:41|285:63|273:30|304:22|312:45|289:69,1,73.2,2|0,3:2|0:0,0:0:0:0:
211,90,346505,2,0,B|212:58|208:80|196:47|227:39|235:62|212:86,1,73.2,2|0,3:2|0:0,0:0:0:0:
128,138,346636,2,0,B|93:49|-8:50|-46:111|-3:169|62:143,1,219.6,2|0,3:2|0:0,0:0:0:0:
64,154,346898,6,0,B|63:122|67:144|79:111|48:103|40:126|63:150,1,73.2,10|0,1:3|0:0,0:0:0:0:
143,169,347029,2,0,B|142:137|146:159|158:126|127:118|119:141|142:165,1,73.2,2|0,3:2|0:0,0:0:0:0:
220,186,347160,2,0,B|219:154|223:176|235:143|204:135|196:158|219:182,1,73.2,2|0,3:2|0:0,0:0:0:0:
303,234,347291,2,0,B|338:145|439:146|477:207|434:265|369:239,1,219.6,2|0,3:2|0:0,0:0:0:0:
370,260,347554,6,0,B|371:228|367:250|355:217|386:209|394:232|371:256,2,73.2,2|0|2,1:2|0:0|3:2,0:0:0:0:
412,331,347816,1,2,3:2:0:0:
406,340,347882,2,0,B|330:350|224:372|224:372|206:309|170:260,1,292.8
64,171,348210,6,0,B|63:139|67:161|79:128|48:120|40:143|63:167,1,73.2,10|0,1:3|0:0,0:0:0:0:
5,273,348341,2,0,B|-22:289|-5:275|-39:281|-31:312|-7:307|3:275,1,73.2,2|0,3:2|0:0,0:0:0:0:
151,244,348472,2,0,B|179:259|159:251|180:278|203:255|187:237|155:245,1,73.2,2|0,3:2|0:0,0:0:0:0:
130,340,348603,2,0,B|148:192|127:304|152:112,1,219.6,2|0,3:2|0:0,0:0:0:0:
306,89,348865,6,0,B|273:-14|337:61|274:-102|187:-66|165:56|236:138|280:78|317:155|302:244,1,366,6|0,1:3|3:2,0:0:0:0:
273,320,349439,1,0,3:2:0:0:
273,320,349521,6,0,P|355:205|467:123,1,274.5,10|0,1:3|0:0,0:0:0:0:
390,294,349849,6,0,B|400:286|407:281|407:281|406:276|406:276|410:279|410:279|418:274|427:268|427:268|430:272|430:272|429:267|429:267|438:262|447:257|447:257|446:252|446:252|449:256|449:256|460:251|468:247|468:247|472:251|472:251|471:246|471:246|482:242|490:239|490:239|489:234|489:234|492:238|492:238|503:234|514:232,1,178.424991832352,2|2,0:2|0:0,0:0:0:0:
455,355,350177,6,0,P|476:360|519:377,2,59.4749972774507,8|2|2,1:1|0:3|0:3,0:0:0:0:
444,360,350505,1,2,0:2:0:0:
433,364,350669,1,2,0:2:0:0:
319,350,350833,6,0,L|359:361,1,29.7374986387253,2|0,0:3|0:0,0:0:0:0:
240,263,351161,2,0,L|269:292,1,29.7374986387253,2|0,0:2|0:0,0:0:0:0:
199,127,351324,6,0,L|179:202,1,59.4749972774507,2|2,3:2|3:2,0:0:0:0:
447,174,351488,6,0,P|471:213|506:206,1,73.2,4|0,1:3|0:0,0:0:0:0:
417,95,351620,2,0,P|371:96|360:130,1,73.2,2|0,3:2|0:0,0:0:0:0:
502,109,351751,2,0,P|524:69|500:42,1,73.2,2|0,3:2|0:0,0:0:0:0:
325,30,351882,6,0,B|293:30|271:64|288:100|317:106|317:106|348:113|364:150|340:181|310:182,1,219.6,2|0,3:2|0:0,0:0:0:0:
60,300,352144,6,0,P|21:324|28:359,1,73.2,10|0,1:3|0:0,0:0:0:0:
139,270,352276,2,0,P|138:224|104:213,1,73.2,2|0,3:2|0:0,0:0:0:0:
125,355,352407,2,0,P|165:377|192:353,1,73.2,2|0,3:2|0:0,0:0:0:0:
204,178,352538,6,0,B|203:146|169:124|133:141|127:170|127:170|120:201|83:217|52:193|51:163,1,219.6,2|0,3:2|0:0,0:0:0:0:
338,86,352800,6,0,P|299:62|306:27,1,73.2,2|0,1:2|0:0,0:0:0:0:
417,116,352930,2,0,P|416:162|382:173,1,73.2,2|0,3:2|0:0,0:0:0:0:
403,31,353063,2,0,P|443:9|470:33,1,73.2,2|0,3:2|0:0,0:0:0:0:
512,162,353194,6,0,B|489:149|453:164|448:204|471:225|471:225|493:245|490:284|454:303|426:288,1,219.6,2|0,3:2|0:0,0:0:0:0:
246,276,353456,6,0,P|207:252|214:217,1,73.2,10|0,1:3|0:0,0:0:0:0:
323,303,353586,2,0,P|322:349|288:360,1,73.2,2|0,3:2|0:0,0:0:0:0:
311,221,353717,2,0,P|351:199|378:223,1,73.2,2|0,3:2|0:0,0:0:0:0:
408,384,353849,6,0,B|227:352|379:387|190:353,1,219.6,2|0,3:2|0:0,0:0:0:0:
134,111,354111,6,0,B|89:18|169:82|121:-62|185:-62|311:113|122:122|119:114,1,274.5,6|0,0:3|0:0,0:0:0:0:
0,74,354439,2,0,P|108:113|143:275,1,274.5,0|0,3:2|3:2,0:0:0:0:
82,384,354767,6,0,B|82:371|86:359|86:359|82:357|82:357|87:357|87:357|90:346|94:335|94:335|100:336|100:336|96:333|96:333|101:322|109:313|109:313|107:309|107:309|111:311|111:311|119:302|128:296|128:296|132:299|132:299|131:295|131:295|141:288|151:284|151:284|151:280|151:280|154:283|154:283|165:280|176:278|176:278|179:282|179:282|179:277|179:277|191:275|202:275|202:275|204:271|204:271|205:274|205:274|217:274|228:275|228:275|229:280|229:280|231:275|231:275|243:275|255:277|255:277|255:282|255:282|252:278|252:278|241:282|232:286|232:286|228:283|228:283|229:287|229:287|218:293|209:299|209:299|211:304|211:304|207:301|207:301|197:308|191:318|191:318|186:316|186:316|189:320|189:320|182:330|180:341|180:341|183:343|183:343|179:344,1,411.750015707017,10|0,1:3|0:0,0:0:0:0:
200,145,355095,6,0,B|345:170|244:177|413:207|413:207|374:200|362:176,1,274.5,2|2,0:2|0:0,0:0:0:0:
512,47,355423,6,0,B|501:38|488:35|488:35|486:39|486:39|485:34|485:34|473:32|462:35|462:35|459:31|459:31|459:36|459:36|446:40|438:47|438:47|441:52|441:52|436:49|436:49|427:59|423:70|423:70|418:70|418:70|422:73|422:73|418:84|420:97|420:97|425:98|425:98|420:100|420:100|423:114|430:122|430:122|427:126|427:126|432:124|432:124|437:130|443:135,1,205.875007853508,8|0,1:1|0:0,0:0:0:0:
464,294,355751,6,0,L|404:312,1,45.75,2|0,0:3|0:0,0:0:0:0:
199,351,355997,6,0,L|139:332,1,45.75,0|0,3:0|0:0,0:0:0:0:
78,305,356079,6,0,B|62:290|54:272|54:272|47:274|47:274|53:269|53:269|45:250|45:232|45:232|53:230|53:230|45:229|45:229|45:208|51:191|51:191|45:187|45:187|53:187|53:187|62:169|74:157|74:157|81:160|81:160|77:154|77:154|92:139|108:133|108:133|108:125|108:125|113:131|113:131|132:125|149:125|149:125|152:133|152:133|153:125|153:125|174:127|189:134|189:134|195:128|195:128|194:136|194:136|212:145|225:158|225:158|221:166|221:166|228:163|228:163|240:178|246:194|246:194|254:194|254:194|248:199|248:199|254:218|252:236|252:236|243:238|243:238|251:241|251:241|251:250|248:256,1,549,8|0,3:0|0:0,0:0:0:0:
250,252,356407,2,0,L|192:264,4,36.6,2|2|2|2|2,3:2|3:2|3:2|3:2|3:2,0:0:0:0:
353,59,356734,6,0,B|361:36|388:43|388:43|364:47|351:61,1,73.2,6|0,1:3|0:0,0:0:0:0:
368,146,356865,2,0,B|383:164|364:184|364:184|372:161|367:143,1,73.2,2|0,3:2|0:0,0:0:0:0:
288,119,356997,2,0,B|264:123|256:96|256:96|272:115|290:119,1,73.2,2|0,3:2|0:0,0:0:0:0:
496,155,357128,6,0,P|368:219|336:347,1,219.6,2|0,3:2|0:0,0:0:0:0:
147,160,357390,6,0,B|139:137|112:144|112:144|136:148|149:162,1,73.2,10|0,1:3|0:0,0:0:0:0:
132,247,357521,2,0,B|116:265|135:285|135:285|127:262|132:244,1,73.2,2|0,3:2|0:0,0:0:0:0:
212,220,357653,2,0,B|235:224|243:197|243:197|227:216|209:220,1,73.2,2|0,3:2|0:0,0:0:0:0:
4,256,357784,6,0,P|132:320|164:448,1,219.6,2|0,3:2|0:0,0:0:0:0:
407,371,358046,6,0,B|399:394|372:387|372:387|396:383|409:369,1,73.2,2|0,1:2|0:0,0:0:0:0:
392,284,358176,2,0,B|376:265|395:245|395:245|387:268|392:286,1,73.2,2|0,3:2|0:0,0:0:0:0:
472,311,358307,2,0,B|495:306|503:333|503:333|487:314|469:310,1,73.2,2|0,3:2|0:0,0:0:0:0:
243,308,358439,6,0,B|387:224|301:292|440:212,1,219.6,2|0,3:2|0:0,0:0:0:0:
245,25,358702,6,0,B|253:2|280:9|280:9|256:13|243:27,1,73.2,10|0,1:3|0:0,0:0:0:0:
260,112,358832,2,0,B|275:130|256:150|256:150|264:127|259:109,1,73.2,2|0,3:2|0:0,0:0:0:0:
180,85,358963,2,0,B|156:89|148:62|148:62|164:81|182:85,1,73.2,2|0,3:2|0:0,0:0:0:0:
363,133,359095,6,0,B|224:213|309:145|165:228,1,219.6,2|0,3:2|0:0,0:0:0:0:
39,350,359357,6,0,B|42:336|45:324|45:324|41:321|41:321|46:321|46:321|49:308|51:296|51:296|57:296|57:296|52:294|52:294|55:281|57:269|57:269|52:266|52:266|57:266|57:266|59:254|58:241|58:241|63:239|63:239|58:238|58:238|58:226|60:213|60:213|56:210|56:210|61:210|61:210|64:198|66:185|66:185|72:186|72:186|67:182|67:182|70:171|73:159|73:159|69:155|69:155|74:156|74:156|76:145|79:134,1,274.5,6|0,0:3|0:0,0:0:0:0:
24,24,359685,6,0,B|-5:50|-10:81|-10:81|53:30|138:35|197:103,1,274.5,2|0,0:3|3:0,0:0:0:0:
290,197,360013,6,0,L|301:333,1,137.25,10|0,1:3|0:0,0:0:0:0:
304,348,360177,6,0,L|196:327,1,91.5,2|0,0:2|0:0,0:0:0:0:
472,208,360505,6,0,L|483:344,1,137.25,10|0,1:3|0:0,0:0:0:0:
486,359,360669,6,0,L|378:338,1,91.5,2|0,0:2|0:0,0:0:0:0:
379,261,360833,1,0,1:0:0:0:
59,183,360997,6,0,L|166:162,1,91.5,8|0,1:3|0:0,0:0:0:0:
167,84,361161,1,8,0:1:0:0:
189,264,361324,5,2,0:0:0:0:
193,286,361405,1,2,0:0:0:0:
196,306,361488,2,0,L|207:370,1,45.75,8|0,0:3|0:0,0:0:0:0:
321,123,361652,5,2,1:3:0:0:
317,145,361733,1,2,0:0:0:0:
314,165,361816,2,0,L|303:229,1,45.75,2|0,0:2|0:0,0:0:0:0:
58,182,361980,5,4,0:2:0:0:
58,182,362495,2,0,P|40:199|33:224,2,52.2857142857143,2|2|2,0:3|0:3|0:3,0:0:0:0:
118,108,362800,5,2,0:3:0:0:
118,108,362909,2,0,P|74:74|28:78,1,85.3999973937989,2|2,0:3|0:3,0:0:0:0:
225,85,363128,5,2,0:3:0:0:
225,85,363237,2,0,P|214:16|170:0,1,109.79999664917,2|2,0:3|0:3,0:0:0:0:
313,126,363620,6,0,P|341:108|347:75,1,68.6250026178361,2|0,0:3|0:0,0:0:0:0:
342,217,363947,6,0,P|364:231|391:229,1,54.899998324585,2|0,0:3|0:0,0:0:0:0:
465,141,364275,6,0,P|463:167|478:189,1,41.1749987434388,2|0,0:3|0:0,0:0:0:0:
509,251,364767,6,0,P|496:256|491:269,1,27.4499991622925,2|0,0:3|0:0,0:0:0:0:
436,332,365423,6,0,P|428:326|419:327,1,13.7249995811463,2|0,0:3|0:0,0:0:0:0:
347,290,366406,6,0,P|347:280|342:273,1,13.7249995811463,2|0,0:3|0:0,0:0:0:0:
352,174,367554,6,0,P|360:169|363:161,1,13.7249995811463,2|0,0:3|0:0,0:0:0:0:
430,276,368865,6,0,B|414:261|396:254|396:254|396:249|396:249|393:252|393:252|374:246|354:246|354:246|353:251|353:251|351:247|351:247|332:248|314:256|314:256|311:252|311:252|311:257|311:257|293:264|277:274|277:274|278:280|278:280|274:277|274:277|258:289|241:297|241:297|238:293|238:293|238:298|238:298|220:306|201:308|201:308|199:312|199:312|198:308|198:308|178:308|159:303|159:303|159:298|159:298|156:302|156:302|137:295|124:280|124:280|120:281|120:281|123:278|123:278|115:266|116:252|116:252|118:240|118:240|123:239|123:239|119:237|119:237|126:198|126:198|121:196|121:196|126:196|126:196|133:158|133:158|138:157|138:157|133:154|133:154|140:115|140:115|136:114|136:114|141:113|141:113|147:75|147:75|153:74|153:74|148:71|148:71|154:36|154:36|155:35|155:34|155:34|150:30|150:30|156:31|156:31|165:13|184:7|184:7|185:6|185:6|188:11|188:11|188:6|188:6|208:1|226:11|226:11|230:8|230:8|228:14|228:14|244:24|247:44|247:44|247:45|247:46|247:46|243:47|243:47|247:49|247:49|247:51|247:53|247:53|240:87|240:87|245:90|245:90|240:90|240:90|233:129|233:129|228:129|228:129|233:132|233:132|226:170|226:170|230:173|230:173|225:173|225:173|225:176,1,956.175029180146,2|0,0:2|0:0,0:0:0:0:
90,81,373182,6,0,B|91:79|91:79|92:77|92:77|94:76|94:76|95:75|95:75|96:72|96:72|98:71|98:71|99:70|99:70|100:68|100:68|100:66|100:66|100:64|100:64|100:64|100:64|101:64|101:64|100:64|100:64|100:62|100:62|99:61|99:61|99:58|99:58|98:55|98:55|97:54|97:54|97:53|97:53|96:51|96:51|96:49|96:49|97:48|97:48|96:46|96:46|95:45|95:45|96:45|96:45|95:45|95:45|95:45|95:45|93:46|93:46|92:48|92:48|92:49|92:49|90:50|90:50|90:51|90:51|89:52|89:52|88:55|88:55|86:56|86:56|86:58|86:58|85:59|85:59|83:60|83:60|84:60|84:60|83:59|83:59|83:60|83:60|82:62|82:62|82:64|82:64|82:67|82:67|82:69|82:69|84:70|84:70|84:72|84:72|85:75|85:75|85:77|85:77|86:80,1,91.5,2|2,0:0|0:0,0:0:0:0:
10,292,376079,6,0,L|5:262,4,18.3,0|0|2|2|2,0:0|0:0|0:0|0:0|0:0,0:0:0:0:
0,266,376406,6,0,B|44:260|52:221|37:212|63:168|111:166|111:166|43:152|4:208,2,274.5,2|0|2,3:2|3:0|3:2,0:0:0:0:
206,305,377718,2,0,B|177:324|192:392|264:417|317:321|275:270,2,219.6,2|0|2,3:2|3:0|3:2,0:0:0:0:
288,150,379029,6,0,B|331:164|350:194|350:194|272:181|186:173,1,219.59999329834,2|0,3:2|3:0,0:0:0:0:
7,1,380341,5,0,3:0:0:0:
121,42,380669,5,0,3:0:0:0:
240,120,380997,5,2,3:2:0:0:
351,231,381324,5,0,3:0:0:0:
454,373,381652,5,2,3:2:0:0:
500,27,382144,6,0,B|481:75|425:67|413:128|413:128|425:67|370:55|376:-6,1,274.5,0|2,3:0|3:2,0:0:0:0:
0,339,382964,2,0,B|33:344|51:325|37:242|51:324|-1:386|100:408|150:351|144:289|56:246,1,274.5,2|0,3:2|3:0,0:0:0:0:
37,170,383620,2,0,B|74:158|79:117|79:117|74:159|117:191,1,137.250005235672,0|2,0:0|3:2,0:0:0:0:
386,333,384275,6,0,B|340:285|409:233|303:156|241:229|264:308|338:316,2,274.5,2|0|2,3:2|3:0|3:2,0:0:0:0:
193,118,385587,5,2,3:2:0:0:
419,9,385915,6,0,L|412:78,2,54.899998324585,0|0|0,3:0|3:0|3:0,0:0:0:0:
378,132,386243,6,0,P|430:145|473:114,1,109.79999664917,0|0,3:0|0:0,0:0:0:0:
87,341,386898,6,0,B|80:249|69:318|52:160|170:147|189:243|184:320|108:255|122:348,2,274.5,2|0|2,3:2|3:0|3:2,0:0:0:0:
212,149,388210,2,0,B|178:99|178:99|39:144|10:144,2,219.6,2|0|2,3:2|3:0|3:2,0:0:0:0:
312,314,389521,2,0,B|363:294|413:369|383:323|440:410|491:328|447:288|401:296,1,219.59999329834,2|0,3:2|3:0,0:0:0:0:
58,373,390833,5,0,3:0:0:0:
161,231,391161,5,0,3:0:0:0:
272,120,391488,5,2,3:2:0:0:
391,42,391816,5,0,3:0:0:0:
505,1,392144,5,2,3:2:0:0:
14,119,392636,6,0,B|49:89|43:43|43:43|49:88|90:102,1,164.699994973755,0|2,3:0|3:2,0:0:0:0:
305,202,393456,6,0,B|324:129|251:69|195:114|199:178|252:186,1,219.59999329834,2|0,3:2|3:0,0:0:0:0:
439,321,394111,6,0,L|445:260,2,54.899998324585,2|0|0,3:2|3:0|3:0,0:0:0:0:
512,374,394439,5,0,3:0:0:0:
198,158,394767,6,0,B|244:206|175:258|281:335|343:262|320:183|246:175,2,274.5,2|0|2,3:2|3:0|3:2,0:0:0:0:
158,25,396079,6,0,P|173:229|181:359,1,320.25,2|0,3:2|0:0,0:0:0:0:
100,354,396734,6,0,B|37:310|40:209|128:164|194:197|194:197|194:197|194:197|262:231|350:182|349:83|288:40,1,549.000020942689,0|2,0:0|0:1,1:0:0:0:
288,40,397718,6,0,P|242:33|197:26,1,91.5,0|0,3:0|0:0,0:0:0:0:
313,130,398046,2,0,P|222:116|132:102,1,183,2|0,3:0|3:0,0:0:0:0:
8,336,398702,6,0,P|93:327|119:244,1,183,2|0,0:1|3:0,0:0:0:0:
118,243,399193,1,0,0:0:0:0:
169,371,399357,2,0,P|214:362|260:356,1,91.5,2|0,3:0|0:0,0:0:0:0:
61,186,399685,2,0,P|55:133|51:81,1,91.5,0|0,3:0|0:0,0:0:0:0:
272,266,400013,6,0,B|333:260|359:204|359:204|361:212|361:212|414:211|450:263,1,228.75,4|0,0:2|3:0,0:0:0:0:
499,350,400505,1,0,0:0:0:0:
403,140,400669,2,0,P|406:94|411:48,1,91.5,2|0,3:0|0:0,0:0:0:0:
490,57,400997,2,0,P|484:102|481:148,1,91.5,0|0,3:0|0:0,0:0:0:0:
267,367,401324,5,2,0:1:0:0:
216,307,401652,1,0,3:0:0:0:
139,293,401980,1,2,3:2:0:0:
75,338,402308,1,0,3:0:0:0:
242,64,402636,6,0,B|315:79|338:162|269:233|170:208|142:119|199:59|255:84,1,343.125013089181,2|0,0:1|0:0,0:0:0:0:
434,198,403128,2,0,P|241:124|46:60,1,411.750015707017,2|2,0:1|0:3,0:0:0:0:
45,60,403947,6,0,P|128:48|148:129,1,183,2|0,0:1|0:0,0:0:0:0:
62,255,404439,2,0,P|53:163|35:74,1,183,2|0,0:1|0:0,0:0:0:0:
125,328,404931,1,2,0:3:0:0:
125,328,405259,6,0,B|186:417|317:391|363:264|242:221|208:283,1,343.125013089181,2|0,0:1|0:0,0:0:0:0:
32,374,405751,2,0,P|231:324|433:282,1,411.750015707017,2|2,0:1|0:3,0:0:0:0:
433,282,406570,6,0,B|418:222|458:190|465:204|503:170|485:117,2,183,2|2|2,0:1|3:2|3:3,0:0:0:0:
498,340,407390,1,0,0:0:0:0:
498,340,407472,1,0,0:0:0:0:
498,340,407554,1,2,3:2:0:0:
512,261,407718,1,0,0:0:0:0:
359,352,407882,6,0,P|254:340|250:235,1,228.75,2|0,0:1|3:0,0:0:0:0:
250,235,408374,1,0,0:0:0:0:
20,223,408538,2,0,P|87:213|156:205,1,137.25,2|0,3:0|0:0,0:0:0:0:
156,205,408865,2,0,P|165:160|174:115,1,91.5,0|0,3:0|0:0,0:0:0:0:
12,80,409193,6,0,B|46:41|42:-5|42:-5|46:41|92:69,1,183,2|0,0:1|3:0,0:0:0:0:
63,141,409685,1,0,0:0:0:0:
230,30,409849,2,0,P|294:33|312:95,1,137.25,2|0,3:0|0:0,0:0:0:0:
312,95,410177,2,0,P|300:139|291:184,1,91.5,0|0,3:0|0:0,0:0:0:0:
434,326,410505,6,0,B|471:333|501:368|501:368|499:361|499:361|536:293|474:234,1,228.75,4|0,0:2|3:0,0:0:0:0:
396,189,410997,1,0,0:0:0:0:
512,5,411161,2,0,P|490:70|471:136,1,137.25,2|0,3:0|0:0,0:0:0:0:
471,136,411488,2,0,P|459:91|448:47,1,91.5,0|0,3:0|0:0,0:0:0:0:
328,269,411816,5,2,0:1:0:0:
251,252,412144,1,0,3:0:0:0:
235,329,412472,1,2,3:2:0:0:
311,345,412800,1,0,3:0:0:0:
369,124,413128,6,0,B|278:77|206:171|233:193|169:277|80:239,1,343.125013089181,2|0,0:1|0:0,0:0:0:0:
17,144,413620,2,0,P|219:182|421:219,1,411.750015707017,2|2,0:1|0:3,0:0:0:0:
422,220,414439,6,0,P|503:192|503:107,1,183,2|0,0:1|0:0,0:0:0:0:
397,345,414931,2,0,P|315:317|315:232,1,183,2|0,0:1|0:0,0:0:0:0:
487,376,415423,1,2,0:3:0:0:
131,66,415751,6,0,P|171:202|32:170,1,343.125013089181,2|0,0:1|0:0,0:0:0:0:
279,219,416243,2,0,P|306:43|129:64,1,411.750015707017,2|2,0:1|0:3,0:0:0:0:
63,348,417062,6,0,P|89:288|154:286,2,137.250005235672,2|0|2,0:1|0:0|0:1,0:0:0:0:
63,348,417882,1,0,0:0:0:0:
0,282,418046,5,2,0:1:0:0:
208,352,418210,1,2,0:1:0:0:
267,135,418374,5,6,0:1:0:0:
267,135,418702,2,0,P|365:126|438:189,1,200.15625,2|0,0:3|0:0,0:0:0:0:
443,203,419029,2,0,P|447:270|380:354,1,160.125,2|0,0:2|0:0,0:0:0:0:
386,352,419357,2,0,P|349:365|268:354,1,120.093754581213,2|0,0:2|0:0,0:0:0:0:
260,351,419685,2,0,P|232:328|221:303,1,64.05,2|0,0:3|0:0,0:0:0:0:
276,204,420423,2,0,B|70:243|192:238|5:274,1,274.5,2|0,0:2|0:0,0:0:0:0:
194,176,420997,6,0,P|170:263|70:294,1,183.000006980896,2|0,0:1|0:0,0:0:0:0:
44,139,421324,1,2,0:1:0:0:
98,82,421434,1,2,0:1:0:0:
119,157,421543,1,2,0:1:0:0:
91,84,421652,6,0,P|73:49|56:-16,1,91.5000034904481,8|0,0:3|0:0,0:0:0:0:
195,169,421871,2,0,P|234:170|298:188,1,91.5000034904481,2|0,0:1|0:0,0:0:0:0:
69,216,422090,2,0,P|48:249|0:296,1,91.5000034904481,2|2,0:1|0:1,0:0:0:0:
11,287,422253,1,0,0:0:0:0:
11,287,422308,5,8,0:3:0:0:
268,369,422527,1,2,0:1:0:0:
383,137,422745,1,2,0:1:0:0:
400,212,422855,1,2,0:1:0:0:
216,106,422964,6,0,P|259:119|305:123,1,91.5000034904481,8|0,0:3|0:0,0:0:0:0:
435,299,423182,2,0,P|424:254|405:213,1,91.5000034904481,2|0,0:1|0:0,0:0:0:0:
492,12,423400,2,0,P|458:43|432:80,1,91.5000034904481,2|2,0:1|0:1,0:0:0:0:
371,365,423620,5,6,0:1:0:0:
371,365,423947,2,0,P|281:358|176:300,1,200.15625,2|0,0:3|0:0,0:0:0:0:
175,298,424275,2,0,P|132:229|121:149,1,160.125,2|0,0:2|0:0,0:0:0:0:
123,137,424603,2,0,P|144:83|191:32,1,120.093754581213,2|0,0:2|0:0,0:0:0:0:
199,27,424931,2,0,P|231:15|262:14,1,64.05,2|0,0:3|0:0,0:0:0:0:
376,74,425669,2,0,B|414:90|433:143|384:191|384:191|363:144|310:115|249:134,1,274.5,2|0,0:2|0:0,0:0:0:0:
267,18,426243,6,0,P|240:105|227:195,1,183.000006980896,2|0,0:1|0:0,0:0:0:0:
407,365,426570,1,2,0:1:0:0:
424,287,426680,1,2,0:1:0:0:
348,311,426789,1,2,0:1:0:0:
428,280,426898,6,0,P|473:289|516:303,1,91.5000034904481,8|0,0:3|0:0,0:0:0:0:
276,278,427117,2,0,P|246:313|212:343,1,91.5000034904481,2|0,0:1|0:0,0:0:0:0:
353,147,427335,2,0,P|338:104|329:59,1,91.5000034904481,2|2,0:1|0:1,0:0:0:0:
329,59,427499,1,0,0:0:0:0:
329,59,427554,1,8,0:3:0:0:
154,0,427773,1,2,0:1:0:0:
27,146,427991,1,2,0:1:0:0:
55,69,428100,1,2,0:1:0:0:
45,172,428210,6,0,P|89:182|132:197,1,91.5000034904481,8|0,0:3|0:0,0:0:0:0:
283,359,428429,2,0,P|269:315|261:270,1,91.5000034904481,2|0,0:1|0:0,0:0:0:0:
329,59,428647,2,0,P|297:92|262:122,1,91.5000034904481,2|2,0:1|0:1,0:0:0:0:
2,258,428865,5,6,0:1:0:0:
2,257,429193,2,0,P|77:259|201:306,1,200.15625,2|0,0:3|0:0,0:0:0:0:
206,308,429521,2,0,P|280:336|360:337,1,160.125,2|0,0:2|0:0,0:0:0:0:
374,335,429849,2,0,P|428:315|478:272,1,120.093754581213,2|0,0:2|0:0,0:0:0:0:
484,260,430177,2,0,B|483:224|455:200|419:207|419:207|450:229|452:266,1,160.125,2|0,0:3|0:0,0:0:0:0:
311,125,430915,2,0,B|363:186|354:290|299:333|268:323|257:268|331:232,1,274.5,2|0,0:2|0:0,0:0:0:0:
428,100,431488,6,0,P|338:107|269:50,1,183.000006980896,2|0,0:1|0:0,0:0:0:0:
114,212,431816,1,2,0:1:0:0:
190,236,431926,1,2,0:1:0:0:
248,181,432035,1,2,0:1:0:0:
195,245,432144,6,0,P|179:288|172:333,1,91.5000034904481,8|0,0:3|0:0,0:0:0:0:
105,376,432363,2,0,P|78:338|59:295,1,91.5000034904481,2|0,0:1|0:0,0:0:0:0:
275,263,432581,2,0,P|267:308|252:351,1,91.5000034904481,2|2,0:1|0:1,0:0:0:0:
252,351,432745,1,0,0:0:0:0:
252,351,432800,5,8,0:3:0:0:
114,212,433018,1,2,0:1:0:0:
165,22,433237,1,2,0:1:0:0:
210,87,433346,1,2,0:1:0:0:
87,133,433456,6,0,P|42:141|0:156,1,91.5000034904481,8|0,0:3|0:0,0:0:0:0:
246,157,433674,2,0,P|208:131|166:111,1,91.5000034904481,2|0,0:1|0:0,0:0:0:0:
341,286,433893,2,0,P|332:241|317:198,1,91.5000034904481,2|2,0:1|0:1,0:0:0:0:
484,10,434111,5,6,0:1:0:0:
484,10,434439,2,0,P|505:97|482:215,1,200.15625,2|0,0:3|0:0,0:0:0:0:
480,217,434767,2,0,P|428:278|355:313,1,160.125,2|0,0:2|0:0,0:0:0:0:
343,316,435095,2,0,P|285:311|222:283,1,120.093754581213,2|0,0:2|0:0,0:0:0:0:
217,279,435423,2,0,B|225:244|195:227|195:227|183:259|212:277,1,112.087496579361,2|0,0:3|0:0,0:0:0:0:
0,384,436161,2,0,B|33:340|126:366|126:366|35:334|28:278,1,274.5,2|0,0:2|0:0,0:0:0:0:
104,99,436734,6,0,P|119:204|110:310,1,213.500002036095,2|0,0:1|0:0,0:0:0:0:
33,135,437062,2,0,P|26:82|52:37,2,106.750001018047,2|2|2,0:1|0:1|0:1,0:0:0:0:
159,239,437390,6,0,P|207:216|258:201,1,106.750001018047,8|0,0:3|0:0,0:0:0:0:
221,15,437609,2,0,P|216:68|203:119,1,106.750001018047,2|0,0:1|0:0,0:0:0:0:
382,181,437827,2,0,P|338:150|299:113,1,106.750001018047,2|2,0:1|0:1,0:0:0:0:
299,114,437991,1,0,0:0:0:0:
299,113,438046,6,0,P|365:17|486:46,1,213.500002036095,8|2,0:3|0:1,0:0:0:0:
506,294,438374,2,0,P|459:277|394:271,2,106.750001018047,0|2|2,0:0|0:1|0:1,0:0:0:0:
324,363,438702,6,0,P|282:326|296:267,1,106.750001018047,8|0,0:3|0:0,0:0:0:0:
503,90,438920,6,0,P|497:142|471:189,1,106.750001018047,2|0,0:1|0:0,0:0:0:0:
287,280,439139,2,0,P|238:302|187:317,1,106.750001018047,2|2,0:1|0:1,0:0:0:0:
50,76,439357,6,0,P|82:158|137:135,1,137.25,6|0,0:1|0:0,0:0:0:0:
244,13,439685,1,2,3:2:0:0:
244,13,439849,2,0,P|178:27|138:81,1,137.250005235672,0|0,3:0|3:0,0:0:0:0:
284,132,440341,2,0,P|261:106|228:101,1,68.6250026178361,2|0,3:2|3:0,0:0:0:0:
366,291,440669,5,0,3:0:0:0:
366,291,440833,2,0,L|516:270,1,137.250005235672,2|2,3:2|3:2,0:0:0:0:
437,106,441652,5,0,3:0:0:0:
432,189,441816,1,0,3:0:0:0:
378,379,441980,6,0,P|336:306|255:286,1,171.56250654459,2|0,3:2|0:0,0:0:0:0:
137,304,442472,6,0,P|164:345|152:298,1,137.250005235672,2|0,3:2|3:2,0:0:0:0:
278,21,443292,6,0,P|236:73|235:140,1,137.250005235672,2|0,3:2|3:0,0:0:0:0:
81,169,443947,6,0,P|65:120|24:90,1,102.937503926754,2|0,3:2|0:0,0:0:0:0:
182,234,444275,1,0,3:0:0:0:
147,233,444356,1,0,3:0:0:0:
117,248,444438,1,0,3:0:0:0:
95,274,444520,1,0,3:0:0:0:
87,307,444603,6,0,P|102:374|168:339,1,137.25,2|0,3:2|0:0,0:0:0:0:
223,313,444923,1,0,3:0:0:0:
223,313,445084,6,0,L|239:131,1,183,2|0,3:2|3:0,0:0:0:0:
239,130,445725,1,0,3:0:0:0:
123,76,445886,5,0,3:0:0:0:
145,184,446046,2,0,P|80:88|9:96,1,183,2|2,3:2|3:2,0:0:0:0:
340,260,446848,5,0,3:0:0:0:
346,338,447009,1,2,3:2:0:0:
410,293,447169,6,0,L|474:277,1,45.75,2|0,3:2|0:0,0:0:0:0:
101,367,447632,6,0,L|56:378,1,45.75,0|0,3:2|0:0,0:0:0:0:
262,126,447942,6,0,L|250:232,2,91.5,2|0|0,3:2|0:0|0:0,0:0:0:0:
1,19,448406,5,2,3:2:0:0:
216,60,448706,5,0,3:2:0:0:
396,185,449006,5,0,3:2:0:0:
511,372,449306,5,0,3:0:0:0:
370,233,449456,5,0,0:0:0:0:
371,202,449531,1,0,0:0:0:0:
396,185,449606,5,4,1:2:0:0:
306,151,449756,1,0,1:0:0:0:
463,127,449906,5,0,1:0:0:0:
239,209,450056,1,0,1:0:0:0:
422,361,450206,6,0,P|442:298|482:291,1,91.5,0|0,1:2|1:0,0:0:0:0:
239,209,450506,1,0,1:0:0:0:
271,217,450581,1,0,1:0:0:0:
297,240,450656,1,0,1:0:0:0:
309,272,450731,1,0,1:0:0:0:
306,306,450806,5,0,1:2:0:0:
143,198,450956,1,0,1:0:0:0:
318,110,451106,1,0,1:0:0:0:
271,217,451256,5,0,1:0:0:0:
271,217,451406,2,0,L|383:201,1,91.5,0|0,1:2|1:0,0:0:0:0:
142,358,451706,5,0,1:0:0:0:
170,322,451781,1,0,1:0:0:0:
181,278,451856,1,0,1:0:0:0:
171,234,451931,1,0,1:0:0:0:
143,198,452006,5,0,1:2:0:0:
123,43,452156,1,0,1:0:0:0:
1,134,452306,1,0,1:0:0:0:
98,289,452456,6,0,B|194:289|146:257|258:257,1,164.699994973755,0|0,1:0|0:0,0:0:0:0:
404,270,452756,6,0,P|391:301|403:330,1,54.899998324585,0|0,1:0|0:0,0:0:0:0:
482,329,452906,2,0,P|494:304|489:278,1,54.899998324585,0|0,1:0|0:0,0:0:0:0:
300,331,453056,2,0,P|313:362|342:374,1,54.899998324585,0|0,1:0|0:0,0:0:0:0:
328,127,453206,6,0,P|327:73|361:30,1,109.79999664917,0|0,1:2|1:0,0:0:0:0:
504,107,453431,5,0,1:2:0:0:
508,120,453506,2,0,P|454:140|404:95,1,128.099996090698,0|0,1:0|1:0,0:0:0:0:
166,13,453731,5,0,1:0:0:0:
162,26,453806,2,0,P|216:46|266:1,1,128.099996090698,0|0,1:2|1:0,0:0:0:0:
210,225,454106,5,0,1:0:0:0:
162,215,454181,1,0,1:0:0:0:
115,205,454256,1,0,1:0:0:0:
68,196,454331,1,0,1:0:0:0:
21,186,454406,5,0,1:2:0:0:
18,170,454481,1,0,1:2:0:0:
16,154,454556,1,0,1:0:0:0:
13,138,454631,1,0,1:0:0:0:
11,122,454706,2,0,L|0:53,3,64.0499980453492,0|0|0|0,1:0|1:0|1:0|1:0,0:0:0:0:
178,0,455006,5,0,1:2:0:0:
175,15,455081,1,0,1:2:0:0:
173,31,455156,1,0,1:0:0:0:
170,47,455231,1,0,1:0:0:0:
168,64,455306,2,0,L|157:133,1,64.0499980453492,0|0,1:0|1:0,0:0:0:0:
142,210,455456,2,0,L|131:279,1,64.0499980453492,0|0,1:0|1:0,0:0:0:0:
285,135,455606,5,0,1:2:0:0:
334,112,455681,1,0,1:2:0:0:
385,132,455756,1,0,1:0:0:0:
405,182,455831,1,0,1:0:0:0:
382,232,455906,1,0,1:0:0:0:
359,281,455981,1,0,1:0:0:0:
379,332,456056,1,0,1:0:0:0:
430,352,456131,1,0,1:0:0:0:
479,329,456206,5,0,1:2:0:0:
502,280,456281,1,0,1:2:0:0:
482,229,456356,1,0,1:0:0:0:
431,209,456431,1,0,1:0:0:0:
382,232,456506,1,0,1:0:0:0:
332,255,456581,1,0,1:0:0:0:
282,235,456656,1,0,1:0:0:0:
262,184,456731,1,0,1:0:0:0:
285,135,456806,6,0,L|289:87,6,32.0249990226746,4|2|2|2|2|2|2,1:2|0:2|0:2|0:2|0:2|0:2|0:2,0:0:0:0:
379,39,457106,6,0,P|376:25|383:40,6,45.75,2|2|2|2|2|2|2,0:2|0:2|0:2|0:2|0:2|0:2|0:2,0:0:0:0:
407,52,457406,6,0,P|416:28|413:58,6,91.5,2|2|2|2|2|2|2,0:2|0:2|0:2|0:2|0:2|0:2|0:2,0:0:0:0:
413,67,457706,6,0,P|450:60|409:79,6,137.250005235672,2|2|2|2|2|2|2,0:2|0:2|0:2|0:2|0:2|0:2|0:2,0:0:0:0:
339,274,458006,6,0,B|304:254|298:201|338:171|375:180|375:180|401:91|542:80|587:230|501:295|436:291,1,503.25,8|0,0:1|0:0,0:0:0:0:
401,369,458906,5,2,0:0:0:0:
388,289,458981,1,2,0:0:0:0:
373,211,459056,1,2,0:0:0:0:
358,132,459131,1,2,0:0:0:0:
342,54,459206,1,4,1:0:0:0:
147,179,459356,2,0,P|162:221|196:251,1,91.5,2|0,0:0|0:0,0:0:0:0:
123,298,459506,2,0,P|154:264|197:251,1,91.5,8|0,1:0|0:0,0:0:0:0:
21,199,459656,6,2,L|286:276,1,274.5,2|0,0:0|0:0,0:1:0:0:
279,353,459956,2,0,P|323:351|351:316,1,91.5,2|0,0:0|0:0,0:0:0:0:
373,225,460106,5,8,1:0:0:0:
285,238,460181,1,2,0:0:0:0:
196,251,460256,1,2,0:0:0:0:
108,265,460331,1,2,0:0:0:0:
21,278,460406,5,0,1:0:0:0:
260,34,460556,2,0,P|245:76|211:106,1,91.5,2|0,0:0|0:0,0:0:0:0:
284,153,460706,2,0,P|253:119|210:106,1,91.5,8|0,1:0|0:0,0:0:0:0:
386,54,460856,6,2,L|121:131,1,274.5,2|0,0:0|0:0,0:1:0:0:
126,209,461156,2,0,P|82:206|55:171,1,91.5,2|0,0:0|0:0,0:0:0:0:
33,80,461306,5,8,1:0:0:0:
121,93,461381,1,2,0:0:0:0:
210,106,461456,1,2,0:0:0:0:
298,120,461531,1,2,0:0:0:0:
385,133,461606,5,0,1:0:0:0:
512,263,461756,2,0,B|490:302|490:302|439:283,1,91.5,2|0,0:0|0:0,0:0:0:0:
338,357,461906,2,0,B|315:318|315:318|357:283,1,91.5,8|0,1:0|0:0,0:0:0:0:
385,133,462056,6,0,B|463:184|463:184|412:377,1,274.5,2|0,0:0|0:0,0:1:0:0:
183,277,462356,2,0,B|235:268|235:268|190:250,1,91.5,2|0,0:0|0:0,0:0:0:0:
338,357,462506,2,0,B|305:316|305:316|312:364,1,91.5,8|0,1:0|0:0,0:0:0:0:
330,185,462656,2,0,B|312:234|312:234|350:204,1,91.5
48,180,462806,6,0,B|98:153|153:192|124:184|170:228|227:204,1,183,0|0,1:0|0:0,0:1:0:0:
232,120,463031,1,2,0:0:0:0:
226,112,463106,2,0,B|217:68|217:68|188:116,1,91.5,8|0,1:0|0:0,0:0:0:0:
220,206,463256,2,0,B|229:250|229:250|258:202,1,91.5,2|0,0:0|0:0,0:0:0:0:
128,141,463406,6,0,P|109:221|48:176,1,183,0|0,1:0|0:0,0:0:0:0:
5,108,463706,5,8,1:0:0:0:
8,99,463781,1,2,0:0:0:0:
12,90,463856,2,0,L|67:100,1,45.75,2|2,0:0|0:0,0:0:0:0:
147,23,464006,5,4,1:0:0:0:
300,167,464156,6,0,P|350:165|373:115,1,91.5,2|0,0:0|0:0,0:0:0:0:
272,92,464306,2,0,P|299:57|344:58,1,91.5,8|0,1:0|0:0,0:0:0:0:
207,166,464456,6,2,P|321:122|493:74,1,274.5,2|0,0:0|0:0,0:1:0:0:
488,162,464756,2,0,B|501:211|501:211|462:168,1,91.5,2|0,0:0|0:0,0:0:0:0:
372,133,464906,5,8,1:0:0:0:
285,138,464981,1,2,0:0:0:0:
208,177,465056,1,2,0:0:0:0:
151,243,465131,1,2,0:0:0:0:
121,328,465206,5,0,1:0:0:0:
403,348,465356,6,0,P|353:346|330:296,1,91.5,2|0,0:0|0:0,0:0:0:0:
431,273,465506,2,0,P|403:238|358:239,1,91.5,8|0,1:0|0:0,0:0:0:0:
496,347,465656,6,2,P|382:303|210:255,1,274.5,2|0,0:0|0:0,0:1:0:0:
189,332,465956,2,0,B|176:381|176:381|215:338,1,91.5,2|0,0:0|0:0,0:0:0:0:
3,217,466106,6,0,P|57:219|86:173,1,114.375,8|0,1:0|0:0,0:0:0:0:
502,136,466256,2,0,L|334:117,1,137.250005235672,2|0,0:1|0:0,0:1:0:0:
189,164,466406,6,0,P|111:159|143:51,1,183,0|2,1:0|0:0,0:0:0:0:
250,75,466631,1,2,0:0:0:0:
271,155,466706,2,0,L|265:208,1,45.75,8|2,1:0|0:0,0:0:0:0:
304,267,466856,2,0,L|298:312,1,45.75,2|0,0:0|0:0,0:0:0:0:
375,160,467006,6,0,P|367:206|331:241,1,91.5,0|0,1:0|0:0,0:0:0:0:
184,204,467156,2,0,P|169:161|178:117,1,91.5,2|0,0:0|0:0,0:0:0:0:
456,257,467306,6,0,P|428:291|385:305,1,91.5,8|0,1:0|0:0,0:0:0:0:
265,200,467456,2,0,P|273:155|303:121,1,91.5,2|0,0:0|0:0,0:0:0:0:
174,320,467606,6,0,B|124:293|69:332|98:324|52:368|-5:344,1,183,0|0,1:0|0:0,0:0:0:0:
32,270,467831,1,2,0:0:0:0:
61,199,467906,2,0,B|89:165|89:165|84:217,1,91.5,8|0,1:0|0:0,0:0:0:0:
174,320,468056,2,0,B|202:354|202:354|197:302,1,91.5,2|0,0:0|0:0,0:0:0:0:
344,239,468206,6,0,P|325:159|264:204,1,183,0|2,1:0|0:0,0:0:0:0:
279,310,468506,5,8,1:0:0:0:
282,319,468581,1,2,0:0:0:0:
286,328,468656,2,0,L|341:318,1,45.75,2|2,0:0|0:0,0:0:0:0:
471,370,468806,5,4,1:0:0:0:
264,199,468956,2,0,P|299:202|335:156,1,91.5,2|0,0:0|0:0,0:0:0:0:
423,145,469106,2,0,P|443:116|421:62,1,91.5,8|0,1:0|0:0,0:0:0:0:
333,12,469256,6,2,P|363:124|405:297,1,274.5,2|0,0:0|0:0,0:1:0:0:
481,286,469556,2,0,B|526:279|526:279|477:265,1,91.5,2|0,0:0|0:0,0:0:0:0:
387,360,469706,5,8,1:0:0:0:
300,355,469781,1,2,0:0:0:0:
223,316,469856,1,2,0:0:0:0:
166,250,469931,1,2,0:0:0:0:
136,165,470006,5,0,1:0:0:0:
295,219,470156,2,0,P|260:222|224:176,1,91.5,2|0,0:0|0:0,0:0:0:0:
136,165,470306,2,0,P|116:136|138:82,1,91.5,8|0,1:0|0:0,0:0:0:0:
226,32,470456,6,2,P|196:144|154:317,1,274.5,2|0,0:0|0:0,0:1:0:0:
78,306,470756,2,0,B|33:299|33:299|82:285,1,91.5,2|0,0:0|0:0,0:0:0:0:
218,365,470906,5,8,1:0:0:0:
305,360,470981,1,2,0:0:0:0:
382,321,471056,1,2,0:0:0:0:
439,255,471131,1,2,0:0:0:0:
469,170,471206,5,0,1:0:0:0:
295,219,471356,6,0,B|321:245|321:245|329:187,1,91.5,2|0,0:0|0:0,0:0:0:0:
244,100,471506,2,0,B|208:109|208:109|254:145,1,91.5,8|0,1:0|0:0,0:0:0:0:
315,53,471656,6,0,P|280:192|136:150,1,274.5,2|0,0:0|0:0,0:0:0:0:
15,109,471956,2,0,B|67:100|67:100|22:82,1,91.5,2|0,0:0|0:0,0:0:0:0:
170,189,472106,2,0,B|137:148|137:148|144:196,1,91.5,8|0,1:0|0:0,0:0:0:0:
162,17,472256,2,0,B|144:66|144:66|182:36,1,91.5
84,278,472406,6,0,P|17:295|32:188,1,183,0|0,1:0|0:0,0:0:0:0:
170,189,472631,1,2,0:0:0:0:
170,189,472706,2,0,B|216:203|216:203|156:218,1,91.5,8|0,1:0|0:0,0:0:0:0:
236,301,472856,2,0,B|190:287|190:287|250:272,1,91.5,2|0,0:0|0:0,0:0:0:0:
148,348,473006,6,0,L|354:321,1,183,0|2,1:0|0:0,0:0:0:0:
415,306,473306,5,8,1:0:0:0:
418,297,473381,1,2,0:0:0:0:
422,288,473456,2,0,L|477:298,1,45.75,2|2,0:0|0:0,0:0:0:0:
467,380,473606,5,4,1:0:0:0:
227,186,473756,2,0,P|212:228|178:258,1,91.5,2|0,0:0|0:0,0:0:0:0:
250,305,473906,2,0,P|219:271|176:258,1,91.5,8|0,1:0|0:0,0:0:0:0:
353,206,474056,6,2,L|88:283,1,274.5,2|0,0:0|0:0,0:1:0:0:
115,358,474356,2,0,P|69:360|31:336,1,91.5,2|0,0:0|0:0,0:0:0:0:
1,232,474506,5,8,1:0:0:0:
89,245,474581,1,2,0:0:0:0:
178,258,474656,1,2,0:0:0:0:
266,272,474731,1,2,0:0:0:0:
355,285,474806,5,0,1:0:0:0:
298,87,474956,6,0,P|321:125|320:171,1,91.5,2|0,0:0|0:0,0:0:0:0:
398,132,475106,2,0,P|352:140|319:171,1,91.5,8|0,1:0|0:0,0:0:0:0:
397,6,475256,6,2,L|282:256,1,274.5,2|0,0:0|0:0,0:1:0:0:
355,285,475556,2,0,P|327:320|283:333,1,91.5,2|0,0:0|0:0,0:0:0:0:
208,107,475706,6,0,L|323:80,1,91.5,8|0,1:0|0:0,0:0:0:0:
509,252,475856,2,0,L|394:225,1,91.5,2|0,0:0|0:0,0:0:0:0:
207,384,476006,6,0,B|191:309|122:323|153:340|62:315|44:225|137:194|167:253,1,274.5,4|0,1:0|0:0,0:0:0:0:
207,384,476456,2,0,P|204:278|234:167,1,205.875007853508,2|0,0:2|0:0,0:0:0:0:
342,254,476756,2,0,P|351:305|263:315,1,137.250005235672,2|0,0:2|0:0,0:0:0:0:
147,142,477206,6,0,L|137:108,3,22.875000872612,0|0|0|0,1:0|1:0|1:0|1:0,0:0:0:0:
144,28,477431,6,0,P|175:41|209:45,1,68.6250026178361,0|0,0:0|1:0,0:0:0:0:
53,199,477581,2,0,P|48:165|35:133,1,68.6250026178361,0|0,1:0|1:0,0:0:0:0:
247,193,477731,2,0,P|199:234|163:317,1,137.25,0|0,1:0|0:0,0:0:0:0:
89,321,477906,6,0,P|178:338|260:378,1,183,0|0,1:0|0:0,0:0:0:0:
430,216,478106,2,0,B|421:171|364:175|364:175|399:197|401:240,1,152.5,0|0,1:0|0:0,0:0:0:0:
357,332,478256,2,0,P|314:296|321:242,1,114.375,0|0,1:0|0:0,0:0:0:0:
473,77,478406,6,0,L|484:29,1,45.75,6|0,0:3|0:0,0:0:0:0:
408,12,478706,2,0,L|397:60,1,45.75,0|2,0:0|0:2,0:0:0:0:
493,163,479006,1,0,0:0:0:0:
497,175,479156,1,0,0:0:0:0:
430,216,479306,2,0,L|407:209,3,22.875,2|0|0|0,0:0|0:0|0:0|0:0,0:0:0:0:
512,319,479606,6,0,P|508:353|495:384,1,68.6250026178361,2|0,0:3|0:0,0:0:0:0:
420,361,479906,2,0,P|423:326|436:295,1,68.6250026178361,0|2,0:0|0:0,0:0:0:0:
322,183,480206,1,0,0:0:0:0:
309,190,480356,1,0,0:0:0:0:
265,256,480506,2,0,L|277:307,3,34.3125013089181,2|0|0|0,0:0|0:0|0:0|0:0,0:0:0:0:
213,349,480806,5,2,0:3:0:0:
161,287,480956,1,0,0:0:0:0:
85,266,481106,1,0,0:0:0:0:
9,291,481256,1,2,0:0:0:0:
9,291,481556,6,0,P|4:334|46:370,1,91.5
82,158,481706,2,0,P|46:132|-5:150,1,91.5,8|0,0:1|0:0,0:0:0:0:
161,287,481856,2,0,P|201:268|211:214,1,91.5,2|0,0:2|0:0,0:0:0:0:
132,43,482006,6,0,P|98:152|85:266,1,228.75,0|0,1:0|0:0,0:0:0:0:
2,142,482231,2,0,P|72:170|213:67,1,228.75,0|0,1:0|0:0,0:0:0:0:
54,0,482456,2,0,P|30:46|73:88,1,114.375,0|0,1:0|0:0,0:0:0:0:
269,54,482606,5,0,1:0:0:0:
281,54,482681,1,2,3:2:0:0:
297,51,482756,1,2,3:2:0:0:
309,41,482831,1,2,3:2:0:0:
317,29,482906,5,2,3:2:0:0:
313,84,482981,1,2,3:2:0:0:
362,104,483056,1,2,3:2:0:0:
401,65,483131,1,2,3:2:0:0:
372,17,483206,5,4,1:0:0:0:
419,294,483356,6,0,L|329:275,1,91.5,2|0,0:0|0:0,0:0:0:0:
435,212,483506,2,0,L|345:193,1,91.5,8|0,1:0|0:0,0:0:0:0:
512,246,483656,6,2,P|429:233|275:361,1,274.5,2|0,0:0|0:0,0:1:0:0:
210,367,483956,2,0,P|176:338|178:294,1,91.5,2|0,0:0|0:0,0:0:0:0:
108,165,484106,5,8,1:0:0:0:
195,170,484181,1,2,0:0:0:0:
272,209,484256,1,2,0:0:0:0:
329,275,484331,1,2,0:0:0:0:
359,360,484406,5,0,1:0:0:0:
326,59,484556,6,0,L|240:93,1,91.5,2|0,0:0|0:0,0:0:0:0:
356,136,484706,2,0,L|270:170,1,91.5,8|0,1:0|0:0,0:0:0:0:
425,90,484856,6,2,P|345:117|171:17,1,274.5,2|0,0:0|0:0,0:1:0:0:
107,22,485156,2,0,P|78:55|88:98,1,91.5,2|0,0:0|0:0,0:0:0:0:
41,240,485306,5,8,1:0:0:0:
125,219,485381,1,2,0:0:0:0:
195,168,485456,1,2,0:0:0:0:
240,93,485531,1,2,0:0:0:0:
253,5,485606,6,0,P|343:3|395:73,1,183,0|2,1:0|0:0,0:0:0:0:
492,205,485831,1,2,0:0:0:0:
445,268,485906,2,0,P|413:246|421:187,1,91.5,8|0,1:0|0:0,0:0:0:0:
512,0,486056,6,0,P|490:52|483:109,1,114.375,2|0,0:0|0:0,0:0:0:0:
254,224,486206,6,0,P|262:270|298:305,1,91.5,0|0,1:0|0:0,0:0:0:0:
445,268,486356,2,0,P|460:225|451:181,1,91.5,2|0,0:0|0:0,0:0:0:0:
173,321,486506,6,0,P|201:355|244:369,1,91.5,8|0,1:0|0:0,0:0:0:0:
364,264,486656,2,0,P|356:219|326:185,1,91.5,2|0,0:0|0:0,0:0:0:0:
173,321,486806,6,0,B|123:294|68:333|97:325|51:369|-6:345,1,183,0|2,1:0|0:0,0:0:0:0:
69,141,487031,1,2,0:0:0:0:
100,215,487106,2,0,B|116:266|116:266|95:234,1,91.5,8|0,1:0|0:0,0:0:0:0:
45,65,487256,2,0,B|88:54|88:54|124:85,1,91.5,2|0,0:0|0:0,0:0:0:0:
25,272,487406,6,0,P|16:296|15:322,1,45.75,0|2,1:0|0:0,0:0:0:0:
14,315,487706,5,2,0:0:0:0:
20,220,487781,5,2,0:0:0:0:
69,141,487856,5,2,0:0:0:0:
151,94,487931,5,2,0:0:0:0:
245,89,488006,6,0,P|251:135|261:180,1,91.5,4|0,1:0|0:0,0:0:0:0:
351,369,488156,5,2,0:0:0:0:
401,376,488231,1,2,0:0:0:0:
451,384,488306,1,8,1:0:0:0:
460,333,488381,1,2,0:0:0:0:
470,283,488456,2,0,P|477:237|484:192,1,91.5,2|0,0:0|0:0,0:0:0:0:
338,38,488606,5,0,1:0:0:0:
372,4,488681,1,2,0:0:0:0:
420,0,488756,1,2,0:0:0:0:
462,25,488831,1,2,0:0:0:0:
478,71,488906,1,8,1:0:0:0:
464,117,488981,1,2,0:0:0:0:
423,145,489056,2,0,P|378:133|334:123,1,91.5,2|0,0:0|0:0,0:0:0:0:
65,26,489206,6,0,P|22:37|7:79,1,91.5,0|0,1:0|0:0,0:0:0:0:
77,159,489356,1,2,0:0:0:0:
119,144,489431,1,2,0:0:0:0:
158,165,489506,1,8,1:0:0:0:
171,207,489581,1,2,0:0:0:0:
149,246,489656,2,0,P|103:253|58:260,1,91.5,2|0,0:0|0:0,0:0:0:0:
21,368,489806,5,0,1:0:0:0:
65,359,489881,1,2,0:0:0:0:
110,350,489956,1,2,0:0:0:0:
155,342,490031,1,2,0:0:0:0:
200,334,490106,1,8,1:0:0:0:
246,327,490181,1,2,0:0:0:0:
291,319,490256,2,0,P|335:321|370:350,1,91.5,2|0,0:0|0:0,0:0:0:0:
462,372,490406,5,0,1:0:0:0:
479,282,490481,1,2,0:0:0:0:
493,191,490556,2,0,P|500:145|507:100,1,91.5,2|2,0:0|0:0,0:0:0:0:
304,241,490706,5,8,1:0:0:0:
290,169,490781,1,2,0:0:0:0:
279,96,490856,2,0,P|272:56|265:17,1,80.0625007635355,2|2,0:0|0:0,0:0:0:0:
396,176,491006,5,0,1:0:0:0:
406,122,491081,1,2,0:0:0:0:
414,67,491156,2,0,P|419:33|425:0,1,68.6250026178361,2|0,0:0|0:0,0:0:0:0:
507,100,491306,6,0,P|485:139|441:146,1,91.5,8|0,1:0|0:0,0:0:0:0:
331,62,491456,2,0,P|308:23|265:16,1,91.5,2|0,0:0|0:0,0:0:0:0:
0,131,491606,6,0,L|181:155,1,183,0|2,1:0|0:0,0:0:0:0:
181,155,491831,2,0,B|206:118|206:118|188:75,1,91.5,2|8,0:0|1:0,0:0:0:0:
93,4,491981,1,2,0:0:0:0:
84,16,492056,2,0,B|58:52|58:52|76:95,1,91.5,2|0,0:0|0:0,0:0:0:0:
176,241,492206,6,0,P|184:286|192:332,1,91.5,0|0,1:0|0:0,0:0:0:0:
117,346,492356,2,0,P|109:301|102:256,1,91.5,2|0,0:0|0:0,0:0:0:0:
316,86,492506,5,2,0:0:0:0:
380,49,492581,5,2,0:0:0:0:
447,80,492656,5,2,0:0:0:0:
464,151,492731,5,2,0:0:0:0:
416,209,492806,5,6,3:0:0:0:
280,312,492956,1,0,3:0:0:0:
280,312,493031,1,0,3:0:0:0:
280,312,493106,1,0,3:0:0:0:
280,312,493181,1,0,3:0:0:0:
280,312,493256,2,0,P|166:298|52:286,1,228.75,8|0,3:0|3:0,0:0:0:0:
21,168,493706,5,8,3:0:0:0:
0,116,493781,1,0,3:0:0:0:
24,67,493856,1,0,3:0:0:0:
78,53,493931,1,0,3:0:0:0:
123,85,494006,1,4,3:0:0:0:
205,192,494156,1,0,3:0:0:0:
205,192,494231,1,0,3:0:0:0:
205,192,494306,1,0,3:0:0:0:
205,192,494381,1,0,3:0:0:0:
205,192,494456,2,0,P|299:186|285:66,1,228.75,8|4,3:0|3:0,0:0:0:0:
115,248,494906,6,0,P|126:293|137:337,1,91.5,8|4,3:0|3:0,0:0:0:0:
220,0,495206,2,0,B|337:12|289:63|405:78,2,205.875007853508,8|0|0,0:1|0:0|0:0,0:0:0:0:
238,158,496406,6,0,L|225:225,1,68.6250026178361,2|0,0:2|0:0,0:0:0:0:
300,253,496706,2,0,L|313:186,1,68.6250026178361,2|0,0:2|0:0,0:0:0:0:
122,308,497006,6,0,L|134:375,1,68.6250026178361,4|0,3:0|3:0,0:0:0:0:
122,384,497156,2,0,L|109:316,1,68.6250026178361,0|0,3:0|3:0,0:0:0:0:
39,283,497306,1,8,3:0:0:0:
36,249,497381,1,0,3:0:0:0:
28,216,497456,1,0,3:0:0:0:
16,184,497531,1,0,3:0:0:0:
0,155,497606,6,0,P|77:82|181:99,1,219.6,6|0,3:0|0:0,0:0:0:0:
152,207,497906,2,0,P|110:185|122:145,1,73.2,8|0,3:0|0:0,0:0:0:0:
285,0,498056,6,0,L|264:239,1,219.6,0|0,3:0|0:0,0:0:0:0:
258,296,498356,1,0,3:0:0:0:
423,78,498506,5,8,3:0:0:0:
474,88,498581,1,0,3:0:0:0:
487,138,498656,1,0,3:0:0:0:
449,173,498731,1,0,3:0:0:0:
400,154,498806,5,4,3:0:0:0:
466,4,498956,1,0,3:0:0:0:
314,176,499106,6,0,P|321:226|335:259,1,73.2,8|0,3:0|0:0,0:0:0:0:
455,330,499256,6,0,P|363:272|254:269,1,219.6,0|0,3:0|0:0,0:0:0:0:
205,337,499556,1,0,3:0:0:0:
314,176,499706,6,0,B|313:302|377:238|377:379,1,219.6,8|0,3:0|0:0,0:0:0:0:
291,347,500006,5,6,3:0:0:0:
409,206,500156,1,0,3:0:0:0:
151,177,500306,6,0,P|143:201|145:176,1,73.2,8|0,3:0|0:0,0:0:0:0:
29,208,500456,2,0,B|138:271|115:183|237:254,1,219.6,0|0,3:0|0:0,0:0:0:0:
251,275,500756,1,0,3:0:0:0:
154,213,500906,5,8,3:0:0:0:
151,177,500981,1,0,3:0:0:0:
170,146,501056,1,0,3:0:0:0:
203,131,501131,1,0,3:0:0:0:
238,138,501206,6,0,P|268:59|238:11,1,146.4,4|0,3:0|3:0,0:0:0:0:
29,208,501506,6,0,L|22:280,1,73.2,8|0,3:0|0:0,0:0:0:0:
114,364,501656,6,0,P|199:302|302:327,1,219.6,0|0,3:0|0:0,0:0:0:0:
359,384,501956,1,0,3:0:0:0:
193,270,502106,6,0,P|188:234|205:202,1,73.2,8|0,3:0|0:0,0:0:0:0:
287,218,502256,2,0,P|291:253|274:285,1,73.2,0|0,3:0|0:0,0:0:0:0:
118,14,502406,6,0,P|220:43|262:140,1,219.6,6|0,3:0|0:0,0:0:0:0:
287,218,502706,2,0,P|297:236|289:215,1,73.2,8|0,3:0|0:0,0:0:0:0:
404,39,502856,6,0,B|429:76|475:83|475:83|344:59,1,219.6,0|0,3:0|0:0,0:0:0:0:
265,47,503156,1,0,3:0:0:0:
419,177,503306,5,8,3:0:0:0:
424,213,503381,1,0,3:0:0:0:
429,249,503456,1,0,3:0:0:0:
434,285,503531,1,0,3:0:0:0:
439,321,503606,5,4,3:0:0:0:
288,196,503756,1,0,3:0:0:0:
274,379,503906,2,0,L|178:370,1,73.2,8|0,3:0|0:0,0:0:0:0:
7,321,504056,6,0,P|110:325|150:230,1,219.6,0|0,3:0|0:0,0:0:0:0:
133,154,504356,1,0,3:0:0:0:
274,379,504506,5,8,3:0:0:0:
292,376,504581,1,0,3:0:0:0:
310,373,504656,1,0,3:0:0:0:
328,371,504731,1,0,3:0:0:0:
346,368,504806,6,0,L|388:103,1,219.6,2|0,3:3|3:3,0:0:0:0:
366,22,505106,5,0,3:0:0:0:
318,10,505181,1,0,3:0:0:0:
271,21,505256,1,4,3:0:0:0:
233,51,505331,1,0,3:0:0:0:
212,95,505406,1,0,3:2:0:0:
212,143,505481,1,0,3:2:0:0:
233,187,505556,5,0,3:2:0:0:
251,185,505631,1,0,3:2:0:0:
269,183,505706,2,0,L|364:174,1,73.2,4|0,3:0|3:0,0:0:0:0:
422,213,505856,2,0,L|494:206,1,73.2,0|0,3:0|3:0,0:0:0:0:
124,138,506006,5,4,3:0:0:0:
72,146,506081,1,0,3:0:0:0:
38,188,506156,1,0,3:0:0:0:
42,241,506231,1,0,3:0:0:0:
81,278,506306,5,4,3:0:0:0:
121,266,506381,1,0,3:0:0:0:
160,284,506456,1,0,3:0:0:0:
176,324,506531,1,0,3:0:0:0:
161,364,506606,6,0,L|149:137,1,219.6,6|0,3:0|0:0,0:0:0:0:
143,58,506906,6,0,P|129:36|145:57,1,73.2,8|0,3:0|0:0,0:0:0:0:
149,144,507056,1,0,3:0:0:0:
263,244,507206,5,6,3:0:0:0:
438,276,507356,1,0,3:0:0:0:
356,226,507506,5,8,3:0:0:0:
466,368,507656,2,0,L|492:97,1,219.6,0|0,3:0|0:0,0:0:0:0:
508,137,507956,1,0,3:0:0:0:
356,226,508106,5,8,3:0:0:0:
357,269,508181,1,0,3:0:0:0:
328,300,508256,1,0,3:0:0:0:
285,302,508331,1,0,3:0:0:0:
254,273,508406,5,4,3:0:0:0:
286,34,508556,1,0,3:0:0:0:
10,132,508706,6,0,P|-6:166|18:206,1,73.2,8|0,3:0|0:0,0:0:0:0:
254,273,508856,2,0,P|179:179|59:173,1,219.6,0|0,3:0|0:0,0:0:0:0:
63,246,509156,1,0,3:0:0:0:
358,364,509306,6,0,B|208:390|305:341|140:370,1,219.6,8|0,3:0|0:0,0:0:0:0:
58,378,509606,5,6,3:0:0:0:
254,273,509756,1,0,3:0:0:0:
4,91,509906,6,0,P|17:124|1:156,1,73.2,8|0,3:0|0:0,0:0:0:0:
62,245,510056,2,0,P|50:139|112:51,1,219.6,0|0,3:0|0:0,0:0:0:0:
189,14,510356,1,0,3:0:0:0:
168,192,510506,5,8,3:0:0:0:
204,189,510581,1,0,3:0:0:0:
236,206,510656,1,0,3:0:0:0:
254,237,510731,1,0,3:0:0:0:
254,273,510806,5,4,3:0:0:0:
244,106,510956,1,0,3:0:0:0:
302,353,511106,6,0,L|229:359,1,73.2,8|0,3:0|0:0,0:0:0:0:
15,208,511256,6,0,P|30:290|161:292,1,219.6,0|0,3:0|0:0,0:0:0:0:
154,222,511556,1,0,3:0:0:0:
352,231,511706,6,0,P|353:266|377:293,1,73.2,8|0,3:0|0:0,0:0:0:0:
445,338,511856,2,0,P|476:355|511:347,1,73.2,0|0,3:0|0:0,0:0:0:0:
481,150,512006,6,0,L|262:130,1,219.6,6|0,3:0|0:0,0:0:0:0:
315,15,512306,2,0,P|363:41|359:80,1,73.2,8|0,3:0|0:0,0:0:0:0:
352,231,512456,6,0,B|236:328|295:237|166:345,1,219.6,0|0,3:0|0:0,0:0:0:0:
147,363,512756,1,0,3:0:0:0:
419,179,512906,6,0,B|367:321|373:213|315:370,1,219.6,8|0,3:0|3:0,0:0:0:0:
336,384,513206,1,4,3:0:0:0:
352,231,513356,1,0,3:0:0:0:
490,209,513506,6,0,P|516:213|490:218,1,73.2,8|0,3:0|0:0,0:0:0:0:
447,103,513656,2,0,B|473:252|424:155|453:320,1,219.6,0|0,3:0|0:0,0:0:0:0:
499,384,513956,1,4,3:0:0:0:
352,231,514106,5,8,3:0:0:0:
353,194,514181,1,0,3:0:0:0:
335,163,514256,1,0,3:0:0:0:
303,146,514331,1,0,3:0:0:0:
267,147,514406,6,0,P|160:79|90:126,1,219.6,2|0,3:3|3:3,0:0:0:0:
0,274,514706,1,0,3:0:0:0:
0,274,514781,1,0,3:0:0:0:
0,274,514856,2,0,P|135:261|264:247,1,219.6,6|0,3:0|3:2,0:0:0:0:
270,346,515156,1,0,3:2:0:0:
270,346,515231,1,0,3:2:0:0:
270,346,515306,2,0,P|405:359|534:373,1,219.6,6|0,3:0|3:0,0:0:0:0:
434,258,515606,6,0,P|384:146|418:44,1,219.6,4|0,3:2|3:2,0:0:0:0:
485,106,515906,1,0,3:2:0:0:
485,106,515981,1,0,3:0:0:0:
485,106,516056,2,0,P|405:178|298:184,1,219.6,4|0,3:2|3:0,0:0:0:0:
232,41,516356,5,0,3:0:0:0:
232,41,516431,1,0,3:0:0:0:
232,41,516506,2,0,P|205:89|223:118,1,73.2,4|0,3:2|3:0,0:0:0:0:
193,200,516656,1,0,3:0:0:0:
219,239,516731,1,0,3:0:0:0:
223,286,516806,1,8,0:1:0:0:
59,177,517706,5,0,0:0:0:0:
59,177,518006,2,0,P|81:242|67:326,3,137.250005235672,2|0|0|0,0:0|0:0|0:0|0:0,0:0:0:0:
67,353,519206,2,0,P|9:353|15:278,1,137.250005235672,2|0,0:0|0:0,0:0:0:0:
188,242,519806,6,0,P|184:289|156:347,2,102.937503926754
224,307,520406,1,2,0:0:0:0:
116,132,521306,6,0,P|129:90|125:54,1,68.6250026178361
131,0,521606,2,0,P|109:65|123:149,1,137.250005235672,2|0,0:0|0:0,0:0:0:0:
123,176,522206,2,0,P|181:176|175:101,1,137.250005235672
19,37,522806,5,2,0:0:0:0:
47,143,523106,2,0,L|38:92,2,34.3125013089181
31,230,523406,2,0,P|45:182|133:187,1,137.250005235672
50,246,524006,1,0,0:0:0:0:
171,289,524231,2,0,L|169:240,1,34.3125013089181,0|2,0:0|0:0,0:0:0:0:
179,306,524606,6,0,P|188:212|201:96,1,205.875007853508
74,150,525206,6,0,B|34:85|52:128|-22:108|-30:-37|62:-51|136:20|116:85|72:125|86:165,1,343.125013089181,2|0,0:0|0:0,0:0:0:0:
153,238,526106,6,0,P|142:267|140:313,1,68.6250026178361
42,250,526406,2,0,B|131:394|337:367|401:160|246:89|150:156|153:252,1,549,6|0,0:1|0:0,0:0:0:0:
292,367,527606,6,0,P|241:228|248:11,1,366,2|0,0:2|0:0,0:0:0:0:
320,64,528506,1,0,0:0:0:0:
490,90,528806,6,0,B|518:208|394:261|347:153|423:101,1,274.5,6|0,0:1|0:0,0:0:0:0:
422,15,529406,5,2,0:1:0:0:
452,192,529631,1,2,0:1:0:0:
478,370,529856,1,2,0:1:0:0:
409,317,530006,5,6,0:1:0:0:
35,132,531056,5,2,0:0:0:0:
35,132,531131,1,0,0:0:0:0:
35,132,531206,2,0,L|42:64,3,60.3899998157043,2|0|0|0,0:0|0:0|0:0|0:0,0:0:0:0:
147,214,532406,2,0,L|119:120,1,91.5,2|0,0:0|0:0,0:0:0:0:
297,228,533006,2,0,L|225:160,1,91.5
501,8,533606,6,0,L|496:46,16,22.875,2|2|2|2|2|2|2|2|2|2|2|2|2|2|2|2|2,0:0|0:0|0:0|0:0|0:0|0:0|0:0|0:0|0:0|0:0|0:0|0:0|0:0|0:0|0:0|0:0|0:0,0:0:0:0:
451,119,535706,6,0,L|446:88,3,22.875
501,8,536006,6,0,L|496:46,10,22.875,2|2|2|2|2|2|2|0|0|0|0,0:0|0:0|0:0|0:0|0:0|0:0|0:0|0:0|0:0|0:0|0:0,0:0:0:0:
471,143,537011,1,0,0:0:0:0:
83,212,537243,6,0,B|150:180|198:225|153:270|249:328|356:273|340:179|340:179|268:93,1,457.5
268,93,538209,2,0,P|269:151|262:197,1,91.5
354,370,538461,6,0,B|371:326|371:326|504:300,1,183,6|0,0:1|0:0,0:0:0:0:
447,354,538842,1,2,0:0:0:0:
374,248,538969,2,0,L|465:233,1,91.5,0|0,0:1|0:0,0:0:0:0:
504,300,539223,1,0,0:0:0:0:
504,300,539350,1,0,0:0:0:0:
396,159,539477,6,0,P|339:218|231:221,1,183,2|0,0:1|0:0,0:0:0:0:
90,140,539859,1,2,0:0:0:0:
242,225,539986,2,0,P|221:185|178:171,1,91.5,0|0,0:1|0:0,0:0:0:0:
28,206,540240,1,0,0:0:0:0:
28,206,540367,1,0,0:0:0:0:
147,358,540494,6,0,P|140:312|132:267,1,91.5,2|0,0:1|0:0,0:0:0:0:
132,267,540685,1,0,0:0:0:0:
132,267,540749,1,0,0:0:0:0:
87,35,540876,5,2,0:0:0:0:
169,78,541003,2,0,P|214:72|259:63,1,91.5,0|0,0:1|0:0,0:0:0:0:
90,140,541257,1,0,0:0:0:0:
90,140,541384,1,0,0:0:0:0:
330,14,541511,6,0,P|393:28|403:92,1,137.25,2|0,0:1|0:0,0:0:0:0:
403,92,541766,1,0,0:0:0:0:
458,258,541893,2,0,P|467:213|476:168,1,91.5,2|0,0:0|0:1,0:0:0:0:
503,39,542147,1,0,0:0:0:0:
366,192,542274,1,0,0:0:0:0:
366,192,542401,1,0,0:0:0:0:
463,347,542528,6,0,B|417:359|377:319|391:308|352:266|305:281,1,183,6|0,0:1|0:0,0:0:0:0:
159,334,542910,1,2,0:0:0:0:
242,187,543037,2,0,P|231:231|221:276,1,91.5,0|0,0:1|0:0,0:0:0:0:
145,257,543291,2,0,P|155:212|165:167,1,91.5
266,88,543545,6,0,P|182:125|91:133,1,183,2|0,0:1|0:0,0:0:0:0:
91,133,543927,1,2,0:0:0:0:
290,10,544054,2,0,P|375:15|390:98,1,183,0|0,0:1|0:0,0:0:0:0:
390,98,544435,1,0,0:0:0:0:
249,182,544562,6,0,P|165:175|144:256,1,183,2|0,0:1|0:0,0:0:0:0:
0,121,544944,1,2,0:0:0:0:
0,121,545007,1,0,0:0:0:0:
0,121,545071,2,0,P|14:68|25:30,1,91.5,0|0,0:1|0:0,0:0:0:0:
174,188,545325,1,0,0:0:0:0:
174,188,545452,1,0,0:0:0:0:
31,294,545579,6,0,B|50:342|50:342|195:365,1,183,2|0,0:1|0:0,0:0:0:0:
272,261,545961,1,2,0:0:0:0:
380,318,546088,2,0,B|432:308|432:308|393:301,1,91.5,0|0,0:1|0:0,0:0:0:0:
258,249,546342,1,2,0:0:0:0:
467,168,546469,1,2,0:0:0:0:
423,0,546596,6,0,P|414:44|400:124,1,114.375,6|0,0:1|0:0,0:0:0:0:
386,101,546787,2,0,P|329:112|273:123,1,114.375,2|0,0:0|0:0,0:0:0:0:
259,125,546977,1,2,0:0:0:0:
69,26,547105,6,0,P|114:18|140:73,1,114.375,0|0,1:0|0:0,0:0:0:0:
156,83,547295,2,0,P|147:139|141:196,1,114.375,2|0,0:0|0:0,0:0:0:0:
165,206,547486,1,2,0:0:0:0:
132,349,547613,6,0,P|77:359|41:318,1,114.375,0|0,1:0|0:0,0:0:0:0:
23,322,547804,2,0,P|13:267|54:231,1,114.375,2|0,0:0|0:0,0:0:0:0:
61,217,547994,1,2,0:0:0:0:
221,366,548122,6,0,P|276:354|333:344,1,114.375,0|0,1:0|0:0,0:0:0:0:
351,353,548312,1,2,0:0:0:0:
351,352,548376,2,0,P|356:323|363:296,1,57.1875
423,367,548503,2,0,P|428:338|435:311,1,57.1875,2|0,0:0|0:0,0:0:0:0:
489,140,548630,6,0,P|466:189|412:189,1,114.375,2|0,1:0|0:0,0:0:0:0:
403,179,548821,2,0,P|392:122|381:66,1,114.375,2|0,0:0|0:0,0:0:0:0:
378,51,549011,1,2,0:0:0:0:
288,198,549138,6,0,P|233:182|178:169,1,114.375,0|0,1:0|0:0,0:0:0:0:
163,180,549329,2,0,P|155:123|147:66,1,114.375,2|0,0:0|0:0,0:0:0:0:
161,52,549520,1,2,0:0:0:0:
18,211,549647,6,0,P|72:210|96:258,1,114.375,0|0,1:0|0:0,0:0:0:0:
95,276,549838,1,2,0:0:0:0:
92,292,549901,1,0,0:0:0:0:
193,160,550028,1,2,0:0:0:0:
269,314,550155,6,0,P|325:323|382:331,1,114.375,0|0,1:0|0:0,0:0:0:0:
402,348,550346,1,2,0:0:0:0:
402,348,550410,2,0,P|411:321|420:294,3,57.1875,0|0|2|0,0:0|0:0|0:0|0:0,0:0:0:0:
497,115,550663,6,0,P|512:145|512:180,1,68.6250026178361,0|0,1:0|0:0,0:0:0:0:
436,202,550791,2,0,P|421:172|422:138,1,68.6250026178361,0|0,1:0|0:0,0:0:0:0:
295,20,550918,6,0,L|284:87,1,68.6250026178361,0|0,1:0|0:0,0:0:0:0:
215,23,551045,2,0,L|204:90,1,68.6250026178361,0|0,1:0|0:0,0:0:0:0:
135,26,551172,2,0,L|124:93,1,68.6250026178361,0|0,1:0|0:0,0:0:0:0:
81,238,551299,6,0,L|92:171,1,68.6250026178361,0|0,1:0|0:0,0:0:0:0:
161,235,551427,2,0,L|172:168,1,68.6250026178361,0|0,1:0|0:0,0:0:0:0:
241,232,551554,2,0,L|252:165,1,68.6250026178361,0|0,1:0|0:0,0:0:0:0:
504,213,551681,6,0,P|470:207|436:202,1,68.6250026178361,0|0,1:0|0:0,0:0:0:0:
359,149,551808,2,0,P|353:182|348:216,1,68.6250026178361,0|0,1:0|0:0,0:0:0:0:
295,294,551935,2,0,P|328:299|362:304,1,68.6250026178361,0|0,1:0|0:0,0:0:0:0:
504,225,552062,6,0,P|470:219|436:214,1,68.6250026178361,0|0,1:0|0:0,0:0:0:0:
441,368,552189,2,0,P|446:334|451:300,1,68.6250026178361,0|0,1:0|0:0,0:0:0:0:
296,305,552316,2,0,P|329:310|363:315,1,68.6250026178361,0|0,1:0|0:0,0:0:0:0:
429,89,552444,6,0,P|413:58|414:24,1,68.6250026178361,0|0,1:0|0:0,0:0:0:0:
489,3,552571,2,0,P|504:33|503:67,1,68.6250026178361,0|0,1:0|0:0,0:0:0:0:
348,216,552698,5,0,1:2:0:0:
329,236,552761,1,0,1:2:0:0:
306,251,552825,1,0,1:2:0:0:
279,257,552888,1,0,1:2:0:0:
252,255,552952,1,0,1:2:0:0:
226,245,553015,1,0,1:2:0:0:
205,229,553079,1,0,1:2:0:0:
189,206,553142,1,0,1:2:0:0:
181,180,553206,1,0,1:2:0:0:
181,153,553270,1,0,1:2:0:0:
188,127,553333,1,0,1:2:0:0:
204,104,553397,1,0,1:2:0:0:
225,87,553460,1,0,1:2:0:0:
250,77,553524,1,0,1:2:0:0:
278,74,553587,1,0,1:2:0:0:
304,80,553651,1,0,1:2:0:0:
328,94,553714,5,0,0:0:0:0:
365,166,554096,1,0,0:0:0:0:
292,189,554477,1,8,1:0:0:0:
18,372,554731,6,0,L|32:320,1,45.75,4|0,1:2|0:0,0:0:0:0:
50,252,554858,2,0,L|64:200,1,45.75,0|0,1:0|0:0,0:0:0:0:
109,51,554985,6,0,P|148:19|198:22,1,102.937503926754,8|0,1:0|0:0,0:0:0:0:
123,133,555239,5,0,1:0:0:0:
136,129,555303,1,2,0:0:0:0:
126,146,555366,1,2,0:0:0:0:
139,142,555430,1,2,0:0:0:0:
142,155,555493,1,8,1:0:0:0:
192,166,555557,1,2,0:0:0:0:
242,177,555621,1,2,0:0:0:0:
292,189,555684,1,2,0:0:0:0:
327,154,555748,6,0,P|320:109|296:44,1,91.5,0|2,1:0|0:0,0:0:0:0:
392,48,555875,2,0,P|398:93|412:136,1,91.5,2|2,0:0|0:0,0:0:0:0:
473,350,556002,6,2,P|441:344|420:282,1,91.5,8|2,1:0|0:0,0:0:0:0:
493,121,556129,2,2,P|503:151|460:200,1,91.5
335,329,556256,6,2,P|293:315|236:316,1,91.5,0|2,1:0|0:0,0:0:0:0:
188,249,556383,2,2,P|144:257|95:287,1,91.5
50,384,556510,6,0,B|84:334|62:241|-18:227|-19:302|43:314,1,205.875007853508,8|0,1:0|0:0,0:0:0:0:
267,204,556765,6,0,B|318:273|283:395|174:414|172:313|263:312,1,274.5,0|0,1:0|0:0,0:0:0:0:
155,111,557019,6,0,L|145:67,1,41.1749987434388,8|0,1:0|0:0,0:0:0:0:
62,3,557273,6,0,B|87:-19|87:-19|56:91,1,137.250005235672,2|0,1:2|0:0,0:0:0:0:
232,24,557464,6,0,B|264:17|264:17|146:134,1,183,2|0,1:2|0:0,0:0:0:0:
54,229,557654,6,0,B|34:223|34:223|17:168|17:168|62:185,1,114.375,2|0,1:2|0:0,0:0:0:0:
294,147,557782,6,0,P|297:113|327:81,1,68.6250026178361,0|0,1:0|0:0,0:0:0:0:
294,147,557909,2,0,P|276:118|235:102,1,68.6250026178361,2|0,0:0|0:0,0:0:0:0:
345,6,558036,6,0,P|389:6|420:39,1,91.5,8|0,1:0|0:0,0:0:0:0:
223,183,558163,2,0,B|179:220|179:220|196:189,1,91.5,2|0,0:0|0:0,0:0:0:0:
463,111,558290,5,0,1:0:0:0:
474,113,558354,1,2,0:0:0:0:
485,116,558417,1,2,0:0:0:0:
496,118,558481,1,2,0:0:0:0:
507,121,558544,6,0,L|515:155,3,22.875,8|0|0|0,1:0|1:0|1:0|1:0,0:0:0:0:
416,47,558799,6,0,B|449:212|449:212|460:223|460:223|471:274,1,228.75,4|0,1:2|0:0,0:0:0:0:
383,349,558990,1,0,1:0:0:0:
397,337,559054,2,0,B|399:372|399:372|357:360|357:360|375:330,1,114.375,4|0,1:2|0:0,0:0:0:0:
371,235,559222,6,0,B|361:191|361:191|187:128,1,228.75,2|0,1:2|0:0,0:0:0:0:
176,123,559392,6,0,B|203:215|203:215|267:241,1,152.5,2|0,1:2|0:0,0:0:0:0:
469,265,559561,6,0,P|330:295|202:355,1,274.500010471344,2|0,1:2|1:2,0:0:0:0:
68,232,559752,1,0,1:0:0:0:
78,209,559815,6,0,P|-17:263|136:256,1,411.750015707017,2|0,1:2|0:2,0:0:0:0:
68,232,560070,6,0,P|9:323|118:303,1,274.5,2|0,1:2|0:0,0:0:0:0:
52,130,560324,6,0,B|37:75|37:75|29:97|29:97|13:42,1,137.25,0|0,1:0|1:0,0:0:0:0:
11,32,560578,6,0,L|1:0,6,34.3125013089181,0|0|0|0|0|0|0,1:0|1:0|1:0|1:0|1:0|1:0|3:0,0:0:0:0:
52,130,560832,6,0,P|141:29|273:-1,1,274.5,4|0,1:2|1:0,0:0:0:0:
359,162,561087,6,0,B|367:198|367:198|292:127|361:8,1,228.75,4|0,1:2|0:2,0:0:0:0:
415,84,561256,6,0,B|423:125|382:165|382:165|355:103|284:63|213:83,1,274.500010471344,4|0,1:2|0:0,0:0:0:0:
144,90,561426,6,0,P|183:182|251:164,1,183.000006980896,4|0,1:1|0:0,0:0:0:0:
512,209,561595,6,0,P|380:247|254:301,1,274.500010471344,4|0,1:0|1:0,0:0:0:0:
206,359,561786,1,0,0:0:0:0:
203,372,561849,5,2,1:2:0:0:
218,384,562359,6,0,L|210:350,1,34.3125013089181,2|2,0:0|0:0,0:0:0:0:
187,274,562486,2,0,L|179:240,1,34.3125013089181,2|2,0:0|0:0,0:0:0:0:
148,109,562613,6,0,L|144:92,6,17.156250654459,8|0|0|0|0|0|0,0:1|0:0|0:0|0:0|0:0|0:0|0:0,0:0:0:0:
160,24,562867,6,0,P|99:146|176:30,1,411.750015707017,4|0,1:2|0:0,0:0:0:0:
69,133,563122,6,0,L|37:130,1,22.875,2|0,0:0|0:0,0:0:0:0:
49,222,563249,2,0,L|17:219,1,22.875,0|0,1:0|0:0,0:0:0:0:
163,327,563376,6,0,B|212:307|266:342|266:342|429:312,1,274.5,8|0,1:1|0:0,0:0:0:0:
504,223,563630,2,0,P|463:314|538:371,1,183,0|0,1:0|1:0,0:0:0:0:
375,105,563884,6,0,B|372:105|372:105|372:108|372:108|370:104|370:104|369:107|369:107|369:107|369:107|368:110|368:110|366:105|366:105|366:107|366:107|366:108|365:108|365:108|365:111|365:111|363:107|363:107|363:110|363:110|362:110|362:110|362:113|362:113|360:108|360:108|360:111|360:111|357:112|358:112|358:112|358:114|358:114|356:110|356:110|356:113|356:113|356:113|355:113|355:113|355:116|355:116|353:112|353:112|353:115|353:115|352:115|351:116|351:116|352:118|352:118|350:114|350:114|350:116|350:116|349:117|348:117|348:117|349:119|349:119|346:116|346:116|347:119|347:119|345:119|345:119|345:119|345:122|345:122|343:118|343:118|344:121|344:121|343:121|342:122|342:122|342:124|342:124|340:120|340:120|341:123|341:123|340:123|339:124|339:124|340:126|340:126|337:122|337:122|338:125|338:125|336:126|336:126|336:126|337:128|337:128|334:125|334:125|335:128|335:128|334:128|333:128|333:128|334:131|334:131|331:128|331:128|332:130|332:130|330:131|330:131|330:131|331:133|331:133|328:130|328:130|329:132|329:132|329:133|328:134|328:134|329:136|329:136|326:133|326:133|327:135|327:135|326:135|325:136|325:136|326:138|326:138|323:135|323:135|324:137|324:137|323:138|323:139|323:139|324:141|324:141|321:138|321:138|322:140|322:140|320:142|320:141|320:141|322:144|322:144|318:141|318:141|319:143|319:143|318:144|318:144|319:146|319:146|316:143|316:143|316:146|316:146|315:148|316:147|316:147|316:149|316:149|313:146|313:146|314:149|314:149|314:149|313:150|313:150|315:152|315:152|311:149|311:149|312:151|312:151|312:152|311:153|311:153|313:155|313:155|309:153|309:153|310:155|310:155|309:156|309:156|310:158|310:158|307:156|307:156|308:158|308:158|307:160|307:159|307:159|308:161|308:161|304:159|304:159|306:161|306:161|306:162|305:163|305:163|307:164|307:164|303:163|303:163|304:164|304:164|304:165|304:166|304:166|305:168|305:168|301:166|301:166|302:168|302:168|302:169|301:169|301:169|303:171|303:171|299:169|299:169|301:171|301:171|300:173|300:172|300:172|301:175|301:175|298:172|298:172|299:175|299:175|298:176|298:175|298:175|300:178|300:178|296:176|296:176|298:178|298:178|297:180|297:179|297:179|298:181|298:181|295:179|295:179|296:181|296:181|296:182|295:183|295:183|298:184|298:184|293:183|293:183|295:184|295:184|294:187|295:186|295:186|296:188|296:188|292:187|292:187|294:188|294:188|293:189|293:190|293:190|295:192|295:192|290:190|290:190|292:193|292:193|292:193|292:194|292:194|294:196|294:196|289:195|289:195|292:196|292:196|291:197|291:198|291:198|293:199|293:199|289:198|289:198|290:200|290:200|290:201|290:201|290:201|292:203|292:203|288:201|288:201|289:203|289:203|289:205|289:204|289:204|292:206|292:206|287:205|287:205|289:207|289:207|289:209|289:208|289:208|291:210|291:210|286:209|286:209|289:210|289:210|289:211|288:212|288:212|290:213|290:213|286:213|286:213|288:214|288:214|288:215|288:216|288:216|290:217|290:217|286:216|286:216|288:218|288:218|287:220|287:219|287:219|289:221|289:221|285:220|285:220|287:222|287:222|287:222|287:223|287:223|289:225|289:225|285:225|285:225|287:225|287:225|287:226|287:227|287:227|289:228|289:228|285:228|285:228|287:229|287:229|287:230|287:231|287:231|289:232|289:232|285:232|285:232|287:233|287:233|287:235|287:234|287:234|289:235|289:235|285:236|285:236|287:237|287:237|287:237|287:238|287:238|289:239|289:239|285:240|285:240|288:240|288:240|288:241|288:242|288:242|290:243|290:243|286:243|286:243|288:244|288:244|288:245|288:245|288:245|290:246|290:246|286:247|286:247|289:248|289:248|289:250|289:249|289:249|291:250|291:250|286:251|286:251|289:251|289:251|289:254|289:253|289:253|292:254|292:254|287:254|287:254|289:255|289:255|290:256|290:257|290:257|292:257|292:257|288:258|288:258|290:259|290:259|291:260|291:260|291:260|293:260|293:260|289:262|289:262|292:263|292:263|292:264|292:263|292:263|294:264|294:264|290:266|290:266|292:266|292:266|293:268|292:267|292:267|295:268|295:268|291:269|291:269|293:269|293:269|294:270|294:271|294:271|294:272,1,549,2|0,1:1|0:0,0:0:0:0:
340,340,564138,6,0,P|356:369|342:339,1,102.937503926754,0|0,1:0|0:0,0:0:0:0:
157,332,564392,6,0,B|169:316|184:349|229:337|229:337|194:357|171:343|171:343|139:305|92:290|48:297|48:297|36:281|21:314|-24:302|-24:302|21:328|48:297,1,412.515835119161,8|0,1:1|0:0,0:0:0:0:
119,219,564647,6,0,P|121:184|113:218,1,102.937503926754,0|0,1:0|0:0,0:0:0:0:
54,123,564901,6,0,B|3:114|-21:51|16:2|66:-4|98:19|98:19|61:7|21:35|22:81|49:104,1,343.125,4|0,1:0|0:0,0:0:0:0:
119,219,565155,6,0,L|232:202,1,102.937503926754,2|0,1:2|0:0,0:0:0:0:
437,34,565410,6,0,B|491:43|515:97|515:97|409:-6|274:54,1,343.125,8|0,1:0|0:0,0:0:0:0:
313,143,565664,6,0,P|353:170|392:120,1,114.375,2|0,1:2|0:0,0:0:0:0:
199,118,565791,2,0,P|202:69|139:61,1,114.375,0|0,1:0|0:0,0:0:0:0:
65,0,565918,6,0,B|61:0|61:0|59:1|59:1|60:-3|60:-3|59:0|59:0|58:0|57:0|57:0|56:1|56:1|55:-3|55:-3|54:0|54:0|54:0|53:0|53:0|52:2|52:2|51:-2|51:-2|50:0|50:0|48:0|49:0|49:0|49:3|49:3|47:-1|47:-1|46:1|46:1|45:1|44:1|44:1|44:5|44:5|43:0|43:0|43:3|43:3|42:3|41:4|41:4|41:6|41:6|38:2|38:2|38:5|38:5|37:6|38:5|38:5|38:9|38:9|35:5|35:5|35:7|35:7|33:9|34:8|34:8|35:11|35:11|32:7|32:7|33:10|33:10|32:10|32:11|32:11|33:14|33:14|28:10|28:10|30:13|30:13|28:15|29:15|29:15|30:17|30:17|26:15|26:15|27:17|27:17|27:18|27:19|27:19|28:21|28:21|24:19|24:19|26:21|26:21|25:23|25:22|25:22|27:24|27:24|22:23|22:23|25:25|25:25|24:27|24:26|24:26|27:28|27:28|22:27|22:27|24:29|24:29|23:31|23:31|23:31|26:32|26:32|21:31|21:31|23:33|23:33|23:34|23:35|23:35|26:36|26:36|21:37|21:37|24:37|24:37|24:40|24:39|24:39|27:40|27:40|22:41|22:41|24:42|24:42|25:42|25:43|25:43|27:43|27:43|23:45|23:45|26:46|26:46|27:47|27:47|27:47|29:47|29:47|25:49|25:49|27:49|27:49|27:50|28:51|28:51|31:50|31:50|27:53|27:53|30:53|30:53|30:53|31:54|31:54|33:53|33:53|29:57|29:57|33:56|33:56|33:57|33:58|33:58|36:57|36:57|33:60|33:60|35:59|35:59|36:59|37:60|37:60|39:59|39:59|36:63|36:63|38:62|38:62|40:63|41:63,1,274.5
55,196,566172,2,0,B|52:197|52:196|52:196|52:193|52:193|55:197|55:197|54:194|54:194|55:193|55:192|55:192|54:190|54:190|57:193|57:193|57:191|57:191|57:190|58:190|58:190|57:187|57:187|61:191|61:191|60:188|60:188|61:187|62:187|62:187|61:184|61:184|64:188|64:188|63:186|63:186|64:185|65:185|65:185|65:182|65:182|68:187|68:187|68:184|68:184|67:184|68:183|68:183|69:181|69:181|71:185|71:185|71:182|71:182|72:182|73:181|73:181|73:179|73:179|74:184|74:184|75:181|75:181|74:181|77:181|77:181|78:178|78:178|78:183|78:183|79:181|79:181|80:181|81:181|81:181|83:178|83:178|82:183|82:183|84:181|84:181|83:181|85:181|85:181|87:179|87:179|86:184|86:184|88:181|88:181|87:181|89:182|89:182|91:180|91:180|90:185|90:185|92:182|92:182|91:182|94:183|94:183|95:181|95:181|94:186|94:186|95:184|95:184|96:185|97:185|97:185|100:183|100:183|97:187|97:187|100:187|100:187|99:186|101:187|101:187|104:186|104:186|100:190|100:190|103:189|103:189|104:189|104:190|104:190|107:189|107:189|103:192|103:192|106:192|106:192|105:191|107:192|107:192|110:192|110:192|105:196|105:196|109:195|109:195|108:194|110:196|110:196|112:196|112:196|108:198|108:198|110:198|110:198|111:199|111:200|111:200|115:200|115:200|110:202|110:202|113:202|113:202|113:203|113:203|113:203|116:204|116:204|111:206|111:206|114:206|114:206|114:205|115:208|115:208|117:208|117:208|112:209|112:209|115:210|115:210|115:211|115:212|115:212|118:213|118:213|113:213|113:213|115:214|115:214|115:215|115:216|115:216|118:218|118:218|113:217|113:217|115:219|115:219|115:222,1,274.5,0|0,1:0|0:0,0:0:0:0:
19,364,566427,6,0,P|170:291|362:278,1,343.125,8|0,1:0|0:0,0:0:0:0:
425,296,566681,6,0,P|428:355|352:353,1,137.25,0|0,1:0|0:0,0:0:0:0:
461,22,566935,6,0,B|404:19|358:67|363:124|363:124|364:163|393:193|432:198|462:183|479:159|479:159|438:179|387:154|378:101|404:68,1,480.375004581213,4|0,1:0|0:0,0:0:0:0:
335,118,567189,6,0,L|304:120,1,22.875,0|0,1:0|0:0,0:0:0:0:
232,124,567316,2,0,L|201:126,1,22.875,0|0,1:0|0:0,0:0:0:0:
39,156,567444,6,0,B|10:-6|10:-6|18:40|70:61|70:61|118:84|115:126,1,343.125,8|0,1:0|0:0,0:0:0:0:
176,334,567698,6,0,P|116:238|8:245,1,228.75,0|0,1:0|1:0,0:0:0:0:
13,369,567952,6,0,P|60:357|76:310,1,102.937503926754
411,159,568206,6,0,B|412:158|413:158|413:158|413:155|413:155|415:159|415:159|414:156|414:156|415:156|416:156|416:156|416:153|416:153|418:157|418:157|417:155|417:155|418:154|419:154|419:154|419:152|419:152|421:155|421:155|420:153|420:153|421:152|421:152|421:150|421:150|423:153|423:153|423:151|423:151|424:150|424:150|424:150|423:148|423:148|426:151|426:151|425:149|425:149|426:148|426:148|426:148|426:145|426:145|429:149|429:149|428:146|428:146|429:146|429:145|429:145|428:143|428:143|431:146|431:146|430:144|430:144|431:143|431:143|430:141|430:141|433:143|433:143|432:141|432:141|433:140|433:140|433:140|432:138|432:138|436:140|436:140|435:139|435:139|435:137|435:137|434:135|434:135|438:138|438:138|437:136|437:136|437:135|437:134|437:134|436:133|436:133|439:135|439:135|438:132|438:132|439:132|439:131|439:131|438:130|438:130|441:131|441:131|440:130|440:130|440:129|440:129|439:127|439:127|442:128|442:128|441:127|441:127|441:126|441:125|441:125|440:124|440:124|444:125|444:125|442:123|442:123|442:123|442:122|442:122|441:121|441:121|445:122|445:122|443:120|443:120|444:120|444:119|444:119|442:117|442:117|446:119|446:119|445:117|445:117|445:116|445:116|445:116|443:114|443:114|447:115|447:115|445:114|445:114|445:112|445:112|444:111|444:111|448:112|448:112|446:110|446:110|447:110|447:109|447:109|445:107|445:107|449:109|449:109|447:107|447:107|447:106|447:106|445:105|445:105|449:106|449:106|448:104|448:104|448:103|448:102|448:102|450:104|450:104|446:103|446:103|448:104|448:104|447:105|447:106|447:106|449:107|449:107|445:107|445:107|447:108|447:108|447:108|447:109|447:109|449:110|449:110|445:110|445:110|447:111|447:111|447:112|447:113|447:113|449:114|449:114|445:114|445:114|446:115|446:115|446:115|446:116|446:116|449:117|449:117|445:117|445:117|447:118|447:118|446:119|446:119|446:119|448:120|448:120|445:121|445:121|447:122|447:122|446:122|446:123|446:123|448:123|448:123|445:124|445:124|447:125|447:125|447:126|446:126|446:126|449:127|449:127|445:127|445:127|447:128|447:128|447:129|447:129|447:129|449:130|449:130|446:131|446:131|448:131|448:131|448:132|448:133|448:133|450:133|450:133|446:134|446:134|448:135|448:135|448:136|448:136|448:136|451:137|451:137|447:137|447:137|449:138|449:138|449:138|450:139|450:139|452:140|452:140|448:141|448:141|450:141|450:141|451:142|450:143|450:143|453:143|453:143|449:144|449:144|452:144|452:144|451:145|452:146|452:146|454:146|454:146|450:148|450:148|452:147|452:147|453:148|453:149|453:149|456:149|456:149|452:151|452:151|454:150|454:150|454:151|455:152|455:152|457:152|457:152|453:154|453:154|456:153|456:153|457:154|457:154|459:154|459:154|456:157|456:157|458:156|458:156|458:157|458:157|461:157|461:157|457:159|457:159|460:159|460:159|461:160|460:160|460:160|463:159|463:159|459:162|459:162|462:161|462:161|463:162|463:163|463:163|465:162|465:162|462:165|462:165|464:164|464:164|465:165|465:165,1,411.750015707017,0|0,1:0|0:0,0:0:0:0:
508,262,568461,6,0,B|476:256|439:282|439:282|155:232,1,343.125,8|0,1:0|0:0,0:0:0:0:
173,235,568715,6,0,P|179:193|122:165,1,102.937503926754,0|0,1:0|0:0,0:0:0:0:
32,335,568969,6,0,L|214:317,1,183,4|0,1:2|0:0,0:0:0:0:
275,146,569160,6,0,P|288:64|368:79,1,183,0|0,1:0|0:0,0:0:0:0:
417,252,569350,6,0,P|395:230|412:257,1,91.5,0|0,1:0|0:0,0:0:0:0:
334,309,569477,6,0,B|439:307|386:267|508:262,1,183,4|0,1:2|0:0,0:0:0:0:
285,384,569668,6,0,P|291:299|226:207,1,183,0|0,1:0|0:0,0:0:0:0:
175,277,569859,2,0,P|161:318|190:350,1,91.5,0|0,1:0|0:0,0:0:0:0:
144,177,569986,6,0,P|47:119|75:254,1,308.812511780262,4|0,1:2|0:0,0:0:0:0:
60,234,570240,2,0,P|36:154|113:183,1,205.875007853508,2|0,0:0|0:0,0:0:0:0:
133,268,570494,6,0,P|151:162|173:39,1,205.875007853508,2|0,0:0|0:0,0:0:0:0:
123,3,570749,1,6,0:0:0:0:
461,5,571003,5,4,1:3:0:0:
462,12,571066,1,2,1:2:0:0:
463,20,571130,1,2,1:2:0:0:
464,27,571193,1,2,1:2:0:0:
466,35,571257,1,2,1:2:0:0:
467,42,571320,1,2,1:2:0:0:
468,50,571384,1,2,1:2:0:0:
470,57,571447,1,2,1:2:0:0:
471,65,571511,1,2,1:2:0:0:
472,72,571575,1,2,1:2:0:0:
474,80,571638,2,0,L|462:175,5,59.4749972774507,2|2|2|2|2|2,1:2|1:2|1:2|1:2|1:2|1:2,0:0:0:0:
331,0,572020,5,2,1:0:0:0:
338,28,572083,1,2,1:2:0:0:
345,57,572147,1,2,1:2:0:0:
352,86,572210,1,2,1:2:0:0:
359,115,572274,1,2,1:2:0:0:
366,144,572337,1,2,1:2:0:0:
373,173,572401,1,2,1:1:0:0:
380,202,572464,1,2,1:2:0:0:
387,231,572528,1,2,1:2:0:0:
394,260,572592,1,2,1:2:0:0:
400,289,572655,1,2,1:2:0:0:
407,318,572719,1,2,1:2:0:0:
409,340,572783,5,2,1:0:0:0:
368,361,572846,1,0,1:2:0:0:
324,346,572910,1,2,1:0:0:0:
305,304,572973,1,0,1:0:0:0:
307,249,573037,5,8,1:0:0:0:
313,246,573100,1,2,1:2:0:0:
320,243,573164,1,2,1:2:0:0:
327,240,573227,1,2,1:2:0:0:
335,238,573291,1,2,1:2:0:0:
342,235,573354,1,2,1:2:0:0:
349,232,573418,1,2,1:2:0:0:
356,230,573481,1,2,1:2:0:0:
363,227,573545,1,2,1:2:0:0:
370,225,573609,1,2,1:2:0:0:
378,222,573672,2,0,L|462:193,5,59.4749972774507,2|2|2|2|2|2,1:2|1:2|1:2|1:2|1:2|1:2,0:0:0:0:
460,350,574054,5,2,1:0:0:0:
430,346,574117,1,2,1:2:0:0:
401,342,574181,1,2,1:2:0:0:
371,338,574244,1,2,1:2:0:0:
342,334,574308,1,2,1:2:0:0:
312,330,574371,1,2,1:2:0:0:
283,327,574435,1,2,1:1:0:0:
253,323,574498,1,2,1:2:0:0:
223,320,574562,1,2,1:2:0:0:
194,316,574626,1,2,1:2:0:0:
164,313,574689,1,2,1:2:0:0:
135,310,574753,1,2,1:2:0:0:
117,334,574816,5,2,1:0:0:0:
70,338,574879,1,0,1:2:0:0:
35,308,574943,1,2,1:0:0:0:
32,262,575006,1,0,1:0:0:0:
63,227,575071,5,4,1:3:0:0:
64,234,575134,1,2,1:2:0:0:
65,242,575198,1,2,1:2:0:0:
66,249,575261,1,2,1:2:0:0:
68,257,575325,1,2,1:2:0:0:
69,264,575388,1,2,1:2:0:0:
70,272,575452,1,2,1:2:0:0:
72,279,575515,1,2,1:2:0:0:
73,287,575579,1,2,1:2:0:0:
74,294,575643,1,2,1:2:0:0:
76,302,575706,2,0,L|64:397,5,59.4749972774507,2|2|2|2|2|2,1:2|1:2|1:2|1:2|1:2|1:2,0:0:0:0:
167,217,576088,5,2,1:0:0:0:
181,230,576151,1,2,1:2:0:0:
193,246,576215,1,2,1:2:0:0:
202,264,576278,1,2,1:2:0:0:
208,282,576342,1,2,1:2:0:0:
212,302,576405,1,2,1:2:0:0:
212,320,576469,5,2,1:1:0:0:
251,322,576532,1,2,1:2:0:0:
288,308,576596,1,2,1:2:0:0:
316,281,576659,1,2,1:2:0:0:
331,245,576723,1,2,1:2:0:0:
331,206,576786,1,2,1:2:0:0:
316,170,576850,5,2,1:0:0:0:
297,116,576913,1,0,1:2:0:0:
336,76,576977,1,2,1:0:0:0:
390,93,577040,1,0,1:0:0:0:
401,150,577105,6,0,P|198:171|15:195,1,356.849983664704,12|0,1:0|0:0,0:0:0:0:
467,43,577994,5,4,3:0:0:0:
467,43,578122,2,0,P|491:131|442:224,1,183,8|0,3:3|0:0,0:0:0:0:
406,294,578376,2,0,P|334:253|370:178,1,183,12|0,3:3|0:0,0:0:0:0:
301,384,578630,5,12,3:3:0:0:
298,372,578693,1,8,3:0:0:0:
295,361,578757,1,8,3:0:0:0:
292,350,578820,1,8,3:0:0:0:
289,339,578884,2,0,P|352:263|516:291,1,274.5,8|0,3:0|0:0,0:0:0:0:
410,199,579138,5,4,3:2:0:0:
404,214,579266,1,0,0:0:0:0:
205,378,579393,2,0,P|192:299|157:227,1,160.125001527071,12|0,3:0|0:0,0:0:0:0:
43,187,579647,1,4,3:0:0:0:
152,312,579774,6,0,P|108:374|26:369,1,160.125001527071,0|12,3:0|3:0,0:0:0:0:
137,72,580028,1,0,3:0:0:0:
73,300,580155,6,0,P|80:220|103:143,1,160.125001527071,4|0,3:0|0:0,0:0:0:0:
335,34,580410,1,12,3:0:0:0:
253,223,580537,1,0,3:0:0:0:
260,9,580664,5,4,3:0:0:0:
327,253,580791,1,0,3:0:0:0:
505,65,580918,1,8,3:0:0:0:
365,109,581045,1,0,3:0:0:0:
512,316,581172,5,4,3:2:0:0:
144,250,581427,2,0,P|224:260|309:285,1,160.125001527071,8|0,3:0|0:0,0:0:0:0:
370,322,581681,5,4,3:0:0:0:
316,94,581808,2,0,P|240:91|208:159,1,160.125001527071,0|8,3:0|3:0,0:0:0:0:
441,365,582062,1,0,3:0:0:0:
480,241,582189,5,4,3:0:0:0:
472,228,582316,1,0,0:0:0:0:
205,375,582444,2,0,P|158:324|180:221,1,160.125001527071,8|0,3:0|0:0,0:0:0:0:
103,14,582698,6,0,P|177:9|206:79,1,160.125001527071,4|0,3:0|0:0,0:0:0:0:
75,239,582952,1,8,3:0:0:0:
72,230,583015,1,8,3:0:0:0:
70,220,583079,1,8,3:0:0:0:
67,210,583142,1,8,3:0:0:0:
65,201,583206,5,4,3:2:0:0:
128,104,583333,1,0,0:0:0:0:
198,354,583461,2,0,P|150:337|31:321,1,160.125001527071,12|0,3:0|0:0,0:0:0:0:
191,164,583715,5,4,3:0:0:0:
47,86,583842,2,0,P|96:27|173:35,1,160.125001527071,0|12,3:0|3:0,0:0:0:0:
251,238,584096,1,0,3:0:0:0:
248,2,584223,6,0,P|270:79|275:159,1,160.125001527071,4|0,3:0|0:0,0:0:0:0:
444,344,584477,1,12,3:0:0:0:
300,301,584605,1,0,3:0:0:0:
489,166,584732,5,4,3:0:0:0:
251,238,584858,1,0,3:0:0:0:
359,377,584985,1,8,3:0:0:0:
415,134,585112,1,0,3:0:0:0:
176,208,585240,6,0,P|226:134|314:118,1,183,4|0,3:2|0:0,0:0:0:0:
107,362,585494,1,8,3:0:0:0:
107,362,585558,1,0,3:0:0:0:
107,362,585622,6,0,P|105:276|70:159,1,183,4|0,3:0|0:0,0:0:0:0:
107,47,585876,1,4,3:0:0:0:
10,252,586003,2,0,P|76:315|167:272,1,183,8|0,3:0|3:0,0:0:0:0:
347,7,586257,5,14,3:3:0:0:
505,222,586384,1,0,3:0:0:0:
299,334,586511,1,0,3:0:0:0:
445,324,586638,5,14,3:0:0:0:
270,260,586765,1,0,3:0:0:0:
374,362,586892,1,0,3:0:0:0:
465,144,587020,5,12,3:0:0:0:
468,135,587083,1,8,3:0:0:0:
470,125,587147,1,8,3:0:0:0:
473,115,587210,1,8,3:0:0:0:
479,105,587293,6,0,P|347:44|26:12,1,446.062517015935,6|0,0:3|0:0,0:0:0:0:
176,242,588374,6,0,B|196:302|160:295|147:367|147:367|128:299|151:295|166:249|166:249|212:191|182:101|101:76|38:109|16:161,1,549.000020942689,2|0,0:3|0:0,0:0:0:0:
392,346,589600,6,0,B|452:336|488:262|441:196|381:197|381:197|318:197|271:129|310:58|368:46,1,446.062517015935,2|0,0:3|0:0,0:0:0:0:
449,1,590610,6,0,P|407:247|391:359,1,349.987489319229,2|0,0:2|0:0,0:0:0:0:
384,352,591908,5,6,0:1:0:0:
379,200,599552,6,0,B|445:176|516:253|463:344|384:341|306:307|300:207|349:123|414:92,1,457.5,0|8,0:0|0:1,0:0:0:0:
6,39,610369,6,0,L|16:113,2,61,0|0|0,1:0|1:0|1:0,1:0:0:0:
6,39,611571,6,0,L|1:60,1,15.25,0|0,1:0|1:0,1:0:0:0:
6,39,612100,6,0,L|46:87,2,61,0|0|0,1:0|1:0|1:0,1:0:0:0:
6,39,613254,6,0,L|46:87,1,61,0|0,1:0|1:0,1:0:0:0:
6,39,614168,6,0,L|1:60,1,15.25,0|0,1:0|1:0,1:0:0:0:
6,39,614648,6,0,L|1:60,1,15.25,0|0,1:0|1:0,1:0:0:0:
6,39,615466,6,0,L|69:54,2,61,0|0|0,1:0|1:0|1:0,1:0:0:0:
6,39,616187,6,0,L|2:20,1,15.25,0|0,1:0|1:0,1:0:0:0:
6,39,616523,6,0,L|-13:25,1,15.25,0|0,1:0|1:0,1:0:0:0:
6,38,617437,6,0,L|-13:41,1,15.25,0|0,1:0|1:0,1:0:0:0:
84,142,618446,6,0,B|59:171|57:234|143:261|186:185|143:137|103:147|103:147|194:109|183:-48|8:-64|-39:58|11:124,1,603.9
6,39,628254,6,0,L|-7:77,1,30.5,0|0,1:0|1:0,0:0:0:0:
6,39,629408,6,0,L|10:19,1,15.25,0|0,1:0|1:0,1:0:0:0:
6,39,629504,6,0,B|148:77|483:162|483:162|388:147|214:133,1,762.5
214,133,641667,6,0,P|139:146|68:167,1,146.4,4|0,0:3|0:0,0:0:0:0:
