osu file format v14

[General]
AudioFilename: audio.mp3
AudioLeadIn: 0
PreviewTime: 50530
Countdown: 0
SampleSet: Soft
StackLeniency: 0.7
Mode: 0
LetterboxInBreaks: 0
WidescreenStoryboard: 0

[Editor]
Bookmarks: 675,6224,13160,24258,35357,49229,50617,52004,61715,63102,74201,82524,93622,103333,105068,114432
DistanceSpacing: 1.6
BeatDivisor: 4
GridSize: 8
TimelineZoom: 2.55

[Metadata]
Title:Snow Halation
TitleUnicode:Snow Halation
Artist:Raon Lee
ArtistUnicode:Raon Lee
Creator:PotatoBoy123
Version:Halation
Source:
Tags:μ's love live christmas xenon xenon-
BeatmapID:1878725
BeatmapSetID:899400

[Difficulty]
HPDrainRate:6
CircleSize:3.8
OverallDifficulty:9
ApproachRate:9.2
SliderMultiplier:1.2
SliderTickRate:1

[Events]
//Background and Video events
0,0,"sdf.jpg",0,0
//Break Periods
//Storyboard Layer 0 (Background)
//Storyboard Layer 1 (Fail)
//Storyboard Layer 2 (Pass)
//Storyboard Layer 3 (Foreground)
//Storyboard Sound Samples

[TimingPoints]
675,346.820809248555,4,2,22,40,1,0
675,-111.111111111111,4,2,22,40,0,0
4836,-100,4,2,22,40,0,0
5790,-100,4,2,22,20,0,0
5877,-100,4,2,22,40,0,0
6224,-100,4,2,22,40,0,0
9258,-100,4,2,22,20,0,0
9345,-100,4,2,22,40,0,0
13160,-105.263157894737,4,2,22,52,0,0
15848,-105.263157894737,4,2,22,20,0,0
15935,-105.263157894737,4,2,22,52,0,0
22871,-105.263157894737,4,2,22,62,0,0
23565,-105.263157894737,4,2,22,52,0,0
24258,-83.3333333333333,4,2,22,62,0,0
32582,-125,4,2,22,62,0,0
32929,-111.111111111111,4,2,22,32,0,0
33189,-111.111111111111,4,2,22,5,0,0
33276,-100,4,2,22,42,0,0
33536,-100,4,2,22,5,0,0
33622,-90.9090909090909,4,2,22,52,0,0
33883,-90.9090909090909,4,2,22,5,0,0
33969,-83.3333333333333,4,2,22,62,0,0
34229,-83.3333333333333,4,2,22,5,0,0
34316,-83.3333333333333,4,2,22,72,0,0
34576,-83.3333333333333,4,2,22,5,0,0
34663,-83.3333333333333,4,2,22,72,0,0
35357,-83.3333333333333,4,2,22,72,0,0
36744,-76.9230769230769,4,2,22,72,0,0
37784,-66.6666666666667,4,2,22,72,0,0
38131,-83.3333333333333,4,2,22,72,0,0
38825,-76.9230769230769,4,2,22,72,0,0
40212,-90.9090909090909,4,2,22,72,0,0
40559,-66.6666666666667,4,2,22,72,0,0
40906,-83.3333333333333,4,2,22,72,0,0
41946,-90.9090909090909,4,2,22,72,0,0
42293,-71.4285714285714,4,2,22,72,0,0
42813,-66.6666666666667,4,2,22,72,0,0
43680,-76.9230769230769,4,2,22,72,0,0
44721,-66.6666666666667,4,2,22,72,0,0
45068,-66.6666666666667,4,2,22,72,0,0
45588,-76.9230769230769,4,2,22,72,0,0
46802,-71.4285714285714,4,2,22,72,0,0
49229,-71.4285714285714,4,2,22,82,0,0
51137,-71.4285714285714,4,2,22,62,0,0
51657,-71.4285714285714,4,2,22,72,0,0
52004,-66.6666666666667,4,2,22,82,0,1
54432,-68.9655172413793,4,2,22,82,0,1
54692,-68.9655172413793,4,2,22,30,0,1
54779,-62.5,4,2,22,82,0,1
55299,-64.5161290322581,4,2,22,82,0,1
56166,-66.6666666666667,4,2,22,82,0,1
57553,-62.5,4,2,22,82,0,1
58247,-66.6666666666667,4,2,22,82,0,1
60328,-62.5,4,2,22,82,0,1
61195,-66.6666666666667,4,2,22,82,0,1
61715,-66.6666666666667,4,2,22,82,0,0
63102,-66.6666666666667,4,2,22,82,0,1
65530,-71.4285714285714,4,2,22,82,0,1
65790,-71.4285714285714,4,2,22,30,0,1
65877,-62.5,4,2,22,82,0,1
66397,-64.5161290322581,4,2,22,82,0,1
66657,-64.5161290322581,4,2,22,25,0,1
66744,-64.5161290322581,4,2,22,82,0,1
68305,-66.6666666666667,4,2,22,82,0,1
68651,-62.5,4,2,22,82,0,1
69345,-66.6666666666667,4,2,22,82,0,1
71426,-58.8235294117647,4,2,22,82,0,1
74201,-100,4,2,22,72,0,0
76628,-71.4285714285714,4,2,22,72,0,0
76888,-71.4285714285714,4,2,22,30,0,0
76975,-83.3333333333333,4,2,22,72,0,0
79403,-76.9230769230769,4,2,22,72,0,0
81484,-76.9230769230769,4,2,22,52,0,0
82177,-76.9230769230769,4,2,22,62,0,0
82524,-66.6666666666667,4,2,22,72,0,0
83565,-76.9230769230769,4,2,22,72,0,0
87727,-90.9090909090909,4,2,22,72,0,0
87987,-90.9090909090909,4,2,22,30,0,0
88073,-76.9230769230769,4,2,22,72,0,0
93622,-66.6666666666667,4,2,22,82,0,1
103333,-100,4,2,22,82,0,0
105068,-100,4,2,22,52,0,0
108883,-100,4,2,22,42,0,0
113044,-100,4,2,22,32,0,0
114432,-100,4,2,22,12,0,0

[Colours]
Combo1 : 255,255,145
Combo2 : 255,128,128
Combo3 : 255,128,255
Combo4 : 242,60,60
Combo5 : 0,128,255
Combo6 : 0,215,54

[HitObjects]
400,180,675,6,0,P|408:210|402:242,1,53.9999983520508,2|0,0:2|0:2,0:0:0:0:
344,303,1021,1,2,0:2:0:0:
263,246,1195,1,0,0:2:0:0:
200,322,1368,2,0,P|159:328|92:294,1,107.999996704102,2|2,0:2|0:2,0:0:0:0:
66,210,1888,6,0,P|69:183|63:150,1,53.9999983520508,2|2,0:2|0:2,0:0:0:0:
166,232,2235,1,0,0:2:0:0:
201,101,2409,1,2,0:2:0:0:
262,184,2582,1,2,0:2:0:0:
262,184,2929,1,2,0:2:0:0:
344,139,3102,1,0,0:2:0:0:
399,216,3276,1,2,0:2:0:0:
438,107,3449,6,0,L|440:-6,1,107.999996704102,2|2,0:2|0:2,0:0:0:0:
347,47,3969,1,2,0:2:0:0:
339,42,4836,6,0,B|311:53|280:44|280:44|247:34|210:49,1,120,2|0,0:2|0:2,0:0:0:0:
203,134,5357,1,2,0:2:0:0:
129,80,5530,2,0,P|113:119|119:172,1,90,2|0,0:2|0:0,0:0:0:0:
151,190,5877,2,0,P|160:220|156:264,1,60,0|0,0:0|0:2,0:0:0:0:
253,332,6224,6,0,P|252:302|261:273,1,60,2|0,0:2|0:2,0:0:0:0:
316,199,6570,1,2,0:2:0:0:
371,266,6744,2,0,L|438:271,1,60,2|0,0:2|0:0,0:0:0:0:
481,125,7091,1,2,0:2:0:0:
423,191,7264,1,0,0:2:0:0:
390,67,7438,1,2,0:2:0:0:
310,113,7611,6,0,L|240:114,1,60,2|0,0:2|0:2,0:0:0:0:
155,119,7958,1,2,0:2:0:0:
224,249,8131,2,0,P|224:219|215:190,1,60,2|0,0:2|0:0,0:0:0:0:
86,206,8478,2,0,P|111:222|141:229,1,60,2|0,0:2|0:0,0:0:0:0:
162,124,8825,1,0,0:0:0:0:
105,44,8998,6,0,B|74:47|74:47|48:42|48:42|7:47,1,90,2|0,0:2|0:0,0:0:0:0:
5,61,9345,2,0,L|8:123,1,60,0|0,0:0|0:2,0:0:0:0:
86,206,9692,1,2,0:2:0:0:
20,267,9865,2,0,L|17:329,2,60,0|2|0,0:2|0:2|0:2,0:0:0:0:
110,370,10385,5,2,0:2:0:0:
256,192,10472,12,2,11773,0:2:0:0:
201,155,12987,5,0,0:0:0:0:
201,155,13073,1,0,0:0:0:0:
201,155,13160,2,0,L|202:220,1,56.9999984779358,2|0,0:2|0:2,0:0:0:0:
132,284,13507,1,2,0:2:0:0:
229,313,13680,2,0,B|269:307|269:307|301:312|301:312|344:305,1,113.999996955872,2|0,0:2|0:2,0:0:0:0:
409,231,14201,1,2,0:2:0:0:
347,152,14374,6,0,P|335:118|354:39,1,113.999996955872,2|0,0:2|0:2,0:0:0:0:
247,71,14894,2,0,L|188:57,1,56.9999984779358,2|0,0:2|0:2,0:0:0:0:
147,196,15241,2,0,L|186:154,1,56.9999984779358,2|0,0:2|0:2,0:0:0:0:
88,46,15588,2,0,L|94:137,1,85.4999977169037,2|0,0:2|0:0,0:0:0:0:
56,166,15935,6,0,L|52:222,1,56.9999984779358,2|0,0:2|0:0,0:0:0:0:
110,306,16281,1,2,0:2:0:0:
183,239,16455,2,0,B|212:228|239:239|239:239|265:249|301:237,1,113.999996955872,2|0,0:2|0:0,0:0:0:0:
320,100,16975,1,0,0:0:0:0:
378,184,17148,1,0,0:2:0:0:
378,184,17495,5,2,0:2:0:0:
392,316,17669,1,0,0:2:0:0:
315,257,17842,1,2,0:2:0:0:
271,346,18016,2,0,L|211:343,1,56.9999984779358,2|0,0:2|0:2,0:0:0:0:
149,266,18362,1,2,0:2:0:0:
90,348,18536,1,2,0:2:0:0:
47,236,18709,6,0,L|51:171,1,56.9999984779358,2|0,0:2|0:0,0:0:0:0:
118,94,19056,1,2,0:2:0:0:
189,162,19229,2,0,P|219:171|252:168,1,56.9999984779358,2|0,0:2|0:2,0:0:0:0:
353,87,19576,2,0,P|324:85|297:95,1,56.9999984779358,2|0,0:2|0:0,0:0:0:0:
344,189,19923,1,2,0:2:0:0:
452,159,20096,6,0,L|448:102,1,56.9999984779358,2|0,0:2|0:0,0:0:0:0:
422,257,20443,1,2,0:2:0:0:
344,189,20617,1,2,0:2:0:0:
300,343,20964,2,0,P|248:323|192:331,1,113.999996955872,2|2,0:2|0:2,0:0:0:0:
108,379,21484,6,0,L|104:320,1,56.9999984779358,2|0,0:2|0:0,0:0:0:0:
46,243,21831,1,0,0:0:0:0:
2,333,22004,1,0,0:0:0:0:
146,237,22177,2,0,L|212:234,1,56.9999984779358,0|2,0:2|0:2,0:0:0:0:
281,307,22524,1,0,0:2:0:0:
316,138,22698,1,2,0:2:0:0:
406,286,22871,5,2,1:2:0:0:
203,185,23044,1,2,1:2:0:0:
191,194,23565,5,2,1:2:0:0:
441,96,23739,1,2,1:2:0:0:
209,83,23911,1,8,0:0:0:0:
197,108,23997,1,8,0:2:0:0:
190,136,24084,1,8,0:2:0:0:
187,164,24171,1,8,0:0:0:0:
191,194,24258,6,0,L|198:272,1,71.9999978027344,6|0,1:2|0:2,0:0:0:0:
284,324,24605,1,2,1:2:0:0:
294,226,24779,2,0,B|339:199|339:199|431:217,1,143.999995605469,2|0,0:2|0:2,0:0:0:0:
512,282,25299,1,2,1:2:0:0:
512,178,25472,6,0,L|505:106,1,71.9999978027344,2|0,0:2|1:2,0:0:0:0:
435,24,25819,1,0,0:0:0:0:
375,109,25992,2,0,P|345:128|310:136,1,71.9999978027344,2|0,1:2|0:2,0:0:0:0:
256,8,26339,2,0,P|288:24|313:51,1,71.9999978027344,2|0,1:2|0:2,0:0:0:0:
227,160,26686,2,0,P|224:124|235:90,1,71.9999978027344,2|0,1:2|3:2,0:0:0:0:
338,238,27033,6,0,L|250:242,1,71.9999978027344,2|0,0:2|0:2,0:0:0:0:
155,156,27380,2,0,L|243:160,1,71.9999978027344,2|0,1:2|0:2,0:0:0:0:
186,307,27727,2,0,P|178:268|183:233,1,71.9999978027344,2|0,1:2|0:2,0:0:0:0:
293,382,28073,6,0,B|253:372|220:384|220:384|187:398|146:383,1,143.999995605469,2|0,1:2|1:2,0:0:0:0:
42,267,28594,2,0,P|82:259|118:266,1,71.9999978027344,0|0,0:2|1:2,0:0:0:0:
151,384,28940,1,0,0:2:0:0:
278,275,29114,1,0,1:2:0:0:
157,197,29287,1,0,0:2:0:0:
293,382,29461,1,0,1:2:0:0:
316,150,29634,1,8,0:2:0:0:
278,275,29807,6,0,L|354:281,1,71.9999978027344,2|0,1:2|0:2,0:0:0:0:
427,350,30154,1,2,1:2:0:0:
466,194,30328,2,0,P|474:233|472:268,1,71.9999978027344,2|0,0:2|1:2,0:0:0:0:
420,112,30675,2,0,P|459:104|494:106,1,71.9999978027344,2|0,0:2|1:2,0:0:0:0:
376,191,31021,1,2,0:2:0:0:
347,28,31195,6,0,L|199:29,1,143.999995605469,0|0,1:2|1:2,0:0:0:0:
130,203,31715,2,0,L|156:126,1,71.9999978027344,2|0,0:2|1:2,0:0:0:0:
7,76,32062,2,0,L|54:130,1,71.9999978027344,2|0,0:2|1:2,0:0:0:0:
109,26,32409,1,2,0:2:0:0:
30,226,32582,6,0,P|38:254|40:304,1,72,0|0,1:2|0:0,0:0:0:0:
20,333,32929,2,0,L|117:337,1,80.9999975280763,4|0,1:2|0:0,0:0:0:0:
144,300,33276,2,0,B|177:290|177:290|252:302,1,90,4|0,1:2|0:0,0:0:0:0:
283,352,33622,2,0,P|303:315|299:252,1,99.0000030212403,4|0,1:2|0:0,0:0:0:0:
234,219,33969,6,0,P|214:182|221:116,1,107.999996704102,4|0,1:2|0:0,0:0:0:0:
307,112,34316,2,0,L|415:118,1,107.999996704102,4|0,1:2|0:0,0:0:0:0:
476,190,34663,1,0,1:2:0:0:
270,268,34836,1,8,0:2:0:0:
457,315,35010,1,8,0:3:0:0:
414,117,35183,1,4,0:3:0:0:
371,353,35357,6,0,B|337:336|302:351|302:351|268:366|224:346,1,143.999995605469,4|2,1:2|0:2,0:0:0:0:
186,201,35877,1,0,1:2:0:0:
301,259,36050,2,0,P|339:267|380:257,1,71.9999978027344,10|0,0:2|0:2,0:0:0:0:
475,160,36397,1,2,0:2:0:0:
457,315,36570,1,2,1:2:0:0:
344,175,36744,6,0,L|350:91,1,77.9999964294435,2|0,0:2|0:2,0:0:0:0:
186,201,37091,2,0,L|191:278,1,77.9999964294435,0|0,1:2|0:2,0:0:0:0:
60,101,37438,1,8,0:2:0:0:
18,268,37611,1,0,1:2:0:0:
186,201,37784,2,0,B|219:187|252:196|252:196|289:205|324:184,1,135.000005149841,4|0,1:2|0:0,0:0:0:0:
397,139,38131,6,0,L|406:219,1,71.9999978027344,4|0,0:2|0:2,0:0:0:0:
345,362,38478,1,2,0:2:0:0:
230,271,38651,1,0,1:2:0:0:
103,361,38825,2,0,P|87:329|85:279,1,77.9999964294435,10|0,0:2|0:2,0:0:0:0:
249,346,39172,1,2,0:2:0:0:
271,135,39345,6,0,P|268:173|251:208,1,77.9999964294435,2|0,1:2|0:2,0:0:0:0:
150,61,39692,1,10,0:2:0:0:
250,203,39865,1,2,0:2:0:0:
320,10,40039,1,2,1:2:0:0:
343,178,40212,2,0,L|443:171,1,99.0000030212403,8|0,0:2|0:0,0:0:0:0:
478,156,40559,2,0,B|461:203|461:203|476:304,1,135.000005149841,4|0,1:2|0:0,0:0:0:0:
423,347,40906,6,0,P|380:353|340:335,1,71.9999978027344,6|0,1:2|0:2,0:0:0:0:
270,170,41253,2,0,P|304:160|339:167,1,71.9999978027344,10|0,0:2|0:2,0:0:0:0:
216,290,41599,1,2,1:2:0:0:
166,113,41773,1,0,1:2:0:0:
88,294,41946,2,0,L|190:303,1,99.0000030212403,10|0,0:2|0:0,0:0:0:0:
216,290,42293,6,0,L|306:282,1,83.9999974365235,2|0,1:2|0:0,0:0:0:0:
404,205,42640,1,10,0:2:0:0:
401,366,42813,2,0,P|434:305|403:204,1,180.000006866455,2|0,1:2|1:2,0:0:0:0:
302,367,43333,2,0,L|212:362,1,90.0000034332277,8|0,0:2|0:2,0:0:0:0:
158,146,43680,6,0,P|174:194|171:236,1,77.9999964294435,6|0,1:2|0:2,0:0:0:0:
20,299,44027,2,0,P|21:260|35:224,1,77.9999964294435,10|0,0:2|0:2,0:0:0:0:
194,333,44374,1,2,1:2:0:0:
276,161,44547,1,0,1:2:0:0:
386,302,44721,2,0,P|425:313|518:265,1,135.000005149841,10|0,0:2|0:0,0:0:0:0:
479,208,45068,6,0,P|465:167|469:114,1,90.0000034332277,2|0,1:2|0:0,0:0:0:0:
403,6,45414,1,10,0:2:0:0:
334,117,45588,2,0,B|296:135|258:115|258:115|223:98|179:115,1,155.999992858887,2|0,1:2|1:2,0:0:0:0:
221,274,46108,2,0,P|227:235|219:198,1,77.9999964294435,8|0,0:2|0:2,0:0:0:0:
93,360,46455,5,6,1:2:0:0:
15,218,46628,1,0,0:2:0:0:
221,274,46802,2,0,L|125:268,1,83.9999974365235,10|0,0:2|0:2,0:0:0:0:
301,353,47148,1,2,1:2:0:0:
394,155,47322,1,0,1:2:0:0:
441,323,47495,1,10,0:2:0:0:
218,197,47669,6,0,P|263:191|303:198,1,83.9999974365235,2|0,0:2|1:2,0:0:0:0:
80,245,48016,2,0,P|74:200|82:161,1,83.9999974365235,2|8,0:2|0:2,0:0:0:0:
202,75,48362,1,2,1:2:0:0:
333,254,48536,1,0,0:2:0:0:
376,0,48709,1,2,1:2:0:0:
219,197,48883,1,8,0:2:0:0:
219,197,48969,1,0,0:0:0:0:
219,197,49056,1,2,1:2:0:0:
452,118,49229,5,14,0:2:0:0:
145,72,49403,1,0,1:2:0:0:
352,311,49576,5,10,0:2:0:0:
382,30,49750,1,0,1:2:0:0:
62,180,49923,5,10,0:2:0:0:
440,250,50096,1,0,1:2:0:0:
159,6,50270,5,10,0:2:0:0:
128,316,50443,1,0,1:2:0:0:
468,80,50617,5,10,1:2:0:0:
55,262,50790,1,8,1:2:0:0:
393,202,51310,6,0,L|388:238,15,20.9999993591309,2|0|0|0|0|0|0|0|8|0|0|0|0|0|0|0,0:2|0:0|0:0|0:0|1:2|0:0|0:0|0:0|0:2|0:0|0:0|0:0|1:0|0:0|0:0|0:0,0:0:0:0:
375,168,52004,6,0,B|333:147|287:164|287:164|240:182|193:159,1,180.000006866455,4|10,1:2|0:2,0:0:0:0:
105,38,52524,1,0,0:2:0:0:
56,230,52698,1,2,1:2:0:0:
250,49,52871,1,0,1:2:0:0:
328,250,53044,1,10,0:2:0:0:
200,162,53218,6,0,L|101:156,1,90.0000034332277,2|0,0:2|1:2,0:0:0:0:
258,326,53565,1,0,0:2:0:0:
397,189,53738,2,0,P|444:175|501:181,1,90.0000034332277,10|0,0:2|1:2,0:0:0:0:
264,108,54085,1,2,0:2:0:0:
452,30,54258,1,0,1:2:0:0:
397,189,54432,2,0,B|375:236|375:236|383:331,1,130.500003982544,10|0,0:2|0:0,0:0:0:0:
312,360,54779,6,0,P|266:343|202:344,1,96,2|0,1:2|0:2,0:0:0:0:
84,384,55125,1,10,0:2:0:0:
131,248,55299,2,0,P|158:161|116:63,1,186.000001419067,2|2,0:2|1:2,0:0:0:0:
29,286,55819,1,8,0:2:0:0:
126,74,55992,1,2,0:2:0:0:
267,248,56166,6,0,P|320:249|367:233,1,90.0000034332277,2|0,1:2|0:2,0:0:0:0:
243,57,56513,1,10,0:2:0:0:
135,243,56686,1,0,1:2:0:0:
365,151,56859,1,2,1:2:0:0:
170,156,57033,1,8,0:2:0:0:
390,310,57206,5,14,0:2:0:0:
348,59,57380,1,0,1:2:0:0:
301,326,57553,6,0,P|256:325|209:308,1,96,6|0,1:2|0:2,0:0:0:0:
170,156,57900,1,10,0:2:0:0:
125,369,58073,1,0,0:2:0:0:
307,198,58247,2,0,P|348:182|393:181,1,90.0000034332277,2|0,1:2|1:2,0:0:0:0:
211,375,58594,1,10,0:2:0:0:
82,229,58767,6,0,L|74:50,1,180.000006866455,2|0,0:2|0:0,0:0:0:0:
221,194,59287,1,8,0:2:0:0:
281,0,59461,1,0,1:2:0:0:
431,192,59634,2,0,P|445:150|441:96,1,90.0000034332277,0|0,0:2|1:2,0:0:0:0:
329,298,59981,1,10,0:2:0:0:
219,34,60154,1,2,0:2:0:0:
133,318,60328,6,0,P|56:321|1:212,1,192,6|8,1:2|0:2,0:0:0:0:
146,51,60848,1,0,0:2:0:0:
236,261,61021,1,2,1:2:0:0:
315,108,61195,2,0,P|364:91|423:91,1,90.0000034332277,0|8,1:2|0:2,0:0:0:0:
242,269,61542,1,2,0:2:0:0:
147,50,61715,5,10,0:2:0:0:
82,324,61888,1,8,0:2:0:0:
172,279,62409,5,8,0:2:0:0:
61,6,62582,1,10,0:2:0:0:
31,207,62755,1,8,0:2:0:0:
71,202,62841,1,8,0:2:0:0:
111,198,62928,1,8,0:2:0:0:
151,193,63016,1,8,0:0:0:0:
191,189,63102,6,0,L|288:180,1,90.0000034332277,4|0,1:2|0:2,0:0:0:0:
150,14,63449,2,0,L|53:5,1,90.0000034332277,10|0,0:2|0:2,0:0:0:0:
191,273,63796,1,2,1:2:0:0:
318,55,63969,1,0,1:2:0:0:
111,104,64143,1,10,0:2:0:0:
350,178,64316,6,0,P|402:179|447:165,1,90.0000034332277,2|0,0:2|1:2,0:0:0:0:
202,40,64663,1,0,0:2:0:0:
90,183,64836,2,0,L|98:273,1,90.0000034332277,10|0,0:2|1:2,0:0:0:0:
237,376,65183,1,2,0:2:0:0:
248,140,65357,1,0,1:2:0:0:
382,276,65530,2,0,B|431:285|431:285|504:256,1,125.999996154785,10|0,0:2|0:0,0:0:0:0:
484,181,65877,6,0,L|475:84,1,96,2|0,1:2|0:2,0:0:0:0:
352,0,66224,1,10,0:2:0:0:
248,140,66397,2,0,L|104:148,1,139.500001064301,2|0,0:2|0:0,0:0:0:0:
74,125,66744,1,0,1:2:0:0:
209,252,66917,1,10,0:2:0:0:
225,32,67091,1,2,0:2:0:0:
50,249,67264,5,2,1:2:0:0:
321,208,67438,1,0,0:2:0:0:
109,30,67611,1,10,0:2:0:0:
136,299,67784,1,0,1:2:0:0:
287,122,67958,1,2,1:2:0:0:
50,249,68131,1,8,0:2:0:0:
286,326,68305,2,0,L|377:330,1,90.0000034332277,14|0,0:2|1:2,0:0:0:0:
136,109,68651,6,0,B|142:178|142:178|127:226|127:226|135:298,1,192,6|10,1:2|0:2,0:0:0:0:
232,384,69172,1,0,0:2:0:0:
334,264,69345,2,0,L|339:167,1,90.0000034332277,2|0,1:2|1:2,0:0:0:0:
347,32,69692,1,10,0:2:0:0:
228,145,69865,6,0,P|171:166|74:99,1,180.000006866455,2|0,0:2|0:0,0:0:0:0:
57,272,70385,1,8,0:2:0:0:
168,65,70559,1,0,1:2:0:0:
162,327,70732,1,0,0:2:0:0:
76,106,70906,1,0,1:2:0:0:
287,224,71079,1,10,0:2:0:0:
50,358,71253,1,2,0:2:0:0:
258,368,71426,6,0,B|312:341|361:358|361:358|408:374|458:351,1,204.000003890991,6|8,1:2|0:2,0:0:0:0:
484,188,71946,1,0,0:2:0:0:
316,49,72120,2,0,P|263:111|301:236,1,204.000003890991,2|8,1:2|0:2,0:0:0:0:
170,121,72640,1,2,0:2:0:0:
170,121,72727,1,0,0:0:0:0:
170,121,72813,6,0,P|125:110|82:111,1,90.0000034332277,14|0,0:2|0:0,0:0:0:0:
241,268,73160,1,10,0:2:0:0:
326,69,73333,2,0,P|369:58|414:59,1,90.0000034332277,6|0,1:2|0:0,0:0:0:0:
332,294,73680,1,2,1:2:0:0:
170,121,73854,1,8,0:2:0:0:
119,304,74027,1,8,0:2:0:0:
119,304,74114,1,8,0:0:0:0:
119,304,74201,6,0,L|-4:298,1,120,4|2,1:2|0:2,0:0:0:0:
224,208,74894,2,0,L|343:202,1,120,10|2,0:2|0:2,0:0:0:0:
458,253,75414,1,0,1:2:0:0:
484,134,75588,6,0,L|419:131,1,60,2|8,0:2|0:2,0:0:0:0:
343,202,75935,1,2,0:2:0:0:
318,61,76108,1,2,1:2:0:0:
238,120,76281,2,0,P|201:126|172:121,1,60,8|0,0:2|1:2,0:0:0:0:
57,86,76628,2,0,P|80:115|96:208,1,125.999996154785,4|0,1:2|0:0,0:0:0:0:
58,229,76975,6,0,L|52:316,1,71.9999978027344,6|0,1:2|0:0,0:0:0:0:
137,376,77322,1,2,0:2:0:0:
217,282,77495,1,2,1:2:0:0:
317,354,77669,2,0,P|356:356|400:341,1,71.9999978027344,10|0,0:2|0:2,0:0:0:0:
419,257,78016,1,2,0:2:0:0:
340,181,78189,1,2,1:2:0:0:
217,282,78362,6,0,L|212:210,1,71.9999978027344,2|10,0:2|0:2,0:0:0:0:
259,106,78709,1,2,0:2:0:0:
149,144,78883,1,2,1:2:0:0:
172,38,79056,2,0,P|197:13|245:-2,1,71.9999978027344,8|0,0:2|1:2,0:0:0:0:
143,150,79403,2,0,P|108:140|71:101,1,77.9999964294435,4|0,1:2|0:2,0:0:0:0:
259,106,79750,6,0,L|421:97,1,155.999992858887,4|2,1:2|0:2,0:0:0:0:
494,181,80270,1,2,1:2:0:0:
384,196,80443,2,0,L|291:192,1,77.9999964294435,10|2,0:2|1:2,0:0:0:0:
167,246,80790,1,8,0:2:0:0:
167,246,80877,1,0,0:0:0:0:
167,246,80964,1,2,1:2:0:0:
251,92,81137,5,10,0:2:0:0:
210,358,81310,1,10,0:2:0:0:
210,358,82004,1,2,0:2:0:0:
167,246,82177,2,0,P|117:234|50:239,1,116.999994644165,12|0,0:2|0:0,0:0:0:0:
37,258,82524,6,0,L|42:73,1,180.000006866455,4|8,1:2|0:2,0:0:0:0:
166,1,83044,1,0,0:2:0:0:
184,156,83218,1,0,1:2:0:0:
317,68,83391,1,0,1:2:0:0:
373,215,83565,2,0,P|333:226|289:223,1,77.9999964294435,8|0,0:2|0:2,0:0:0:0:
480,102,83911,6,0,B|475:162|475:162|491:199|491:199|485:281,1,155.999992858887,0|8,1:2|0:2,0:0:0:0:
406,345,84432,1,0,1:2:0:0:
226,259,84605,1,0,0:2:0:0:
427,217,84779,1,0,1:2:0:0:
215,260,84952,1,8,0:2:0:0:
257,81,85125,1,0,0:2:0:0:
205,262,85299,6,0,B|166:243|124:259|124:259|83:277|37:259,1,155.999992858887,0|8,1:2|0:2,0:0:0:0:
8,105,85819,1,0,0:2:0:0:
187,147,85992,1,0,1:2:0:0:
53,264,86166,1,0,1:2:0:0:
91,43,86339,2,0,P|132:30|185:29,1,77.9999964294435,8|0,0:2|0:2,0:0:0:0:
293,174,86686,6,0,P|280:133|279:80,1,77.9999964294435,0|0,1:2|0:0,0:0:0:0:
163,297,87033,2,0,P|175:256|176:203,1,77.9999964294435,8|0,0:2|1:2,0:0:0:0:
250,384,87380,1,0,1:2:0:0:
338,235,87553,1,8,0:2:0:0:
387,373,87727,2,0,P|449:383|502:368,1,99.0000030212403,8|0,0:2|0:0,0:0:0:0:
487,298,88073,6,0,B|462:241|462:241|470:141,1,155.999992858887,4|8,1:2|0:2,0:0:0:0:
398,30,88594,1,0,0:2:0:0:
312,176,88767,1,0,1:2:0:0:
469,147,88940,1,0,1:2:0:0:
284,88,89114,2,0,L|197:94,1,77.9999964294435,8|0,0:2|0:2,0:0:0:0:
84,185,89461,6,0,L|171:191,1,77.9999964294435,0|0,1:2|0:0,0:0:0:0:
308,264,89807,1,8,0:2:0:0:
121,316,89981,1,0,1:2:0:0:
311,341,90154,2,0,L|307:254,1,77.9999964294435,0|0,1:2|0:2,0:0:0:0:
439,155,90501,2,0,L|435:232,1,77.9999964294435,8|0,0:2|0:2,0:0:0:0:
204,176,90848,6,0,P|247:135|341:133,1,155.999992858887,0|8,1:2|0:2,0:0:0:0:
222,298,91368,1,0,0:2:0:0:
82,273,91542,2,0,L|80:190,1,77.9999964294435,0|0,1:2|1:2,0:0:0:0:
206,98,91888,2,0,L|204:175,1,77.9999964294435,8|0,0:2|0:2,0:0:0:0:
35,41,92235,6,0,P|72:29|111:28,1,77.9999964294435,0|0,1:2|0:2,0:0:0:0:
206,98,92582,1,8,0:2:0:0:
163,257,92755,1,0,1:2:0:0:
163,257,92842,1,8,0:0:0:0:
163,257,92929,1,0,1:2:0:0:
344,198,93102,1,8,0:2:0:0:
109,150,93276,2,0,L|56:154,2,38.9999982147218,0|8|0,1:2|0:0|1:2,0:0:0:0:
304,58,93622,6,0,L|407:51,1,90.0000034332277,4|0,1:2|0:2,0:0:0:0:
242,246,93969,5,10,0:2:0:0:
143,11,94143,1,0,1:2:0:0:
128,310,94316,5,8,0:2:0:0:
233,57,94490,1,0,1:2:0:0:
356,285,94663,5,10,0:2:0:0:
71,153,94836,1,0,1:2:0:0:
331,75,95010,6,0,L|326:168,1,90.0000034332277,0|0,1:2|0:2,0:0:0:0:
128,310,95357,5,10,0:2:0:0:
411,210,95530,1,0,1:2:0:0:
125,98,95703,5,8,0:2:0:0:
355,311,95877,1,0,1:2:0:0:
56,357,96050,5,10,0:2:0:0:
326,164,96224,1,0,1:2:0:0:
3,169,96397,6,0,L|93:174,1,90.0000034332277,0|0,1:2|0:2,0:0:0:0:
188,8,96744,5,10,0:2:0:0:
48,273,96917,1,0,1:2:0:0:
277,221,97091,5,8,0:2:0:0:
82,8,97264,1,0,1:2:0:0:
168,313,97438,5,10,0:2:0:0:
258,30,97611,1,0,1:2:0:0:
485,271,97784,5,0,1:2:0:0:
137,224,97958,1,0,1:2:0:0:
405,23,98131,5,10,0:2:0:0:
330,360,98305,1,0,1:2:0:0:
258,30,98478,5,8,0:2:0:0:
444,344,98651,1,0,1:2:0:0:
137,224,98825,6,0,L|91:228,2,45.0000017166138,10|0|0,0:2|0:0|1:2,0:0:0:0:
428,121,99172,6,0,L|421:212,1,90.0000034332277,4|0,1:2|0:2,0:0:0:0:
144,131,99518,5,10,0:2:0:0:
413,29,99692,1,0,1:2:0:0:
129,0,99865,5,8,0:2:0:0:
348,136,100039,1,0,1:2:0:0:
92,227,100212,5,10,0:2:0:0:
258,14,100385,1,0,1:2:0:0:
331,292,100559,6,0,L|240:299,1,90.0000034332277,0|0,1:2|0:2,0:0:0:0:
49,145,100906,5,10,0:2:0:0:
172,356,101079,1,0,1:2:0:0:
281,77,101253,5,8,0:2:0:0:
53,235,101426,1,0,1:2:0:0:
330,332,101599,5,10,0:2:0:0:
159,65,101773,1,0,1:2:0:0:
82,361,101946,6,0,L|172:355,1,90.0000034332277,0|0,1:2|0:2,0:0:0:0:
400,229,102293,5,10,0:2:0:0:
118,147,102466,1,0,1:2:0:0:
274,365,102640,5,8,0:2:0:0:
356,98,102813,1,0,1:2:0:0:
81,243,102987,5,10,0:2:0:0:
377,324,103160,1,0,1:2:0:0:
170,22,103333,5,8,0:2:0:0:
200,332,103507,1,8,0:2:0:0:
257,15,104027,5,8,0:2:0:0:
178,329,104201,1,8,0:2:0:0:
101,92,104374,1,0,1:2:0:0:
101,92,104461,1,8,0:0:0:0:
101,92,104547,2,0,L|96:130,1,30,8|0,0:2|0:0,0:0:0:0:
314,257,105068,5,4,0:2:0:0:
256,192,105154,12,0,114432,0:0:0:0:
