osu file format v14

[General]
AudioFilename: audio.mp3
AudioLeadIn: 0
PreviewTime: 40087
Countdown: 0
SampleSet: Soft
StackLeniency: 0.5
Mode: 0
LetterboxInBreaks: 0
WidescreenStoryboard: 1

[Editor]
Bookmarks: 7017,18245,29473,40701,51929,63157,74385,85613,96841,108069,119297,130525,133332
DistanceSpacing: 1.3
BeatDivisor: 4
GridSize: 16
TimelineZoom: 2.899999

[Metadata]
Title:Envy Baby
TitleUnicode:エンヴィーベイビー
Artist:Raon Lee
ArtistUnicode:이라온
Creator:Defy
Version:Some Defy's Insane
Source:
Tags:some_hero some hero hero_ic wanpachi chizu-kun japanese pop j-pop jpop kanaria gumi vocaloid cover full m2u taramaxu 999 엔비 베이비
BeatmapID:3004063
BeatmapSetID:1462190

[Difficulty]
HPDrainRate:5
CircleSize:4
OverallDifficulty:8.5
ApproachRate:8.5
SliderMultiplier:1.66
SliderTickRate:1

[Events]
//Background and Video events
0,0,"BG.jpg",0,0
//Break Periods
//Storyboard Layer 0 (Background)
//Storyboard Layer 1 (Fail)
//Storyboard Layer 2 (Pass)
//Storyboard Layer 3 (Foreground)
//Storyboard Layer 4 (Overlay)
//Storyboard Sound Samples

[TimingPoints]
1403,350.877192982456,4,2,1,45,1,0
1403,-125,4,2,1,45,0,0
5788,-125,4,2,1,90,0,0
7017,-86.9565217391304,4,2,1,65,0,0
7280,-86.9565217391304,4,2,1,5,0,0
7367,-86.9565217391304,4,2,1,65,0,0
12894,-86.9565217391304,4,2,1,5,0,0
12981,-86.9565217391304,4,2,1,65,0,0
18245,-86.9565217391304,4,2,1,55,0,0
18420,-125,4,2,1,55,0,0
29473,-125,4,2,1,45,0,0
29648,-86.9565217391304,4,2,1,45,0,0
31139,-86.9565217391304,4,2,1,5,0,0
31227,-86.9565217391304,4,2,1,45,0,0
31841,-86.9565217391304,4,2,1,5,0,0
31929,-86.9565217391304,4,2,1,45,0,0
32455,-100,4,2,1,45,0,0
32718,-86.9565217391304,4,2,1,5,0,0
32806,-86.9565217391304,4,2,1,45,0,0
33683,-76.9230769230769,4,2,1,65,0,0
33946,-76.9230769230769,4,2,1,5,0,0
34034,-76.9230769230769,4,2,1,65,0,0
34297,-76.9230769230769,4,2,1,5,0,0
34385,-100,4,2,1,65,0,0
35087,-100,4,2,1,60,0,0
39297,-100,4,2,1,65,0,0
39473,-57.1428571428571,4,2,1,65,0,0
39648,-57.1428571428571,4,2,1,70,0,0
39823,-57.1428571428571,4,2,1,75,0,0
40174,-250,4,2,1,40,0,0
40701,-60.6060606060606,4,2,1,85,0,1
40964,-60.6060606060606,4,2,1,5,0,1
41052,-60.6060606060606,4,2,1,85,0,1
41315,-60.6060606060606,4,2,1,5,0,1
41403,-60.6060606060606,4,2,1,85,0,1
41578,-74.0740740740741,4,2,1,85,0,1
42894,-74.0740740740741,4,2,1,5,0,1
42981,-74.0740740740741,4,2,1,85,0,1
44999,-74.0740740740741,4,2,1,5,0,1
45087,-74.0740740740741,4,2,1,85,0,1
46315,-60.6060606060606,4,2,1,85,0,1
46578,-60.6060606060606,4,2,1,5,0,1
46666,-60.6060606060606,4,2,1,85,0,1
46929,-60.6060606060606,4,2,1,5,0,1
47017,-60.6060606060606,4,2,1,85,0,1
47192,-74.0740740740741,4,2,1,85,0,1
48508,-74.0740740740741,4,2,1,5,0,1
48595,-74.0740740740741,4,2,1,85,0,1
50262,-74.0740740740741,4,2,1,5,0,1
50350,-74.0740740740741,4,2,1,85,0,1
50701,-64.5161290322581,4,2,1,85,0,1
50788,-64.5161290322581,4,2,1,5,0,1
50876,-64.5161290322581,4,2,1,85,0,1
50963,-64.5161290322581,4,2,1,5,0,1
51052,-64.5161290322581,4,2,1,85,0,1
51139,-64.5161290322581,4,2,1,5,0,1
51227,-64.5161290322581,4,2,1,85,0,1
51314,-64.5161290322581,4,2,1,5,0,1
51578,-64.5161290322581,4,2,1,85,0,1
51841,-64.5161290322581,4,2,1,5,0,1
51929,-64.5161290322581,4,2,1,85,0,0
53157,-64.5161290322581,4,2,1,85,0,1
53420,-64.5161290322581,4,2,1,5,0,1
53508,-64.5161290322581,4,2,1,85,0,1
55613,-74.0740740740741,4,2,1,85,0,1
55876,-74.0740740740741,4,2,1,5,0,1
55964,-74.0740740740741,4,2,1,85,0,1
57543,-74.0740740740741,4,2,1,85,0,0
58771,-64.5161290322581,4,2,1,85,0,1
59034,-64.5161290322581,4,2,1,5,0,1
59122,-64.5161290322581,4,2,1,85,0,1
60174,-74.0740740740741,4,2,1,85,0,1
61929,-74.0740740740741,4,2,1,90,0,1
62016,-74.0740740740741,4,2,1,5,0,1
62104,-74.0740740740741,4,2,1,90,0,1
62191,-74.0740740740741,4,2,1,5,0,1
62280,-74.0740740740741,4,2,1,90,0,1
62367,-74.0740740740741,4,2,1,5,0,1
62455,-74.0740740740741,4,2,1,90,0,1
63069,-74.0740740740741,4,2,1,5,0,1
63157,-74.0740740740741,4,2,1,65,0,0
64648,-74.0740740740741,4,2,1,5,0,0
64736,-74.0740740740741,4,2,1,65,0,0
70262,-74.0740740740741,4,2,1,5,0,0
70350,-74.0740740740741,4,2,1,65,0,0
73244,-74.0740740740741,4,2,1,5,0,0
73332,-74.0740740740741,4,2,1,65,0,0
73419,-74.0740740740741,4,2,1,5,0,0
73508,-74.0740740740741,4,2,1,65,0,0
73770,-74.0740740740741,4,2,1,5,0,0
74034,-74.0740740740741,4,2,1,65,0,0
74385,-74.0740740740741,4,2,1,55,0,0
74473,-74.0740740740741,4,2,1,15,0,0
74560,-74.0740740740741,4,2,1,55,0,0
74999,-74.0740740740741,4,2,1,15,0,0
75086,-74.0740740740741,4,2,1,55,0,0
75525,-74.0740740740741,4,2,1,15,0,0
75612,-74.0740740740741,4,2,1,55,0,0
75876,-74.0740740740741,4,2,1,15,0,0
75963,-74.0740740740741,4,2,1,55,0,0
76402,-74.0740740740741,4,2,1,15,0,0
76489,-74.0740740740741,4,2,1,55,0,0
76929,-74.0740740740741,4,2,1,15,0,0
77016,-74.0740740740741,4,2,1,55,0,0
77280,-74.0740740740741,4,2,1,15,0,0
77367,-74.0740740740741,4,2,1,55,0,0
77806,-74.0740740740741,4,2,1,15,0,0
77893,-74.0740740740741,4,2,1,55,0,0
78332,-74.0740740740741,4,2,1,15,0,0
78419,-74.0740740740741,4,2,1,55,0,0
78683,-74.0740740740741,4,2,1,15,0,0
78770,-74.0740740740741,4,2,1,55,0,0
79210,-74.0740740740741,4,2,1,15,0,0
79297,-74.0740740740741,4,2,1,55,0,0
79736,-74.0740740740741,4,2,1,15,0,0
79823,-74.0740740740741,4,2,1,55,0,0
79911,-74.0740740740741,4,2,1,15,0,0
79998,-74.0740740740741,4,2,1,55,0,0
80087,-74.0740740740741,4,2,1,15,0,0
80174,-74.0740740740741,4,2,1,55,0,0
80613,-74.0740740740741,4,2,1,15,0,0
80700,-74.0740740740741,4,2,1,55,0,0
81139,-74.0740740740741,4,2,1,15,0,0
81226,-74.0740740740741,4,2,1,55,0,0
81666,-74.0740740740741,4,2,1,15,0,0
81753,-74.0740740740741,4,2,1,55,0,0
82192,-74.0740740740741,4,2,1,15,0,0
82279,-74.0740740740741,4,2,1,55,0,0
82543,-74.0740740740741,4,2,1,15,0,0
82630,-74.0740740740741,4,2,1,55,0,0
82806,-100,4,2,1,55,0,0
83245,-100,4,2,1,5,0,0
83333,-100,4,2,1,55,0,0
84385,-100,4,2,1,60,0,0
85613,-100,4,2,1,45,0,0
85788,-142.857142857143,4,2,1,45,0,0
87718,-333.333333333334,4,2,1,45,0,0
88595,-142.857142857143,4,2,1,45,0,0
89824,-71.4285714285714,4,2,1,65,0,0
90087,-71.4285714285714,4,2,1,5,0,0
90174,-71.4285714285714,4,2,1,65,0,0
90437,-71.4285714285714,4,2,1,5,0,0
90525,-71.4285714285714,4,2,1,65,0,0
90788,-71.4285714285714,4,2,1,5,0,0
90876,-71.4285714285714,4,2,1,65,0,0
91139,-71.4285714285714,4,2,1,5,0,0
91227,-71.4285714285714,4,2,1,55,0,0
92631,-117.647058823529,4,2,1,55,0,0
93946,-117.647058823529,4,2,1,5,0,0
94034,-117.647058823529,4,2,1,55,0,0
95613,-100,4,2,1,65,0,0
95700,-100,4,2,1,5,0,0
95788,-100,4,2,1,70,0,0
95875,-100,4,2,1,5,0,0
95964,-100,4,2,1,75,0,0
96139,-100,4,2,1,5,0,0
96315,-100,4,2,1,50,0,0
96841,-60.6060606060606,4,2,1,85,0,1
97104,-60.6060606060606,4,2,1,5,0,1
97192,-60.6060606060606,4,2,1,85,0,1
98069,-74.0740740740741,4,2,1,85,0,1
101139,-74.0740740740741,4,2,1,5,0,1
101227,-74.0740740740741,4,2,1,85,0,1
102455,-60.6060606060606,4,2,1,85,0,1
102718,-60.6060606060606,4,2,1,5,0,1
102806,-60.6060606060606,4,2,1,85,0,1
103069,-60.6060606060606,4,2,1,5,0,1
103157,-60.6060606060606,4,2,1,85,0,1
103332,-74.0740740740741,4,2,1,85,0,1
103946,-74.0740740740741,4,2,1,5,0,1
104034,-74.0740740740741,4,2,1,85,0,1
104648,-74.0740740740741,4,2,1,5,0,1
104736,-74.0740740740741,4,2,1,85,0,1
106490,-64.5161290322581,4,2,1,85,0,1
106753,-64.5161290322581,4,2,1,5,0,1
106841,-64.5161290322581,4,2,1,85,0,1
106928,-64.5161290322581,4,2,1,5,0,1
107017,-64.5161290322581,4,2,1,85,0,1
107104,-64.5161290322581,4,2,1,5,0,1
107192,-64.5161290322581,4,2,1,85,0,1
107279,-64.5161290322581,4,2,1,5,0,1
107367,-64.5161290322581,4,2,1,85,0,1
107454,-64.5161290322581,4,2,1,5,0,1
107718,-64.5161290322581,4,2,1,85,0,1
107981,-64.5161290322581,4,2,1,5,0,1
108069,-64.5161290322581,4,2,1,85,0,0
108156,-64.5161290322581,4,2,1,5,0,0
108420,-64.5161290322581,4,2,1,85,0,0
108507,-64.5161290322581,4,2,1,5,0,0
108771,-64.5161290322581,4,2,1,85,0,0
108858,-64.5161290322581,4,2,1,5,0,0
108946,-64.5161290322581,4,2,1,85,0,0
109033,-64.5161290322581,4,2,1,5,0,0
109297,-64.5161290322581,4,2,1,85,0,1
109560,-64.5161290322581,4,2,1,5,0,1
109648,-64.5161290322581,4,2,1,85,0,1
111753,-74.0740740740741,4,2,1,85,0,1
113683,-64.5161290322581,4,2,1,85,0,0
113770,-64.5161290322581,4,2,1,5,0,0
114034,-64.5161290322581,4,2,1,85,0,0
114121,-64.5161290322581,4,2,1,5,0,0
114385,-64.5161290322581,4,2,1,85,0,0
114472,-64.5161290322581,4,2,1,5,0,0
114560,-64.5161290322581,4,2,1,85,0,0
114647,-64.5161290322581,4,2,1,5,0,0
114911,-64.5161290322581,4,2,1,85,0,1
115174,-64.5161290322581,4,2,1,5,0,1
115262,-64.5161290322581,4,2,1,85,0,1
116315,-74.0740740740741,4,2,1,85,0,1
116929,-74.0740740740741,4,2,1,5,0,1
117017,-74.0740740740741,4,2,1,85,0,1
118069,-74.0740740740741,4,2,1,90,0,1
118156,-74.0740740740741,4,2,1,5,0,1
118245,-74.0740740740741,4,2,1,90,0,1
118332,-74.0740740740741,4,2,1,5,0,1
118420,-74.0740740740741,4,2,1,90,0,1
118507,-74.0740740740741,4,2,1,5,0,1
118595,-74.0740740740741,4,2,1,90,0,1
119209,-74.0740740740741,4,2,1,5,0,1
119297,-74.0740740740741,4,2,1,75,0,0
119648,-74.0740740740741,4,2,1,85,0,0
119999,-74.0740740740741,4,2,1,70,0,0
124911,-64.5161290322581,4,2,1,75,0,0
125174,-64.5161290322581,4,2,1,5,0,0
125262,-64.5161290322581,4,2,1,85,0,0
125525,-64.5161290322581,4,2,1,5,0,0
125613,-64.5161290322581,4,2,1,70,0,0
126841,-74.0740740740741,4,2,1,70,0,0
129210,-74.0740740740741,4,2,1,5,0,0
129298,-74.0740740740741,4,2,1,70,0,0
129560,-74.0740740740741,4,2,1,5,0,0
129648,-74.0740740740741,4,2,1,70,0,0
129911,-74.0740740740741,4,2,1,5,0,0
129998,-74.0740740740741,4,2,1,70,0,0
130525,-500,4,2,1,65,0,0
130613,-500,4,2,1,5,0,0

[Colours]
Combo1 : 82,82,82
Combo2 : 255,19,19
Combo3 : 212,212,212
Combo4 : 255,51,51

[HitObjects]
6,81,1403,6,0,P|68:99|132:83,1,132.8,2|8,2:0|2:0,2:0:0:0:
321,77,1929,5,2,2:0:0:0:
321,77,2104,2,0,B|284:61|284:61|274:176,1,132.8,2|8,2:0|2:0,2:0:0:0:
386,357,2631,5,2,2:0:0:0:
386,357,2806,2,0,L|245:350,1,132.8,2|8,2:0|2:0,2:0:0:0:
5,291,3332,5,2,2:0:0:0:
5,291,3508,2,0,B|81:267|59:317|137:286,1,132.8,2|8,2:0|2:0,2:0:0:0:
308,183,4034,5,2,2:0:0:0:
308,183,4210,2,0,P|245:184|223:243,1,132.8,2|8,2:0|2:0,2:0:0:0:
490,165,4736,5,2,2:0:0:0:
490,165,4911,1,2,2:0:0:0:
357,40,5087,5,2,2:0:0:0:
390,157,5262,1,8,2:0:0:0:
454,67,5438,1,2,2:0:0:0:
12,300,5788,5,2,3:2:0:0:
183,308,5964,1,2,3:2:0:0:
71,373,6139,1,2,3:2:0:0:
91,215,6315,1,2,3:2:0:0:
285,343,6666,5,2,3:2:0:0:
285,343,7017,6,0,B|302:278|261:268|279:201,1,143.175,4|0,3:1|2:0,2:0:0:0:
301,114,7367,2,0,B|314:101|306:69|306:69|285:91|294:121,1,95.45,10|0,2:0|2:0,2:0:0:0:
381,237,7718,1,2,3:2:0:0:
381,237,7894,2,0,P|425:223|439:179,1,95.45,2|8,2:0|2:0,2:0:0:0:
301,114,8245,2,0,B|253:116|253:116|250:119|250:119|205:122,1,95.45,2|0,2:0|3:0,2:0:0:0:
25,18,8595,2,0,B|73:20|73:20|76:23|76:23|121:26,1,95.45,2|8,2:0|2:0,2:0:0:0:
207,122,8946,5,2,2:0:0:0:
215,132,9034,1,0,2:0:0:0:
218,144,9122,1,2,3:2:0:0:
167,228,9297,1,2,2:0:0:0:
71,222,9473,1,10,2:0:0:0:
71,222,9648,1,2,2:0:0:0:
7,379,9824,6,0,B|9:352|29:332|29:332|44:318|69:318,1,95.45,2|2,3:2|2:0,2:0:0:0:
167,228,10174,2,0,B|163:275|163:275|165:280|165:280|162:322,1,95.45,10|0,2:0|2:0,2:0:0:0:
317,322,10525,1,2,3:2:0:0:
306,175,10701,1,2,2:0:0:0:
253,250,10876,1,10,2:0:0:0:
381,239,11052,6,0,B|408:232|412:203|412:203|416:183|400:161,1,95.45,2|0,2:0|3:0,2:0:0:0:
335,86,11403,2,0,B|306:76|300:52|300:52|295:31|315:8,1,95.45,2|8,2:0|2:0,2:0:0:0:
468,0,11753,1,2,2:0:0:0:
493,158,11929,1,2,3:2:0:0:
493,158,12104,1,2,2:0:0:0:
420,334,12280,2,0,B|440:324|452:294|452:294|434:316|412:324,1,95.45,10|2,2:0|2:0,2:0:0:0:
337,350,12631,6,0,B|302:367|271:335|272:324|289:315|251:276|208:303,1,143.175,4|0,3:1|2:0,2:0:0:0:
153,352,12981,1,10,2:0:0:0:
153,352,13157,1,0,2:0:0:0:
52,175,13332,1,2,3:2:0:0:
47,272,13508,2,0,B|45:320|45:320|43:325|43:325|42:367,1,95.45,2|8,2:0|2:0,2:0:0:0:
257,133,13859,2,0,B|254:103|233:88|233:88|207:80|188:88,1,95.45,2|0,2:0|3:0,2:0:0:0:
141,179,14210,2,0,B|144:208|164:223|164:223|193:231|209:223,1,95.45,2|8,2:0|2:0,2:0:0:0:
362,170,14560,5,2,2:0:0:0:
370,157,14648,1,0,2:0:0:0:
373,141,14736,1,2,3:2:0:0:
339,49,14911,1,2,2:0:0:0:
446,17,15087,1,10,2:0:0:0:
446,17,15262,1,2,2:0:0:0:
451,250,15438,6,0,P|435:296|425:342,1,95.45,2|2,3:2|2:0,2:0:0:0:
248,248,15788,1,10,2:0:0:0:
248,248,15964,1,0,2:0:0:0:
273,345,16139,2,0,P|228:357|192:328,2,95.45,2|2|10,3:2|2:0|2:0,2:0:0:0:
45,384,16666,6,0,P|57:339|100:322,1,95.45,2|0,2:0|3:0,2:0:0:0:
119,161,17017,2,0,P|151:193|144:239,1,95.45,2|8,2:0|2:0,2:0:0:0:
8,44,17367,1,2,2:0:0:0:
165,0,17543,1,2,3:2:0:0:
105,74,17718,1,2,2:0:0:0:
105,74,17894,1,10,2:0:0:0:
321,189,18069,5,2,2:0:0:0:
321,178,18157,1,0,2:0:0:0:
325,167,18245,1,4,3:2:0:0:
468,159,18420,6,0,B|400:144|408:187|319:160,1,132.8,2|2,2:0|2:0,2:0:0:0:
265,111,18946,2,0,P|254:79|256:46,1,66.4,2|0,3:2|2:0,2:0:0:0:
177,138,19297,1,10,3:2:0:0:
177,138,19473,1,2,2:0:0:0:
100,211,19648,6,0,P|68:220|35:215,1,66.4,2|2,3:2|2:0,2:0:0:0:
161,279,19999,2,0,L|171:372,1,66.4,10|2,3:2|2:0,2:0:0:0:
308,340,20350,5,2,3:2:0:0:
251,283,20525,1,2,2:0:0:0:
308,227,20701,1,10,3:2:0:0:
364,283,20876,1,2,2:0:0:0:
396,366,21052,5,2,3:2:0:0:
501,252,21227,2,0,P|489:289|501:334,1,66.4,2|8,2:0|3:2,2:0:0:0:
386,184,21578,2,0,P|398:221|386:266,1,66.4,2|0,2:0|3:0,2:0:0:0:
501,116,21929,2,0,P|489:153|501:198,1,66.4,2|8,2:0|3:2,2:0:0:0:
386,48,22280,2,0,P|398:85|386:130,1,66.4,2|0,2:0|3:0,2:0:0:0:
198,30,22631,6,0,L|280:23,1,66.4,2|8,2:0|2:0,2:0:0:0:
91,6,22981,1,2,2:0:0:0:
91,6,23157,2,0,P|90:70|138:112,1,132.8,2|10,3:2|3:2,2:0:0:0:
476,336,23859,5,0,3:0:0:0:
397,266,24034,2,0,P|432:320|421:384,1,132.8,2|2,2:0|2:0,2:0:0:0:
325,341,24560,2,0,L|250:348,1,66.4,2|2,3:2|2:0,2:0:0:0:
106,357,24911,2,0,P|135:372|167:374,1,66.4,10|2,3:2|2:0,2:0:0:0:
17,275,25262,5,2,3:2:0:0:
17,275,25438,1,2,2:0:0:0:
164,227,25613,1,10,3:2:0:0:
164,227,25788,1,2,2:0:0:0:
204,84,25964,5,2,3:2:0:0:
269,18,26139,1,2,2:0:0:0:
335,84,26315,1,10,3:2:0:0:
269,150,26490,1,2,2:0:0:0:
128,87,26666,1,2,3:2:0:0:
16,16,26841,6,0,P|28:55|23:92,1,66.4,2|8,2:0|3:2,2:0:0:0:
122,113,27192,2,0,P|110:152|115:189,1,66.4,2|0,2:0|3:0,2:0:0:0:
16,210,27543,2,0,P|28:249|23:286,1,66.4,2|8,2:0|3:2,2:0:0:0:
122,307,27894,2,0,P|110:346|115:383,1,66.4,2|0,2:0|3:0,2:0:0:0:
275,353,28245,6,0,B|350:340|339:384|414:359,1,132.8,2|2,2:0|2:0,2:0:0:0:
486,253,28771,2,0,P|490:285|480:317,1,66.4,2|2,3:2|2:0,2:0:0:0:
378,182,29122,1,10,3:2:0:0:
474,244,29297,1,2,2:0:0:0:
450,86,29473,5,4,3:2:0:0:
329,33,29648,2,0,B|290:25|290:25|240:59|240:126|267:167,1,190.9,2|2,2:0|3:2,2:0:0:0:
154,228,30174,1,2,3:2:0:0:
154,228,30350,1,2,2:0:0:0:
137,100,30525,1,2,2:0:0:0:
137,100,30701,1,2,2:0:0:0:
262,160,30876,6,0,B|254:212|235:254|235:254|252:234|271:224,1,143.175,2|0,3:2|2:0,2:0:0:0:
288,377,31227,2,0,P|320:344|313:298,1,95.45,2|0,2:0|3:0,2:0:0:0:
117,314,31578,2,0,B|66:298|35:337|35:337|64:321|84:326,1,143.175,2|0,3:2|2:0,2:0:0:0:
194,352,31929,1,2,2:0:0:0:
194,352,32104,1,0,3:0:0:0:
194,352,32280,1,0,3:0:0:0:
269,224,32455,6,0,P|257:162|235:104,1,124.5,2|0,2:0|2:0,2:0:0:0:
324,15,32806,2,0,L|310:63,1,47.7250009102822,2|0,3:2|2:0,2:0:0:0:
419,147,32981,1,2,3:2:0:0:
419,147,33157,1,2,2:0:0:0:
419,147,33332,1,2,2:0:0:0:
419,147,33508,1,2,2:0:0:0:
403,267,33683,6,0,B|367:298|320:269|343:239|305:205|267:223,1,161.85,4|0,3:1|2:0,2:0:0:0:
268,310,34034,6,0,B|304:341|351:312|328:282|366:248|403:266,1,161.85,4|0,3:1|2:0,2:0:0:0:
491,261,34385,6,0,P|520:269|490:274,1,83,4|0,3:1|2:0,2:0:0:0:
419,147,34736,6,0,P|389:138|419:133,1,83,4|0,3:1|2:0,2:0:0:0:
491,261,35087,1,4,3:2:0:0:
268,223,35350,5,2,0:0:0:0:
268,223,35438,1,0,3:0:0:0:
176,177,35613,1,2,2:0:0:0:
71,284,35788,1,2,3:2:0:0:
146,375,35964,1,2,2:0:0:0:
178,280,36139,1,2,3:2:0:0:
178,280,36315,1,2,2:0:0:0:
86,123,36490,5,2,3:2:0:0:
261,116,36753,1,2,0:0:0:0:
261,116,36841,1,2,3:2:0:0:
340,32,37017,1,2,2:3:0:0:
419,147,37192,2,0,P|409:187|402:228,1,83,2|2,3:2|2:3,2:0:0:0:
284,304,37543,2,0,P|277:263|268:223,1,83,2|0,3:2|2:0,2:0:0:0:
374,373,37894,5,8,3:2:0:0:
382,380,39297,5,2,2:0:0:0:
382,380,39385,1,2,2:0:0:0:
382,380,39473,2,0,B|382:339|390:305|390:305|388:302|388:302|394:273|396:230,2,145.25,2|2|2,3:2|3:2|3:2,2:0:0:0:
331,143,40174,6,2,L|336:102,2,33.2,2|2|2,2:0|2:0|2:0,2:0:0:0:
426,67,40701,6,0,B|324:39|329:117|202:76,1,205.425,4|0,3:1|2:0,2:0:0:0:
136,33,41052,2,0,B|187:12|187:12|240:53|195:169,1,205.425,8|0,2:0|2:0,2:0:0:0:
148,229,41403,5,2,3:2:0:0:
36,255,41578,2,0,P|52:196|34:139,1,112.05,2|8,2:0|2:0,2:0:0:0:
97,364,41929,2,0,L|222:351,1,112.05,2|0,2:0|3:0,2:0:0:0:
415,332,42280,2,0,B|392:323|369:304|369:304|380:331|387:372,1,112.05,2|8,2:0|2:0,2:0:0:0:
449,183,42631,6,0,B|476:165|479:143|479:143|424:163|339:135,1,168.075,2|0,2:0|2:0,2:0:0:0:
303,91,42981,1,2,2:0:0:0:
258,8,43157,2,0,P|258:63|290:108,1,112.05,10|2,2:0|2:0,2:0:0:0:
426,67,43508,1,0,3:0:0:0:
288,198,43683,5,2,2:0:0:0:
288,198,43859,2,0,L|298:322,1,112.05,10|2,2:0|2:0,2:0:0:0:
131,270,44210,1,2,3:2:0:0:
197,215,44385,2,0,P|142:235|77:228,1,112.05,2|8,2:0|2:0,2:0:0:0:
0,86,44736,6,0,B|19:58|16:34|16:34|72:65|45:166,1,168.075,2|0,2:0|2:0,2:0:0:0:
6,228,45087,1,2,2:0:0:0:
98,372,45262,1,10,2:0:0:0:
212,240,45438,2,0,P|208:295|179:342,1,112.05,2|0,2:0|3:0,2:0:0:0:
111,181,45788,5,2,2:0:0:0:
201,153,45964,1,10,2:0:0:0:
133,87,46139,1,2,2:0:0:0:
260,52,46315,6,0,B|355:63|355:63|375:83|375:83|460:97,1,205.425,2|0,3:2|2:0,2:0:0:0:
463,4,46666,2,0,B|398:19|398:19|387:91|444:154,1,205.425,10|0,2:0|2:0,2:0:0:0:
512,194,47017,5,2,3:2:0:0:
405,343,47192,2,0,P|430:294|417:241,1,112.05,2|8,2:0|2:0,2:0:0:0:
211,241,47543,2,0,L|347:230,1,112.05,2|0,2:0|3:0,2:0:0:0:
126,358,47894,2,0,B|86:296|86:296|89:248,1,112.05,2|8,2:0|2:0,2:0:0:0:
226,98,48245,6,0,B|132:63|152:143|45:94,1,168.075,2|0,2:0|2:0,2:0:0:0:
17,37,48595,1,2,2:0:0:0:
106,152,48771,2,0,P|112:207|88:257,1,112.05,10|2,2:0|2:0,2:0:0:0:
0,333,49122,1,0,3:0:0:0:
263,326,49297,5,2,2:0:0:0:
263,326,49473,2,0,L|268:199,1,112.05,10|2,2:0|2:0,2:0:0:0:
282,102,49824,1,2,3:2:0:0:
421,226,49999,2,0,P|341:247|266:213,1,168.075,2|0,2:0|2:0,2:0:0:0:
209,142,50350,1,2,3:2:0:0:
139,209,50701,6,0,P|154:244|152:271,1,64.325,2|0,2:0|2:0,2:0:0:0:
209,142,50876,2,0,P|244:156|262:177,1,64.325,2|0,3:2|2:0,2:0:0:0:
43,207,51052,2,0,P|28:242|7:260,1,64.325,2|0,2:0|2:0,2:0:0:0:
212,46,51227,2,0,P|247:31|274:32,1,64.325,2|0,3:2|2:0,2:0:0:0:
512,119,51578,6,0,P|425:139|327:80,1,192.975,2|0,2:0|2:0,2:0:0:0:
272,32,51929,5,2,3:0:0:0:
251,291,52280,5,2,3:0:0:0:
272,32,52631,5,2,3:0:0:0:
251,291,52806,1,2,3:0:0:0:
272,32,53157,6,0,B|243:92|243:92|289:153|289:153|298:208,1,192.975,4|0,3:1|2:0,2:0:0:0:
297,202,53508,5,2,3:2:0:0:
443,299,53683,1,10,2:0:0:0:
286,384,53859,1,2,2:0:0:0:
342,294,54034,1,2,3:2:0:0:
342,294,54210,1,2,2:0:0:0:
150,337,54385,5,10,2:0:0:0:
42,375,54560,1,2,2:0:0:0:
70,261,54736,6,0,B|101:234|106:193|106:193|92:218|72:229,1,128.65,2|0,3:2|2:0,2:0:0:0:
4,24,55087,2,0,P|18:86|26:150,1,128.65,10|0,2:0|2:0,2:0:0:0:
190,30,55438,1,2,3:2:0:0:
268,82,55613,2,0,B|247:40|186:41|194:72|153:91|117:63,1,168.075,2|0,2:0|2:0,2:0:0:0:
265,175,55964,2,0,B|264:201|281:232|281:232|272:200|282:160,1,112.05,2|0,2:0|3:0,2:0:0:0:
393,200,56315,5,2,2:0:0:0:
466,113,56490,1,10,2:0:0:0:
391,10,56666,1,2,2:0:0:0:
359,107,56841,1,2,3:2:0:0:
359,107,57017,1,2,2:0:0:0:
504,226,57192,1,10,2:0:0:0:
504,226,57367,1,2,2:0:0:0:
316,297,57543,5,2,3:0:0:0:
90,142,57894,5,2,3:0:0:0:
316,297,58245,5,2,3:0:0:0:
90,142,58420,1,2,3:0:0:0:
316,297,58771,6,0,B|297:272|277:264|277:264|230:278|211:345|251:388,1,192.975,4|0,3:1|2:0,2:0:0:0:
395,253,59122,5,2,3:2:0:0:
395,253,59297,1,8,2:0:0:0:
395,253,59473,1,2,2:0:0:0:
311,100,59648,5,2,3:2:0:0:
311,100,59824,1,2,2:0:0:0:
290,9,59999,1,10,2:0:0:0:
216,76,60174,2,0,B|208:101|216:131|216:131|200:102|203:75,1,112.05,2|0,2:0|3:0,2:0:0:0:
58,234,60525,6,0,P|95:195|89:141,1,112.05,2|8,2:0|2:0,2:0:0:0:
40,332,60876,1,2,2:0:0:0:
155,371,61052,1,2,3:2:0:0:
155,371,61227,1,2,2:0:0:0:
279,247,61403,5,10,2:0:0:0:
339,357,61578,2,0,P|357:367|350:355,1,56.025,2|0,3:2|2:0,2:0:0:0:
397,32,61929,6,0,P|379:22|386:34,1,56.025,2|0,3:2|2:0,2:0:0:0:
361,152,62104,2,0,P|361:172|368:160,1,56.025,2|0,3:2|2:0,2:0:0:0:
498,130,62280,2,0,P|515:119|501:119,1,56.025,2|0,3:2|2:0,2:0:0:0:
424,106,62455,1,2,3:2:0:0:
424,106,62806,6,0,B|465:161|473:222|473:222|466:241|452:256,1,168.075,2|0,3:2|2:0,2:0:0:0:
355,270,63157,6,0,P|300:258|248:276,1,112.05,4|0,3:1|2:0,2:0:0:0:
32,354,63508,2,0,B|85:357|85:357|104:349|104:349|144:351,1,112.05,10|0,2:0|2:0,2:0:0:0:
209,196,63859,5,2,3:2:0:0:
35,132,64034,2,0,P|88:114|144:121,1,112.05,2|8,2:0|2:0,2:0:0:0:
0,52,64385,2,0,P|80:29|162:39,1,168.075,2|0,2:0|2:0,2:0:0:0:
286,141,64736,2,0,P|257:93|252:38,1,112.05,2|8,2:0|2:0,2:0:0:0:
472,48,65087,5,2,2:0:0:0:
454,55,65174,1,0,2:0:0:0:
440,65,65262,1,2,3:2:0:0:
302,149,65438,1,2,2:0:0:0:
416,269,65613,2,0,L|413:156,1,112.05,10|2,2:0|2:0,2:0:0:0:
502,233,65964,1,2,3:2:0:0:
306,281,66139,5,2,2:0:0:0:
362,356,66315,2,0,P|310:373|256:359,1,112.05,10|0,2:0|2:0,2:0:0:0:
107,232,66666,5,2,3:2:0:0:
91,342,66841,1,2,2:0:0:0:
125,235,67017,1,10,2:0:0:0:
5,131,67192,6,0,L|28:269,1,112.05,2|0,2:0|3:0,2:0:0:0:
249,110,67543,2,0,P|197:88|142:93,1,112.05,2|8,2:0|2:0,2:0:0:0:
184,181,67894,1,2,2:0:0:0:
375,106,68069,5,2,3:2:0:0:
263,24,68245,1,2,2:0:0:0:
433,0,68420,1,10,2:0:0:0:
462,113,68595,1,2,2:0:0:0:
354,286,68771,6,0,B|344:229|344:229|347:214|347:214|338:176,1,112.05,4|0,3:1|2:0,2:0:0:0:
512,352,69122,2,0,P|458:337|404:349,1,112.05,10|0,2:0|2:0,2:0:0:0:
261,324,69473,5,2,3:2:0:0:
179,179,69648,2,0,L|173:290,1,112.05,2|8,2:0|2:0,2:0:0:0:
96,141,69999,2,0,L|87:308,1,168.075,2|0,2:0|2:0,2:0:0:0:
7,258,70350,2,0,P|47:221|102:220,1,112.05,2|8,2:0|2:0,2:0:0:0:
286,149,70701,5,2,2:0:0:0:
275,162,70788,1,0,2:0:0:0:
263,180,70876,1,2,3:2:0:0:
396,182,71052,1,2,2:0:0:0:
346,81,71227,2,0,P|294:61|241:75,1,112.05,10|2,2:0|2:0,2:0:0:0:
173,148,71578,1,2,3:2:0:0:
7,24,71753,5,2,2:0:0:0:
74,155,71929,2,0,L|79:23,1,112.05,10|0,2:0|2:0,2:0:0:0:
352,59,72280,5,2,3:2:0:0:
205,74,72455,1,2,2:0:0:0:
355,31,72631,1,2,3:2:0:0:
315,226,72806,1,2,3:2:0:0:
315,226,73157,6,0,L|259:231,1,56.025,2|0,3:2|2:0,2:0:0:0:
206,303,73332,2,0,L|150:297,1,56.025,2|0,3:2|2:0,2:0:0:0:
221,319,73508,1,2,2:0:0:0:
97,226,73683,2,0,L|41:231,1,56.025,2|0,3:2|2:0,2:0:0:0:
288,374,74034,5,8,2:0:0:0:
288,374,74385,6,0,L|343:367,1,56.025,2|0,3:0|2:0,2:0:0:0:
421,190,74911,2,0,L|399:241,1,56.025,2|0,3:0|2:0,2:0:0:0:
512,382,75262,2,0,L|478:337,3,37.3500001424789,2|2|2|2,2:3|2:3|2:3|3:2,2:0:0:0:
342,131,75788,6,0,L|331:76,1,56.025,2|0,3:0|2:0,2:0:0:0:
233,12,76315,2,0,L|214:64,1,56.025,2|0,3:0|2:0,2:0:0:0:
128,153,76666,2,0,L|106:101,3,37.3500001424789,2|2|2|2,2:3|2:3|2:3|2:3,2:0:0:0:
41,287,77192,6,0,L|90:260,1,56.025,2|0,3:2|2:0,2:0:0:0:
229,360,77718,2,0,L|181:330,1,56.025,2|0,3:2|2:0,2:0:0:0:
219,171,78069,2,0,L|203:224,3,37.3500001424789,2|2|2|2,2:3|2:3|2:3|3:2,2:0:0:0:
427,373,78595,6,0,L|411:319,1,56.025,2|0,3:2|2:0,2:0:0:0:
327,198,79122,2,0,L|381:209,1,56.025,2|0,3:2|2:0,2:0:0:0:
512,221,79473,2,0,L|489:171,3,37.3500001424789,2|2|2|2,2:3|2:3|2:3|3:2,2:0:0:0:
426,52,79824,1,0,3:0:0:0:
237,84,79999,6,0,L|222:31,1,56.025,2|0,3:2|2:0,2:0:0:0:
115,165,80525,2,0,L|133:110,1,56.025,2|0,3:2|2:0,2:0:0:0:
10,284,80876,2,0,L|49:243,3,37.3500001424789,2|2|2|2,2:3|2:3|2:3|3:2,2:0:0:0:
183,344,81578,6,0,L|222:385,1,56.025,2|0,3:2|2:0,2:0:0:0:
268,218,82104,2,0,L|212:231,1,56.025,2|0,3:2|2:0,2:0:0:0:
333,363,82280,6,0,L|349:308,3,37.3500001424789,2|2|2|2,2:3|2:3|2:3|3:2,2:0:0:0:
454,124,82806,6,0,B|441:93|409:80|409:80|470:84|498:142|490:177,1,207.5,4|0,3:2|2:0,2:0:0:0:
458,259,83332,1,2,3:0:0:0:
458,259,83683,5,2,2:3:0:0:
458,278,83771,1,2,2:3:0:0:
461,296,83859,1,2,3:0:0:0:
268,218,84385,5,2,3:2:0:0:
307,90,84560,1,2,3:2:0:0:
182,50,84736,1,2,3:2:0:0:
141,172,84911,1,2,3:2:0:0:
230,134,85087,1,2,3:2:0:0:
230,134,85174,1,0,3:0:0:0:
230,134,85262,1,2,3:2:0:0:
101,86,85438,1,2,3:2:0:0:
47,244,85613,5,4,3:2:0:0:
178,328,85788,2,0,P|122:312|66:323,1,116.199996453858,2|2,2:0|3:2,2:0:0:0:
255,373,86315,5,2,3:2:0:0:
255,373,86490,1,2,2:0:0:0:
423,348,86666,1,2,2:0:0:0:
332,245,86841,1,2,2:0:0:0:
465,102,87017,6,0,P|475:158|460:214,1,116.2,2|2,3:2|2:0,2:0:0:0:
390,130,87543,1,0,3:0:0:0:
390,130,87718,2,0,P|395:154|389:177,1,49.7999999999999,2|2,3:2|2:0,2:0:0:0:
312,140,88245,1,0,3:0:0:0:
312,140,88420,5,0,3:0:0:0:
197,43,88595,2,0,B|272:29|254:72|336:50,1,116.2,2|2,2:0|3:2,2:0:0:0:
412,27,89122,5,2,3:2:0:0:
412,27,89297,1,2,2:0:0:0:
497,108,89473,1,2,2:0:0:0:
453,230,89648,1,2,2:0:0:0:
334,212,89824,6,0,B|283:198|283:198|152:241,1,174.3,4|0,3:1|2:0,2:0:0:0:
251,309,90174,2,0,B|265:258|265:258|222:127,1,174.3,4|0,3:1|2:0,2:0:0:0:
161,101,90525,2,0,P|226:132|222:59,1,174.3,4|0,3:1|2:0,2:0:0:0:
23,30,90876,2,0,P|19:102|84:71,1,174.3,4|0,3:1|2:0,2:0:0:0:
125,0,91227,5,4,3:2:0:0:
244,47,91403,1,2,2:0:0:0:
234,53,91490,1,2,0:0:0:0:
222,59,91578,1,0,3:0:0:0:
317,0,91753,1,2,2:0:0:0:
484,128,91929,5,2,3:2:0:0:
402,211,92104,1,2,2:0:0:0:
319,128,92280,1,2,3:2:0:0:
402,46,92455,1,2,2:0:0:0:
496,214,92631,6,0,L|491:285,1,70.5500000000002,2|2,3:2|2:3,2:0:0:0:
443,358,92894,1,2,2:0:0:0:
443,358,92981,1,2,3:2:0:0:
353,279,93157,1,2,2:3:0:0:
225,334,93332,6,0,P|244:296|237:240,1,70.5500000000002,2|2,3:2|2:3,2:0:0:0:
307,362,93683,2,0,P|324:312|325:259,1,105.825,2|0,3:2|2:0,2:0:0:0:
260,182,94034,1,8,3:2:0:0:
0,91,95613,6,0,L|66:99,1,41.5,2|0,3:2|2:0,2:0:0:0:
126,48,95788,2,0,L|192:40,1,41.5,2|0,3:2|2:0,2:0:0:0:
244,102,95964,2,0,L|326:112,1,83,2|0,3:2|2:0,2:0:0:0:
498,121,96315,5,2,2:0:0:0:
401,33,96490,1,2,2:0:0:0:
510,133,96666,1,2,2:0:0:0:
459,343,96841,6,0,B|491:276|445:216|445:216|399:226|405:270,1,205.425,4|0,3:1|2:0,2:0:0:0:
404,264,97192,1,8,2:0:0:0:
299,380,97455,1,0,2:0:0:0:
303,384,97543,1,2,3:2:0:0:
265,297,97718,1,2,2:0:0:0:
114,360,97894,1,8,2:0:0:0:
60,263,98069,6,0,B|76:231|117:211|117:211|107:231|105:252,1,112.05,2|0,2:0|3:0,2:0:0:0:
171,308,98420,2,0,B|154:339|114:360|114:360|124:340|126:319,1,112.05,2|8,2:0|2:0,2:0:0:0:
191,165,98771,2,0,P|243:156|255:104,1,112.05,2|0,2:0|3:2,2:0:0:0:
109,62,99122,1,2,2:0:0:0:
186,0,99297,1,10,2:0:0:0:
37,8,99473,2,0,P|13:57|6:113,1,112.05,2|0,2:0|3:0,2:0:0:0:
263,112,99824,5,2,2:0:0:0:
263,112,99999,1,10,2:0:0:0:
263,112,100174,1,2,2:0:0:0:
431,92,100350,1,2,3:2:0:0:
495,204,100525,2,0,P|460:245|405:252,1,112.05,2|8,2:0|2:0,2:0:0:0:
275,312,100876,6,0,B|255:292|251:242|280:226|280:226|267:259|282:296,1,168.075,2|0,2:0|2:0,2:0:0:0:
339,364,101227,1,2,2:0:0:0:
161,303,101403,1,10,2:0:0:0:
143,201,101578,2,0,P|90:209|38:241,1,112.050000427437,2|0,2:0|3:0,2:0:0:0:
46,336,101929,1,2,2:0:0:0:
46,336,102104,1,10,2:0:0:0:
46,336,102280,1,2,2:0:0:0:
81,220,102455,6,0,P|62:118|33:20,1,205.425,2|0,3:2|2:0,2:0:0:0:
108,0,102806,2,0,P|136:98|155:199,1,205.425,10|0,2:0|2:0,2:0:0:0:
279,155,103157,1,2,3:2:0:0:
367,265,103332,2,0,P|385:213|378:158,1,112.05,2|8,2:0|2:0,2:0:0:0:
155,199,103683,2,0,B|184:248|168:297|168:297|202:312|212:343,1,168.075,2|0,2:0|2:0,2:0:0:0:
262,250,104034,2,0,P|293:206|278:154,1,112.05,2|8,2:0|2:0,2:0:0:0:
505,11,104385,6,0,B|428:17|428:17|418:41|418:41|353:48,1,168.075,2|0,2:0|2:0,2:0:0:0:
481,195,104736,1,2,2:0:0:0:
512,114,104911,1,10,2:0:0:0:
378,158,105087,2,0,P|403:208|422:260,1,112.05,2|0,2:0|3:0,2:0:0:0:
310,345,105438,5,2,2:0:0:0:
212,343,105613,1,10,2:0:0:0:
114,338,105788,1,2,2:0:0:0:
14,177,105964,1,2,3:2:0:0:
14,176,106139,2,0,P|60:202|57:255,1,112.05,2|2,2:0|2:0,2:0:0:0:
155,199,106490,6,0,B|154:173|157:150|157:150|140:132|129:109|129:109|143:87|148:60|148:60|131:45|121:20,1,192.975,2|0,3:2|2:0,2:0:0:0:
247,35,106841,2,0,P|242:66|232:97,1,64.325,2|0,2:0|2:0,2:0:0:0:
262,246,107017,2,0,P|257:214|247:183,1,64.325,2|0,3:2|2:0,2:0:0:0:
338,5,107192,2,0,P|339:37|336:69,1,64.325,2|0,2:0|2:0,2:0:0:0:
351,279,107367,2,0,P|352:246|348:215,1,64.325,2|0,3:2|2:0,2:0:0:0:
466,363,107718,6,0,B|492:371|501:337|484:339|481:327|481:327|448:318|428:328|424:324|424:324|397:362|346:361,1,192.975,2|0,3:2|2:0,2:0:0:0:
296,354,108069,6,0,P|327:364|360:359,1,64.325,2|0,3:0|2:0,2:0:0:0:
76,169,108420,2,0,P|45:179|11:174,1,64.325,2|0,3:0|2:0,2:0:0:0:
488,28,108771,6,0,L|500:91,1,64.325,2|0,3:0|2:0,2:0:0:0:
384,135,108946,2,0,L|371:71,1,64.325,2|0,3:0|2:0,2:0:0:0:
15,81,109297,6,0,B|125:126|106:41|219:80,1,192.975,4|0,3:1|2:0,2:0:0:0:
315,183,109648,1,2,3:2:0:0:
384,135,109824,2,0,P|322:148|260:121,1,128.65,8|2,2:0|2:0,2:0:0:0:
329,44,110174,5,2,3:2:0:0:
190,33,110350,1,2,2:0:0:0:
197,220,110525,1,10,2:0:0:0:
263,123,110701,1,2,2:0:0:0:
248,315,110876,6,0,P|309:296|372:305,1,128.65,2|0,3:2|2:0,2:0:0:0:
476,364,111227,2,0,L|457:236,1,128.65,10|0,2:0|2:0,2:0:0:0:
440,115,111578,1,2,3:2:0:0:
329,44,111753,2,0,B|369:40|396:45|396:45|374:30|338:21,1,112.05,2|8,2:0|2:0,2:0:0:0:
103,34,112104,2,0,P|112:85|173:112,1,112.05,2|0,2:0|3:0,2:0:0:0:
0,248,112455,5,2,2:0:0:0:
160,195,112631,1,10,2:0:0:0:
35,136,112806,1,2,2:0:0:0:
126,357,112981,5,2,3:2:0:0:
232,233,113157,1,2,2:0:0:0:
331,318,113332,1,10,2:0:0:0:
211,361,113508,1,2,2:0:0:0:
77,216,113683,6,0,L|70:280,1,64.325,2|0,3:0|2:0,2:0:0:0:
324,254,114034,2,0,L|331:318,1,64.325,2|0,3:0|2:0,2:0:0:0:
315,27,114385,6,0,P|283:31|251:28,1,64.325,2|0,3:0|2:0,2:0:0:0:
110,75,114560,2,0,P|141:70|173:73,1,64.325,2|0,3:0|2:0,2:0:0:0:
414,154,114911,6,0,P|320:166|239:118,1,192.975,4|0,3:1|2:0,2:0:0:0:
173,73,115262,2,0,P|208:124|196:185,1,128.65,2|8,3:2|2:0,2:0:0:0:
98,282,115613,1,2,2:0:0:0:
293,298,115788,5,2,3:2:0:0:
195,193,115964,1,2,2:0:0:0:
363,213,116139,1,10,2:0:0:0:
317,90,116315,2,0,P|286:135|288:190,1,112.05,2|0,2:0|3:0,2:0:0:0:
240,45,116666,6,0,P|191:111|195:193,1,168.075,2|0,2:0|2:0,2:0:0:0:
249,273,117017,1,2,2:0:0:0:
451,190,117192,5,2,3:2:0:0:
417,348,117367,1,2,2:0:0:0:
349,246,117543,1,10,2:0:0:0:
481,289,117718,1,2,3:2:0:0:
226,37,118069,6,0,P|214:62|211:89,1,56.025,2|0,3:2|2:0,2:0:0:0:
116,207,118245,2,0,P|143:205|169:194,1,56.025,2|0,3:2|2:0,2:0:0:0:
317,217,118420,2,0,P|301:193|279:177,1,56.025,2|0,3:2|2:0,2:0:0:0:
133,118,118595,1,2,3:2:0:0:
464,38,118946,6,0,B|434:24|403:23|403:23|443:50|483:121,1,168.075,2|0,3:2|2:0,2:0:0:0:
498,178,119297,6,0,P|486:232|480:288,1,112.05,4|0,3:1|2:0,2:0:0:0:
334,327,119648,2,0,P|322:272|316:216,1,112.05,8|0,2:0|2:0,2:0:0:0:
164,130,119999,1,2,3:2:0:0:
116,207,120174,2,0,P|127:152|69:127,1,112.05,2|8,2:0|2:0,2:0:0:0:
258,47,120525,6,0,B|277:102|245:144|245:144|246:106|228:82,1,168.075,2|0,2:0|2:0,2:0:0:0:
211,274,120876,2,0,P|199:328|193:384,1,112.05,2|8,2:0|2:0,2:0:0:0:
42,315,121227,2,0,B|33:260|33:260|30:256|30:256|21:205,1,112.05,2|0,2:0|3:0,2:0:0:0:
164,130,121578,1,2,2:0:0:0:
246,144,121753,2,0,P|292:172|310:223,1,112.05,8|0,2:0|2:0,2:0:0:0:
370,137,122104,6,0,B|370:106|355:74|355:74|357:103|351:122,1,112.05,2|2,3:2|2:0,2:0:0:0:
410,228,122455,2,0,B|435:243|470:246|470:246|445:232|431:218,1,112.05,10|0,2:0|2:0,2:0:0:0:
498,155,122806,1,2,3:2:0:0:
310,223,122981,2,0,B|283:236|263:265|263:265|287:249|306:245,1,112.05,2|10,2:0|2:0,2:0:0:0:
326,343,123332,6,0,P|381:349|436:362,1,112.05,2|0,2:0|3:0,2:0:0:0:
154,285,123683,2,0,P|209:278|264:265,1,112.05,2|8,2:0|2:0,2:0:0:0:
6,369,124034,1,2,2:0:0:0:
14,217,124210,1,2,3:2:0:0:
14,217,124385,1,2,2:0:0:0:
64,296,124560,1,10,2:0:0:0:
64,296,124736,1,2,2:0:0:0:
150,181,124911,6,0,B|146:150|126:124|126:124|137:58|213:40,1,192.975,4|0,3:1|2:0,2:0:0:0:
353,82,125262,2,0,B|381:77|380:51|358:18|316:20|291:78|313:128|227:133,1,192.975,8|0,2:0|2:0,2:0:0:0:
375,264,125613,1,2,3:2:0:0:
512,169,125788,1,2,2:0:0:0:
407,161,125964,1,8,2:0:0:0:
270,227,126139,6,0,B|281:258|279:288|279:288|283:295|283:295|282:322|292:353,1,128.65,2|0,2:0|3:0,2:0:0:0:
128,307,126490,2,0,B|139:276|137:246|137:246|141:239|141:239|140:212|150:180,1,128.65,2|8,2:0|2:0,2:0:0:0:
206,96,126841,2,0,B|226:63|218:39|218:39|213:67|188:97,1,112.05,2|0,2:0|3:0,2:0:0:0:
149,181,127192,1,2,2:0:0:0:
54,204,127367,2,0,B|15:204|-1:186|-1:186|25:195|63:188,1,112.05,8|0,2:0|2:0,2:0:0:0:
270,226,127718,6,0,P|285:173|303:120,1,112.05,2|2,3:2|2:0,2:0:0:0:
366,0,128069,2,0,P|385:54|399:106,1,112.05,10|0,2:0|2:0,2:0:0:0:
366,0,128420,5,2,3:2:0:0:
428,283,128946,6,0,P|350:250|269:226,1,168.075,2|0,3:2|2:0,2:0:0:0:
292,153,129297,2,0,P|372:176|450:209,1,168.075,2|0,3:2|2:0,2:0:0:0:
512,257,129648,2,0,B|520:306|520:306|494:361|423:381,1,168.075,2|0,3:2|2:0,2:0:0:0:
336,369,129999,2,0,L|333:325,2,37.35,2|2|2,3:2|2:0|2:0,2:0:0:0:
336,369,130174,1,2,3:2:0:0:
247,375,130350,1,2,3:2:0:0:
196,289,130525,6,0,B|152:274|111:285|69:320|81:381|81:381|127:394|162:367,1,265.6,2|0,3:2|2:0,2:0:0:0:
