osu file format v14

[General]
AudioFilename: audio.mp3
AudioLeadIn: 0
PreviewTime: 40087
Countdown: 0
SampleSet: Soft
StackLeniency: 0.5
Mode: 0
LetterboxInBreaks: 0
WidescreenStoryboard: 1

[Editor]
Bookmarks: 24911,36052,87718,130525,133332
DistanceSpacing: 1.3
BeatDivisor: 4
GridSize: 16
TimelineZoom: 4.099998

[Metadata]
Title:Envy Baby
TitleUnicode:エンヴィーベイビー
Artist:Raon Lee
ArtistUnicode:이라온
Creator:Defy
Version:Love is Cruel
Source:
Tags:some_hero some hero hero_ic wanpachi chizu-kun japanese pop j-pop jpop kanaria gumi vocaloid cover full m2u taramaxu 999 엔비 베이비
BeatmapID:3102507
BeatmapSetID:1462190

[Difficulty]
HPDrainRate:5
CircleSize:4
OverallDifficulty:9
ApproachRate:9
SliderMultiplier:1.93
SliderTickRate:1

[Events]
//Background and Video events
0,0,"BG.jpg",0,0
//Break Periods
//Storyboard Layer 0 (Background)
//Storyboard Layer 1 (Fail)
//Storyboard Layer 2 (Pass)
//Storyboard Layer 3 (Foreground)
//Storyboard Layer 4 (Overlay)
//Storyboard Sound Samples

[TimingPoints]
1403,350.877192982456,4,2,1,45,1,0
1403,-125,4,2,1,45,0,0
5613,-125,4,2,1,90,0,0
5788,-62.5,4,2,1,90,0,0
5876,-62.5,4,2,1,5,0,0
5964,-62.5,4,2,1,90,0,0
6052,-62.5,4,2,1,5,0,0
6140,-62.5,4,2,1,90,0,0
6227,-62.5,4,2,1,5,0,0
6315,-62.5,4,2,1,90,0,0
6929,-62.5,4,2,1,5,0,0
7017,-86.9565217391304,4,2,1,65,0,0
7280,-86.9565217391304,4,2,1,5,0,0
7367,-86.9565217391304,4,2,1,65,0,0
7631,-86.9565217391304,4,2,1,5,0,0
7718,-86.9565217391304,4,2,1,65,0,0
8508,-86.9565217391304,4,2,1,5,0,0
8595,-86.9565217391304,4,2,1,65,0,0
12894,-86.9565217391304,4,2,1,5,0,0
12981,-86.9565217391304,4,2,1,65,0,0
13245,-86.9565217391304,4,2,1,5,0,0
13332,-86.9565217391304,4,2,1,65,0,0
14122,-86.9565217391304,4,2,1,5,0,0
14209,-86.9565217391304,4,2,1,65,0,0
18245,-125,4,2,1,55,0,0
18683,-125,4,2,1,5,0,0
18770,-125,4,2,1,55,0,0
19210,-125,4,2,1,5,0,0
19297,-125,4,2,1,55,0,0
21315,-125,4,2,1,5,0,0
21402,-125,4,2,1,55,0,0
21666,-125,4,2,1,5,0,0
21753,-125,4,2,1,55,0,0
22017,-125,4,2,1,5,0,0
22104,-125,4,2,1,55,0,0
22367,-125,4,2,1,5,0,0
22454,-125,4,2,1,55,0,0
22894,-125,4,2,1,5,0,0
22981,-125,4,2,1,55,0,0
23420,-125,4,2,1,5,0,0
23507,-125,4,2,1,55,0,0
26929,-125,4,2,1,5,0,0
27016,-125,4,2,1,55,0,0
27280,-125,4,2,1,5,0,0
27367,-125,4,2,1,55,0,0
27631,-125,4,2,1,5,0,0
27718,-125,4,2,1,55,0,0
27981,-125,4,2,1,5,0,0
28068,-125,4,2,1,55,0,0
28508,-125,4,2,1,5,0,0
28595,-125,4,2,1,55,0,0
29473,-200,4,2,1,45,0,0
33683,-71.4285714285714,4,2,1,65,0,0
33946,-71.4285714285714,4,2,1,5,0,0
34034,-71.4285714285714,4,2,1,65,0,0
34297,-71.4285714285714,4,2,1,5,0,0
34385,-83.3333333333333,4,2,1,65,0,0
34648,-83.3333333333333,4,2,1,5,0,0
34736,-83.3333333333333,4,2,1,65,0,0
34999,-83.3333333333333,4,2,1,5,0,0
35087,-111.111111111111,4,2,1,60,0,0
37806,-111.111111111111,4,2,1,5,0,0
37894,-111.111111111111,4,2,1,60,0,0
39297,-66.6666666666667,4,2,1,65,0,0
39560,-66.6666666666667,4,2,1,5,0,0
39648,-66.6666666666667,4,2,1,70,0,0
39731,-66.6666666666667,4,2,1,5,0,0
39824,-133.333333333333,4,2,1,75,0,0
39999,-133.333333333333,4,2,1,5,0,0
40174,-133.333333333333,4,2,1,40,0,0
40701,-68.9655172413793,4,2,1,85,0,1
40964,-68.9655172413793,4,2,1,5,0,1
41052,-68.9655172413793,4,2,1,85,0,1
41315,-68.9655172413793,4,2,1,5,0,1
41402,-80,4,2,1,85,0,1
42894,-80,4,2,1,5,0,1
42981,-80,4,2,1,85,0,1
44999,-80,4,2,1,5,0,1
45086,-80,4,2,1,85,0,1
46315,-68.9655172413793,4,2,1,85,0,1
46578,-68.9655172413793,4,2,1,5,0,1
46666,-68.9655172413793,4,2,1,85,0,1
46929,-68.9655172413793,4,2,1,5,0,1
47016,-80,4,2,1,85,0,1
48508,-80,4,2,1,5,0,1
48595,-80,4,2,1,85,0,1
49999,-222.222222222222,4,2,1,85,0,1
50350,-80,4,2,1,85,0,1
50613,-80,4,2,1,5,0,1
50701,-71.4285714285714,4,2,1,85,0,1
50788,-71.4285714285714,4,2,1,5,0,1
50876,-71.4285714285714,4,2,1,85,0,1
50964,-71.4285714285714,4,2,1,5,0,1
51052,-71.4285714285714,4,2,1,85,0,1
51139,-71.4285714285714,4,2,1,5,0,1
51227,-71.4285714285714,4,2,1,85,0,1
51315,-71.4285714285714,4,2,1,5,0,1
51403,-71.4285714285714,4,2,1,85,0,1
51841,-71.4285714285714,4,2,1,5,0,1
51929,-50,4,2,1,85,0,0
52017,-50,4,2,1,5,0,0
52104,-50,4,2,1,85,0,0
52367,-50,4,2,1,5,0,0
52454,-50,4,2,1,85,0,0
52718,-50,4,2,1,5,0,0
52806,-142.857142857143,4,2,1,85,0,0
52894,-142.857142857143,4,2,1,5,0,0
52981,-142.857142857143,4,2,1,85,0,0
53157,-71.4285714285714,4,2,1,85,0,1
53420,-71.4285714285714,4,2,1,5,0,1
53508,-80,4,2,1,85,0,1
57543,-50,4,2,1,85,0,0
57631,-50,4,2,1,5,0,0
57718,-50,4,2,1,85,0,0
57981,-50,4,2,1,5,0,0
58068,-50,4,2,1,85,0,0
58332,-50,4,2,1,5,0,0
58420,-142.857142857143,4,2,1,85,0,0
58508,-142.857142857143,4,2,1,5,0,0
58595,-142.857142857143,4,2,1,85,0,0
58771,-71.4285714285714,4,2,1,85,0,1
59034,-71.4285714285714,4,2,1,5,0,1
59122,-80,4,2,1,85,0,1
60788,-80,4,2,1,5,0,1
60876,-80,4,2,1,85,0,1
61490,-80,4,2,1,5,0,1
61578,-80,4,2,1,85,0,1
61666,-80,4,2,1,5,0,1
61753,-80,4,2,1,90,0,1
61929,-62.5,4,2,1,90,0,1
62017,-62.5,4,2,1,5,0,1
62105,-62.5,4,2,1,90,0,1
62193,-62.5,4,2,1,5,0,1
62281,-62.5,4,2,1,90,0,1
62368,-62.5,4,2,1,5,0,1
62456,-62.5,4,2,1,90,0,1
63069,-62.5,4,2,1,5,0,1
63157,-86.9565217391304,4,2,1,65,0,0
63420,-86.9565217391304,4,2,1,5,0,0
63507,-86.9565217391304,4,2,1,65,0,0
63771,-86.9565217391304,4,2,1,5,0,0
63858,-86.9565217391304,4,2,1,65,0,0
64648,-86.9565217391304,4,2,1,5,0,0
64735,-86.9565217391304,4,2,1,65,0,0
69034,-86.9565217391304,4,2,1,5,0,0
69121,-86.9565217391304,4,2,1,65,0,0
69385,-86.9565217391304,4,2,1,5,0,0
69472,-86.9565217391304,4,2,1,65,0,0
70262,-86.9565217391304,4,2,1,5,0,0
70349,-86.9565217391304,4,2,1,65,0,0
72894,-86.9565217391304,4,2,1,5,0,0
72981,-86.9565217391304,4,2,1,65,0,0
73245,-86.9565217391304,4,2,1,5,0,0
73332,-86.9565217391304,4,2,1,65,0,0
73420,-86.9565217391304,4,2,1,5,0,0
73507,-86.9565217391304,4,2,1,65,0,0
73770,-86.9565217391304,4,2,1,5,0,0
73857,-86.9565217391304,4,2,1,65,0,0
74385,-105.263157894737,4,2,1,55,0,0
74648,-105.263157894737,4,2,1,5,0,0
74736,-105.263157894737,4,2,1,55,0,0
80262,-105.263157894737,4,2,1,5,0,0
80350,-105.263157894737,4,2,1,55,0,0
82806,-133.333333333334,4,2,1,55,0,0
83069,-133.333333333334,4,2,1,5,0,0
83157,-133.333333333334,4,2,1,55,0,0
84210,-133.333333333334,4,2,1,60,0,0
84385,-58.8235294117647,4,2,1,60,0,0
84473,-58.8235294117647,4,2,1,5,0,0
84561,-58.8235294117647,4,2,1,60,0,0
84648,-58.8235294117647,4,2,1,5,0,0
84736,-58.8235294117647,4,2,1,60,0,0
84824,-58.8235294117647,4,2,1,5,0,0
84912,-58.8235294117647,4,2,1,60,0,0
84999,-58.8235294117647,4,2,1,5,0,0
85087,-58.8235294117647,4,2,1,60,0,0
85613,-200,4,2,1,45,0,0
89823,-71.4285714285714,4,2,1,65,0,0
90087,-71.4285714285714,4,2,1,5,0,0
90175,-71.4285714285714,4,2,1,65,0,0
90438,-71.4285714285714,4,2,1,5,0,0
90525,-83.3333333333333,4,2,1,65,0,0
90789,-83.3333333333333,4,2,1,5,0,0
90877,-83.3333333333333,4,2,1,65,0,0
91139,-83.3333333333333,4,2,1,5,0,0
91227,-111.111111111111,4,2,1,55,0,0
93946,-111.111111111111,4,2,1,5,0,0
94034,-111.111111111111,4,2,1,55,0,0
95437,-66.6666666666667,4,2,1,65,0,0
95701,-66.6666666666667,4,2,1,5,0,0
95788,-66.6666666666667,4,2,1,70,0,0
95876,-66.6666666666667,4,2,1,5,0,0
95964,-133.333333333333,4,2,1,75,0,0
96139,-133.333333333333,4,2,1,5,0,0
96314,-133.333333333333,4,2,1,50,0,0
96841,-68.9655172413793,4,2,1,85,0,1
97104,-68.9655172413793,4,2,1,5,0,1
97192,-68.9655172413793,4,2,1,85,0,1
97455,-68.9655172413793,4,2,1,5,0,1
97542,-80,4,2,1,85,0,1
99034,-80,4,2,1,5,0,1
99122,-80,4,2,1,85,0,1
101139,-80,4,2,1,5,0,1
101227,-80,4,2,1,85,0,1
102455,-68.9655172413793,4,2,1,85,0,1
102718,-68.9655172413793,4,2,1,5,0,1
102806,-68.9655172413793,4,2,1,85,0,1
103069,-68.9655172413793,4,2,1,5,0,1
103156,-80,4,2,1,85,0,1
104648,-80,4,2,1,5,0,1
104736,-80,4,2,1,85,0,1
106139,-222.222222222222,4,2,1,85,0,1
106490,-80,4,2,1,85,0,1
106753,-80,4,2,1,5,0,1
106841,-71.4285714285714,4,2,1,85,0,1
106929,-71.4285714285714,4,2,1,5,0,1
107017,-71.4285714285714,4,2,1,85,0,1
107105,-71.4285714285714,4,2,1,5,0,1
107193,-71.4285714285714,4,2,1,85,0,1
107280,-71.4285714285714,4,2,1,5,0,1
107368,-71.4285714285714,4,2,1,85,0,1
107456,-71.4285714285714,4,2,1,5,0,1
107544,-71.4285714285714,4,2,1,85,0,1
107981,-71.4285714285714,4,2,1,5,0,1
108069,-50,4,2,1,85,0,0
108157,-50,4,2,1,5,0,0
108244,-50,4,2,1,85,0,0
108507,-50,4,2,1,5,0,0
108594,-50,4,2,1,85,0,0
108858,-50,4,2,1,5,0,0
108946,-142.857142857143,4,2,1,85,0,0
109034,-142.857142857143,4,2,1,5,0,0
109121,-142.857142857143,4,2,1,85,0,0
109297,-71.4285714285714,4,2,1,85,0,1
109560,-71.4285714285714,4,2,1,5,0,1
109648,-80,4,2,1,85,0,1
113683,-50,4,2,1,85,0,0
113771,-50,4,2,1,5,0,0
113858,-50,4,2,1,85,0,0
114121,-50,4,2,1,5,0,0
114208,-50,4,2,1,85,0,0
114472,-50,4,2,1,5,0,0
114560,-142.857142857143,4,2,1,85,0,0
114648,-142.857142857143,4,2,1,5,0,0
114735,-142.857142857143,4,2,1,85,0,0
114911,-71.4285714285714,4,2,1,85,0,1
115174,-71.4285714285714,4,2,1,5,0,1
115262,-80,4,2,1,85,0,1
116929,-80,4,2,1,5,0,1
117017,-80,4,2,1,85,0,1
117631,-80,4,2,1,5,0,1
117719,-80,4,2,1,85,0,1
117806,-80,4,2,1,5,0,1
117894,-80,4,2,1,90,0,1
118069,-62.5,4,2,1,90,0,1
118157,-62.5,4,2,1,5,0,1
118245,-62.5,4,2,1,90,0,1
118333,-62.5,4,2,1,5,0,1
118421,-62.5,4,2,1,90,0,1
118508,-62.5,4,2,1,5,0,1
118596,-62.5,4,2,1,90,0,1
119210,-62.5,4,2,1,5,0,1
119297,-86.9565217391304,4,2,1,75,0,0
119560,-86.9565217391304,4,2,1,5,0,0
119648,-86.9565217391304,4,2,1,85,0,0
119911,-86.9565217391304,4,2,1,5,0,0
119999,-86.9565217391304,4,2,1,70,0,0
121490,-86.9565217391304,4,2,1,5,0,0
121578,-86.9565217391304,4,2,1,70,0,0
124911,-80,4,2,1,75,0,0
125174,-80,4,2,1,5,0,0
125262,-80,4,2,1,85,0,0
125525,-80,4,2,1,5,0,0
125613,-80,4,2,1,70,0,0
127104,-80,4,2,1,5,0,0
127192,-80,4,2,1,70,0,0
129034,-80,4,2,1,5,0,0
129122,-80,4,2,1,70,0,0
129385,-80,4,2,1,5,0,0
129473,-80,4,2,1,70,0,0
129824,-80,4,2,1,5,0,0
129912,-80,4,2,1,70,0,0
130525,-500,4,2,1,65,0,0
130613,-1000,4,2,1,5,0,0

[Colours]
Combo1 : 82,82,82
Combo2 : 255,19,19
Combo3 : 212,212,212
Combo4 : 255,51,51

[HitObjects]
450,63,1403,6,0,P|375:50|309:95,1,154.4,2|8,0:0|0:0,0:0:0:0:
394,141,1929,1,2,0:0:0:0:
394,141,2104,2,0,L|384:296,1,154.4,2|8,0:0|0:0,0:0:0:0:
232,384,2631,5,2,0:0:0:0:
232,384,2806,2,0,L|222:230,1,154.4,2|8,0:0|0:0,0:0:0:0:
304,179,3332,1,2,0:0:0:0:
304,179,3508,2,0,P|240:138|165:150,1,154.4,2|8,0:0|0:0,0:0:0:0:
0,287,4034,5,2,0:0:0:0:
0,287,4210,2,0,B|28:309|64:306|64:306|99:273|148:280,1,154.4,2|8,0:0|0:0,0:0:0:0:
266,304,4736,1,2,0:0:0:0:
266,304,4911,1,2,0:0:0:0:
360,271,5087,5,2,0:0:0:0:
406,174,5262,1,8,0:0:0:0:
329,107,5438,1,2,0:0:0:0:
329,107,5788,6,0,P|311:140|310:179,1,77.2,2|0,3:2|0:0,0:0:0:0:
512,343,5964,2,0,P|491:310|458:291,1,77.2,2|0,3:2|0:0,0:0:0:0:
217,384,6139,2,0,P|255:382|288:363,1,77.2,2|0,3:2|0:0,0:0:0:0:
360,271,6315,5,2,3:2:0:0:
360,271,6666,5,2,3:2:0:0:
360,271,7017,6,0,B|316:267|292:234|292:234|254:216|205:229,1,166.46250317502,4|0,3:1|0:0,0:0:0:0:
55,187,7367,2,0,B|99:191|123:224|123:224|161:242|209:228,1,166.46250317502,10|0,0:0|0:0,0:0:0:0:
372,182,7718,5,2,3:2:0:0:
443,329,7894,2,0,P|461:275|440:217,1,110.97500211668,2|8,0:0|0:0,0:0:0:0:
301,97,8245,6,0,B|355:78|355:78|406:91,1,110.97500211668,2|0,0:0|3:0,0:0:0:0:
407,57,8595,2,0,B|355:43|355:43|301:62,1,110.97500211668,2|8,0:0|0:0,0:0:0:0:
160,117,8946,5,2,0:0:0:0:
168,119,9005,5,2,0:0:0:0:
179,121,9063,5,2,0:0:0:0:
190,123,9122,5,2,3:2:0:0:
88,26,9297,1,2,0:0:0:0:
173,21,9473,5,10,0:0:0:0:
0,96,9648,1,2,0:0:0:0:
0,96,9824,1,2,3:2:0:0:
20,259,9999,5,2,0:0:0:0:
149,182,10174,2,0,L|38:173,1,110.97500211668,10|0,0:0|0:0,0:0:0:0:
162,204,10525,5,2,3:2:0:0:
325,285,10701,1,2,0:0:0:0:
313,297,10876,5,10,0:0:0:0:
386,348,11052,2,0,P|413:301|402:247,1,110.97500211668,2|0,0:0|3:0,0:0:0:0:
238,327,11402,2,0,P|226:273|254:226,1,110.97500211668,2|8,0:0|0:0,0:0:0:0:
341,168,11753,1,2,0:0:0:0:
402,247,11929,5,2,3:2:0:0:
466,57,12104,1,2,0:0:0:0:
499,140,12280,5,10,0:0:0:0:
368,45,12455,1,2,0:0:0:0:
368,45,12631,6,0,B|296:41|296:41|276:58|276:58|201:51,1,166.46250317502,4|0,3:1|0:0,0:0:0:0:
48,45,12981,2,0,B|120:41|120:41|140:58|140:58|214:51,1,166.46250317502,10|0,0:0|0:0,0:0:0:0:
335,179,13332,5,2,3:2:0:0:
241,236,13508,2,0,P|231:168|243:125,1,110.97500211668,2|8,0:0|0:0,0:0:0:0:
502,268,13859,6,0,B|448:256|448:256|393:265,1,110.97500211668,2|0,0:0|3:0,0:0:0:0:
395,248,14210,2,0,B|450:239|450:239|504:251,1,110.97500211668,2|8,0:0|0:0,0:0:0:0:
342,360,14560,5,2,0:0:0:0:
332,366,14619,5,2,0:0:0:0:
323,374,14677,5,2,0:0:0:0:
313,379,14736,5,2,3:2:0:0:
166,307,14911,1,2,0:0:0:0:
263,290,15087,5,10,0:0:0:0:
87,378,15262,1,2,0:0:0:0:
87,378,15438,1,2,3:2:0:0:
5,240,15613,5,2,0:0:0:0:
96,162,15788,2,0,L|86:299,1,110.97500211668,10|0,0:0|0:0,0:0:0:0:
95,149,16139,5,2,3:2:0:0:
33,4,16315,1,2,0:0:0:0:
14,20,16490,5,10,0:0:0:0:
203,58,16666,2,0,P|144:76|92:52,1,110.97500211668,2|0,0:0|3:0,0:0:0:0:
301,9,17017,2,0,P|308:63|295:117,1,110.97500211668,2|8,0:0|0:0,0:0:0:0:
228,205,17367,1,2,0:0:0:0:
228,205,17543,5,2,3:2:0:0:
419,133,17718,1,2,0:0:0:0:
295,117,17894,1,10,0:0:0:0:
341,268,18069,1,2,0:0:0:0:
346,258,18157,1,0,0:0:0:0:
354,246,18245,5,4,3:2:0:0:
448,342,18420,2,0,B|384:333|384:333|358:348|358:348|293:337,1,154.4,2|2,0:0|3:2,0:0:0:0:
205,297,18946,2,0,P|197:334|204:372,1,77.2,2|0,3:2|0:0,0:0:0:0:
114,260,19297,2,0,P|136:228|168:207,1,77.2,10|2,3:2|0:0,0:0:0:0:
297,153,19648,5,2,3:2:0:0:
297,153,19824,1,2,0:0:0:0:
147,103,19999,5,10,3:2:0:0:
289,18,20174,1,2,0:0:0:0:
240,86,20350,5,2,3:2:0:0:
125,6,20525,1,2,0:0:0:0:
45,121,20701,1,10,3:2:0:0:
160,201,20876,1,2,0:0:0:0:
160,201,21052,1,2,3:2:0:0:
296,323,21227,6,0,P|285:285|288:246,1,77.2,2|8,0:0|3:2,0:0:0:0:
169,384,21578,2,0,P|193:354|207:318,1,77.2,2|0,0:0|3:0,0:0:0:0:
301,228,21929,6,0,P|298:266|309:304,1,77.2,2|8,0:0|3:2,0:0:0:0:
203,295,22280,2,0,P|189:331|165:361,1,77.2,2|0,0:0|3:0,0:0:0:0:
11,197,22631,6,0,B|56:224|92:212|94:193|133:183|167:204,1,154.4,2|2,0:0|0:0,0:0:0:0:
301,228,23157,2,0,B|365:246|365:246|416:232,1,115.8,2|0,3:2|0:0,0:0:0:0:
479,312,23508,2,0,P|508:262|511:205,1,115.8,10|0,3:2|0:0,0:0:0:0:
441,147,23859,5,0,3:0:0:0:
512,48,24034,2,0,L|435:54,1,77.2,2|8,0:0|0:0,0:0:0:0:
343,101,24385,1,2,0:0:0:0:
343,101,24560,2,0,P|332:50|341:20,1,77.2,2|2,3:2|0:0,0:0:0:0:
244,69,24911,2,0,P|217:96|205:132,1,77.2,10|2,3:2|0:0,0:0:0:0:
172,240,25262,5,2,3:2:0:0:
302,198,25438,1,2,0:0:0:0:
163,256,25613,5,10,3:2:0:0:
33,214,25789,1,2,0:0:0:0:
164,271,25964,5,2,3:2:0:0:
388,230,26139,1,2,0:0:0:0:
296,362,26315,1,10,3:2:0:0:
255,138,26490,1,2,0:0:0:0:
255,138,26666,1,2,3:2:0:0:
215,18,26841,6,0,P|201:53|172:78,1,77.2,2|8,0:0|3:2,0:0:0:0:
303,70,27192,2,0,P|330:96|366:107,1,77.2,2|0,0:0|3:0,0:0:0:0:
146,78,27543,6,0,P|174:53|188:17,1,77.2,2|8,0:0|3:2,0:0:0:0:
390,95,27894,2,0,P|353:84|326:57,1,77.2,2|0,0:0|3:0,0:0:0:0:
469,64,28245,6,0,B|490:47|517:42|517:42|531:86|512:141,1,154.4,2|2,0:0|0:0,0:0:0:0:
491,225,28771,5,2,3:2:0:0:
311,342,28946,5,2,0:0:0:0:
410,359,29122,1,10,3:2:0:0:
492,306,29297,1,2,0:0:0:0:
491,225,29473,5,2,0:0:0:0:
491,225,29648,2,0,B|474:208|450:211|450:211|418:229|381:212,1,96.5,2|2,3:2|3:2,0:0:0:0:
406,142,30174,2,0,L|410:93,1,48.25,2|2,3:2|0:0,0:0:0:0:
316,71,30525,2,0,L|321:22,1,48.25,2|2,0:0|0:0,0:0:0:0:
211,105,30876,6,0,L|200:210,1,96.5,2|2,3:2|0:0,0:0:0:0:
195,291,31402,1,0,3:0:0:0:
179,199,31578,6,0,L|190:94,1,96.5,2|2,3:2|0:0,0:0:0:0:
195,13,32104,1,0,3:0:0:0:
110,66,32280,5,0,3:0:0:0:
110,66,32455,2,0,B|97:86|101:121|101:121|82:97|52:97,1,96.5,2|2,0:2|3:2,0:0:0:0:
24,230,32981,2,0,L|37:165,1,48.25,2|2,3:2|0:0,0:0:0:0:
114,312,33332,2,0,L|101:247,1,48.25,2|2,0:0|0:0,0:0:0:0:
198,343,33683,6,8,B|237:289|237:289|307:303|325:388,1,202.649993815613,4|8,3:1|0:0,0:0:0:0:
432,268,34034,2,0,B|392:214|392:214|323:228|305:313,1,202.649993815613,4|0,3:1|0:0,0:0:0:0:
477,137,34385,6,0,P|403:113|305:152,1,173.699994699097,4|0,3:1|0:0,0:0:0:0:
234,41,34736,2,0,P|319:47|383:104,1,173.699994699097,4|0,3:1|0:0,0:0:0:0:
261,234,35087,5,4,3:2:0:0:
197,148,35350,5,2,0:0:0:0:
195,170,35438,1,0,3:0:0:0:
53,215,35613,1,2,0:0:0:0:
132,328,35788,6,0,L|149:228,1,86.8499973495484,2|2,3:2|0:0,0:0:0:0:
92,71,36139,2,0,L|107:157,1,86.8499973495484,2|2,3:2|0:0,0:0:0:0:
75,0,36490,5,2,3:2:0:0:
196,41,36753,5,2,0:0:0:0:
171,57,36841,1,2,3:2:0:0:
308,29,37017,1,2,0:3:0:0:
281,176,37192,6,0,P|258:139|254:96,1,86.8499973495484,2|2,3:2|0:3,0:0:0:0:
372,114,37543,2,0,L|388:277,1,130.274996024323,2|0,3:2|0:0,0:0:0:0:
399,324,37894,5,8,3:2:0:0:
313,332,39473,6,0,P|318:297|310:262,1,72.3750027608873,2|0,3:2|0:0,0:0:0:0:
391,226,39649,2,0,P|369:196|339:177,1,72.3750027608873,2|0,3:2|0:0,0:0:0:0:
370,95,39824,2,0,P|334:89|299:97,1,72.3750027608873,2|0,3:2|0:0,0:0:0:0:
250,174,40174,5,2,0:2:0:0:
250,174,40350,1,2,0:2:0:0:
250,174,40525,1,2,0:2:0:0:
120,349,40701,6,0,B|148:318|192:310|192:310|197:244|155:188,1,209.887506405258,4|0,3:1|0:0,0:0:0:0:
89,254,41052,2,0,B|61:223|17:215|17:215|12:149|53:93,1,209.887506405258,8|0,0:0|0:0,0:0:0:0:
183,45,41402,5,2,3:2:0:0:
331,121,41578,2,0,P|272:108|210:119,1,120.625,2|8,0:0|0:0,0:0:0:0:
255,333,41929,2,0,B|277:274|277:274|269:216,1,120.625,2|0,0:0|3:0,0:0:0:0:
442,200,42280,2,0,B|420:141|420:141|427:83,1,120.625,2|8,0:0|0:0,0:0:0:0:
493,273,42631,6,0,B|449:300|409:292|417:275|372:256|312:288,1,180.9375,2|0,0:0|0:0,0:0:0:0:
255,333,42981,1,2,0:0:0:0:
81,287,43157,1,10,0:0:0:0:
168,246,43332,2,0,P|179:282|127:369,1,120.625,2|0,0:0|3:0,0:0:0:0:
160,228,43683,5,2,0:0:0:0:
269,96,43859,1,10,0:0:0:0:
333,153,44034,5,2,0:0:0:0:
204,8,44210,1,2,3:2:0:0:
65,96,44385,2,0,L|185:87,1,120.625,2|8,0:0|0:0,0:0:0:0:
308,13,44736,2,0,B|345:0|376:8|376:8|356:24|342:47,1,120.625,2|0,0:0|3:0,0:0:0:0:
249,172,45087,5,2,0:0:0:0:
417,209,45262,1,10,0:0:0:0:
418,98,45438,2,0,P|436:154|417:210,1,120.625,2|0,0:0|3:0,0:0:0:0:
314,262,45788,5,2,0:0:0:0:
508,220,45964,1,10,0:0:0:0:
314,237,46139,1,2,0:0:0:0:
489,308,46315,6,0,B|478:345|452:360|452:360|391:308|421:218,1,209.887506405258,2|0,3:2|0:0,0:0:0:0:
247,161,46666,2,0,B|241:199|258:223|258:223|335:202|346:108,1,209.887506405258,10|0,0:0|0:0,0:0:0:0:
396,12,47017,5,2,3:2:0:0:
480,115,47192,2,0,P|418:94|359:104,1,120.625,2|8,0:0|0:0,0:0:0:0:
163,184,47543,6,0,B|174:212|197:230|197:230|169:228|134:239,1,120.625,2|0,0:0|3:0,0:0:0:0:
8,371,47894,2,0,B|-3:343|-26:325|-26:325|0:327|37:316,1,120.625,2|8,0:0|0:0,0:0:0:0:
288,342,48245,6,0,B|323:332|355:346|355:346|321:308|295:246,1,180.9375,2|0,0:0|0:0,0:0:0:0:
299,165,48595,1,2,0:0:0:0:
384,61,48771,5,10,0:0:0:0:
222,110,48946,1,2,0:0:0:0:
222,110,49122,1,0,3:0:0:0:
37,43,49297,5,2,0:0:0:0:
232,20,49473,1,10,0:0:0:0:
143,14,49648,5,2,0:0:0:0:
192,197,49824,1,2,3:2:0:0:
108,282,49999,2,0,L|101:198,1,65.1374980121613,2|0,0:0|0:0,0:0:0:0:
63,153,50350,6,0,L|49:369,1,180.9375,2|0,3:2|0:0,0:0:0:0:
126,372,50701,6,0,L|192:360,1,67.5499979385377,2|0,0:0|0:0,0:0:0:0:
437,284,50876,2,0,L|370:272,1,67.5499979385377,2|0,3:2|0:0,0:0:0:0:
201,284,51052,6,0,L|267:272,1,67.5499979385377,2|0,0:0|0:0,0:0:0:0:
512,196,51227,2,0,L|445:184,1,67.5499979385377,2|0,3:2|0:0,0:0:0:0:
237,151,51402,5,2,0:3:0:0:
228,149,51461,5,2,0:3:0:0:
218,148,51519,5,2,0:3:0:0:
210,147,51578,6,0,B|161:115|106:130|106:130|59:105|57:49,1,202.649993815613,2|0,3:2|0:0,0:0:0:0:
38,137,51929,6,0,P|49:91|37:45,1,96.5,2|0,3:0|0:0,0:0:0:0:
267,271,52280,2,0,P|256:317|269:364,1,96.5,2|0,3:0|0:0,0:0:0:0:
60,40,52631,6,0,P|72:94|60:136,1,96.5,2|0,3:0|0:0,0:0:0:0:
246,369,52806,6,0,P|234:315|246:268,1,101.324996907806,2|0,3:0|0:0,0:0:0:0:
340,216,53157,6,0,B|379:235|398:264|398:264|403:223|427:189|414:140,1,202.649993815613,4|0,3:1|0:0,0:0:0:0:
378,67,53508,5,2,3:2:0:0:
512,173,53683,1,10,0:0:0:0:
381,49,53859,1,2,0:0:0:0:
196,112,54034,5,2,3:2:0:0:
340,128,54210,1,2,0:0:0:0:
237,33,54385,5,10,0:0:0:0:
56,139,54560,1,2,0:0:0:0:
56,139,54736,6,0,P|27:88|29:28,1,120.625,2|0,3:2|0:0,0:0:0:0:
265,170,55087,2,0,P|294:221|292:281,1,120.625,10|0,0:0|0:0,0:0:0:0:
78,213,55438,6,0,L|138:216,1,60.3125,2|0,3:2|0:0,0:0:0:0:
200,245,55613,2,0,L|-18:264,1,180.9375,2|0,0:0|0:0,0:0:0:0:
5,358,55964,2,0,P|63:351|106:310,1,120.625,2|0,0:0|3:0,0:0:0:0:
197,132,56315,5,2,0:0:0:0:
333,213,56490,1,10,0:0:0:0:
333,213,56666,1,2,0:0:0:0:
388,302,56841,5,2,3:2:0:0:
474,166,57017,1,2,0:0:0:0:
396,165,57192,5,10,0:0:0:0:
357,77,57368,1,2,0:0:0:0:
353,62,57455,1,0,0:0:0:0:
350,45,57543,6,0,P|303:46|258:28,1,96.5,2|0,3:0|0:0,0:0:0:0:
69,121,57894,2,0,P|116:120|161:138,1,96.5,2|0,3:0|0:0,0:0:0:0:
264,11,58245,6,0,P|308:29|356:27,1,96.5,2|0,3:0|0:0,0:0:0:0:
159,155,58420,6,0,P|112:136|62:142,1,101.324996907806,2|0,3:0|0:0,0:0:0:0:
13,333,58771,6,0,B|59:367|59:367|115:298|92:232,1,202.649993815613,4|0,3:1|0:0,0:0:0:0:
18,202,59122,1,2,3:2:0:0:
172,238,59297,2,0,L|292:227,1,120.625,8|2,0:0|0:0,0:0:0:0:
422,215,59648,5,2,3:2:0:0:
492,118,59824,1,2,0:0:0:0:
388,122,59999,5,10,0:0:0:0:
484,293,60174,1,2,0:0:0:0:
484,293,60350,1,0,3:0:0:0:
416,358,60525,6,0,B|357:370|324:331|324:331|284:317|242:346,1,180.9375,2|0,0:0|0:0,0:0:0:0:
165,380,60876,1,2,0:0:0:0:
165,380,61052,5,2,3:2:0:0:
16,258,61228,1,2,0:0:0:0:
69,380,61402,6,0,L|79:308,1,60.3125,10|0,0:0|0:0,0:0:0:0:
147,201,61578,2,0,L|137:129,1,60.3125,2|0,3:2|0:0,0:0:0:0:
138,141,61929,6,0,P|181:129|215:136,1,77.2,2|0,3:2|0:0,0:0:0:0:
311,88,62104,2,0,P|288:57|254:39,1,77.2,2|0,3:2|0:0,0:0:0:0:
407,48,62280,2,0,P|418:85|413:123,1,77.2,2|0,3:2|0:0,0:0:0:0:
321,236,62455,5,2,3:2:0:0:
321,236,62806,5,2,3:2:0:0:
321,236,63157,6,0,B|274:233|245:203|245:203|239:243|201:269,1,166.46250317502,4|0,3:1|0:0,0:0:0:0:
42,163,63508,2,0,B|79:189|85:229|85:229|114:199|161:196,1,166.46250317502,10|0,0:0|0:0,0:0:0:0:
269,121,63859,5,2,3:2:0:0:
367,19,64034,2,0,P|350:72|367:124,1,110.97500211668,2|8,0:0|0:0,0:0:0:0:
506,274,64385,6,0,B|492:224|492:224|498:206|498:206|491:166,1,110.97500211668,2|0,0:0|3:0,0:0:0:0:
473,169,64736,2,0,B|479:208|479:208|473:226|473:226|487:276,1,110.97500211668,2|8,0:0|0:0,0:0:0:0:
329,357,65087,5,2,0:0:0:0:
338,355,65145,5,2,0:0:0:0:
348,354,65204,5,2,0:0:0:0:
357,352,65262,5,2,3:2:0:0:
188,284,65438,1,2,0:0:0:0:
269,297,65613,5,10,0:0:0:0:
100,365,65789,1,2,0:0:0:0:
100,365,65964,1,2,3:2:0:0:
0,277,66139,5,2,0:0:0:0:
97,138,66315,2,0,L|90:248,1,110.97500211668,10|0,0:0|0:0,0:0:0:0:
113,129,66666,5,2,3:2:0:0:
31,11,66842,1,2,0:0:0:0:
17,21,67017,5,10,0:0:0:0:
205,68,67192,2,0,P|151:62|108:28,1,110.97500211668,2|0,0:0|3:0,0:0:0:0:
268,1,67543,2,0,P|299:49|298:105,1,110.97500211668,2|8,0:0|0:0,0:0:0:0:
252,232,67894,1,2,0:0:0:0:
252,232,68069,5,2,3:2:0:0:
431,157,68245,1,2,0:0:0:0:
379,96,68420,5,10,0:0:0:0:
460,273,68595,1,2,0:0:0:0:
460,272,68771,6,0,B|463:327|419:371|419:371|377:327,1,166.46250317502,4|0,3:1|0:0,0:0:0:0:
236,222,69122,2,0,B|233:276|277:320|277:320|318:276,1,166.46250317502,10|0,0:0|0:0,0:0:0:0:
344,172,69473,5,2,3:2:0:0:
152,173,69648,2,0,P|189:133|242:121,1,110.97500211668,2|8,0:0|0:0,0:0:0:0:
138,314,69999,6,0,B|108:313|87:297|87:297|84:326|67:349,1,110.97500211668,2|0,0:0|3:0,0:0:0:0:
58,336,70350,2,0,B|74:312|77:283|77:283|98:299|128:300,1,110.97500211668,2|8,0:0|0:0,0:0:0:0:
304,244,70701,5,2,0:0:0:0:
308,252,70759,5,2,0:0:0:0:
312,260,70818,5,2,0:0:0:0:
316,266,70876,5,2,3:2:0:0:
395,108,71052,1,2,0:0:0:0:
468,163,71227,5,10,0:0:0:0:
297,60,71402,1,2,0:0:0:0:
297,60,71578,1,2,3:2:0:0:
300,156,71753,5,2,0:0:0:0:
210,1,71929,2,0,L|198:111,1,110.97500211668,10|0,0:0|0:0,0:0:0:0:
193,211,72280,5,2,3:2:0:0:
106,333,72455,1,2,0:0:0:0:
119,348,72631,5,2,3:2:0:0:
9,166,72806,6,0,L|16:104,1,55.4875010583401,2|0,3:2|0:0,0:0:0:0:
15,110,73157,6,0,L|9:166,1,55.4875010583401,2|0,3:2|0:0,0:0:0:0:
113,194,73332,2,0,L|119:249,1,55.4875010583401,2|0,3:2|0:0,0:0:0:0:
95,118,73508,1,2,0:0:0:0:
15,277,73683,2,0,L|8:332,1,55.4875010583401,2|0,3:2|0:0,0:0:0:0:
8,332,74034,6,0,L|15:277,1,55.4875010583401,8|0,0:0|0:0,0:0:0:0:
95,118,74385,6,0,B|146:99|186:120|186:120|229:114|243:54,1,183.349995104027,2|2,3:3|0:0,0:0:0:0:
165,30,74911,1,2,3:3:0:0:
165,30,75087,1,2,0:0:0:0:
321,20,75262,2,0,L|359:16,3,30.5583325173378,2|2|2|2,0:3|0:3|0:3|0:3,0:0:0:0:
460,63,75613,1,2,0:3:0:0:
460,63,75788,6,0,P|477:104|471:149,1,91.6749975520135,2|2,3:3|0:3,0:0:0:0:
302,121,76139,2,0,P|343:103|388:109,1,91.6749975520135,2|2,0:0|3:3,0:0:0:0:
393,200,76490,1,2,0:0:0:0:
480,262,76666,2,0,L|484:300,3,30.5583325173378,2|2|2|2,0:3|0:3|0:3|0:3,0:0:0:0:
385,344,77017,1,2,0:0:0:0:
385,344,77192,1,2,3:2:0:0:
292,273,77543,6,0,B|317:266|336:268|336:268|326:252|298:239,1,91.6749975520135,2|2,0:0|3:0,0:0:0:0:
211,220,77894,5,2,0:0:0:0:
134,321,78069,2,0,L|138:359,3,30.5583325173378,2|2|2|2,0:3|0:3|0:3|0:3,0:0:0:0:
41,232,78420,1,2,3:2:0:0:
41,232,78595,5,2,3:3:0:0:
88,132,78859,5,2,0:0:0:0:
132,42,79122,5,2,3:3:0:0:
132,42,79297,1,2,0:0:0:0:
229,111,79473,2,0,L|233:149,3,30.5583325173378,2|2|2|2,0:3|0:3|0:3|0:3,0:0:0:0:
355,29,79824,1,2,0:0:0:0:
355,29,79999,6,0,B|389:80|389:80|385:146|312:175,1,183.349995104027,2|2,3:2|0:0,0:0:0:0:
223,197,80525,1,2,3:3:0:0:
223,197,80701,1,2,0:0:0:0:
323,274,80876,2,0,L|361:270,3,30.5583325173378,2|2|2|2,0:3|0:3|0:3|0:3,0:0:0:0:
443,227,81227,1,2,0:0:0:0:
443,227,81402,6,0,P|461:268|455:313,1,91.6749975520135,2|2,0:0|3:2,0:0:0:0:
241,331,81753,2,0,P|222:289|228:244,1,91.6749975520135,2|2,0:0|0:3,0:0:0:0:
331,167,82104,5,2,3:3:0:0:
220,102,82280,2,0,L|258:98,3,30.5583325173378,2|2|2|2,0:3|0:3|0:3|0:3,0:0:0:0:
125,29,82631,1,2,0:3:0:0:
31,60,82806,6,0,P|6:126|20:196,1,144.750005521775,4|2,3:2|0:0,0:0:0:0:
173,138,83332,1,2,3:3:0:0:
173,138,83508,2,0,P|138:128|104:137,1,72.3750027608873,2|0,0:0|0:0,0:0:0:0:
125,353,83859,2,0,L|139:209,1,144.750005521775,2|0,3:3|0:0,0:0:0:0:
138,208,84385,6,0,P|177:221|217:212,1,82.0250015645027,2|0,3:2|0:0,0:0:0:0:
383,287,84560,2,0,P|395:248|386:208,1,82.0250015645027,2|0,3:2|0:0,0:0:0:0:
245,299,84736,2,0,P|280:280|302:245,1,82.0250015645027,2|0,3:2|0:0,0:0:0:0:
472,180,84911,2,0,P|453:144|418:122,1,82.0250015645027,2|0,3:2|0:0,0:0:0:0:
236,98,85087,5,2,3:2:0:0:
248,95,85174,1,0,3:0:0:0:
261,91,85262,1,2,3:2:0:0:
161,133,85438,1,2,3:2:0:0:
100,17,85613,6,0,B|114:47|102:79|102:79|72:106|85:160,1,144.75,4|2,3:2|3:2,0:0:0:0:
186,202,86315,6,0,P|155:202|137:206,1,48.25,2|2,3:2|0:0,0:0:0:0:
112,287,86666,2,0,P|143:287|160:282,1,48.25,2|2,0:0|0:0,0:0:0:0:
321,245,87017,6,0,B|325:191|325:191|312:150,1,96.5,2|2,3:2|0:0,0:0:0:0:
278,76,87543,1,0,3:0:0:0:
331,149,87718,6,0,B|343:189|343:189|339:243,1,96.5,2|2,3:2|0:0,0:0:0:0:
319,334,88245,1,0,3:0:0:0:
249,268,88420,6,0,B|218:255|184:269|192:282|154:304|107:285,1,144.75,0|2,3:0|3:2,0:0:0:0:
132,211,89122,2,0,L|129:163,1,48.25,2|2,3:2|0:0,0:0:0:0:
43,162,89473,2,0,L|39:113,1,48.25,2|2,0:0|0:0,0:0:0:0:
27,22,89824,6,0,B|82:22|109:60|109:60|167:69|214:22,1,202.649993815613,4|0,3:1|0:0,0:0:0:0:
340,87,90174,2,0,B|285:87|258:125|258:125|200:134|153:87,1,202.649993815613,4|0,3:1|0:0,0:0:0:0:
401,1,90525,6,0,P|437:77|411:158,1,173.699994699097,4|0,3:1|0:0,0:0:0:0:
316,330,90876,2,0,P|290:249|327:173,1,173.699994699097,4|0,3:1|0:0,0:0:0:0:
382,238,91227,5,4,3:2:0:0:
286,243,91490,5,2,0:0:0:0:
275,265,91578,1,0,3:0:0:0:
120,227,91753,1,2,0:0:0:0:
165,300,91929,6,0,P|192:266|204:225,1,86.8499973495484,2|2,3:2|0:0,0:0:0:0:
204,74,92280,2,0,P|176:107|164:148,1,86.8499973495484,2|2,3:2|0:0,0:0:0:0:
263,153,92631,5,2,3:2:0:0:
337,104,92894,5,2,0:0:0:0:
355,133,92981,1,2,3:2:0:0:
419,51,93157,1,0,0:0:0:0:
349,5,93332,6,0,L|251:15,1,86.8499973495484,2|2,3:2|0:3,0:0:0:0:
59,67,93683,2,0,B|52:31|52:31|149:56,1,130.274996024323,2|0,3:2|0:0,0:0:0:0:
220,83,94034,5,8,3:2:0:0:
0,56,95613,6,0,L|8:133,1,72.3750027608873,2|0,3:2|0:0,0:0:0:0:
107,179,95788,2,0,L|99:256,1,72.3750027608873,2|0,3:2|0:0,0:0:0:0:
0,302,95964,2,0,L|8:379,1,72.3750027608873,2|0,3:2|0:0,0:0:0:0:
134,343,96315,5,2,0:2:0:0:
116,332,96490,1,2,0:2:0:0:
85,334,96666,1,2,0:2:0:0:
223,336,96841,6,0,B|278:335|305:300|305:300|368:289|419:337,1,209.887506405258,4|0,3:1|0:0,0:0:0:0:
451,180,97192,2,0,B|405:210|363:197|363:197|305:224|291:293,1,209.887506405258,8|0,0:0|0:0,0:0:0:0:
334,376,97543,5,2,3:2:0:0:
232,219,97718,1,2,0:0:0:0:
222,234,97806,1,0,0:0:0:0:
213,249,97894,1,8,0:0:0:0:
387,107,98069,6,0,B|439:111|439:111|453:101|453:101|507:104,1,120.625,2|0,0:0|3:0,0:0:0:0:
353,25,98420,2,0,B|301:21|301:21|286:30|286:30|232:27,1,120.625,2|8,0:0|0:0,0:0:0:0:
40,30,98771,6,0,B|-4:89|20:155|20:155|60:126,1,180.9375,2|0,3:2|0:0,0:0:0:0:
114,64,99122,1,2,0:0:0:0:
202,204,99297,1,10,0:0:0:0:
264,141,99473,2,0,P|207:119|143:140,1,120.625,2|0,0:0|3:0,0:0:0:0:
14,279,99824,5,2,0:0:0:0:
97,197,99999,1,10,0:0:0:0:
0,267,100174,1,2,0:0:0:0:
118,317,100350,5,2,3:2:0:0:
207,224,100525,2,0,L|219:359,1,120.625,2|8,0:0|0:0,0:0:0:0:
449,235,100876,6,0,B|462:203|458:170|458:170|448:196|424:213,1,120.625,2|0,0:0|3:0,0:0:0:0:
375,344,101227,5,2,0:0:0:0:
293,231,101402,1,10,0:0:0:0:
293,231,101578,2,0,P|290:171|324:123,1,120.625,2|0,0:0|3:0,0:0:0:0:
477,51,101929,5,2,0:0:0:0:
280,0,102104,1,10,0:0:0:0:
357,50,102280,1,2,0:0:0:0:
160,101,102455,6,0,B|125:106|86:138|86:138|66:75|21:25,1,209.887506405258,2|0,3:2|0:0,0:0:0:0:
85,223,102806,2,0,B|120:228|159:260|159:260|179:197|224:147,1,209.887506405258,10|0,0:0|0:0,0:0:0:0:
376,196,103157,5,2,3:2:0:0:
234,298,103332,2,0,P|284:281|354:295,1,120.625,2|8,0:0|0:0,0:0:0:0:
92,369,103683,6,0,B|88:331|92:307|92:307|70:322|55:352,1,120.625,2|0,0:0|3:0,0:0:0:0:
31,165,104034,2,0,B|35:127|31:103|31:103|53:118|67:148,1,120.625,2|8,0:0|0:0,0:0:0:0:
154,28,104385,6,0,B|209:2|255:20|243:35|285:55|334:28,1,180.9375,2|0,0:0|0:0,0:0:0:0:
408,0,104736,1,2,0:0:0:0:
489,167,104911,1,10,0:0:0:0:
503,78,105087,1,2,0:0:0:0:
503,78,105262,1,0,3:0:0:0:
279,119,105438,5,2,0:0:0:0:
407,169,105613,1,10,0:0:0:0:
278,106,105788,1,2,0:0:0:0:
365,274,105964,1,2,3:2:0:0:
184,237,106139,2,0,L|248:232,1,65.1374980121613,2|0,0:0|0:0,0:0:0:0:
309,195,106490,6,0,L|128:182,1,180.9375,2|0,3:2|0:0,0:0:0:0:
37,142,106841,6,0,P|28:173|33:209,1,67.5499979385377,2|0,0:0|0:0,0:0:0:0:
307,63,107017,2,0,P|276:54|239:59,1,67.5499979385377,2|0,3:2|0:0,0:0:0:0:
21,294,107192,2,0,P|36:322|66:344,1,67.5499979385377,2|0,0:0|0:0,0:0:0:0:
156,47,107368,2,0,P|127:62|105:92,1,67.5499979385377,2|0,3:2|0:0,0:0:0:0:
199,189,107543,5,2,0:3:0:0:
208,190,107601,5,2,0:3:0:0:
217,192,107660,5,2,0:3:0:0:
225,194,107718,6,0,B|276:184|309:210|309:210|372:231|417:171,1,202.649993815613,2|0,3:2|0:0,0:0:0:0:
430,179,108069,6,0,P|414:224|425:271,1,96.5,2|0,3:0|0:0,0:0:0:0:
294,112,108420,2,0,P|321:73|324:26,1,96.5,2|0,3:0|0:0,0:0:0:0:
440,272,108771,6,0,P|430:225|447:181,1,96.5,2|0,3:0|0:0,0:0:0:0:
309,20,108946,6,0,P|307:68|269:118,1,101.324996907806,2|0,3:0|0:0,0:0:0:0:
64,100,109297,6,0,B|108:71|124:29|124:29|179:18|231:40,1,202.649993815613,4|0,3:1|0:0,0:0:0:0:
347,171,109648,5,2,3:2:0:0:
175,129,109824,1,8,0:0:0:0:
358,156,109999,1,2,0:0:0:0:
440,272,110174,5,2,3:2:0:0:
256,218,110350,1,2,0:0:0:0:
339,258,110525,5,10,0:0:0:0:
154,311,110701,1,2,0:0:0:0:
154,311,110876,6,0,P|121:262|118:203,1,120.625,2|0,3:2|0:0,0:0:0:0:
232,0,111227,2,0,P|265:49|268:108,1,120.625,10|0,0:0|0:0,0:0:0:0:
129,123,111578,6,0,L|53:114,1,60.3125,2|0,3:2|0:0,0:0:0:0:
3,87,111753,2,0,L|209:74,1,180.9375,2|0,0:0|0:0,0:0:0:0:
351,18,112104,2,0,L|231:0,1,120.625,2|0,0:0|3:0,0:0:0:0:
435,35,112455,5,2,0:0:0:0:
505,199,112631,1,10,0:0:0:0:
505,199,112806,1,2,0:0:0:0:
495,91,112981,5,2,3:2:0:0:
345,167,113157,1,2,0:0:0:0:
378,96,113332,5,10,0:0:0:0:
388,310,113508,1,2,0:0:0:0:
396,306,113595,1,0,0:0:0:0:
406,301,113683,6,0,P|449:293|502:310,1,96.5,2|0,3:0|0:0,0:0:0:0:
283,301,114034,2,0,P|243:319|187:317,1,96.5,2|0,3:0|0:0,0:0:0:0:
499,292,114385,6,0,P|454:278|407:286,1,96.5,2|0,3:0|0:0,0:0:0:0:
197,346,114560,6,0,P|247:349|292:315,1,101.324996907806,2|0,3:0|0:0,0:0:0:0:
278,124,114911,6,0,B|225:96|225:96|226:239,1,202.649993815613,4|0,3:1|0:0,0:0:0:0:
197,346,115262,5,2,3:2:0:0:
26,228,115438,2,0,P|80:206|146:226,1,120.625,8|2,0:0|0:0,0:0:0:0:
88,304,115788,5,2,3:2:0:0:
143,188,115964,1,2,0:0:0:0:
225,238,116139,5,10,0:0:0:0:
154,41,116315,1,2,0:0:0:0:
154,41,116490,1,0,3:0:0:0:
244,95,116666,6,0,B|195:72|150:84|150:84|125:113|69:115,1,180.9375,2|0,0:0|0:0,0:0:0:0:
0,76,117017,1,2,0:0:0:0:
26,228,117192,5,2,3:2:0:0:
187,167,117367,1,2,0:0:0:0:
196,285,117543,6,0,L|185:344,1,60.3125,10|0,0:0|0:0,0:0:0:0:
306,233,117718,2,0,L|295:173,1,60.3125,2|0,3:2|0:0,0:0:0:0:
288,370,118069,6,0,P|324:360|352:333,1,77.2,2|0,3:2|0:0,0:0:0:0:
452,291,118245,2,0,P|471:258|471:219,1,77.2,2|0,3:2|0:0,0:0:0:0:
512,119,118420,2,0,P|502:82|475:54,1,77.2,2|0,3:2|0:0,0:0:0:0:
301,25,118595,5,2,3:2:0:0:
301,25,118946,5,2,3:2:0:0:
301,25,119297,6,0,B|266:47|233:49|233:49|193:25|139:38,1,166.46250317502,4|0,3:1|0:0,0:0:0:0:
177,131,119648,2,8,B|221:157|233:202|233:202|257:224|298:233,1,166.46250317502,8|0,0:0|0:0,0:0:0:0:
471,219,119999,5,2,3:2:0:0:
342,315,120174,2,0,P|380:276|386:222,1,110.97500211668,2|8,0:0|0:0,0:0:0:0:
246,98,120525,6,0,B|190:91|190:91|138:108,1,110.97500211668,2|0,0:0|3:0,0:0:0:0:
138,93,120876,2,0,B|189:75|189:75|245:82,1,110.97500211668,2|8,0:0|0:0,0:0:0:0:
198,192,121227,6,0,L|178:301,1,110.97500211668,2|0,0:0|3:0,0:0:0:0:
120,252,121578,1,2,0:0:0:0:
120,252,121753,2,0,L|139:361,1,110.97500211668,8|0,0:0|0:0,0:0:0:0:
228,361,122104,1,2,3:2:0:0:
307,256,122280,5,2,0:0:0:0:
430,365,122455,1,10,0:0:0:0:
291,244,122631,1,0,0:0:0:0:
336,342,122806,6,0,P|376:304|394:252,1,110.97500211668,2|2,3:2|0:0,0:0:0:0:
490,173,123157,1,10,0:0:0:0:
490,173,123332,2,0,P|514:223|512:278,1,110.97500211668,2|0,0:0|3:0,0:0:0:0:
284,121,123683,2,0,L|407:114,1,110.97500211668,2|8,0:0|0:0,0:0:0:0:
501,93,124034,1,2,0:0:0:0:
501,93,124210,5,2,3:2:0:0:
333,12,124385,1,2,0:0:0:0:
435,32,124560,5,10,0:0:0:0:
267,113,124735,1,2,0:0:0:0:
160,49,124911,6,0,B|132:38|110:8|110:8|106:42|67:71|73:116,1,180.9375,4|0,3:1|0:0,0:0:0:0:
86,282,125262,2,0,B|58:292|36:322|36:322|32:288|-6:259|0:214,1,180.9375,8|0,0:0|0:0,0:0:0:0:
1,50,125613,5,2,3:2:0:0:
209,182,125788,2,0,B|167:197|167:197|89:197,1,120.625,2|8,0:0|0:0,0:0:0:0:
353,140,126139,6,0,B|358:192|358:192|330:258,1,120.625,2|0,0:0|3:0,0:0:0:0:
367,259,126490,2,0,B|393:196|393:196|387:144,1,120.625,2|8,0:0|0:0,0:0:0:0:
182,47,126841,6,0,L|191:175,1,120.625,2|0,0:0|3:0,0:0:0:0:
92,199,127192,1,2,0:0:0:0:
92,199,127367,2,0,L|83:327,1,120.625,8|0,0:0|0:0,0:0:0:0:
185,265,127718,1,2,3:2:0:0:
348,333,127894,5,2,0:0:0:0:
183,378,128069,1,10,0:0:0:0:
336,309,128245,1,0,0:0:0:0:
506,371,128420,5,2,3:2:0:0:
395,249,128595,1,2,0:0:0:0:
487,125,128771,5,2,0:0:0:0:
496,134,128829,5,2,0:0:0:0:
504,142,128888,5,2,0:0:0:0:
512,150,128946,5,2,3:2:0:0:
365,91,129297,5,2,3:2:0:0:
218,32,129648,5,2,3:2:0:0:
59,34,129999,6,0,L|21:17,2,40.2083333333333,2|2|2,0:0|0:0|0:0,0:0:0:0:
134,52,130174,1,2,3:2:0:0:
129,198,130350,1,2,3:2:0:0:
224,151,130525,6,0,B|155:158|118:238|170:316|170:316|224:309|236:251,1,308.8,2|0,0:0|0:0,0:0:0:0:
