osu file format v14

[General]
AudioFilename: audio.mp3
AudioLeadIn: 0
PreviewTime: 40087
Countdown: 0
SampleSet: Soft
StackLeniency: 0.5
Mode: 0
LetterboxInBreaks: 0
WidescreenStoryboard: 1

[Editor]
Bookmarks: 7017,18245,29473,40701,42280,51929,63157,74385,85613,96841,108069,119297,130525,133332
DistanceSpacing: 1.3
BeatDivisor: 4
GridSize: 16
TimelineZoom: 2.2

[Metadata]
Title:Envy Baby
TitleUnicode:エンヴィーベイビー
Artist:Raon Lee
ArtistUnicode:이라온
Creator:Defy
Version:Chizu's Hard
Source:
Tags:some_hero some hero hero_ic wanpachi chizu-kun japanese pop j-pop jpop kanaria gumi vocaloid cover full m2u taramaxu 999 엔비 베이비
BeatmapID:3007154
BeatmapSetID:1462190

[Difficulty]
HPDrainRate:4
CircleSize:3.5
OverallDifficulty:7
ApproachRate:7
SliderMultiplier:1.4
SliderTickRate:1

[Events]
//Background and Video events
0,0,"BG.jpg",0,0
//Break Periods
//Storyboard Layer 0 (Background)
//Storyboard Layer 1 (Fail)
//Storyboard Layer 2 (Pass)
//Storyboard Layer 3 (Foreground)
//Storyboard Layer 4 (Overlay)
//Storyboard Sound Samples

[TimingPoints]
1403,350.877192982456,4,2,1,45,1,0
1403,-100,4,2,1,45,0,0
5613,-100,4,2,1,90,0,0
7017,-100,4,2,1,65,0,0
18245,-125,4,2,1,55,0,0
29473,-125,4,2,1,45,0,0
33683,-83.3333333333333,4,2,1,65,0,0
35087,-100,4,2,1,60,0,0
39297,-100,4,2,1,65,0,0
39648,-100,4,2,1,70,0,0
39824,-100,4,2,1,75,0,0
40701,-90.9090909090909,4,2,1,85,0,1
41315,-90.9090909090909,4,2,1,5,0,1
41402,-90.9090909090909,4,2,1,85,0,1
51490,-90.9090909090909,4,2,1,5,0,1
51577,-90.9090909090909,4,2,1,85,0,1
51929,-83.3333333333333,4,2,1,85,0,0
52192,-83.3333333333333,4,2,1,5,0,0
52280,-83.3333333333333,4,2,1,85,0,0
53157,-90.9090909090909,4,2,1,85,0,1
57543,-83.3333333333333,4,2,1,85,0,0
58771,-90.9090909090909,4,2,1,85,0,1
61753,-90.9090909090909,4,2,1,90,0,1
63157,-100,4,2,1,65,0,0
74385,-125,4,2,1,55,0,0
84210,-125,4,2,1,60,0,0
84385,-100,4,2,1,60,0,0
85613,-100,4,2,1,45,0,0
89824,-83.3333333333333,4,2,1,65,0,0
91227,-100,4,2,1,55,0,0
95437,-100,4,2,1,65,0,0
95788,-100,4,2,1,70,0,0
95964,-100,4,2,1,75,0,0
96841,-90.9090909090909,4,2,1,85,0,0
97104,-90.9090909090909,4,2,1,5,0,1
97191,-90.9090909090909,4,2,1,85,0,1
97455,-90.9090909090909,4,2,1,5,0,1
97542,-90.9090909090909,4,2,1,85,0,1
102718,-90.9090909090909,4,2,1,5,0,1
102805,-90.9090909090909,4,2,1,85,0,1
103069,-90.9090909090909,4,2,1,5,0,1
103156,-90.9090909090909,4,2,1,85,0,1
107631,-90.9090909090909,4,2,1,5,0,1
107718,-90.9090909090909,4,2,1,85,0,1
108069,-83.3333333333333,4,2,1,85,0,0
108332,-83.3333333333333,4,2,1,5,0,0
108420,-83.3333333333333,4,2,1,85,0,0
108683,-83.3333333333333,4,2,1,5,0,0
108771,-83.3333333333333,4,2,1,85,0,0
109297,-90.9090909090909,4,2,1,85,0,1
113683,-83.3333333333333,4,2,1,85,0,0
114911,-90.9090909090909,4,2,1,85,0,1
117894,-90.9090909090909,4,2,1,90,0,1
119210,-90.9090909090909,4,2,1,5,0,1
119297,-90.9090909090909,4,2,1,75,0,0
119560,-90.9090909090909,4,2,1,5,0,0
119648,-90.9090909090909,4,2,1,75,0,0
119911,-90.9090909090909,4,2,1,5,0,0
119999,-90.9090909090909,4,2,1,70,0,0
122017,-90.9090909090909,4,2,1,5,0,0
122104,-90.9090909090909,4,2,1,70,0,0
124911,-90.9090909090909,4,2,1,75,0,0
125174,-90.9090909090909,4,2,1,5,0,0
125262,-90.9090909090909,4,2,1,75,0,0
125525,-90.9090909090909,4,2,1,5,0,0
125613,-90.9090909090909,4,2,1,70,0,0
127631,-90.9090909090909,4,2,1,5,0,0
127718,-90.9090909090909,4,2,1,70,0,0
129122,-90.9090909090909,4,2,1,5,0,0
129209,-90.9090909090909,4,2,1,70,0,0
129473,-90.9090909090909,4,2,1,5,0,0
129560,-90.9090909090909,4,2,1,70,0,0
130525,-90.9090909090909,4,2,1,65,0,0
130613,-90.9090909090909,4,2,1,5,0,0

[Colours]
Combo1 : 82,82,82
Combo2 : 255,19,19
Combo3 : 212,212,212
Combo4 : 255,51,51

[HitObjects]
38,355,1403,6,0,P|86:308|149:329,1,140,2|8,0:0|0:0,0:0:0:0:
230,300,1929,1,2,0:0:0:0:
230,300,2104,2,0,P|241:231|243:161,1,140,2|8,0:0|0:0,0:0:0:0:
180,112,2631,1,2,0:0:0:0:
180,112,2806,2,0,P|116:119|115:184,1,140,2|8,0:0|0:0,0:0:0:0:
189,231,3332,1,2,0:0:0:0:
189,231,3508,2,0,P|259:219|328:212,1,140,2|8,0:0|0:0,0:0:0:0:
404,172,4034,1,2,0:0:0:0:
404,172,4210,6,0,B|440:213|440:213|409:295,1,140,2|8,0:0|0:0,0:0:0:0:
347,349,4736,1,2,0:0:0:0:
347,349,4911,2,0,P|274:341|209:348,1,140,2|8,0:0|0:0,0:0:0:0:
140,296,5438,1,2,0:0:0:0:
50,175,5788,6,0,P|44:140|34:106,2,70,2|2|2,3:2|3:2|3:2,0:0:0:0:
125,212,6315,2,0,P|184:176|253:186,1,140,2|2,3:2|3:2,0:0:0:0:
419,197,7017,6,0,L|445:59,1,140,4|10,3:1|0:0,0:0:0:0:
286,3,7718,2,0,P|299:67|363:68,1,140,2|8,3:2|0:0,0:0:0:0:
445,59,8245,2,0,L|421:197,1,140,2|2,0:0|0:0,0:0:0:0:
470,265,8771,1,8,0:0:0:0:
411,323,8946,1,2,0:0:0:0:
411,323,9034,1,0,0:0:0:0:
411,323,9122,2,0,P|373:329|343:314,1,70,2|2,3:2|0:0,0:0:0:0:
275,266,9473,2,0,P|240:258|206:274,1,70,10|2,0:0|0:0,0:0:0:0:
173,347,9824,6,0,L|153:205,1,140,2|10,3:2|0:0,0:0:0:0:
11,128,10525,1,2,3:2:0:0:
11,128,10701,2,0,L|80:122,1,70,2|10,0:0|0:0,0:0:0:0:
157,156,11052,2,0,P|211:116|276:134,1,140,2|2,0:0|0:0,0:0:0:0:
332,71,11578,1,8,0:0:0:0:
406,119,11753,1,2,0:0:0:0:
406,119,11929,2,0,P|396:153|392:188,1,70,2|2,3:2|0:0,0:0:0:0:
320,233,12280,2,0,P|328:266|334:301,1,70,10|2,0:0|0:0,0:0:0:0:
401,350,12631,6,0,P|333:335|264:333,1,140,4|10,3:1|0:0,0:0:0:0:
102,379,13332,2,0,P|118:315|176:332,1,140,2|8,3:2|0:0,0:0:0:0:
264,333,13859,2,0,P|333:335|401:350,1,140,2|2,0:0|0:0,0:0:0:0:
471,293,14385,1,8,0:0:0:0:
410,241,14560,1,2,0:0:0:0:
410,241,14648,1,0,0:0:0:0:
410,241,14736,2,0,P|394:212|403:179,1,70,2|2,3:2|0:0,0:0:0:0:
452,103,15087,2,0,P|469:73|460:40,1,70,10|2,0:0|0:0,0:0:0:0:
377,68,15438,6,0,P|305:55|231:53,1,140,2|10,3:2|0:0,0:0:0:0:
63,81,16139,1,2,3:2:0:0:
63,81,16315,2,0,P|68:114|96:133,1,70,2|10,0:0|0:0,0:0:0:0:
166,179,16666,2,0,P|234:163|302:157,1,140,2|2,0:0|0:0,0:0:0:0:
386,173,17192,1,8,0:0:0:0:
354,254,17367,1,2,0:0:0:0:
354,254,17543,2,0,P|348:290|344:326,1,70,2|2,3:2|0:0,0:0:0:0:
271,365,17894,2,0,P|266:330|259:296,1,70,10|2,0:0|0:0,0:0:0:0:
181,261,18245,6,0,P|127:265|91:306,2,112,4|8|2,3:2|3:2|3:2,0:0:0:0:
255,110,19297,2,0,L|180:108,1,56,10|2,3:2|0:0,0:0:0:0:
139,168,19648,6,0,B|99:122|99:122|122:76,2,112,2|10|2,3:2|3:2|3:2,0:0:0:0:
199,108,20525,1,2,0:0:0:0:
199,108,20701,2,0,L|255:110,1,56,10|2,3:2|0:0,0:0:0:0:
327,66,21052,1,2,3:2:0:0:
390,121,21227,6,0,P|415:134|443:133,1,56,2|8,0:0|3:2,0:0:0:0:
458,50,21578,2,0,P|433:37|405:38,1,56,2|0,0:0|3:0,0:0:0:0:
390,121,21929,2,0,P|415:134|443:133,1,56,2|8,0:0|3:2,0:0:0:0:
458,50,22280,2,0,P|433:37|405:38,1,56,2|0,0:0|3:0,0:0:0:0:
327,66,22631,6,0,P|269:62|214:71,1,112,2|2,0:0|0:0,0:0:0:0:
153,13,23157,1,2,3:2:0:0:
43,140,23508,1,10,3:2:0:0:
153,13,23859,6,0,L|145:124,2,112,0|8|2,3:0|3:2|3:2,0:0:0:0:
235,45,24736,1,2,0:0:0:0:
235,45,24911,2,0,P|264:39|293:37,1,56,10|2,3:2|0:0,0:0:0:0:
342,102,25262,6,0,P|378:61|375:6,2,112,2|10|2,3:2|3:2|3:2,0:0:0:0:
278,157,26139,1,2,0:0:0:0:
278,157,26315,2,0,L|282:221,1,56,10|2,3:2|0:0,0:0:0:0:
343,269,26666,1,2,3:2:0:0:
285,330,26841,6,0,P|260:343|232:339,1,56,2|8,0:0|3:2,0:0:0:0:
220,245,27192,2,0,P|246:231|277:236,1,56,2|0,0:0|3:0,0:0:0:0:
285,330,27543,2,0,P|260:343|232:339,1,56,2|8,0:0|3:2,0:0:0:0:
220,245,27894,2,0,P|246:231|277:236,1,56,2|0,0:0|3:0,0:0:0:0:
343,269,28245,6,0,L|465:254,1,112,2|2,0:0|0:0,0:0:0:0:
504,191,28771,1,2,3:2:0:0:
421,44,29122,1,10,3:2:0:0:
504,191,29473,6,0,L|375:180,1,112,4|0,3:2|0:0,0:0:0:0:
328,234,29999,1,2,3:2:0:0:
328,234,30174,2,0,P|311:211|309:183,1,56,2|2,3:2|0:0,0:0:0:0:
373,130,30525,2,0,P|388:154|392:180,1,56,2|2,0:0|0:0,0:0:0:0:
327,233,30876,6,0,P|279:207|226:218,1,112,2|2,3:2|0:0,0:0:0:0:
135,322,31578,2,0,P|88:347|23:314,1,112,2|2,3:2|0:0,0:0:0:0:
57,245,32104,1,0,3:0:0:0:
57,245,32280,2,0,L|49:133,1,112,0|0,3:0|0:0,0:0:0:0:
129,64,32806,1,2,3:2:0:0:
129,64,32981,2,0,P|140:90|142:118,1,56,2|2,3:2|0:0,0:0:0:0:
50,134,33332,2,0,P|39:109|35:81,1,56,2|2,0:0|0:0,0:0:0:0:
129,64,33683,6,8,B|170:47|195:18|195:18|236:37|289:33,1,167.999994873047,12|12,3:1|3:1,0:0:0:0:
453,167,34385,2,8,B|412:184|387:213|387:213|346:194|293:198,1,167.999994873047,12|12,3:1|3:1,0:0:0:0:
186,335,35087,6,0,P|132:326|77:329,1,105,4|2,3:2|0:0,0:0:0:0:
59,363,35438,2,0,L|48:293,1,70,0|2,3:2|0:0,0:0:0:0:
108,211,35788,2,0,L|119:141,1,70,2|2,3:2|0:0,0:0:0:0:
74,76,36139,1,2,3:2:0:0:
74,76,36315,1,2,0:0:0:0:
145,119,36490,6,0,P|206:122|242:93,1,105,2|2,3:2|0:0,0:0:0:0:
256,58,36841,2,0,P|262:92|268:126,1,70,2|2,3:2|0:3,0:0:0:0:
331,183,37192,2,0,P|324:217|318:251,1,70,2|2,3:2|0:3,0:0:0:0:
256,309,37543,2,0,P|220:301|186:309,1,70,2|2,3:2|0:3,0:0:0:0:
125,251,37894,5,8,3:2:0:0:
501,71,39297,1,2,0:0:0:0:
501,71,39385,1,0,0:0:0:0:
501,71,39473,6,0,L|495:140,2,70,2|2|2,3:2|3:2|3:2,0:0:0:0:
92,373,40701,6,0,P|63:323|96:277,1,115.50000352478,4|0,3:1|0:0,0:0:0:0:
119,262,41052,2,0,L|131:136,1,115.50000352478,8|0,0:0|0:0,0:0:0:0:
114,117,41402,1,2,3:2:0:0:
220,144,41578,2,0,P|257:137|296:132,1,77.0000023498536,2|8,0:0|0:0,0:0:0:0:
442,163,41929,6,0,P|406:179|363:168,1,77.0000023498536,2|0,0:0|3:0,0:0:0:0:
355,67,42280,2,0,P|389:50|427:56,1,77.0000023498536,2|8,0:0|0:0,0:0:0:0:
451,176,42631,2,0,B|422:218|448:253|458:247|467:294|430:349,1,154.000004699707,2|2,0:0|0:0,0:0:0:0:
363,272,43157,1,10,0:0:0:0:
363,272,43332,2,0,P|324:263|285:266,1,77.0000023498536,2|0,0:0|3:0,0:0:0:0:
206,384,43683,5,2,0:0:0:0:
147,323,43859,1,10,0:0:0:0:
147,323,44034,1,2,0:0:0:0:
197,256,44210,2,0,P|205:218|207:176,1,77.0000023498536,2|2,3:2|0:0,0:0:0:0:
152,119,44560,1,8,0:0:0:0:
246,37,44736,6,0,B|317:31|317:31|340:52|340:52|396:48,1,154.000004699707,2|2,0:0|0:0,0:0:0:0:
466,92,45262,1,10,0:0:0:0:
422,163,45438,2,0,L|329:157,1,77.0000023498536,2|0,0:0|3:0,0:0:0:0:
282,218,45788,1,2,0:0:0:0:
346,282,45964,1,10,0:0:0:0:
346,282,46139,1,2,0:0:0:0:
266,369,46315,6,0,P|217:341|163:359,1,115.50000352478,2|0,3:2|0:0,0:0:0:0:
144,379,46666,2,0,L|125:249,1,115.50000352478,10|0,0:0|0:0,0:0:0:0:
116,240,47017,1,2,3:2:0:0:
215,261,47192,2,0,P|221:220|227:178,1,77.0000023498536,2|8,0:0|0:0,0:0:0:0:
197,44,47543,6,0,P|176:81|184:117,1,77.0000023498536,2|0,0:0|3:0,0:0:0:0:
280,129,47894,2,0,P|299:94|292:56,1,77.0000023498536,2|8,0:0|0:0,0:0:0:0:
186,49,48245,2,0,B|145:77|110:51|116:41|71:28|33:57,1,154.000004699707,2|2,0:0|0:0,0:0:0:0:
84,129,48771,1,10,0:0:0:0:
84,129,48946,2,0,P|72:174|75:218,1,77.0000023498536,2|0,0:0|3:0,0:0:0:0:
0,310,49297,5,2,0:0:0:0:
66,366,49473,1,10,0:0:0:0:
66,366,49648,1,2,0:0:0:0:
131,310,49824,2,0,P|170:308|202:327,1,77.0000023498536,2|2,3:2|0:0,0:0:0:0:
348,384,50350,6,0,L|361:223,1,154.000004699707,2|2,3:2|0:0,0:0:0:0:
306,161,50876,1,2,3:2:0:0:
360,92,51052,1,2,0:0:0:0:
306,23,51227,2,0,L|191:10,1,115.50000352478,2|0,3:2|0:0,0:0:0:0:
163,26,51578,1,2,3:2:0:0:
0,215,51929,6,0,L|125:203,1,125.999996154785,2|0,3:0|0:0,0:0:0:0:
142,187,52280,2,0,L|267:198,1,125.999996154785,2|0,3:0|0:0,0:0:0:0:
284,215,52631,1,2,3:0:0:0:
358,171,52806,1,2,3:0:0:0:
460,344,53157,6,0,P|451:275|388:309,1,154.000004699707,4|2,3:1|3:2,0:0:0:0:
318,352,53683,2,0,P|276:339|220:328,1,77.0000023498536,8|2,0:0|0:0,0:0:0:0:
169,261,54034,2,0,P|211:248|267:237,1,77.0000023498536,2|2,3:2|0:0,0:0:0:0:
318,180,54385,1,10,0:0:0:0:
318,180,54560,1,2,0:0:0:0:
218,91,54736,6,0,B|151:88|151:88|131:66|131:66|73:63,2,154.000004699707,2|10|2,3:2|0:0|3:2,0:0:0:0:
292,42,55613,2,0,P|337:33|370:52,1,77.0000023498536,2|8,0:0|0:0,0:0:0:0:
429,103,55964,2,0,P|421:148|417:186,1,77.0000023498536,2|0,0:0|3:0,0:0:0:0:
461,248,56315,1,2,0:0:0:0:
387,337,56490,6,0,P|348:320|307:325,1,77.0000023498536,10|2,0:0|0:0,0:0:0:0:
236,364,56841,2,0,P|192:366|156:351,1,77.0000023498536,2|2,3:2|0:0,0:0:0:0:
209,283,57192,1,10,0:0:0:0:
209,283,57367,1,2,0:0:0:0:
117,207,57543,6,0,B|85:105|85:105|124:49,2,167.999994873047,2|2|2,3:0|3:0|3:0,0:0:0:0:
59,287,58420,1,2,3:0:0:0:
186,124,58771,6,0,P|262:111|337:103,1,154.000004699707,4|2,3:1|3:2,0:0:0:0:
411,58,59297,2,0,P|423:94|416:131,1,77.0000023498536,8|2,0:0|0:0,0:0:0:0:
350,184,59648,2,0,P|338:220|345:257,1,77.0000023498536,2|2,3:2|0:0,0:0:0:0:
396,331,59999,1,10,0:0:0:0:
396,331,60174,2,0,L|472:324,1,77.0000023498536,2|0,0:0|3:0,0:0:0:0:
473,217,60525,6,0,B|478:154|478:154|497:137|497:137|505:59,1,154.000004699707,2|2,0:0|0:0,0:0:0:0:
428,16,61052,2,0,L|419:107,1,77.0000023498536,2|2,3:2|0:0,0:0:0:0:
356,145,61402,1,10,0:0:0:0:
292,93,61578,1,2,3:2:0:0:
145,205,61929,5,2,3:2:0:0:
76,287,62104,2,0,L|-14:278,2,77.0000023498536,2|2|2,3:2|3:2|3:2,0:0:0:0:
233,360,62806,2,0,P|274:322|329:333,1,115.50000352478,2|0,3:2|0:0,0:0:0:0:
358,364,63157,6,0,L|371:224,1,140,4|10,3:1|0:0,0:0:0:0:
473,91,63859,2,0,P|502:146|446:175,1,140,2|8,3:2|0:0,0:0:0:0:
370,224,64385,2,0,L|357:364,1,140,2|2,0:0|0:0,0:0:0:0:
282,323,64911,1,8,0:0:0:0:
215,371,65087,1,2,0:0:0:0:
215,371,65174,1,0,0:0:0:0:
215,371,65262,2,0,P|201:339|202:304,1,70,2|2,3:2|0:0,0:0:0:0:
257,241,65613,2,0,P|271:209|270:174,1,70,10|2,0:0|0:0,0:0:0:0:
195,135,65964,6,0,L|46:123,1,140,2|10,3:2|0:0,0:0:0:0:
7,288,66666,1,2,3:2:0:0:
7,288,66841,2,0,L|96:280,1,70,2|10,0:0|0:0,0:0:0:0:
148,238,67192,2,0,P|202:278|267:260,1,140,2|2,0:0|0:0,0:0:0:0:
324,321,67718,1,8,0:0:0:0:
396,277,67894,1,2,0:0:0:0:
396,277,68069,2,0,L|407:206,1,70,2|2,3:2|0:0,0:0:0:0:
325,185,68420,2,0,L|314:114,1,70,10|2,0:0|0:0,0:0:0:0:
380,63,68771,6,0,P|312:78|243:80,1,140,4|10,3:1|0:0,0:0:0:0:
80,34,69473,2,0,P|96:98|154:81,1,140,2|8,3:2|0:0,0:0:0:0:
243,80,69999,2,0,P|312:78|380:63,1,140,2|2,0:0|0:0,0:0:0:0:
459,31,70525,1,8,0:0:0:0:
505,113,70701,1,2,0:0:0:0:
505,113,70788,1,0,0:0:0:0:
505,113,70876,2,0,P|509:153|491:180,1,70,2|2,3:2|0:0,0:0:0:0:
424,222,71227,2,0,P|419:262|437:289,1,70,10|2,0:0|0:0,0:0:0:0:
498,340,71578,6,0,P|430:321|361:330,1,140,2|10,3:2|0:0,0:0:0:0:
200,379,72280,1,2,3:2:0:0:
200,379,72455,2,0,L|195:300,1,70,2|10,0:0|0:0,0:0:0:0:
140,245,72806,6,0,B|100:194|100:194|125:117,1,140,2|2,3:2|3:2,0:0:0:0:
89,45,73332,1,2,3:2:0:0:
253,77,73683,2,0,P|322:71|392:67,1,140,2|8,3:2|0:0,0:0:0:0:
494,154,74385,5,2,3:2:0:0:
494,154,74911,5,2,3:2:0:0:
438,276,75262,2,0,L|431:246,3,18.6666666666667,2|2|2|2,0:3|0:3|0:3|3:2,0:0:0:0:
393,129,75788,5,2,3:2:0:0:
393,129,76314,5,2,3:2:0:0:
337,7,76666,2,0,L|330:37,3,18.6666666666667,2|2|2|2,0:3|0:3|0:3|3:2,0:0:0:0:
292,154,77192,5,2,3:2:0:0:
292,154,77718,5,2,3:2:0:0:
236,276,78069,2,0,L|229:246,3,18.6666666666667,2|2|2|2,0:3|0:3|0:3|3:2,0:0:0:0:
195,147,78595,5,2,3:2:0:0:
195,147,79121,5,2,3:2:0:0:
139,25,79473,2,0,L|132:55,3,18.6666666666667,2|2|2|2,0:3|0:3|0:3|3:2,0:0:0:0:
55,152,79999,5,2,3:2:0:0:
55,152,80525,5,2,3:2:0:0:
183,190,80876,2,0,L|211:181,3,18.6666666666667,2|2|2|2,0:3|0:3|0:3|3:2,0:0:0:0:
25,314,81578,6,0,P|50:243|123:266,1,168,0|0,3:2|3:2,0:0:0:0:
147,342,82280,2,0,L|142:360,3,18.6666666666667,2|2|2|2,0:3|0:3|0:3|3:2,0:0:0:0:
285,383,82806,6,0,P|321:344|301:295,1,112,4|2,3:2|0:0,0:0:0:0:
234,243,83332,2,0,P|197:204|217:155,1,112,2|0,3:3|0:0,0:0:0:0:
285,103,83859,1,2,3:3:0:0:
512,220,84385,5,2,3:2:0:0:
512,220,84560,2,0,L|443:209,1,70,2|2,3:2|3:2,0:0:0:0:
388,145,84911,1,2,3:2:0:0:
333,209,85087,1,2,3:2:0:0:
333,209,85174,1,0,3:0:0:0:
333,209,85262,2,0,L|264:198,1,70,2|2,3:2|3:2,0:0:0:0:
214,129,85613,6,0,P|179:186|199:251,1,140,4|0,3:2|0:0,0:0:0:0:
171,333,86139,1,2,3:2:0:0:
171,333,86315,2,0,P|205:342|245:329,1,70,2|2,3:2|0:0,0:0:0:0:
266,250,86666,2,0,P|232:241|192:254,1,70,2|2,0:0|0:0,0:0:0:0:
170,332,87017,6,0,L|30:324,1,140,2|2,3:2|0:0,0:0:0:0:
34,190,87718,2,0,B|80:175|80:175|91:84,1,140,2|2,3:2|0:0,0:0:0:0:
36,19,88245,1,0,3:0:0:0:
36,19,88420,6,0,P|112:5|164:46,1,140,0|0,3:0|0:0,0:0:0:0:
229,102,88946,1,2,3:2:0:0:
229,102,89122,2,0,P|234:136|224:169,1,70,2|2,3:2|0:0,0:0:0:0:
144,189,89473,2,0,P|138:154|148:121,1,70,2|2,0:0|0:0,0:0:0:0:
229,102,89824,6,0,B|310:68|310:68|400:114,1,167.999994873047,4|4,3:1|3:1,0:0:0:0:
372,255,90525,2,0,B|291:289|291:289|201:243,1,167.999994873047,4|4,3:1|3:1,0:0:0:0:
60,124,91227,6,0,P|69:175|73:227,1,105,4|2,3:2|0:0,0:0:0:0:
49,262,91578,2,0,L|118:265,1,70,0|2,3:2|0:0,0:0:0:0:
194,202,91929,2,0,L|263:198,1,70,2|2,3:2|0:0,0:0:0:0:
345,253,92280,1,2,3:2:0:0:
345,253,92455,1,2,0:0:0:0:
281,178,92631,6,0,P|261:130|272:79,1,105,2|2,3:2|0:0,0:0:0:0:
314,54,92981,2,0,P|348:55|383:57,1,70,2|2,3:2|0:3,0:0:0:0:
442,136,93332,2,0,P|407:137|372:139,1,70,2|2,3:2|0:3,0:0:0:0:
281,178,93683,2,0,P|269:210|276:244,1,70,2|2,3:2|0:3,0:0:0:0:
352,294,94034,5,8,3:2:0:0:
41,107,95438,1,2,0:0:0:0:
41,107,95525,1,0,0:0:0:0:
41,107,95613,6,0,P|36:72|29:38,2,70,2|2|2,3:2|3:2|3:2,0:0:0:0:
386,15,96841,6,0,P|419:57|392:105,1,115.50000352478,4|0,3:1|0:0,0:0:0:0:
371,118,97192,2,0,L|361:240,1,115.50000352478,8|0,0:0|0:0,0:0:0:0:
375,257,97543,1,2,3:2:0:0:
309,329,97718,2,0,P|270:328|232:326,1,77.0000023498536,2|8,0:0|0:0,0:0:0:0:
102,270,98069,6,0,P|136:256|172:269,1,77.0000023498536,2|0,0:0|3:0,0:0:0:0:
167,373,98420,2,0,P|132:386|96:373,1,77.0000023498536,2|8,0:0|0:0,0:0:0:0:
85,263,98771,2,0,B|114:221|88:186|78:192|69:145|106:90,1,154.000004699707,2|2,0:0|0:0,0:0:0:0:
178,161,99297,1,10,0:0:0:0:
178,161,99473,2,0,L|254:150,1,77.0000023498536,2|0,0:0|3:0,0:0:0:0:
359,68,99824,5,2,0:0:0:0:
423,128,99999,1,10,0:0:0:0:
423,128,100174,1,2,0:0:0:0:
359,187,100350,2,0,P|347:224|347:262,1,77.0000023498536,2|2,3:2|0:0,0:0:0:0:
398,327,100701,1,8,0:0:0:0:
290,384,100876,6,0,P|216:364|140:352,1,154.000004699707,2|2,0:0|0:0,0:0:0:0:
69,303,101402,1,10,0:0:0:0:
138,247,101578,2,0,L|152:157,1,77.0000023498536,2|0,0:0|3:0,0:0:0:0:
109,93,101929,1,2,0:0:0:0:
163,26,102104,1,10,0:0:0:0:
163,26,102280,1,2,0:0:0:0:
253,75,102455,6,0,P|307:90|359:68,1,115.50000352478,2|0,3:2|0:0,0:0:0:0:
382,40,102806,2,0,L|393:154,1,115.50000352478,10|0,0:0|0:0,0:0:0:0:
428,170,103157,1,2,3:2:0:0:
355,254,103332,2,0,L|278:248,1,77.0000023498536,2|8,0:0|0:0,0:0:0:0:
148,299,103683,6,0,P|182:313|219:305,1,77.0000023498536,2|0,0:0|3:0,0:0:0:0:
229,185,104034,2,0,P|194:170|157:178,1,77.0000023498536,2|8,0:0|0:0,0:0:0:0:
135,307,104385,2,0,B|25:268|88:335|-17:300,1,154.000004699707,2|2,0:0|0:0,0:0:0:0:
38,218,104911,1,10,0:0:0:0:
38,218,105087,2,0,P|38:183|36:132,1,77.0000023498536,2|0,0:0|3:0,0:0:0:0:
115,41,105438,5,2,0:0:0:0:
187,89,105613,1,10,0:0:0:0:
187,89,105788,1,2,0:0:0:0:
259,41,105964,2,0,L|335:29,1,77.0000023498536,2|2,3:2|0:0,0:0:0:0:
460,103,106490,6,0,B|501:120|501:120|469:225,1,154.000004699707,2|2,3:2|0:0,0:0:0:0:
397,274,107017,1,2,3:2:0:0:
325,225,107192,1,2,0:0:0:0:
252,273,107367,2,0,P|196:263|138:261,1,115.50000352478,2|0,3:2|0:0,0:0:0:0:
113,288,107718,1,2,3:2:0:0:
0,78,108069,6,0,P|71:86|124:96,1,125.999996154785,2|0,3:0|0:0,0:0:0:0:
143,116,108420,2,0,P|204:104|267:97,1,125.999996154785,2|0,3:0|0:0,0:0:0:0:
291,70,108771,1,2,3:0:0:0:
370,107,108946,1,2,3:0:0:0:
484,290,109297,6,0,P|448:348|391:309,1,154.000004699707,4|2,3:1|3:2,0:0:0:0:
324,231,109824,2,0,P|311:267|304:305,1,77.0000023498536,8|2,0:0|0:0,0:0:0:0:
231,374,110174,2,0,P|223:336|211:299,1,77.0000023498536,2|2,3:2|0:0,0:0:0:0:
130,252,110525,1,10,0:0:0:0:
130,252,110701,1,2,0:0:0:0:
205,159,110876,6,0,B|213:96|213:96|198:70|198:70|205:9,2,154.000004699707,2|10|2,3:2|0:0|3:2,0:0:0:0:
268,216,111753,2,0,P|314:202|366:206,1,77.0000023498536,2|8,0:0|0:0,0:0:0:0:
416,247,112104,2,0,L|398:355,1,77.0000023498536,2|0,0:0|3:0,0:0:0:0:
338,379,112455,1,2,0:0:0:0:
242,315,112631,6,0,P|204:308|169:323,1,77.0000023498536,10|2,0:0|0:0,0:0:0:0:
95,376,112981,2,0,P|57:382|22:367,1,77.0000023498536,2|2,3:2|0:0,0:0:0:0:
76,293,113332,1,10,0:0:0:0:
76,293,113508,1,2,0:0:0:0:
53,190,113683,6,0,B|12:171|12:171|-3:29,2,167.999994873047,2|2|2,3:0|3:0|3:0,0:0:0:0:
121,127,114560,1,2,3:0:0:0:
274,278,114911,6,0,L|282:124,1,154.000004699707,4|2,3:1|3:2,0:0:0:0:
335,55,115438,2,0,P|301:37|263:42,1,77.0000023498536,8|2,0:0|0:0,0:0:0:0:
198,104,115788,2,0,P|160:108|126:91,1,77.0000023498536,2|2,3:2|0:0,0:0:0:0:
48,42,116139,1,10,0:0:0:0:
48,42,116315,2,0,L|57:138,1,77.0000023498536,2|0,0:0|3:0,0:0:0:0:
0,232,116666,6,0,B|69:232|69:232|87:248|87:248|172:248,1,154.000004699707,2|2,0:0|0:0,0:0:0:0:
211,168,117192,2,0,L|130:168,1,77.0000023498536,2|2,3:2|0:0,0:0:0:0:
65,114,117543,1,10,0:0:0:0:
115,38,117718,1,2,3:2:0:0:
323,93,118069,5,2,3:2:0:0:
417,145,118245,2,0,L|510:135,2,77.0000023498536,2|2|2,3:2|3:2|3:2,0:0:0:0:
242,272,118946,2,0,P|187:268|152:311,1,115.50000352478,2|0,3:2|0:0,0:0:0:0:
150,338,119297,6,0,P|181:292|162:240,1,115.50000352478,4|0,3:1|0:0,0:0:0:0:
141,224,119648,2,0,L|131:103,1,115.50000352478,8|0,0:0|0:0,0:0:0:0:
113,99,119999,1,2,3:2:0:0:
220,130,120174,2,0,L|296:124,1,77.0000023498536,2|8,0:0|0:0,0:0:0:0:
425,176,120525,6,0,P|391:192|357:178,1,77.0000023498536,2|0,0:0|3:0,0:0:0:0:
350,63,120876,2,0,P|384:47|419:62,1,77.0000023498536,2|8,0:0|0:0,0:0:0:0:
442,178,121227,2,0,B|425:296|480:213|461:334,1,154.000004699707,2|2,0:0|0:0,0:0:0:0:
382,375,121753,2,0,P|350:330|296:338,1,115.50000352478,8|0,0:0|0:0,0:0:0:0:
280,358,122104,6,0,L|102:339,2,154.000004699707,2|10|2,3:2|0:0|3:2,0:0:0:0:
345,295,122981,1,2,0:0:0:0:
345,295,123157,1,10,0:0:0:0:
281,230,123332,2,0,P|260:201|274:167,1,77.0000023498536,2|0,0:0|3:0,0:0:0:0:
338,113,123683,2,0,P|352:78|330:49,1,77.0000023498536,2|8,0:0|0:0,0:0:0:0:
253,83,124034,1,2,0:0:0:0:
253,83,124210,2,0,L|89:73,1,154.000004699707,2|10,3:2|0:0,0:0:0:0:
31,277,124911,6,0,P|72:315|124:297,1,115.50000352478,4|0,3:1|0:0,0:0:0:0:
142,285,125262,2,0,L|261:273,1,115.50000352478,8|0,0:0|0:0,0:0:0:0:
277,288,125613,1,2,3:2:0:0:
335,195,125788,2,0,P|338:156|339:118,1,77.0000023498536,2|8,0:0|0:0,0:0:0:0:
282,6,126139,6,0,P|262:36|280:68,1,77.0000023498536,2|0,0:0|3:0,0:0:0:0:
400,70,126490,2,0,P|419:39|401:7,1,77.0000023498536,2|8,0:0|0:0,0:0:0:0:
285,17,126841,2,0,B|164:5|256:59|132:37,1,154.000004699707,2|2,0:0|0:0,0:0:0:0:
59,0,127367,2,0,P|104:34|96:98,1,115.50000352478,8|0,0:0|0:0,0:0:0:0:
76,104,127718,5,2,3:2:0:0:
27,199,127894,1,2,0:0:0:0:
27,199,128069,2,0,B|45:298|45:298|51:273|74:253,1,154.000004699707,10|2,0:0|3:2,0:0:0:0:
123,318,128595,1,2,0:0:0:0:
327,248,128946,6,0,L|427:252,1,77.0000023498536,2|0,3:2|0:0,0:0:0:0:
470,166,129297,2,0,L|370:170,1,77.0000023498536,2|0,3:2|0:0,0:0:0:0:
316,245,129648,2,0,P|251:211|183:242,1,154.000004699707,2|2,3:2|3:2,0:0:0:0:
120,197,130174,1,2,3:2:0:0:
120,197,130350,1,2,3:2:0:0:
64,256,130525,1,2,3:2:0:0:
