osu file format v14

[General]
AudioFilename: audio.mp3
AudioLeadIn: 0
PreviewTime: 50588
Countdown: 0
SampleSet: Soft
StackLeniency: 0.7
Mode: 0
LetterboxInBreaks: 0
WidescreenStoryboard: 0

[Editor]
Bookmarks: 55294,56323,64705,65735
DistanceSpacing: 2.2
BeatDivisor: 4
GridSize: 8
TimelineZoom: 1

[Metadata]
Title:Black Rover
TitleUnicode:Black Rover
Artist:Raon Lee
ArtistUnicode:이라온
Creator:X4D
Version:Extreme
Source:ブラッククローバー
Tags:Vickeblanka ビッケブランカ clover op 3 opening anime cover cut short version
BeatmapID:2062192
BeatmapSetID:985710

[Difficulty]
HPDrainRate:5.7
CircleSize:4
OverallDifficulty:9.4
ApproachRate:9.3
SliderMultiplier:1.8
SliderTickRate:1

[Events]
//Background and Video events
0,0,"941995.jpg",0,0
//Break Periods
2,19464,20622
//Storyboard Layer 0 (Background)
//Storyboard Layer 1 (Fail)
//Storyboard Layer 2 (Pass)
//Storyboard Layer 3 (Foreground)
//Storyboard Sound Samples

[TimingPoints]
0,294.117647058824,4,2,69,90,1,0
4705,-200,4,2,69,50,0,0
9411,-200,4,2,69,80,0,0
11617,-90.9090909090909,4,2,69,80,0,0
21176,-100,4,2,69,80,0,0
39411,-90.9090909090909,4,2,69,80,0,0
40000,-133.333333333333,4,2,69,80,0,0
45882,-200,4,2,69,80,0,0
47058,-133.333333333333,4,2,69,80,0,0
48235,-200,4,2,69,80,0,0
49264,-100,4,2,69,80,0,0
49338,-100,4,2,69,5,0,0
49411,-100,4,2,69,80,0,0
49926,-100,4,2,69,5,0,0
50000,-83.3333333333333,4,2,69,80,0,0
50220,-83.3333333333333,4,2,69,5,0,0
50294,-71.4285714285714,4,2,69,80,0,0
50514,-71.4285714285714,4,2,69,5,0,0
50588,-62.5,4,2,69,80,0,0
50808,-62.5,4,2,69,5,0,0
50882,-55.5555555555556,4,2,69,80,0,0
51102,-55.5555555555556,4,2,69,5,0,0
51176,-100,4,2,69,80,0,0
51617,-83.3333333333333,4,2,69,85,0,1
53897,-83.3333333333333,4,2,69,5,0,1
53970,-83.3333333333333,4,2,69,85,0,1
55220,-83.3333333333333,4,2,69,5,0,1
55293,-83.3333333333333,4,2,69,85,0,1
58602,-83.3333333333333,4,2,69,5,0,1
58675,-83.3333333333333,4,2,69,85,0,1
63308,-83.3333333333333,4,2,69,5,0,1
63381,-83.3333333333333,4,2,69,85,0,1
64632,-83.3333333333333,4,2,69,5,0,1
64705,-83.3333333333333,4,2,69,85,0,1
68014,-83.3333333333333,4,2,69,5,0,1
68087,-83.3333333333333,4,2,69,85,0,1
70588,-133.333333333333,4,2,69,80,0,0
76470,-200,4,2,69,80,0,0
77646,-133.333333333333,4,2,69,80,0,0
78823,-200,4,2,69,80,0,0
79852,-100,4,2,69,80,0,0
79926,-100,4,2,69,5,0,0
79999,-100,4,2,69,80,0,0
80514,-100,4,2,69,5,0,0
80588,-83.3333333333333,4,2,69,80,0,0
80808,-83.3333333333333,4,2,69,5,0,0
80882,-71.4285714285714,4,2,69,80,0,0
81102,-71.4285714285714,4,2,69,5,0,0
81176,-62.5,4,2,69,80,0,0
81396,-62.5,4,2,69,5,0,0
81470,-55.5555555555556,4,2,69,80,0,0
81690,-55.5555555555556,4,2,69,5,0,0
81764,-100,4,2,69,80,0,0
89411,-200,4,2,69,80,0,0
90514,-200,4,2,69,5,0,0

[Colours]
Combo1 : 180,180,180
Combo2 : 232,38,38

[HitObjects]
256,192,4705,12,2,7058,0:0:0:0:
256,192,7132,12,2,9117,0:0:0:0:
144,117,9411,6,0,P|157:193|161:219,1,90,2|2,3:0|0:0,0:0:0:0:
383,205,10000,2,0,P|390:160|397:116,1,90,2|2,3:0|3:0,0:0:0:0:
367,89,10441,1,2,3:0:0:0:
306,244,10588,6,0,P|307:255|309:266,2,22.5,2|0|0,0:0|0:0|1:0,0:0:0:0:
328,344,10882,1,10,0:0:0:0:
222,291,11029,1,8,0:0:0:0:
121,353,11176,5,10,0:0:0:0:
124,330,11249,1,8,0:0:0:0:
128,308,11323,1,8,0:0:0:0:
164,229,11470,1,0,1:0:0:0:
36,150,11617,6,0,B|151:139|81:68|203:53,1,198.000006042481,4|0,1:2|1:0,0:0:0:0:
490,257,12058,1,8,0:0:0:0:
281,182,12205,1,0,0:0:0:0:
424,55,12352,2,0,P|411:131|407:157,1,99.0000030212403,0|0,1:0|0:0,0:0:0:0:
423,368,12647,1,8,0:0:0:0:
390,285,12794,6,0,P|337:226|233:277,1,198.000006042481,0|0,1:2|1:0,0:0:0:0:
148,314,13235,2,0,P|155:265|164:216,1,99.0000030212403,8|0,0:0|0:0,0:0:0:0:
40,113,13529,1,8,0:0:0:0:
64,340,13676,1,8,0:0:0:0:
32,70,13970,6,0,B|158:55|158:55|213:106,1,198.000006042481,4|0,1:2|1:0,0:0:0:0:
310,233,14411,1,8,0:0:0:0:
133,146,14558,1,0,0:0:0:0:
398,73,14705,2,0,P|349:64|300:56,1,99.0000030212403,0|0,1:0|0:0,0:0:0:0:
212,259,15000,1,8,0:0:0:0:
346,317,15147,6,0,P|405:264|354:160,1,198.000006042481,0|0,1:2|1:0,0:0:0:0:
248,153,15588,1,8,0:0:0:0:
495,295,15735,1,8,1:0:0:0:
495,295,15808,1,8,1:2:0:0:
495,295,15882,1,8,0:0:0:0:
279,375,16029,1,8,0:0:0:0:
241,114,16323,6,0,B|356:103|286:32|408:17,1,198.000006042481,4|0,1:2|1:0,0:0:0:0:
459,166,16764,5,10,0:0:0:0:
163,45,16911,1,0,0:0:0:0:
296,334,17058,5,10,0:0:0:0:
417,38,17205,1,0,0:0:0:0:
92,129,17352,5,10,0:0:0:0:
388,250,17499,1,0,0:0:0:0:
43,302,17647,5,10,0:0:0:0:
338,146,17794,1,0,0:0:0:0:
56,35,17941,5,10,0:0:0:0:
212,330,18088,1,0,0:0:0:0:
324,53,18235,5,10,0:0:0:0:
29,209,18382,1,0,0:0:0:0:
285,238,18529,5,10,0:0:0:0:
173,3,18676,6,0,B|158:129|158:129|209:184,1,198.000006042481,4|8,1:2|0:0,0:0:0:0:
117,367,19117,1,8,0:0:0:0:
252,95,19264,1,8,0:0:0:0:
252,95,21176,6,0,P|282:74|357:79,1,90,4|0,1:2|0:0,0:0:0:0:
317,246,21470,2,0,B|213:236|276:172|166:158,1,180,8|0,0:0|0:0,0:0:0:0:
81,238,21911,1,0,1:2:0:0:
182,353,22058,2,0,P|174:304|165:255,1,90,8|0,0:0|0:0,0:0:0:0:
80,84,22352,5,2,3:0:0:0:
80,84,22500,1,0,1:2:0:0:
124,0,22647,2,0,P|168:1|206:25,1,90,8|0,0:0|0:0,0:0:0:0:
378,36,22941,5,2,3:0:0:0:
378,36,23089,1,0,1:2:0:0:
334,120,23236,2,0,P|289:118|251:94,1,90,8|0,0:0|0:0,0:0:0:0:
408,172,23529,6,0,P|415:220|424:269,1,90,2|0,1:2|0:0,0:0:0:0:
367,384,23823,1,8,0:0:0:0:
474,328,23970,2,0,B|370:318|433:254|323:240,1,180,0|0,0:0|1:2,0:0:0:0:
192,329,24411,2,0,P|236:320|280:313,1,90,8|0,0:0|0:0,0:0:0:0:
135,226,24705,5,2,3:0:0:0:
135,226,24852,1,0,1:2:0:0:
72,298,25000,2,0,B|70:346|70:346|100:382,1,90,8|0,0:0|0:0,0:0:0:0:
135,226,25294,5,2,3:0:0:0:
135,226,25441,1,0,1:2:0:0:
198,154,25589,2,0,B|200:106|200:106|170:70,1,90,8|0,0:0|0:0,0:0:0:0:
58,60,25882,6,0,P|146:43|235:29,1,180,4|8,1:2|0:0,0:0:0:0:
345,240,26323,2,0,B|241:230|304:166|194:152,1,180,0|0,0:0|1:2,0:0:0:0:
361,68,26764,2,0,P|352:112|345:156,1,90,8|0,0:0|0:0,0:0:0:0:
406,326,27058,5,2,3:0:0:0:
406,326,27205,1,0,1:2:0:0:
507,260,27352,2,0,P|462:251|418:244,1,90,8|0,0:0|0:0,0:0:0:0:
321,362,27647,5,2,3:0:0:0:
321,362,27794,1,0,1:2:0:0:
220,296,27941,2,0,P|264:287|308:280,1,90,8|0,0:0|0:0,0:0:0:0:
134,367,28235,5,2,1:2:0:0:
134,367,28382,1,0,0:0:0:0:
134,367,28529,1,8,0:0:0:0:
134,367,28676,2,0,P|113:337|118:262,1,90,2|0,1:2|0:0,0:0:0:0:
102,106,28970,1,8,0:0:0:0:
152,192,29117,1,0,1:0:0:0:
152,192,29264,1,0,1:0:0:0:
317,114,29411,6,0,P|272:105|228:98,1,90,4|0,1:2|0:0,0:0:0:0:
56,190,29705,1,8,0:0:0:0:
198,17,29852,1,0,1:0:0:0:
198,17,29926,1,0,1:0:0:0:
198,17,30000,1,8,0:0:0:0:
244,279,30147,1,0,1:0:0:0:
102,106,30294,1,0,1:0:0:0:
102,106,30588,6,0,B|87:232|87:232|138:287,1,180,4|8,1:2|0:0,0:0:0:0:
76,353,31029,1,0,0:0:0:0:
223,360,31176,2,0,P|215:315|207:271,1,90,0|0,0:0|1:2,0:0:0:0:
257,159,31470,1,8,0:0:0:0:
257,159,31764,2,0,P|301:160|339:184,1,90,0|0,3:0|1:2,0:0:0:0:
377,266,32058,1,8,0:0:0:0:
466,136,32205,2,0,P|457:180|450:224,1,90,0|0,0:0|0:0,0:0:0:0:
401,377,32500,2,0,P|393:332|385:288,1,90,0|8,1:2|0:0,0:0:0:0:
339,184,32794,1,0,0:0:0:0:
424,57,32941,6,0,B|298:42|298:42|243:93,1,180,2|8,1:2|0:0,0:0:0:0:
259,78,33529,2,0,P|221:54|176:52,1,90,0|0,0:0|1:2,0:0:0:0:
73,105,33823,1,8,0:0:0:0:
73,105,34117,2,0,P|81:149|88:193,1,90,0|0,3:0|1:2,0:0:0:0:
107,344,34411,1,8,0:0:0:0:
163,270,34558,2,0,B|59:260|122:196|12:182,1,180,0|0,0:0|1:2,0:0:0:0:
193,95,35000,2,0,P|184:139|177:183,1,90,8|0,0:0|0:0,0:0:0:0:
239,325,35294,6,0,B|365:310|365:310|420:361,1,180,4|8,1:2|0:0,0:0:0:0:
403,346,35882,2,0,P|410:301|418:257,1,90,0|0,0:0|1:2,0:0:0:0:
357,166,36176,2,0,P|349:121|341:77,1,90,8|0,0:0|0:0,0:0:0:0:
504,10,36470,6,0,P|495:54|488:98,1,90,0|0,3:0|1:2,0:0:0:0:
445,185,36764,1,8,0:0:0:0:
337,56,36911,2,0,P|299:32|254:30,1,90,0|0,0:0|0:0,0:0:0:0:
189,182,37205,1,0,1:2:0:0:
276,208,37352,2,0,P|268:163|260:119,1,90,8|0,0:0|0:0,0:0:0:0:
67,115,37647,6,0,B|52:241|52:241|103:296,1,180,2|8,1:2|0:0,0:0:0:0:
50,127,38088,6,0,B|35:253|35:253|86:308,1,180,2|8,1:2|0:0,0:0:0:0:
386,285,38529,5,4,0:0:0:0:
162,227,38676,1,0,0:0:0:0:
411,291,38823,1,4,0:0:0:0:
212,131,38970,5,8,0:0:0:0:
212,131,39044,1,8,0:0:0:0:
212,131,39117,1,8,0:0:0:0:
239,283,39264,1,0,1:0:0:0:
394,45,39411,6,0,P|384:94|377:143,1,99.0000030212403,4|0,0:0|0:0,0:0:0:0:
159,341,39705,2,0,P|151:292|141:243,1,99.0000030212403,4|0,0:0|0:0,0:0:0:0:
474,370,40000,6,0,P|423:305|310:331,1,202.500007724762,6|0,0:0|1:2,0:0:0:0:
191,357,40588,2,0,B|102:367|102:367|64:331,1,135.000005149842,10|0,0:0|0:0,0:0:0:0:
48,214,41029,1,0,0:0:0:0:
0,286,41176,6,0,P|13:219|24:153,1,135.000005149842,2|0,0:0|1:2,0:0:0:0:
54,58,41617,1,0,1:2:0:0:
159,88,41764,2,0,P|172:154|183:220,1,135.000005149842,10|0,0:0|0:0,0:0:0:0:
491,233,42352,6,0,B|371:221|443:147|317:131,1,202.500007724762,6|0,0:0|1:2,0:0:0:0:
281,49,42941,2,0,B|291:137|291:137|255:175,1,135.000005149842,10|0,0:0|0:0,0:0:0:0:
171,266,43382,1,0,0:0:0:0:
232,320,43529,6,0,P|165:306|99:295,1,135.000005149842,2|0,0:0|1:2,0:0:0:0:
23,335,43970,1,0,1:2:0:0:
28,211,44117,2,0,P|94:199|160:186,1,135.000005149842,10|0,0:0|0:0,0:0:0:0:
432,221,44705,6,0,P|458:273|417:342,1,135.000005149842,6|0,0:0|0:0,0:0:0:0:
327,325,45294,2,0,P|301:273|342:204,1,135.000005149842,10|0,0:0|0:0,0:0:0:0:
416,236,45882,6,0,P|434:273|405:321,1,90,2|0,0:0|1:2,0:0:0:0:
342,309,46471,2,0,P|324:273|353:224,1,90,10|0,0:0|0:0,0:0:0:0:
379,40,47058,6,0,B|316:10|316:10|242:35,1,135.000005149842,6|0,0:0|0:0,0:0:0:0:
257,146,47647,2,0,B|319:167|319:167|381:137,1,135.000005149842,10|0,0:0|0:0,0:0:0:0:
360,55,48235,6,0,B|316:35|316:35|265:52,1,90,2|0,0:0|1:2,0:0:0:0:
275,130,48824,2,0,B|318:145|318:145|362:124,1,90,10|0,0:0|0:0,0:0:0:0:
358,126,49264,6,0,L|354:188,1,45,0|0,1:0|0:0,0:0:0:0:
409,349,49411,1,4,1:2:0:0:
409,349,49705,6,0,L|257:333,1,135,0|0,3:0|0:0,0:0:0:0:
132,303,50000,6,0,L|299:285,1,161.999995056153,0|0,3:0|0:0,0:0:0:0:
415,248,50294,6,0,L|197:225,1,188.999994232178,0|0,3:0|0:0,0:0:0:0:
119,180,50588,6,0,L|379:152,1,216,0|0,3:0|0:0,0:0:0:0:
427,101,50882,6,0,L|166:73,1,242.999992584229,0|0,3:0|1:0,0:0:0:0:
6,107,51176,5,8,0:0:0:0:
464,26,51323,1,8,0:0:0:0:
464,26,51617,6,0,B|447:164|447:164|503:225,1,215.999993408203,4|0,1:2|1:2,0:0:0:0:
463,345,52058,2,0,P|409:333|355:326,1,107.999996704102,10|0,0:0|0:0,0:0:0:0:
213,204,52352,2,0,P|266:196|319:185,1,107.999996704102,0|0,1:2|0:0,0:0:0:0:
123,311,52647,1,10,0:0:0:0:
171,90,52794,1,0,0:0:0:0:
276,338,52941,6,0,P|274:280|243:231,1,107.999996704102,0|0,1:2|0:0,0:0:0:0:
74,39,53235,2,0,P|59:118|48:198,1,161.999995056153,10|0,0:0|0:0,0:0:0:0:
28,236,53529,2,0,P|74:210|128:209,1,107.999996704102,0|0,1:2|0:0,0:0:0:0:
311,0,53823,2,0,P|318:39|323:79,1,53.9999983520508,10|0,0:0|0:0,0:0:0:0:
280,224,53970,6,0,B|398:212|326:138|443:123,1,202.500007724762,4|0,1:2|0:0,0:0:0:0:
386,367,54411,2,0,P|393:313|404:260,1,107.999996704102,10|0,0:0|0:0,0:0:0:0:
198,265,54705,2,0,P|208:317|216:371,1,107.999996704102,0|0,1:2|0:0,0:0:0:0:
411,384,55000,2,0,P|422:303|436:224,1,161.999995056153,10|0,0:0|0:0,0:0:0:0:
483,104,55294,5,14,1:2:0:0:
87,217,55441,1,0,0:0:0:0:
506,248,55588,5,10,1:2:0:0:
110,135,55735,1,0,0:0:0:0:
466,88,55882,5,14,1:2:0:0:
70,201,56029,1,0,0:0:0:0:
296,320,56176,5,10,1:2:0:0:
265,16,56323,6,0,B|248:154|248:154|304:215,1,215.999993408203,4|0,1:2|1:2,0:0:0:0:
392,340,56764,2,0,P|444:330|498:322,1,107.999996704102,10|0,0:0|0:0,0:0:0:0:
179,312,57058,2,0,P|127:302|73:294,1,107.999996704102,0|0,1:2|0:0,0:0:0:0:
366,136,57352,1,10,0:0:0:0:
171,208,57500,1,0,0:0:0:0:
296,320,57647,6,0,B|320:268|320:268|305:195,1,107.999996704102,0|0,1:2|0:0,0:0:0:0:
184,20,57941,2,0,B|160:72|160:72|183:177,1,161.999995056153,10|0,0:0|0:0,0:0:0:0:
171,208,58235,2,0,P|119:198|65:190,1,107.999996704102,0|0,1:2|0:0,0:0:0:0:
359,54,58529,2,0,B|342:130,1,53.9999983520508,10|0,0:0|0:0,0:0:0:0:
468,256,58676,6,0,P|434:194|302:233,1,215.999993408203,4|0,1:2|1:2,0:0:0:0:
257,377,59117,1,10,0:0:0:0:
252,118,59264,1,0,0:0:0:0:
92,337,59411,1,0,1:2:0:0:
255,290,59558,1,0,0:0:0:0:
126,157,59705,1,10,0:0:0:0:
80,240,59852,5,0,1:0:0:0:
80,240,59926,1,0,1:0:0:0:
80,240,60000,2,0,P|64:127|43:16,1,215.999993408203,4|10,1:2|0:0,0:0:0:0:
69,36,60588,5,0,1:2:0:0:
155,11,60735,1,0,1:2:0:0:
211,122,60882,1,10,0:0:0:0:
418,76,61029,6,0,B|280:59|280:59|219:115,1,215.999993408203,4|0,1:2|1:2,0:0:0:0:
297,266,61470,2,0,P|304:212|315:159,1,107.999996704102,10|0,0:0|0:0,0:0:0:0:
174,275,61764,2,0,P|185:327|192:381,1,107.999996704102,0|0,1:2|0:0,0:0:0:0:
388,236,62058,1,10,0:0:0:0:
221,200,62205,1,0,0:0:0:0:
356,353,62352,6,0,P|414:351|463:320,1,107.999996704102,0|0,1:2|0:0,0:0:0:0:
483,117,62647,2,0,P|404:98|323:86,1,161.999995056153,10|0,0:0|0:0,0:0:0:0:
288,79,62941,2,0,P|290:137|321:186,1,107.999996704102,0|0,1:2|0:0,0:0:0:0:
268,368,63235,2,0,P|277:328|283:288,1,53.9999983520508,10|0,0:0|0:0,0:0:0:0:
196,231,63382,6,0,B|78:219|150:145|33:130,1,202.500007724762,4|0,1:2|0:0,0:0:0:0:
89,45,63823,2,0,P|142:37|195:26,1,107.999996704102,10|0,0:0|0:0,0:0:0:0:
144,309,64117,2,0,P|91:297|37:290,1,107.999996704102,0|0,1:2|0:0,0:0:0:0:
105,68,64411,2,0,P|185:56|264:37,1,161.999995056153,10|0,0:0|0:0,0:0:0:0:
351,9,64705,5,14,1:2:0:0:
225,357,64852,1,0,0:0:0:0:
194,0,65000,5,10,1:2:0:0:
320,348,65147,1,0,0:0:0:0:
364,28,65294,5,14,1:2:0:0:
238,376,65441,1,0,0:0:0:0:
152,154,65588,5,10,1:2:0:0:
432,235,65735,6,0,B|294:218|294:218|233:274,1,215.999993408203,4|0,1:2|1:2,0:0:0:0:
101,384,66176,2,0,P|94:330|83:277,1,107.999996704102,10|0,0:0|0:0,0:0:0:0:
258,53,66470,2,0,P|247:105|240:159,1,107.999996704102,0|0,1:2|0:0,0:0:0:0:
71,56,66764,1,10,0:0:0:0:
104,241,66911,1,0,0:0:0:0:
332,129,67058,6,0,B|384:105|384:105|457:120,1,107.999996704102,0|0,1:2|0:0,0:0:0:0:
474,346,67352,2,0,B|422:370|422:370|317:347,1,161.999995056153,10|0,0:0|0:0,0:0:0:0:
277,374,67647,2,0,P|269:320|258:267,1,107.999996704102,0|0,1:2|0:0,0:0:0:0:
214,97,67941,2,0,B|197:173,1,53.9999983520508,10|0,0:0|0:0,0:0:0:0:
172,323,68088,6,0,P|106:246|13:285,1,215.999993408203,4|0,1:2|1:2,0:0:0:0:
58,381,68529,1,10,0:0:0:0:
39,138,68676,1,0,0:0:0:0:
13,285,68823,1,0,1:2:0:0:
238,249,68970,1,0,0:0:0:0:
13,285,69117,1,10,0:0:0:0:
84,226,69264,5,0,1:0:0:0:
84,226,69337,1,0,1:0:0:0:
84,226,69411,2,0,P|100:113|121:2,1,215.999993408203,4|10,1:2|0:0,0:0:0:0:
132,28,70000,5,0,1:2:0:0:
242,7,70147,1,0,1:2:0:0:
288,92,70294,1,10,0:0:0:0:
436,122,70441,1,0,3:0:0:0:
380,56,70588,6,0,P|393:130|404:205,1,135.000005149842,6|0,0:0|0:0,0:0:0:0:
386,218,71176,2,0,P|330:177|264:191,1,135.000005149842,10|0,0:0|0:0,0:0:0:0:
199,280,71617,1,0,0:0:0:0:
168,196,71764,6,0,P|154:270|143:345,1,135.000005149842,2|0,0:0|1:2,0:0:0:0:
41,355,72205,1,0,1:2:0:0:
41,355,72352,2,0,P|31:288|18:221,1,135.000005149842,10|0,0:0|0:0,0:0:0:0:
63,60,72941,6,0,B|130:44|130:44|192:91,1,135.000005149842,6|0,0:0|0:0,0:0:0:0:
305,141,73382,1,0,1:2:0:0:
220,171,73529,2,0,P|229:104|242:37,1,135.000005149842,10|0,0:0|0:0,0:0:0:0:
390,20,73970,1,0,0:0:0:0:
390,20,74117,6,0,P|403:94|414:169,1,135.000005149842,2|0,0:0|1:2,0:0:0:0:
357,240,74558,1,0,1:2:0:0:
406,312,74705,2,0,P|350:271|284:285,1,135.000005149842,10|0,0:0|0:0,0:0:0:0:
189,345,75294,6,0,B|126:375|126:375|52:350,1,135.000005149842,6|0,0:0|0:0,0:0:0:0:
67,239,75883,2,0,B|129:218|129:218|191:248,1,135.000005149842,10|0,0:0|0:0,0:0:0:0:
170,330,76470,6,0,B|126:350|126:350|75:333,1,90,2|0,0:0|1:2,0:0:0:0:
85,255,77058,2,0,B|128:240|128:240|172:261,1,90,10|0,0:0|0:0,0:0:0:0:
367,188,77647,6,0,P|393:136|352:67,1,135.000005149842,6|0,0:0|0:0,0:0:0:0:
262,84,78235,2,0,P|236:136|277:205,1,135.000005149842,10|0,0:0|0:0,0:0:0:0:
351,173,78823,6,0,P|369:136|340:88,1,90,2|0,0:0|1:2,0:0:0:0:
277,100,79411,2,0,P|259:136|288:185,1,90,10|0,0:0|1:0,0:0:0:0:
278,178,79853,6,0,L|216:174,1,45,0|0,1:0|0:0,0:0:0:0:
55,229,80000,1,4,1:2:0:0:
55,229,80294,6,0,L|71:77,1,135,0|0,3:0|0:0,0:0:0:0:
94,13,80588,6,0,L|112:180,1,161.999995056153,0|0,3:0|0:0,0:0:0:0:
148,299,80882,6,0,L|171:81,1,188.999994232178,0|0,3:0|0:0,0:0:0:0:
217,0,81176,6,0,L|245:260,1,216,0|0,3:0|0:0,0:0:0:0:
290,362,81470,6,0,L|318:101,1,242.999992584229,0|0,3:0|1:0,0:0:0:0:
396,0,81764,5,8,0:0:0:0:
452,368,81911,1,8,0:0:0:0:
481,276,82058,2,0,P|437:286|393:293,1,90,0|0,0:0|3:0,0:0:0:0:
137,326,82352,6,0,P|205:263|282:287,3,180,6|0|10|0,1:2|0:0|0:0|0:0,0:0:0:0:
385,349,83382,1,0,3:0:0:0:
385,349,83455,1,0,3:0:0:0:
385,349,83529,1,0,1:3:0:0:
332,217,83676,1,0,0:0:0:0:
404,161,83823,2,0,P|396:116|387:72,1,90,0|0,0:0|0:0,0:0:0:0:
442,15,84117,2,0,P|389:26|352:9,2,90,10|0|0,0:0|0:0|0:0,0:0:0:0:
179,73,84705,6,0,P|169:117|162:161,1,90,6|0,1:2|0:0,0:0:0:0:
106,248,85000,2,0,P|174:185|251:209,2,180,0|10|0,0:0|0:0|0:0,0:0:0:0:
60,356,85735,1,0,3:0:0:0:
60,356,85808,1,0,3:0:0:0:
60,356,85882,1,0,1:3:0:0:
19,269,86029,1,0,0:0:0:0:
193,282,86176,1,0,0:0:0:0:
152,369,86323,1,0,0:0:0:0:
254,352,86470,2,0,P|298:344|342:335,2,90,10|0|0,0:0|0:0|0:0,0:0:0:0:
459,374,87058,6,0,P|472:331|461:289,1,90,6|0,1:2|0:0,0:0:0:0:
389,220,87352,1,0,0:0:0:0:
389,220,87647,2,0,P|407:131|421:42,1,180,10|0,0:0|0:0,0:0:0:0:
421,42,88235,6,0,P|378:28|336:39,1,90,2|0,1:2|0:0,0:0:0:0:
181,249,88529,1,0,0:0:0:0:
327,135,88676,1,8,0:0:0:0:
175,40,88823,1,10,0:0:0:0:
316,232,88970,1,8,0:0:0:0:
99,215,89117,5,0,1:0:0:0:
172,158,89264,1,0,1:0:0:0:
355,355,89411,6,0,B|151:335|278:201|82:178,1,337.5,6|0,1:2|0:0,0:0:0:0:
