osu file format v14

[General]
AudioFilename: audio.mp3
AudioLeadIn: 0
PreviewTime: 51075
Countdown: 0
SampleSet: Soft
StackLeniency: 0.7
Mode: 2
LetterboxInBreaks: 0
WidescreenStoryboard: 1

[Editor]
Bookmarks: 149605
DistanceSpacing: 2.5
BeatDivisor: 4
GridSize: 8
TimelineZoom: 2.2

[Metadata]
Title:Black Rover
TitleUnicode:Black Rover
Artist:Raon Lee
ArtistUnicode:Raon Lee
Creator:Quit user
Version:Reckless
Source:
Tags:
BeatmapID:1777886
BeatmapSetID:850358

[Difficulty]
HPDrainRate:6
CircleSize:4
OverallDifficulty:9.6
ApproachRate:9.6
SliderMultiplier:2
SliderTickRate:1

[Events]
//Background and Video events
0,0,"283ad9c4e881197642dcb7d37e5377c2.png",0,0
//Break Periods
2,69658,72625
//Storyboard Layer 0 (Background)
//Storyboard Layer 1 (Fail)
//Storyboard Layer 2 (Pass)
//Storyboard Layer 3 (Foreground)
//Storyboard Sound Samples

[TimingPoints]
3723,294.117647058824,4,2,22,100,1,0
3723,-166.666666666667,4,2,22,45,0,0
8428,-166.666666666667,4,2,23,45,0,0
9605,-125,4,2,22,60,0,0
10634,-71.4285714285714,4,2,22,75,0,0
11075,-83.3333333333333,4,2,22,75,0,0
11811,-71.4285714285714,4,2,22,75,0,0
12252,-83.3333333333333,4,2,22,75,0,0
12987,-71.4285714285714,4,2,22,75,0,0
13428,-83.3333333333333,4,2,22,75,0,0
13723,-83.3333333333333,4,2,22,75,0,0
18428,-250,4,2,23,50,0,0
18943,-285.714285714286,4,2,23,50,0,0
19458,-333.333333333333,4,2,23,50,0,0
20193,-111.111111111111,4,2,22,50,0,0
25781,-142.857142857143,4,2,22,65,0,0
27252,-100,4,2,22,65,0,0
30193,-125,4,2,22,65,0,0
36664,-100,4,2,22,65,0,0
38428,-166.666666666667,4,2,22,65,0,0
39017,-125,4,2,22,50,0,0
43723,-166.666666666667,4,2,22,50,0,0
47252,-125,4,2,22,50,0,0
48723,-133.333333333333,4,2,22,50,0,0
49017,-125,4,2,22,70,0,0
49311,-117.647058823529,4,2,22,75,0,0
49605,-111.111111111111,4,2,22,80,0,0
49899,-105.263157894737,4,2,22,85,0,0
50634,-100,4,2,22,90,0,1
51958,-90.9090909090909,4,2,22,90,0,1
59017,-76.9230769230769,4,2,22,90,0,1
59899,-90.9090909090909,4,2,22,90,0,1
68428,-76.9230769230769,4,2,22,90,0,1
69311,-90.9090909090909,4,2,22,90,0,1
69605,-90.9090909090909,4,2,22,80,0,0
77252,-250,4,2,22,80,0,0
77840,-285.714285714286,4,2,22,70,0,0
78428,-333.333333333333,4,2,22,60,0,0
79017,-100,4,2,22,65,0,0
86075,-83.3333333333333,4,2,22,65,0,0
87252,-100,4,2,22,65,0,0
89017,-125,4,2,22,65,0,0
93134,-100,4,2,22,65,0,0
97252,-166.666666666667,4,2,22,65,0,0
97840,-125,4,2,22,65,0,0
102546,-166.666666666667,4,2,22,50,0,0
106075,-125,4,2,22,50,0,0
106132,-125,4,2,22,50,0,0
107252,-500,4,2,22,50,0,0
107546,-333.333333333333,4,2,22,50,0,0
107840,-250,4,2,22,50,0,0
108134,-166.666666666667,4,2,22,50,0,0
108428,-125,4,2,22,50,0,0
108723,-100,4,2,22,50,0,0
109458,-83.3333333333333,4,2,22,90,0,1
117840,-76.9230769230769,4,2,22,90,0,1
118723,-83.3333333333333,4,2,22,90,0,1
127252,-76.9230769230769,4,2,22,90,0,1
128428,-111.111111111111,4,2,22,50,0,0
133134,-166.666666666667,4,2,22,50,0,0
137252,-125,4,2,22,50,0,0
137840,-500,4,2,22,50,0,0
138134,-333.333333333333,4,2,22,50,0,0
138428,-250,4,2,22,50,0,0
138723,-163.934426229508,4,2,22,50,0,0
139017,-125,4,2,22,50,0,0
139311,-100,4,2,22,65,0,0
154605,-90.9090909090909,4,2,22,50,0,0
157252,-111.111111111111,4,2,22,50,0,0
161370,-100,4,2,22,50,0,0
163723,-83.3333333333333,4,2,22,75,0,0
166075,-125,4,2,22,75,0,0
166370,-90.9090909090909,4,2,22,75,0,0
166664,-90.9090909090909,4,2,22,75,0,0
168428,-80,4,2,22,75,0,0
170340,-71.4285714285714,4,2,22,75,0,0
171002,-200,4,2,22,75,0,0
171958,-80,4,2,22,90,0,1
175340,-76.9230769230769,4,2,22,90,0,1
175634,-80,4,2,22,90,0,1
179017,-71.4285714285714,4,2,22,90,0,1
180046,-80,4,2,22,90,0,1
188428,-71.4285714285714,4,2,22,90,0,1
189605,-111.111111111111,4,2,22,50,0,0
194311,-111.111111111111,4,2,22,50,0,0
199164,-500,4,2,22,50,0,0
199458,-333.333333333333,4,2,22,50,0,0
199752,-250,4,2,22,50,0,0
200046,-166.666666666667,4,2,22,50,0,0
200340,-125,4,2,22,50,0,0

[HitObjects]
112,160,3723,6,0,L|192:160,1,59.9999981689454
264,184,4017,2,0,L|200:184,1,59.9999981689454
96,184,4311,2,0,L|32:184,1,59.9999981689454
144,184,4605,2,0,L|80:184,1,59.9999981689454
400,168,4899,2,0,L|320:168,1,59.9999981689454
248,184,5193,2,0,L|312:184,1,59.9999981689454
416,184,5487,2,0,L|480:184,1,59.9999981689454
320,184,5781,2,0,L|384:184,1,59.9999981689454
176,192,6075,6,0,L|112:192,1,59.9999981689454
176,192,6370,2,0,L|104:192,1,59.9999981689454
232,192,6664,2,0,L|160:192,1,59.9999981689454
80,192,6958,2,0,L|16:192,1,59.9999981689454
256,192,7252,6,0,L|192:192,1,59.9999981689454
256,192,7547,2,0,L|184:192,1,59.9999981689454
312,192,7841,2,0,L|240:192,1,59.9999981689454
160,192,8135,2,0,L|240:192,1,59.9999981689454
400,192,8428,6,0,P|440:176|432:104,1,119.999996337891,2|0,0:0|0:0,0:0:0:0:
384,72,8870,1,0,0:0:0:0:
112,192,9017,2,0,P|72:176|80:104,1,119.999996337891,2|0,0:0|0:0,0:0:0:0:
128,72,9459,1,0,0:0:0:0:
288,72,9605,1,2,0:0:0:0:
368,72,9752,1,0,0:0:0:0:
208,72,9899,1,2,0:0:0:0:
448,72,10046,1,0,0:0:0:0:
128,72,10193,5,8,0:0:0:0:
94,93,10266,1,0,0:0:0:0:
82,130,10340,1,0,0:0:0:0:
96,166,10413,1,0,0:0:0:0:
232,192,10487,1,8,0:0:0:0:
272,192,10561,1,0,0:0:0:0:
480,192,10634,6,0,P|472:104|296:48,1,279.999991455078,6|2,0:0|0:0,0:0:0:0:
32,192,11075,2,0,P|40:104|181:41,1,239.999992675781,8|2,0:0|0:0,0:0:0:0:
304,48,11517,2,0,L|424:48,1,119.999996337891,2|8,0:0|0:0,0:0:0:0:
112,40,11811,2,0,P|176:120|88:272,1,279.999991455078,2|2,0:0|0:0,0:0:0:0:
408,280,12252,2,0,L|208:136,1,239.999992675781,8|2,0:0|0:0,0:0:0:0:
368,136,12693,2,0,L|264:64,1,119.999996337891,2|8,0:0|0:0,0:0:0:0:
16,64,12987,6,0,P|40:216|152:272,1,279.999991455078,6|2,0:0|0:0,0:0:0:0:
440,272,13428,2,0,P|448:136|368:48,1,239.999992675781,8|2,0:0|0:0,0:0:0:0:
144,48,13870,2,0,L|24:48,2,119.999996337891,2|8|0,0:0|0:0|0:0,0:0:0:0:
432,136,14311,2,0,L|296:136,1,119.999996337891,2|0,0:0|0:0,0:0:0:0:
80,248,14605,2,0,L|216:248,1,119.999996337891,8|0,0:0|0:0,0:0:0:0:
464,264,14899,1,8,0:0:0:0:
492,212,14972,1,0,0:0:0:0:
120,192,15046,1,8,0:0:0:0:
91,141,15119,1,0,0:0:0:0:
384,88,15340,6,0,P|464:176|456:304,1,239.999992675781,2|2,0:0|0:0,0:0:0:0:
304,280,15781,2,0,L|176:280,1,119.999996337891,8|2,0:0|0:0,0:0:0:0:
328,224,16075,2,0,L|200:224,1,119.999996337891,8|2,0:0|0:0,0:0:0:0:
384,200,16370,2,0,L|480:120,1,119.999996337891,8|2,0:0|0:0,0:0:0:0:
176,112,16664,2,0,L|272:32,1,119.999996337891,8|2,0:0|0:0,0:0:0:0:
512,40,16958,2,0,L|416:120,1,119.999996337891,10|2,0:0|0:0,0:0:0:0:
176,112,17252,2,0,L|80:192,1,119.999996337891,8|2,0:0|0:0,0:0:0:0:
419,116,17546,1,8,0:0:0:0:
176,112,17693,2,0,P|112:168|192:272,1,239.999992675781,2|2,0:0|0:0,0:0:0:0:
432,272,18134,2,0,P|472:208|464:144,1,119.999996337891,8|0,0:0|0:0,0:0:0:0:
88,136,18428,6,0,L|264:136,2,160,2|2|2,0:0|0:0|0:0,0:0:0:0:
472,128,20193,6,0,P|480:224|456:336,1,179.999994506836,6|8,0:0|0:0,0:0:0:0:
312,192,20781,2,0,L|240:264,1,89.9999972534181,2|2,0:0|0:0,0:0:0:0:
88,192,21075,2,0,P|112:112|184:96,1,134.999995880127,8|0,0:0|0:0,0:0:0:0:
312,88,21370,2,0,L|424:88,1,89.9999972534181,0|2,0:0|0:0,0:0:0:0:
256,208,21664,2,0,L|112:208,1,134.999995880127,8|0,0:0|0:0,0:0:0:0:
168,208,21958,1,0,0:0:0:0:
312,208,22105,2,0,L|408:208,2,89.9999972534181,2|8|2,0:0|0:0|0:0,0:0:0:0:
88,208,22546,6,0,P|56:136|152:96,1,179.999994506836,2|8,0:0|0:0,0:0:0:0:
312,192,22987,2,0,L|240:264,2,89.9999972534181,2|0|2,0:0|0:0|0:0,0:0:0:0:
176,184,23428,2,0,P|120:150|109:85,1,134.999995880127,8|0,0:0|0:0,0:0:0:0:
200,80,23723,2,0,L|296:80,1,89.9999972534181,0|2,0:0|0:0,0:0:0:0:
80,160,24017,2,0,L|215:160,1,134.999995880127,8|0,0:0|0:0,0:0:0:0:
264,160,24311,1,0,0:0:0:0:
128,160,24458,2,0,L|38:160,2,89.9999972534181,2|8|2,0:0|0:0|0:0,0:0:0:0:
400,160,24899,2,0,P|336:240|240:272,1,179.999994506836,6|8,0:0|0:0,0:0:0:0:
16,176,25340,2,0,L|208:176,1,179.999994506836,2|2,0:0|0:0,0:0:0:0:
408,176,25781,6,0,L|456:96,1,69.9999978637696,8|0,0:0|0:0,0:0:0:0:
304,104,26075,2,0,L|352:24,1,69.9999978637696,0|2,0:0|0:0,0:0:0:0:
200,48,26370,2,0,L|112:48,1,69.9999978637696,8|0,0:0|0:0,0:0:0:0:
304,64,26664,2,0,L|392:64,1,69.9999978637696,0|2,0:0|0:0,0:0:0:0:
168,80,26958,2,0,L|80:80,1,69.9999978637696,8|2,0:0|0:0,0:0:0:0:
400,104,27252,6,0,P|424:176|400:320,1,200,2|8,0:0|0:0,0:0:0:0:
112,296,27693,2,0,P|64:232|128:136,1,200,2|8,0:0|0:0,0:0:0:0:
272,136,28134,2,0,L|376:136,1,100,2|2,0:0|0:0,0:0:0:0:
72,136,28428,6,0,P|72:216|176:320,1,200,6|0,0:0|0:0,0:0:0:0:
328,312,28870,2,0,L|384:312,1,50,8|0,0:0|0:0,0:0:0:0:
208,280,29017,2,0,L|88:280,1,100,8|2,0:0|0:0,0:0:0:0:
456,240,29311,2,0,L|352:240,1,100,8|2,0:0|0:0,0:0:0:0:
104,208,29605,2,0,P|72:152|168:56,1,200,6|8,0:0|0:0,0:0:0:0:
416,80,30193,6,0,L|480:168,1,80,2|2,0:0|0:0,0:0:0:0:
320,120,30487,2,0,L|256:208,1,80,8|0,0:0|0:0,0:0:0:0:
408,216,30781,2,0,L|488:248,1,80,2|2,0:0|0:0,0:0:0:0:
368,280,31075,1,8,0:0:0:0:
488,304,31223,2,0,L|400:344,1,80,0|2,0:0|0:0,0:0:0:0:
256,328,31517,2,0,L|160:328,2,80,2|8|0,0:0|0:0|0:0,0:0:0:0:
480,320,31958,2,0,P|424:288|496:248,1,160,2|8,0:0|0:0,0:0:0:0:
192,128,32546,6,0,L|144:192,1,80,2|2,0:0|0:0,0:0:0:0:
304,128,32840,2,0,L|360:200,1,80,8|0,0:0|0:0,0:0:0:0:
216,224,33134,2,0,L|304:224,2,80,2|2|8,0:0|0:0|0:0,0:0:0:0:
432,224,33575,2,0,P|472:176|416:112,1,160,0|2,0:0|0:0,0:0:0:0:
328,72,34017,2,0,L|416:40,1,80,8|0,0:0|0:0,0:0:0:0:
120,48,34311,2,0,P|56:160|64:192,1,160,6|8,0:0|0:0,0:0:0:0:
296,160,34899,6,0,L|208:160,1,80,2|2,0:0|0:0,0:0:0:0:
384,216,35193,2,0,L|480:248,1,80,8|0,0:0|0:0,0:0:0:0:
200,240,35487,1,2,0:0:0:0:
123,226,35634,1,2,0:0:0:0:
176,176,35781,1,8,0:0:0:0:
288,88,35928,2,0,P|376:128|392:200,1,160,0|2,0:0|0:0,0:0:0:0:
184,184,36370,2,0,L|80:184,1,80,8|0,0:0|0:0,0:0:0:0:
424,184,36664,6,0,P|472:104|376:96,1,200,2|8,0:0|0:0,0:0:0:0:
176,72,37105,2,0,L|360:160,1,200,2|8,0:0|0:0,0:0:0:0:
96,120,37546,2,0,B|64:208|64:208|128:208|56:320,2,200,6|12|2,0:0|0:0|0:0,0:0:0:0:
344,96,38428,6,0,L|464:96,1,119.999996337891,14|6,0:0|0:0,0:0:0:0:
112,96,39017,6,0,P|80:160|240:320,1,320,6|8,0:0|0:0,0:0:0:0:
488,200,40193,1,2,0:0:0:0:
128,144,40487,1,2,0:0:0:0:
336,144,40634,1,2,0:0:0:0:
272,320,40781,2,0,L|432:320,1,160,8|2,0:0|0:0,0:0:0:0:
49,221,41370,6,0,P|67:299|288:297,1,320,6|8,0:0|0:0,0:0:0:0:
464,312,42546,1,2,0:0:0:0:
224,304,42840,2,0,L|120:304,1,80,2|2,0:0|0:0,0:0:0:0:
376,248,43134,2,0,L|472:248,1,80,8|0,0:0|0:0,0:0:0:0:
224,208,43428,2,0,L|128:208,1,80,2|2,0:0|0:0,0:0:0:0:
384,96,43723,6,6,P|432:160|336:280,1,239.999992675781,6|8,0:0|0:0,0:0:0:0:
144,96,44899,2,0,P|88:136|80:200,1,119.999996337891,2|2,0:0|0:0,0:0:0:0:
176,184,45340,1,2,0:0:0:0:
77,200,45487,2,0,P|94:257|144:288,1,119.999996337891,8|2,0:0|0:0,0:0:0:0:
384,272,46075,2,0,L|120:272,1,239.999992675781,6|8,0:0|0:0,0:0:0:0:
384,72,47252,2,0,L|472:208,1,160,8|2,0:0|0:0,0:0:0:0:
376,208,47693,1,2,0:0:0:0:
232,208,47840,2,0,L|128:208,1,80,8|8,0:0|0:0,0:0:0:0:
320,208,48134,1,2,0:0:0:0:
112,200,48428,6,0,P|80:168|112:104,1,120,6|0,0:0|0:0,0:0:0:0:
144,96,48723,2,0,L|272:96,1,112.500004291535,2|0,0:0|0:0,0:0:0:0:
280,96,49017,2,0,L|128:96,1,120,2|0,0:0|0:0,0:0:0:0:
184,96,49311,2,0,L|344:96,1,127.50000243187,2|0,0:0|0:0,0:0:0:0:
336,96,49605,2,0,L|176:96,1,134.999995880127,2|0,0:0|0:0,0:0:0:0:
176,96,49899,2,0,L|360:96,1,142.49999619484,2|0,0:0|0:0,0:0:0:0:
176,120,50193,2,0,L|72:120,1,94.9999974632264,8|8,0:0|0:0,0:0:0:0:
336,120,50487,1,2,0:0:0:0:
72,120,50634,1,12,0:0:0:0:
336,128,51075,6,0,L|453:128,1,100,8|0,0:0|0:0,0:0:0:0:
144,120,51370,2,0,P|64:184|112:248,1,200,2|8,0:0|0:0,0:0:0:0:
208,264,51811,1,0,0:0:0:0:
424,240,51958,2,0,L|304:192,1,110.000003356934,2|0,0:0|0:0,0:0:0:0:
160,192,52252,2,0,L|88:96,1,110.000003356934,8|0,0:0|0:0,0:0:0:0:
312,56,52546,1,2,0:0:0:0:
202,56,52693,1,2,0:0:0:0:
312,56,52840,1,8,0:0:0:0:
40,56,52987,6,0,P|40:144|160:232,1,220.000006713867,6|2,0:0|0:0,0:0:0:0:
408,248,53428,2,0,L|456:136,1,110.000003356934,8|0,0:0|0:0,0:0:0:0:
120,136,53723,2,0,L|72:248,1,110.000003356934,2|2,0:0|0:0,0:0:0:0:
296,248,54017,2,0,L|424:248,1,110.000003356934,8|0,0:0|0:0,0:0:0:0:
136,184,54311,5,6,0:0:0:0:
216,184,54458,1,0,0:0:0:0:
48,184,54605,2,0,L|128:280,1,110.000003356934,8|0,0:0|0:0,0:0:0:0:
368,264,54899,1,2,0:0:0:0:
476,256,55046,1,2,0:0:0:0:
256,216,55193,1,8,0:0:0:0:
512,216,55340,2,0,P|512:144|400:16,1,220.000006713867,6|2,0:0|0:0,0:0:0:0:
96,208,55781,6,0,L|200:136,1,110.000003356934,8|0,0:0|0:0,0:0:0:0:
408,136,56075,2,0,P|464:240|392:320,1,220.000006713867,2|8,0:0|0:0,0:0:0:0:
336,312,56517,2,0,L|304:364,1,55.0000016784668
168,312,56664,2,0,L|48:312,1,110.000003356934,2|0,0:0|0:0,0:0:0:0:
336,312,56958,2,0,L|456:312,1,110.000003356934,8|0,0:0|0:0,0:0:0:0:
176,248,57252,1,2,0:0:0:0:
72,192,57399,1,2,0:0:0:0:
176,136,57546,1,8,0:0:0:0:
448,72,57693,6,0,P|424:184|332:216,1,220.000006713867,6|2,0:0|0:0,0:0:0:0:
204,224,58134,2,0,L|392:104,1,220.000006713867,8|2,0:0|0:0,0:0:0:0:
104,96,58575,2,0,L|214:96,2,110.000003356934,2|8|0,0:0|0:0|0:0,0:0:0:0:
480,80,59017,6,0,P|496:176|464:344,1,259.999988098145,2|2,0:0|0:0,0:0:0:0:
40,320,59605,2,0,P|16:200|64:48,1,259.999988098145,2|2,0:0|0:0,0:0:0:0:
376,160,60046,2,0,L|144:160,1,220.000006713867,6|2,0:0|0:0,0:0:0:0:
400,240,60487,2,0,L|480:128,1,110.000003356934,8|0,0:0|0:0,0:0:0:0:
112,88,60781,2,0,P|32:184|80:256,1,220.000006713867,2|8,0:0|0:0,0:0:0:0:
144,256,61223,2,0,L|192:288,1,55.0000016784668,2|0,0:0|0:0,0:0:0:0:
328,248,61370,2,0,L|432:192,1,110.000003356934,2|0,0:0|0:0,0:0:0:0:
192,128,61664,2,0,L|304:128,1,110.000003356934,8|0,0:0|0:0,0:0:0:0:
432,80,61958,1,2,0:0:0:0:
352,112,62105,1,2,0:0:0:0:
496,144,62252,1,8,0:0:0:0:
192,192,62399,6,0,L|408:248,1,220.000006713867,6|2,0:0|0:0,0:0:0:0:
192,256,62840,2,0,L|72:256,1,110.000003356934,8|0,0:0|0:0,0:0:0:0:
320,256,63134,2,0,L|440:256,1,110.000003356934,2|0,0:0|0:0,0:0:0:0:
168,232,63428,2,0,P|144:160|232:160,1,165.000005035401,8|0,0:0|0:0,0:0:0:0:
384,136,63723,1,6,0:0:0:0:
464,136,63870,1,2,0:0:0:0:
256,96,64017,2,0,L|352:176,1,110.000003356934,8|2,0:0|0:0,0:0:0:0:
208,192,64311,1,6,0:0:0:0:
112,192,64458,1,2,0:0:0:0:
432,192,64605,1,8,0:0:0:0:
192,232,64752,6,0,P|176:144|296:128,1,220.000006713867,6|2,0:0|0:0,0:0:0:0:
120,88,65193,2,0,L|40:168,1,110.000003356934,8|0,0:0|0:0,0:0:0:0:
352,192,65487,2,0,L|456:240,1,110.000003356934,2|2,0:0|0:0,0:0:0:0:
232,248,65781,1,8,0:0:0:0:
312,248,65928,1,0,0:0:0:0:
160,248,66075,2,0,L|40:248,1,110.000003356934,2|2,0:0|0:0,0:0:0:0:
296,248,66370,2,0,P|360:176|272:144,1,220.000006713867,8|2,0:0|0:0,0:0:0:0:
160,124,66811,1,2,0:0:0:0:
308,128,66958,1,8,0:0:0:0:
76,124,67105,6,0,P|36:196|132:268,1,220.000006713867,6|2,0:0|0:0,0:0:0:0:
448,272,67546,2,0,P|400:192|272:176,1,220.000006713867,8|2,0:0|0:0,0:0:0:0:
48,128,67987,2,0,L|160:80,2,110.000003356934,2|8|0,0:0|0:0|0:0,0:0:0:0:
496,64,68428,6,0,L|496:344,1,259.999988098145,2|2,0:0|0:0,0:0:0:0:
208,320,69017,2,0,L|391:136,1,259.999988098145,2|2,0:0|0:0,0:0:0:0:
0,92,69458,1,6,0:0:0:0:
81,280,73134,6,0,P|62:211|172:119,1,220.000006713867,2|8,0:0|0:0,0:0:0:0:
200,124,73502,1,0,0:0:0:0:
432,92,73575,2,0,L|320:92,2,110.000003356934,2|2|8,0:0|0:0|0:0,0:0:0:0:
36,76,74164,6,0,P|44:196|228:316,1,330.000010070801,6|2,0:0|0:0,0:0:0:0:
476,292,74899,2,0,P|488:224|352:152,1,220.000006713867,8|0,0:0|0:0,0:0:0:0:
208,108,75487,2,0,L|344:108,2,110.000003356934,2|8|2,0:0|0:0|0:0,0:0:0:0:
428,104,76075,1,8,0:0:0:0:
352,100,76223,1,2,0:0:0:0:
120,96,76370,1,8,0:0:0:0:
428,104,76517,1,6,0:0:0:0:
256,192,76664,12,2,77105,0:0:0:0:
396,136,77252,6,0,L|268:240,2,160,2|2|2,0:0|0:0|0:0,0:0:0:0:
128,160,79017,5,6,0:0:0:0:
400,160,79311,1,8,0:0:0:0:
272,248,79605,2,0,L|168:248,1,100,0|2,0:0|0:0,0:0:0:0:
400,248,79899,1,8,0:0:0:0:
164,152,80193,2,0,L|64:152,1,100,0|2,0:0|0:0,0:0:0:0:
344,152,80487,1,8,0:0:0:0:
104,152,80781,2,0,L|40:232,1,100,2|2,0:0|0:0,0:0:0:0:
224,232,81075,2,0,L|112:232,1,100,8|2,0:0|0:0,0:0:0:0:
408,296,81370,6,0,P|440:240|376:120,1,200,2|8,0:0|0:0,0:0:0:0:
136,96,81811,2,0,P|40:136|64:248,1,200,2|2,0:0|0:0,0:0:0:0:
184,240,82252,2,0,L|288:240,1,100,8|0,0:0|0:0,0:0:0:0:
432,240,82546,2,0,L|384:144,1,100,0|2,0:0|0:0,0:0:0:0:
208,144,82840,2,0,L|256:48,1,100,8|0,0:0|0:0,0:0:0:0:
432,88,83134,2,0,L|480:184,1,100,0|2,0:0|0:0,0:0:0:0:
208,168,83428,2,0,L|88:168,1,100,8|2,0:0|0:0,0:0:0:0:
358,130,83723,6,0,P|369:224|288:272,1,200,6|8,0:0|0:0,0:0:0:0:
456,272,84164,2,0,P|488:208|448:88,1,200,2|2,0:0|0:0,0:0:0:0:
280,88,84605,2,0,L|168:88,1,100,8|0,0:0|0:0,0:0:0:0:
24,152,84899,2,0,L|128:152,1,100,0|2,0:0|0:0,0:0:0:0:
344,152,85193,2,0,L|456:152,1,100,8|0,0:0|0:0,0:0:0:0:
152,200,85487,2,0,L|256:200,1,100,0|2,0:0|0:0,0:0:0:0:
488,288,85781,2,0,L|384:288,1,100,8|0,0:0|0:0,0:0:0:0:
88,288,86075,6,0,P|64:216|192:160,1,239.999992675781,2|8,0:0|0:0,0:0:0:0:
488,168,86517,2,0,P|512:96|384:40,1,239.999992675781,2|2,0:0|0:0,0:0:0:0:
88,64,86958,2,0,L|208:64,1,119.999996337891,8|0,0:0|0:0,0:0:0:0:
496,64,87252,6,0,L|496:304,1,200,6|8,0:0|0:0,0:0:0:0:
160,280,87693,2,0,L|104:280,1,50,2|0,0:0|0:0,0:0:0:0:
376,240,87840,2,0,L|480:240,1,100,8|0,0:0|0:0,0:0:0:0:
64,160,88134,2,0,L|176:160,1,100,2|0,0:0|0:0,0:0:0:0:
432,176,88428,2,0,P|480:120|408:32,1,200,6|0,0:0|0:0,0:0:0:0:
56,48,89017,6,0,L|32:152,1,80,2|2,0:0|0:0,0:0:0:0:
160,128,89311,2,0,L|80:208,1,80,8|0,0:0|0:0,0:0:0:0:
224,208,89605,2,0,L|320:208,1,80,0|2,0:0|0:0,0:0:0:0:
104,224,89899,2,0,L|192:224,2,80,8|0|0,0:0|0:0|0:0,0:0:0:0:
224,256,90340,2,0,L|312:256,1,80,2|8,0:0|0:0,0:0:0:0:
184,256,90634,1,2,0:0:0:0:
424,256,90781,6,0,P|464:200|408:120,1,160,6|8,0:0|0:0,0:0:0:0:
368,120,91223,1,0,0:0:0:0:
184,96,91370,2,0,L|272:96,1,80,0|2,0:0|0:0,0:0:0:0:
416,144,91664,2,0,L|328:144,1,80,8|0,0:0|0:0,0:0:0:0:
96,232,91958,6,0,P|48:208|64:136,1,120,2|0,0:0|0:0,0:0:0:0:
168,152,92252,2,0,P|216:128|200:56,1,120,8|0,0:0|0:0,0:0:0:0:
424,56,92546,2,0,L|344:56,2,80,2|2|8,0:0|0:0|0:0,0:0:0:0:
56,64,93134,6,0,P|32:144|64:256,1,200,6|8,0:0|0:0,0:0:0:0:
240,256,93575,2,0,L|352:256,1,100,0|2,0:0|0:0,0:0:0:0:
488,216,93870,6,0,L|368:216,1,100,2|8,0:0|0:0,0:0:0:0:
176,104,94164,2,0,P|96:160|144:248,1,200,2|2,0:0|0:0,0:0:0:0:
440,184,94605,2,0,L|240:184,1,200,8|2,0:0|0:0,0:0:0:0:
440,184,95046,2,0,L|312:184,2,100,2|8|0,0:0|0:0|0:0,0:0:0:0:
72,28,95487,6,0,L|224:160,1,200,2|8,0:0|0:0,0:0:0:0:
440,28,95928,2,0,L|288:160,1,200,2|8,0:0|0:0,0:0:0:0:
64,184,96370,1,6,0:0:0:0:
444,360,96664,2,2,L|292:228,1,200,6|2,0:0|0:0,0:0:0:0:
32,192,97252,5,12,0:0:0:0:
480,192,97546,1,6,0:0:0:0:
124,72,97840,6,0,L|456:72,1,320,2|8,0:0|0:0,0:0:0:0:
208,72,99017,2,0,P|128:112|128:208,1,160,2|2,0:0|0:0,0:0:0:0:
168,192,99458,1,2,0:0:0:0:
352,196,99605,2,0,P|416:160|396:72,1,160,8|2,0:0|0:0,0:0:0:0:
128,72,100193,2,0,P|72:132|152:328,1,320,6|8,0:0|0:0,0:0:0:0:
472,324,101370,6,0,P|456:276|360:228,1,160,2|2,0:0|0:0,0:0:0:0:
308,224,101811,1,2,0:0:0:0:
164,204,101958,2,0,L|80:204,1,80,8|0,0:0|0:0,0:0:0:0:
264,172,102252,2,0,L|352:172,1,80,2|0,0:0|0:0,0:0:0:0:
156,112,102546,2,0,P|96:144|92:212,2,119.999996337891,6|2|8,0:0|0:0|0:0,0:0:0:0:
360,116,103428,1,2,0:0:0:0:
156,132,103723,2,0,L|48:196,1,119.999996337891,2|2,0:0|0:0,0:0:0:0:
108,212,104164,1,2,0:0:0:0:
276,212,104311,2,0,L|404:240,1,119.999996337891,8|2,0:0|0:0,0:0:0:0:
152,248,104899,6,0,L|288:248,2,119.999996337891,6|2|8,0:0|0:0|0:0,0:0:0:0:
212,248,105781,1,2,0:0:0:0:
452,176,106075,2,0,L|284:176,1,160,2|2,0:0|0:0,0:0:0:0:
348,176,106517,1,2,0:0:0:0:
404,176,106664,1,8,0:0:0:0:
92,60,106811,1,2,0:0:0:0:
352,68,106958,1,2,0:0:0:0:
184,72,107252,6,0,L|148:72,1,30,2|0,0:0|0:0,0:0:0:0:
384,120,107546,2,0,L|432:120,1,44.999998626709,2|0,0:0|0:0,0:0:0:0:
40,156,107840,2,0,L|112:156,1,60,2|0,0:0|0:0,0:0:0:0:
316,216,108134,2,0,L|208:216,1,89.9999972534181,2|0,0:0|0:0,0:0:0:0:
400,228,108428,2,0,L|468:340,1,120,2|0,0:0|0:0,0:0:0:0:
56,332,108723,2,0,L|124:220,1,120,2|0,0:0|0:0,0:0:0:0:
176,228,109017,1,8,0:0:0:0:
76,228,109164,1,2,0:0:0:0:
144,228,109311,1,8,0:0:0:0:
444,232,109458,6,0,P|480:156|356:80,1,239.999992675781,6|0,0:0|0:0,0:0:0:0:
168,72,109899,6,0,L|36:72,1,119.999996337891,8|0,0:0|0:0,0:0:0:0:
336,92,110193,2,0,L|464:92,1,119.999996337891,2|0,0:0|0:0,0:0:0:0:
96,112,110487,1,8,0:0:0:0:
50,209,110634,1,0,0:0:0:0:
348,248,110781,2,0,L|480:248,1,119.999996337891,2|0,0:0|0:0,0:0:0:0:
172,196,111075,2,0,L|232:76,1,119.999996337891,8|0,0:0|0:0,0:0:0:0:
492,68,111370,2,0,L|368:68,2,119.999996337891,2|2|8,0:0|0:0|0:0,0:0:0:0:
132,72,111811,6,0,L|344:216,1,239.999992675781,6|2,0:0|0:0,0:0:0:0:
68,228,112252,2,0,L|28:344,1,119.999996337891,8|0,0:0|0:0,0:0:0:0:
292,344,112546,2,0,L|332:228,1,119.999996337891,2|2,0:0|0:0,0:0:0:0:
80,156,112840,2,0,L|28:40,1,119.999996337891,8|0,0:0|0:0,0:0:0:0:
368,40,113134,5,2,0:0:0:0:
92,40,113281,1,0,0:0:0:0:
368,40,113428,2,0,L|232:40,1,119.999996337891,8|0,0:0|0:0,0:0:0:0:
472,40,113723,1,2,0:0:0:0:
192,40,113870,1,2,0:0:0:0:
320,40,114017,1,8,0:0:0:0:
40,40,114164,2,0,P|20:104|48:288,1,239.999992675781,6|0,0:0|0:0,0:0:0:0:
376,284,114605,6,0,L|480:200,1,119.999996337891,8|0,0:0|0:0,0:0:0:0:
136,156,114899,2,0,L|252:104,1,119.999996337891,2|2,0:0|0:0,0:0:0:0:
460,104,115193,1,8,0:0:0:0:
376,104,115340,1,0,0:0:0:0:
160,100,115487,2,0,L|72:188,1,119.999996337891,2|0,0:0|0:0,0:0:0:0:
232,200,115781,2,0,L|308:308,1,119.999996337891,8|0,0:0|0:0,0:0:0:0:
84,296,116075,2,0,L|48:168,1,119.999996337891,2|2,0:0|0:0,0:0:0:0:
132,152,116370,1,8,0:0:0:0:
468,128,116517,6,0,P|476:240|364:312,1,239.999992675781,6|2,0:0|0:0,0:0:0:0:
104,308,116958,2,0,P|44:208|120:88,1,239.999992675781,8|2,0:0|0:0,0:0:0:0:
364,152,117399,2,0,L|260:92,2,119.999996337891,2|8|0,0:0|0:0|0:0,0:0:0:0:
64,136,117840,6,0,L|204:240,1,129.999994049073,2|0,0:0|0:0,0:0:0:0:
64,248,118134,1,8,0:0:0:0:
168,248,118281,1,0,0:0:0:0:
460,248,118428,2,0,L|328:248,1,129.999994049073,2|2,0:0|0:0,0:0:0:0:
416,248,118723,1,8,0:0:0:0:
116,244,118870,2,0,P|64:192|180:144,1,239.999992675781,6|0,0:0|0:0,0:0:0:0:
436,136,119311,6,0,L|480:256,1,119.999996337891,8|0,0:0|0:0,0:0:0:0:
220,196,119605,2,0,L|344:196,1,119.999996337891,2|2,0:0|0:0,0:0:0:0:
468,236,119899,2,0,L|348:236,1,119.999996337891,8|0,0:0|0:0,0:0:0:0:
104,232,120193,2,0,L|48:96,1,119.999996337891,2|0,0:0|0:0,0:0:0:0:
408,152,120487,2,0,L|476:280,1,119.999996337891,8|0,0:0|0:0,0:0:0:0:
200,288,120781,1,2,0:0:0:0:
476,288,120928,1,2,0:0:0:0:
380,288,121075,1,8,0:0:0:0:
44,288,121223,2,0,P|24:220|128:88,1,239.999992675781,6|2,0:0|0:0,0:0:0:0:
332,92,121664,6,0,L|452:92,1,119.999996337891,8|0,0:0|0:0,0:0:0:0:
291,226,121958,2,0,L|236:120,1,119.999996337891,2|2,0:0|0:0,0:0:0:0:
32,136,122252,2,0,L|100:236,1,119.999996337891,8|0,0:0|0:0,0:0:0:0:
368,124,122546,5,6,0:0:0:0:
144,124,122693,1,0,0:0:0:0:
488,124,122840,1,8,0:0:0:0:
24,124,122987,1,0,0:0:0:0:
368,124,123134,1,2,0:0:0:0:
144,124,123281,1,2,0:0:0:0:
488,124,123428,1,8,0:0:0:0:
24,124,123575,2,0,L|268:124,1,239.999992675781,6|2,0:0|0:0,0:0:0:0:
144,124,124017,6,0,L|16:124,1,119.999996337891,8|0,0:0|0:0,0:0:0:0:
384,120,124311,2,0,L|260:120,1,119.999996337891,2|2,0:0|0:0,0:0:0:0:
120,120,124605,2,0,L|16:200,1,119.999996337891,8|0,0:0|0:0,0:0:0:0:
288,200,124899,2,0,P|256:284|116:280,1,239.999992675781,2|8,0:0|0:0,0:0:0:0:
416,228,125340,1,0,0:0:0:0:
340,216,125487,1,2,0:0:0:0:
256,204,125634,1,2,0:0:0:0:
472,192,125781,1,8,0:0:0:0:
64,192,125928,2,0,P|92:128|256:124,1,239.999992675781,6|2,0:0|0:0,0:0:0:0:
460,136,126370,6,0,L|480:264,1,119.999996337891,8|0,0:0|0:0,0:0:0:0:
192,248,126664,2,0,L|320:248,1,119.999996337891,2|2,0:0|0:0,0:0:0:0:
52,136,126958,2,0,L|32:264,1,119.999996337891,8|0,0:0|0:0,0:0:0:0:
448,244,127252,6,0,L|168:140,2,259.999988098145,2|8|2,0:0|0:0|0:0,0:0:0:0:
356,252,127987,1,2,0:0:0:0:
264,252,128134,1,8,0:0:0:0:
444,252,128281,1,0,0:0:0:0:
72,240,128428,6,0,P|112:128|344:116,2,359.999989013672,6|8|2,0:0|0:0|0:0,0:0:0:0:
136,236,129899,1,2,0:0:0:0:
224,236,130046,1,2,0:0:0:0:
312,236,130193,1,8,0:0:0:0:
88,172,130340,2,0,L|184:172,2,89.9999972534181,0|2|0,0:0|0:0|0:0,0:0:0:0:
476,164,130781,2,0,P|440:92|264:88,1,269.999991760254,6|0,0:0|0:0,0:0:0:0:
476,164,131370,2,0,L|356:300,1,179.999994506836,8|0,0:0|0:0,0:0:0:0:
416,296,131811,1,0,0:0:0:0:
104,244,131958,2,0,P|152:184|272:200,1,179.999994506836,2|2,0:0|0:0,0:0:0:0:
340,184,132399,1,2,0:0:0:0:
184,140,132546,2,0,L|64:140,1,89.9999972534181,8|0,0:0|0:0,0:0:0:0:
380,172,132840,2,0,L|264:172,1,89.9999972534181,2|0,0:0|0:0,0:0:0:0:
80,128,133134,6,0,L|336:128,2,239.999992675781,6|8|2,0:0|0:0|0:0,0:0:0:0:
296,112,134605,2,0,L|384:112,1,59.9999981689454,2|2,0:0|0:0,0:0:0:0:
176,112,134899,2,0,L|52:112,1,119.999996337891,8|2,0:0|0:0,0:0:0:0:
264,112,135340,1,2,0:0:0:0:
56,112,135487,2,0,L|296:112,1,239.999992675781,6|8,0:0|0:0,0:0:0:0:
436,304,136664,6,0,L|328:224,1,119.999996337891,2|2,0:0|0:0,0:0:0:0:
400,220,137105,1,2,0:0:0:0:
164,172,137252,2,0,L|260:172,1,80,8|0,0:0|0:0,0:0:0:0:
40,176,137546,1,2,0:0:0:0:
320,72,137840,6,0,L|352:72,1,30,2|0,0:0|0:0,0:0:0:0:
92,120,138134,2,0,L|148:120,1,44.999998626709,2|0,0:0|0:0,0:0:0:0:
376,156,138428,2,0,L|448:156,1,60,2|0,0:0|0:0,0:0:0:0:
168,220,138723,2,0,L|264:220,1,91.4999962303163,2|0,0:0|0:0,0:0:0:0:
476,300,139017,2,0,L|352:300,1,120,2|0,0:0|0:0,0:0:0:0:
48,304,139311,2,0,L|216:304,1,150,2|0,0:0|0:0,0:0:0:0:
476,180,139605,2,0,L|364:180,2,100,8|2|8,0:0|0:0|0:0,0:0:0:0:
128,176,140046,6,0,P|144:116|348:108,1,300,6|2,0:0|0:0,0:0:0:0:
144,96,140781,1,8,0:0:0:0:
344,96,141075,1,2,0:0:0:0:
144,104,141370,2,0,L|64:192,1,100,2|0,0:0|0:0,0:0:0:0:
224,192,141664,2,0,L|296:272,1,100,2|0,0:0|0:0,0:0:0:0:
440,272,141958,2,0,L|480:168,1,100,8|0,0:0|0:0,0:0:0:0:
176,168,142252,1,2,0:0:0:0:
384,176,142546,6,0,L|176:176,1,200,6|2,0:0|0:0,0:0:0:0:
384,176,143134,1,8,0:0:0:0:
88,168,143428,1,2,0:0:0:0:
248,168,143723,2,0,L|384:168,1,100,2|0,0:0|0:0,0:0:0:0:
104,120,144017,2,0,L|208:120,1,100,2|0,0:0|0:0,0:0:0:0:
352,120,144311,2,0,L|464:120,1,100,8|0,0:0|0:0,0:0:0:0:
204,120,144605,1,2,0:0:0:0:
48,120,144899,6,0,P|80:208|192:272,1,200,6|2,0:0|0:0,0:0:0:0:
368,264,145487,1,8,0:0:0:0:
168,264,145781,1,2,0:0:0:0:
368,264,146075,2,0,L|256:264,1,100,2|0,0:0|0:0,0:0:0:0:
24,216,146370,2,0,L|128:216,1,100,2|0,0:0|0:0,0:0:0:0:
376,216,146664,2,0,L|480:216,1,100,8|0,0:0|0:0,0:0:0:0:
224,216,146958,1,2,0:0:0:0:
464,120,147252,6,0,P|432:208|320:272,1,200,6|2,0:0|0:0,0:0:0:0:
144,248,147840,1,8,0:0:0:0:
344,248,148134,1,2,0:0:0:0:
144,248,148428,2,0,P|112:192|112:136,1,100,2|0,0:0|0:0,0:0:0:0:
280,96,148723,2,0,P|312:152|312:208,1,100,2|0,0:0|0:0,0:0:0:0:
136,184,149017,1,8,0:0:0:0:
384,184,149164,1,8,0:0:0:0:
232,184,149311,2,0,L|344:184,1,100,2|0,0:0|0:0,0:0:0:0:
96,208,149605,6,0,P|80:144|216:120,1,200,6|2,0:0|0:0,0:0:0:0:
424,96,150193,2,0,P|472:176|440:296,1,200,8|2,0:0|0:0,0:0:0:0:
144,208,150781,1,2,0:0:0:0:
344,208,151075,1,2,0:0:0:0:
144,208,151370,2,0,L|224:296,1,100,8|0,0:0|0:0,0:0:0:0:
392,280,151664,2,0,L|480:224,1,100,2|0,0:0|0:0,0:0:0:0:
144,208,151958,6,0,P|104:160|216:112,1,200,6|2,0:0|0:0,0:0:0:0:
392,96,152546,1,8,0:0:0:0:
192,96,152840,1,2,0:0:0:0:
488,96,153134,2,0,L|376:96,1,100,2|0,0:0|0:0,0:0:0:0:
240,96,153428,2,0,L|136:96,1,100,2|0,0:0|0:0,0:0:0:0:
392,96,153723,2,0,L|504:96,1,100,8|0,0:0|0:0,0:0:0:0:
240,96,154017,2,0,L|360:96,1,100,2|0,0:0|0:0,0:0:0:0:
88,96,154311,6,0,P|48:168|120:248,1,200,6|2,0:0|0:0,0:0:0:0:
336,272,154899,1,8,0:0:0:0:
120,272,155193,1,2,0:0:0:0:
336,272,155487,2,0,L|224:272,1,110.000003356934,2|0,0:0|0:0,0:0:0:0:
488,208,155781,2,0,L|376:208,1,110.000003356934,2|0,0:0|0:0,0:0:0:0:
104,200,156075,2,0,L|24:112,1,110.000003356934,8|0,0:0|0:0,0:0:0:0:
304,96,156370,2,0,L|416:96,1,110.000003356934,2|0,0:0|0:0,0:0:0:0:
136,96,156664,6,0,L|360:96,1,220.000006713867,6|2,0:0|0:0,0:0:0:0:
80,96,157252,1,8,0:0:0:0:
256,96,157546,1,2,0:0:0:0:
432,96,157840,1,2,0:0:0:0:
256,96,158134,1,2,0:0:0:0:
392,96,158281,2,0,L|472:168,2,89.9999972534181,0|8|8,0:0|0:0|0:0,0:0:0:0:
232,72,158723,2,0,L|336:72,1,89.9999972534181,2|0,0:0|0:0,0:0:0:0:
96,72,159017,6,0,L|288:72,1,179.999994506836,6|2,0:0|0:0,0:0:0:0:
336,72,159458,1,0,0:0:0:0:
64,88,159605,2,0,L|168:168,1,89.9999972534181,8|0,0:0|0:0,0:0:0:0:
360,152,159899,2,0,P|400:200|400:256,1,89.9999972534181,2|0,0:0|0:0,0:0:0:0:
184,232,160193,2,0,L|280:232,1,89.9999972534181,2|0,0:0|0:0,0:0:0:0:
56,264,160487,2,0,L|24:352,1,89.9999972534181,2|0,0:0|0:0,0:0:0:0:
280,336,160781,1,8,0:0:0:0:
136,328,160928,2,0,L|192:248,1,89.9999972534181,2|2,0:0|0:0,0:0:0:0:
312,216,161223,1,0,0:0:0:0:
64,216,161370,6,0,P|112:152|232:120,1,200,6|2,0:0|0:0,0:0:0:0:
320,120,161811,1,0,0:0:0:0:
416,128,161958,2,0,L|488:208,1,100,8|0,0:0|0:0,0:0:0:0:
232,184,162252,2,0,L|160:264,1,100,2|0,0:0|0:0,0:0:0:0:
416,280,162546,2,0,L|344:200,1,100,2|0,0:0|0:0,0:0:0:0:
104,176,162840,2,0,L|32:96,1,100,2|0,0:0|0:0,0:0:0:0:
288,96,163134,1,8,0:0:0:0:
408,96,163281,2,0,L|320:168,1,100,2|2,0:0|0:0,0:0:0:0:
208,160,163575,1,0,0:0:0:0:
472,160,163723,6,0,P|360:240|240:248,1,239.999992675781,6|12,0:0|0:0,0:0:0:0:
416,264,164164,1,0,0:0:0:0:
120,216,164311,2,0,L|240:216,1,119.999996337891,8|2,0:0|0:0,0:0:0:0:
64,216,164605,1,2,0:0:0:0:
328,216,164752,2,0,L|448:216,1,119.999996337891,12|2,0:0|0:0,0:0:0:0:
112,168,165046,2,0,P|72:112|88:56,1,119.999996337891,12|2,0:0|0:0,0:0:0:0:
344,72,165340,6,0,L|416:72,1,59.9999981689454,2|0,0:0|0:0,0:0:0:0:
192,72,165487,1,8,0:0:0:0:
464,72,165634,1,8,0:0:0:0:
224,72,165781,2,0,L|344:72,1,119.999996337891,2|2,0:0|0:0,0:0:0:0:
48,72,166075,6,0,P|24:152|40:248,1,160,6|8,0:0|0:0,0:0:0:0:
144,248,166517,1,2,0:0:0:0:
408,176,166664,2,0,L|184:176,1,220.000006713867,6|8,0:0|0:0,0:0:0:0:
80,176,167105,1,0,0:0:0:0:
344,96,167252,2,0,P|440:160|472:264,1,220.000006713867,6|8,0:0|0:0,0:0:0:0:
144,288,167693,1,2,0:0:0:0:
448,248,167840,2,0,L|216:248,1,220.000006713867,6|8,0:0|0:0,0:0:0:0:
336,248,168281,1,0,0:0:0:0:
72,176,168428,2,0,L|336:176,1,250,6|8,0:0|0:0,0:0:0:0:
448,176,168870,5,0,0:0:0:0:
264,168,169017,2,0,L|400:168,1,125,2|8,0:0|0:0,0:0:0:0:
240,168,169311,1,8,0:0:0:0:
448,168,169458,2,0,P|392:120|224:120,1,250,6|8,0:0|0:0,0:0:0:0:
456,96,169899,1,8,0:0:0:0:
160,96,170046,1,8,0:0:0:0:
432,96,170193,1,8,0:0:0:0:
144,96,170340,2,0,L|4:96,1,139.999995727539,6|8,0:0|0:0,0:0:0:0:
504,176,170634,1,12,0:0:0:0:
256,192,170781,12,0,171811,0:0:0:0:
440,72,171958,6,0,L|252:72,1,187.5,2|0,0:0|0:0,0:0:0:0:
96,88,172252,2,0,L|288:88,1,187.5,2|0,0:0|0:0,0:0:0:0:
504,120,172546,2,0,L|312:120,1,187.5,2|0,0:0|0:0,0:0:0:0:
160,112,172840,2,0,L|97:112,1,62.5,8|0,0:0|0:0,0:0:0:0:
320,120,172987,6,0,P|472:152|440:224,1,250,6|2,0:0|0:0,0:0:0:0:
152,224,173428,2,0,L|24:224,1,125,8|0,0:0|0:0,0:0:0:0:
317,168,173723,2,0,L|192:168,1,125,2|2,0:0|0:0,0:0:0:0:
360,224,174017,2,0,L|488:224,1,125,8|0,0:0|0:0,0:0:0:0:
96,136,174311,1,2,0:0:0:0:
221,136,174458,1,2,0:0:0:0:
96,136,174605,2,0,L|224:136,1,125,8|0,0:0|0:0,0:0:0:0:
448,136,174899,1,2,0:0:0:0:
224,136,175046,1,2,0:0:0:0:
448,136,175193,1,8,0:0:0:0:
96,136,175340,6,0,L|368:136,1,259.999988098145,6|2,0:0|0:0,0:0:0:0:
128,136,175781,2,0,L|48:256,1,125,8|0,0:0|0:0,0:0:0:0:
280,240,176075,2,0,L|432:240,1,125,2|2,0:0|0:0,0:0:0:0:
24,232,176370,2,0,L|128:320,1,125,8|0,0:0|0:0,0:0:0:0:
384,288,176664,1,2,0:0:0:0:
256,288,176811,1,0,0:0:0:0:
384,288,176958,2,0,L|248:288,1,125,8|0,0:0|0:0,0:0:0:0:
464,288,177252,1,2,0:0:0:0:
176,288,177399,1,2,0:0:0:0:
464,288,177546,1,8,0:0:0:0:
96,288,177693,6,0,L|368:288,1,250,6|2,0:0|0:0,0:0:0:0:
96,288,178134,2,0,P|32:192|80:72,1,250,8|2,0:0|0:0,0:0:0:0:
200,80,178575,1,2,0:0:0:0:
72,80,178723,1,8,0:0:0:0:
136,80,178870,1,2,0:0:0:0:
352,80,179017,2,0,L|64:80,1,279.999991455078,6|8,0:0|0:0,0:0:0:0:
376,136,179458,2,0,L|448:136,1,69.9999978637696,2|0,0:0|0:0,0:0:0:0:
200,128,179605,2,0,L|48:128,1,139.999995727539,2|2,0:0|0:0,0:0:0:0:
376,136,179899,1,8,0:0:0:0:
56,128,180046,6,0,L|240:304,1,250,6|2,0:0|0:0,0:0:0:0:
360,304,180487,2,0,L|488:304,1,125,8|0,0:0|0:0,0:0:0:0:
48,256,180781,2,0,L|184:256,1,125,2|0,0:0|0:0,0:0:0:0:
448,264,181075,2,0,L|312:264,1,125,8|0,0:0|0:0,0:0:0:0:
96,256,181370,1,2,0:0:0:0:
224,256,181517,1,0,0:0:0:0:
352,256,181664,2,0,L|432:160,1,125,8|0,0:0|0:0,0:0:0:0:
168,144,181958,1,2,0:0:0:0:
480,144,182105,1,2,0:0:0:0:
104,144,182252,1,8,0:0:0:0:
408,144,182399,6,0,L|136:144,1,250,6|2,0:0|0:0,0:0:0:0:
336,144,182840,2,0,L|464:144,1,125,8|0,0:0|0:0,0:0:0:0:
152,136,183134,2,0,L|48:240,1,125,2|2,0:0|0:0,0:0:0:0:
440,232,183428,1,8,0:0:0:0:
192,232,183575,2,0,L|328:232,2,125,0|2|0,0:0|0:0|0:0,0:0:0:0:
440,232,184017,1,8,0:0:0:0:
67,232,184164,2,0,L|192:232,2,125,0|2|2,0:0|0:0|0:0,0:0:0:0:
440,232,184605,1,8,0:0:0:0:
72,232,184752,1,6,0:0:0:0:
256,232,185046,1,2,0:0:0:0:
384,232,185193,6,0,L|509:232,1,125,8|0,0:0|0:0,0:0:0:0:
72,232,185487,2,0,L|208:232,1,125,2|2,0:0|0:0,0:0:0:0:
440,232,185781,2,0,L|352:128,1,125,8|0,0:0|0:0,0:0:0:0:
136,120,186075,2,0,L|16:184,1,125,2|0,0:0|0:0,0:0:0:0:
256,176,186370,2,0,L|392:176,1,125,8|0,0:0|0:0,0:0:0:0:
256,176,186664,1,2,0:0:0:0:
128,176,186811,1,2,0:0:0:0:
376,176,186958,1,8,0:0:0:0:
64,176,187105,6,0,L|336:176,1,250,6|2,0:0|0:0,0:0:0:0:
88,176,187546,2,0,L|360:176,1,250,8|2,0:0|0:0,0:0:0:0:
112,176,187987,2,0,L|32:280,1,125,2|8,0:0|0:0,0:0:0:0:
344,312,188281,1,2,0:0:0:0:
96,280,188428,6,0,L|248:280,1,139.999995727539,2|2,0:0|0:0,0:0:0:0:
96,280,188723,1,8,0:0:0:0:
416,280,188870,1,2,0:0:0:0:
144,280,189017,1,2,0:0:0:0:
368,280,189164,1,2,0:0:0:0:
32,280,189311,1,8,0:0:0:0:
480,280,189458,1,2,0:0:0:0:
176,208,189605,6,0,L|368:208,1,179.999994506836,2|2,0:0|0:0,0:0:0:0:
64,200,190193,2,0,P|96:112|192:88,1,179.999994506836,8|2,0:0|0:0,0:0:0:0:
352,80,190781,1,2,0:0:0:0:
176,80,191075,1,2,0:0:0:0:
448,80,191370,2,0,L|240:80,1,179.999994506836,8|2,0:0|0:0,0:0:0:0:
176,80,191811,1,2,0:0:0:0:
400,80,191958,6,0,P|456:136|448:232,1,179.999994506836,6|2,0:0|0:0,0:0:0:0:
184,200,192546,1,8,0:0:0:0:
360,200,192840,1,2,0:0:0:0:
88,200,193134,2,0,L|288:200,1,179.999994506836,2|2,0:0|0:0,0:0:0:0:
360,200,193575,1,2,0:0:0:0:
136,200,193723,2,0,L|8:200,1,89.9999972534181,8|8,0:0|0:0,0:0:0:0:
268,200,194017,2,0,L|164:200,1,89.9999972534181,2|0,0:0|0:0,0:0:0:0:
400,200,194311,6,0,L|32:200,1,359.999989013672,6|8,0:0|0:0,0:0:0:0:
216,200,195193,1,2,0:0:0:0:
392,200,195487,2,0,L|200:200,1,179.999994506836,2|2,0:0|0:0,0:0:0:0:
304,200,195928,1,2,0:0:0:0:
168,200,196075,2,0,P|72:176|48:96,1,179.999994506836,8|2,0:0|0:0,0:0:0:0:
440,96,196664,2,0,L|64:96,1,359.999989013672,6|8,0:0|0:0,0:0:0:0:
256,96,197546,1,2,0:0:0:0:
80,96,197840,2,0,L|264:96,1,179.999994506836,2|2,0:0|0:0,0:0:0:0:
168,96,198281,1,2,0:0:0:0:
392,96,198428,2,0,L|496:96,1,89.9999972534181,8|0,0:0|0:0,0:0:0:0:
128,96,198723,2,0,L|248:96,1,89.9999972534181,2|0,0:0|0:0,0:0:0:0:
448,136,199017,6,0,P|464:224|448:288,1,134.999995880127,2|0,0:0|0:0,0:0:0:0:
280,264,199311,6,0,L|310:264,1,30,2|0,0:0|0:0,0:0:0:0:
464,216,199605,6,0,L|408:216,1,44.999998626709,2|0,0:0|0:0,0:0:0:0:
152,192,199899,6,0,L|216:192,1,60,2|0,0:0|0:0,0:0:0:0:
472,144,200193,6,0,L|376:144,1,89.9999972534181,2|0,0:0|0:0,0:0:0:0:
56,96,200487,6,0,L|176:96,1,120,2|0,0:0|0:0,0:0:0:0:
416,88,200781,2,0,L|304:88,2,80,8|2|2,0:0|0:0|0:0,0:0:0:0:
56,96,201223,6,0,L|304:96,1,240,4|2,0:0|0:0,0:0:0:0:
136,96,201958,1,8,0:0:0:0:
376,96,202252,1,2,0:0:0:0:
184,96,202546,2,0,L|272:96,1,80,2|0,0:0|0:0,0:0:0:0:
400,144,202840,2,0,L|312:144,1,80,2|0,0:0|0:0,0:0:0:0:
144,144,203134,1,8,0:0:0:0:
400,144,203281,1,8,0:0:0:0:
256,144,203428,1,2,0:0:0:0:
456,96,203723,6,0,L|128:96,1,320,4|8,0:0|0:0,0:0:0:0:
296,96,204605,1,2,0:0:0:0:
104,88,204899,2,0,L|16:88,1,80,2|0,0:0|0:0,0:0:0:0:
168,120,205193,2,0,L|272:120,1,80,2|0,0:0|0:0,0:0:0:0:
424,144,205487,2,0,L|488:216,1,80,8|0,0:0|0:0,0:0:0:0:
256,232,205781,1,2,0:0:0:0:
56,96,206075,6,0,L|384:96,2,320,4|8|2,0:0|0:0|0:0,0:0:0:0:
216,96,207546,1,2,0:0:0:0:
296,96,207693,1,2,0:0:0:0:
120,96,207840,2,2,L|16:96,1,80,10|2,0:0|0:0,0:0:0:0:
376,96,208134,2,0,P|448:120|456:168,1,120,2|0,0:0|0:0,0:0:0:0:
120,160,208428,1,12,0:0:0:0:
256,192,208575,12,2,209605,0:0:0:0:
