osu file format v14

[General]
AudioFilename: audio.mp3
AudioLeadIn: 0
PreviewTime: 109930
Countdown: 0
SampleSet: Soft
StackLeniency: 0.8
Mode: 0
LetterboxInBreaks: 0
WidescreenStoryboard: 0

[Editor]
Bookmarks: 10665,20224,39048,50665,70224,77283,97871,109489,128606,140224,166695,173018,189783
DistanceSpacing: 1.9
BeatDivisor: 4
GridSize: 4
TimelineZoom: 1

[Metadata]
Title:Black Rover
TitleUnicode:Black Rover
Artist:Raon Lee
ArtistUnicode:이라온
Creator:Feruver
Version:Extra
Source:이라온
Tags:Raon Lee Black Rover Vickeblanka Cover
BeatmapID:1727479
BeatmapSetID:824368

[Difficulty]
HPDrainRate:6.5
CircleSize:4
OverallDifficulty:9.5
ApproachRate:9.5
SliderMultiplier:1.1
SliderTickRate:1

[Events]
//Background and Video events
0,0,"maxresdefault (1).jpg",0,0
//Break Periods
2,70424,76758
//Storyboard Layer 0 (Background)
//Storyboard Layer 1 (Fail)
//Storyboard Layer 2 (Pass)
//Storyboard Layer 3 (Foreground)
//Storyboard Sound Samples

[TimingPoints]
3754,294.117647058824,4,2,1,38,1,0
9783,-66.6666666666667,4,2,1,60,0,0
10592,-66.6666666666667,4,2,1,5,0,0
10665,-66.6666666666667,4,2,1,60,0,1
12871,-66.6666666666667,4,2,1,5,0,1
13018,-66.6666666666667,4,2,1,60,0,1
15224,-66.6666666666667,4,2,1,5,0,1
15371,-71.4285714285714,4,2,1,60,0,1
15812,-71.4285714285714,4,2,1,60,0,1
16106,-71.4285714285714,4,2,1,70,0,1
16401,-71.4285714285714,4,2,1,80,0,1
16695,-71.4285714285714,4,2,1,90,0,1
16989,-71.4285714285714,4,2,1,100,0,1
18459,-71.4285714285714,4,2,1,60,0,0
20224,-66.6666666666667,4,2,1,60,0,0
39048,-100,4,2,1,60,0,0
50665,-50,4,2,1,60,0,1
59048,-100,4,2,1,60,0,1
59636,-57.1428571428571,4,2,1,60,0,1
60077,-40,4,2,1,60,0,1
68459,-100,4,2,1,60,0,1
69048,-66.6666666666667,4,2,1,60,0,1
69489,-50,4,2,1,60,0,0
70224,-50,4,2,1,60,0,0
77283,-142.857142857143,4,2,1,60,0,0
79048,-76.9230769230769,4,2,1,60,0,0
97871,-125,4,2,1,60,0,0
105518,-100,4,2,1,60,0,0
106106,-83.3333333333333,4,2,1,60,0,0
106695,-71.4285714285714,4,2,1,60,0,0
109489,-50,4,2,1,60,0,1
109930,-50,4,2,1,60,0,1
117871,-100,4,2,1,60,0,1
118459,-55.5555555555556,4,2,1,60,0,1
118901,-38.4615384615385,4,2,1,60,0,1
127283,-100,4,2,1,60,0,1
127871,-55.5555555555556,4,2,1,60,0,1
128312,-38.4615384615385,4,2,1,60,0,1
128603,-38.4615384615385,4,2,1,5,0,0
128754,-76.9230769230769,4,2,1,70,0,0
168754,-66.6666666666667,4,2,1,60,0,0
173018,-50,4,2,1,60,0,1
179048,-100,4,2,1,60,0,1
179636,-52.6315789473684,4,2,1,60,0,1
179930,-35.7142857142857,4,2,1,60,0,1
188459,-100,4,2,1,60,0,1
188901,-52.6315789473684,4,2,1,60,0,1
189489,-34.4827586206897,4,2,1,60,0,0
189783,-71.4285714285714,4,2,1,5,0,0
189856,-71.4285714285714,4,2,1,60,0,0

[HitObjects]
116,136,3754,6,0,L|184:104,1,55
248,160,4048,2,0,L|308:132,1,55
400,208,4342,6,0,L|400:280,1,55
312,296,4636,2,0,L|236:296,1,55
168,144,4930,2,0,P|128:164|112:184,1,55
184,264,5224,2,0,P|228:244|240:232,1,55
324,96,5518,2,0,L|324:32,1,55
400,160,5812,2,0,L|400:236,1,55
208,228,6106,6,0,L|236:172,1,55
332,240,6401,2,0,L|308:300,1,55
204,332,6695,2,0,P|176:332|140:316,1,55
76,252,6989,2,0,P|84:212|100:188,1,55
184,108,7283,6,0,P|192:144|200:172,1,55
312,204,7577,2,0,P|312:164|300:132,1,55
196,244,7871,2,0,P|204:280|220:312,1,55
312,328,8165,2,0,P|316:292|312:264,1,55
324,56,8459,6,0,L|260:72,1,55,4|0,0:0|0:0,0:0:0:0:
88,104,8754,1,0,0:0:0:0:
88,104,8901,1,0,0:0:0:0:
320,172,9048,6,0,L|256:184,1,55,4|0,0:0|0:0,0:0:0:0:
104,216,9342,1,0,0:0:0:0:
104,216,9489,1,0,0:0:0:0:
192,108,9636,1,4,0:0:0:0:
224,308,9783,6,8,L|244:244,1,41.2500015735627
280,152,9930,2,8,L|304:200,1,41.2500015735627
364,288,10077,2,8,P|404:256|424:216,1,82.5000031471254
424,204,10298,2,8,L|420:156,1,41.2500015735627
392,56,10445,2,8,P|380:96|344:128,1,82.5000031471254
328,144,10665,6,0,P|272:132|160:144,1,153.999995300293,12|0,0:0|0:0,0:0:0:0:
72,224,11106,2,0,P|120:240|148:240,1,76.9999976501466,8|0,0:0|0:0,0:0:0:0:
240,112,11401,1,0,0:0:0:0:
368,192,11548,1,0,0:0:0:0:
244,256,11695,2,0,P|200:220|184:192,1,76.9999976501466,8|0,0:0|0:0,0:0:0:0:
188,56,11989,1,0,0:0:0:0:
351,88,12136,1,0,0:0:0:0:
185,142,12283,1,8,0:0:0:0:
288,1,12430,1,0,0:0:0:0:
288,176,12577,1,0,0:0:0:0:
220,68,12724,6,0,P|176:56|104:104,1,115.49999647522
104,120,13018,2,0,P|112:168|200:228,1,153.999995300293,4|0,0:0|0:0,0:0:0:0:
268,128,13459,6,0,P|288:172|296:208,1,76.9999976501466,8|0,0:0|0:0,0:0:0:0:
140,300,13754,1,0,0:0:0:0:
160,164,13901,1,0,0:0:0:0:
364,264,14048,2,0,P|388:220|388:188,1,76.9999976501466,8|0,0:0|0:0,0:0:0:0:
390,0,14342,1,0,0:0:0:0:
360,172,14489,1,0,0:0:0:0:
283,15,14636,1,8,0:0:0:0:
437,97,14783,1,0,0:0:0:0:
264,121,14930,1,0,0:0:0:0:
176,212,15077,6,0,P|128:152|164:112,1,115.49999647522,8|0,0:0|0:0,0:0:0:0:
192,120,15371,2,0,P|236:156|304:240,1,153.999995300293,4|0,0:0|0:0,0:0:0:0:
456,352,15812,5,12,0:0:0:0:
488,200,15959,1,0,0:0:0:0:
384,316,16106,5,12,0:0:0:0:
412,164,16254,1,0,0:0:0:0:
316,284,16401,5,12,0:0:0:0:
344,132,16548,1,0,0:0:0:0:
244,248,16695,5,12,0:0:0:0:
268,96,16842,1,0,0:0:0:0:
172,216,16989,5,12,0:0:0:0:
192,64,17136,1,0,0:0:0:0:
96,184,17283,5,12,0:0:0:0:
108,32,17430,1,0,0:0:0:0:
20,176,17577,5,12,0:0:0:0:
64,320,17724,2,0,P|120:336|200:280,1,153.999995300293,4|0,0:0|0:0,0:0:0:0:
216,264,18092,2,0,L|232:224,1,38.4999988250733
280,104,18239,2,0,L|288:148,1,38.4999988250733
324,276,18386,2,0,L|344:236,1,38.4999988250733
116,72,20224,6,0,B|164:108|152:184|252:196,1,165.000006294251,4|8,0:0|0:0,0:0:0:0:
388,160,20665,2,0,B|388:208|360:280|360:280|308:308,1,165.000006294251
180,240,21106,2,0,P|180:196|216:128,1,82.5000031471254,8|0,0:0|0:0,0:0:0:0:
336,72,21401,2,0,P|344:112|332:168,1,82.5000031471254
240,248,21695,1,8,0:0:0:0:
168,108,21842,1,0,0:0:0:0:
84,200,21989,2,0,P|100:248|136:272,1,82.5000031471254
280,308,22283,5,8,0:0:0:0:
340,152,22430,1,8,0:0:0:0:
340,152,22504,1,8,0:0:0:0:
340,152,22577,2,0,P|292:128|168:152,1,165.000006294251,0|8,0:0|0:0,0:0:0:0:
56,232,23018,6,0,P|96:260|136:264,1,82.5000031471254
236,176,23312,1,0,0:0:0:0:
304,304,23459,2,0,P|360:300|440:212,1,165.000006294251,8|0,0:0|0:0,0:0:0:0:
432,112,23901,1,0,0:0:0:0:
320,204,24048,2,0,P|280:164|272:132,1,82.5000031471254,8|0,0:0|0:0,0:0:0:0:
132,60,24342,2,0,P|156:104|156:148,1,82.5000031471254
100,268,24636,1,8,0:0:0:0:
268,292,24783,5,8,0:0:0:0:
268,292,24856,1,8,0:0:0:0:
268,292,24930,2,0,P|368:272|408:188,1,165.000006294251,4|8,0:0|0:0,0:0:0:0:
416,92,25371,1,0,0:0:0:0:
316,144,25518,2,0,P|268:160|228:160,1,82.5000031471254
100,136,25812,6,0,P|68:180|56:228,1,82.5000031471254,8|0,0:0|0:0,0:0:0:0:
264,288,26106,2,0,P|292:248|312:196,1,82.5000031471254
40,112,26401,2,0,P|4:140|-24:192,1,82.5000031471254,8|0,0:0|0:0,0:0:0:0:
320,336,26695,2,0,P|352:304|368:264,1,82.5000031471254
148,44,26989,2,0,P|132:92|132:128,1,82.5000031471254,8|8,0:0|0:0,0:0:0:0:
132,168,27209,1,8,0:0:0:0:
132,168,27283,2,0,P|188:160|228:144,1,82.5000031471254,12|0,0:0|0:0,0:0:0:0:
420,172,27577,6,0,P|368:192|332:196,1,82.5000031471254,8|0,0:0|0:0,0:0:0:0:
156,272,27871,1,8,0:0:0:0:
252,88,28018,1,8,0:0:0:0:
64,92,28165,1,0,0:0:0:0:
64,92,28239,1,0,0:0:0:0:
64,92,28312,2,0,P|120:124|168:128,1,82.5000031471254,0|4,0:0|0:0,0:0:0:0:
296,140,28606,1,8,0:0:0:0:
284,296,28754,1,8,0:0:0:0:
88,104,29048,5,8,0:0:0:0:
160,288,29195,1,8,0:0:0:0:
352,196,29342,1,8,0:0:0:0:
100,192,29489,1,8,0:0:0:0:
232,72,29636,2,0,P|264:108|304:228,1,165.000006294251,12|8,0:0|0:0,0:0:0:0:
184,184,30077,1,0,0:0:0:0:
120,316,30224,6,0,P|88:268|88:232,1,82.5000031471254
100,84,30518,2,0,P|152:104|176:128,1,82.5000031471254,8|0,0:0|0:0,0:0:0:0:
252,268,30812,1,0,0:0:0:0:
424,60,30959,1,0,0:0:0:0:
380,164,31106,2,0,P|332:156|296:128,1,82.5000031471254,8|0,0:0|0:0,0:0:0:0:
68,196,31401,2,0,P|116:148|132:120,1,82.5000031471254
256,180,31695,1,8,0:0:0:0:
184,24,31842,2,0,B|232:28|268:44|328:112,1,165.000006294251
336,256,32283,5,8,0:0:0:0:
200,176,32430,1,0,0:0:0:0:
116,292,32577,2,0,P|168:312|200:316,1,82.5000031471254
376,320,32871,2,0,P|392:276|396:240,1,82.5000031471254,8|0,0:0|0:0,0:0:0:0:
420,68,33165,2,0,P|364:80|312:104,1,82.5000031471254
148,136,33459,5,8,0:0:0:0:
252,232,33606,2,0,P|304:240|356:224,1,82.5000031471254
436,112,33901,5,0,0:0:0:0:
300,140,34048,2,0,P|248:152|204:176,1,82.5000031471254,8|0,0:0|0:0,0:0:0:0:
104,268,34342,5,4,0:0:0:0:
72,120,34489,1,0,0:0:0:0:
24,320,34636,1,8,0:0:0:0:
148,188,34783,1,0,0:0:0:0:
276,296,34930,2,0,P|312:268|344:232,1,82.5000031471254
372,80,35224,2,0,P|324:72|280:76,1,82.5000031471254,8|0,0:0|0:0,0:0:0:0:
160,168,35518,5,0,0:0:0:0:
224,88,35665,1,0,0:0:0:0:
104,132,35812,1,8,0:0:0:0:
276,152,35959,1,0,0:0:0:0:
104,260,36106,6,0,P|96:208|112:168,1,82.5000031471254
168,44,36401,2,0,P|212:72|232:100,1,82.5000031471254,8|0,0:0|0:0,0:0:0:0:
232,264,36695,2,0,P|304:256|372:168,1,165.000006294251,8|0,0:0|0:0,0:0:0:0:
248,180,37136,6,0,P|180:200|120:312,1,165.000006294251,8|0,0:0|0:0,0:0:0:0:
64,184,37577,5,12,0:0:0:0:
208,88,37724,1,0,0:0:0:0:
156,200,37871,5,12,0:0:0:0:
352,228,38018,1,0,0:0:0:0:
328,92,38165,5,8,0:0:0:0:
328,92,38239,1,0,0:0:0:0:
328,92,38312,1,8,0:0:0:0:
144,276,38459,1,12,0:0:0:0:
336,212,38606,1,8,0:0:0:0:
172,92,38754,1,12,0:0:0:0:
260,288,38901,1,8,0:0:0:0:
92,164,39048,6,0,P|152:144|256:184,1,165,4|0,0:0|0:0,0:0:0:0:
304,248,39636,2,0,P|332:224|352:132,1,110,8|0,0:0|0:0,0:0:0:0:
316,56,40077,2,0,P|280:80|220:136,1,110
192,244,40518,2,0,P|148:208|128:156,1,110,0|8,0:0|0:0,0:0:0:0:
144,40,40959,2,0,P|200:68|236:120,1,110
368,164,41401,6,0,P|336:200|272:224,1,110,4|0,0:0|0:0,0:0:0:0:
200,148,41842,1,0,0:0:0:0:
184,272,41989,2,0,P|236:300|308:292,1,110,8|0,0:0|0:0,0:0:0:0:
336,204,42430,2,0,P|328:168|288:100,1,110
228,156,42871,2,0,P|176:116|160:64,1,110,0|8,0:0|0:0,0:0:0:0:
40,76,43312,1,0,0:0:0:0:
300,108,43754,6,0,P|324:156|320:224,1,110,4|0,0:0|0:0,0:0:0:0:
256,288,44195,1,0,0:0:0:0:
256,288,44268,1,0,0:0:0:0:
256,288,44342,2,0,P|244:248|264:160,1,110,8|0,0:0|0:0,0:0:0:0:
264,64,44783,1,0,0:0:0:0:
264,64,44856,1,0,0:0:0:0:
264,64,44930,2,0,P|208:72|172:112,1,110
96,216,45518,6,0,P|148:228|216:212,1,110,8|0,0:0|0:0,0:0:0:0:
336,116,46106,2,0,P|356:156|356:236,1,110,4|0,0:0|0:0,0:0:0:0:
244,304,46548,1,0,0:0:0:0:
244,304,46621,1,0,0:0:0:0:
244,304,46695,2,0,P|220:252|220:196,1,110,8|0,0:0|0:0,0:0:0:0:
300,56,47283,2,0,P|320:96|320:168,1,110
152,256,47871,2,0,P|136:212|176:148,1,110,8|0,0:0|0:0,0:0:0:0:
272,88,48459,5,12,0:0:0:0:
448,188,48606,1,0,0:0:0:0:
260,188,48754,5,8,0:0:0:0:
444,96,48901,1,0,0:0:0:0:
214,84,49048,5,8,0:0:0:0:
448,188,49195,1,0,0:0:0:0:
227,242,49342,5,8,0:0:0:0:
444,96,49489,1,0,0:0:0:0:
241,46,49636,5,8,0:0:0:0:
444,208,49783,1,0,0:0:0:0:
280,312,49930,5,8,0:0:0:0:
436,108,50077,1,0,0:0:0:0:
236,192,50224,5,8,0:0:0:0:
236,192,50298,1,8,0:0:0:0:
236,192,50371,1,8,0:0:0:0:
312,80,50518,1,8,0:0:0:0:
348,200,50665,6,0,P|336:252|120:208,1,330,12|8,0:0|0:0,0:0:0:0:
132,56,51254,1,0,0:0:0:0:
244,144,51401,2,0,P|304:132|352:92,1,110
204,32,51695,1,8,0:0:0:0:
108,136,51842,1,0,0:0:0:0:
292,140,51989,6,0,P|288:200|228:268,1,110
136,320,52283,2,0,P|128:268|176:188,1,110,8|0,0:0|0:0,0:0:0:0:
304,248,52577,1,0,0:0:0:0:
140,116,52724,1,0,0:0:0:0:
184,288,52871,1,8,0:0:0:0:
384,144,53018,2,0,P|416:192|328:328,1,220,4|0,0:0|0:0,0:0:0:0:
256,160,53459,6,0,P|200:196|152:248,1,110,8|0,0:0|0:0,0:0:0:0:
292,260,53754,2,0,P|348:232|392:176,1,110
348,72,54048,1,8,0:0:0:0:
172,104,54195,1,0,0:0:0:0:
296,180,54342,6,0,P|292:240|232:304,1,110,12|0,0:0|0:0,0:0:0:0:
112,328,54636,2,0,P|160:244|184:224,1,110,12|0,0:0|0:0,0:0:0:0:
424,160,54930,2,0,P|336:168|308:184,1,110,12|0,0:0|0:0,0:0:0:0:
160,84,55224,1,8,0:0:0:0:
224,288,55371,2,0,P|336:248|336:128,1,220,4|0,0:0|0:0,0:0:0:0:
176,212,55812,6,0,P|124:160|116:104,1,110,8|0,0:0|0:0,0:0:0:0:
176,16,56106,2,0,P|200:76|200:132,1,110
188,304,56401,1,8,0:0:0:0:
348,224,56548,1,0,0:0:0:0:
184,208,56695,2,0,P|132:188|104:120,1,110
184,28,56989,2,0,P|196:96|192:144,1,110,8|0,0:0|0:0,0:0:0:0:
160,320,57283,1,0,0:0:0:0:
292,196,57430,1,0,0:0:0:0:
84,200,57577,1,8,0:0:0:0:
196,52,57724,2,0,P|264:72|352:204,1,220,4|0,0:0|0:0,0:0:0:0:
268,336,58165,6,0,P|272:272|296:208,1,110,8|0,0:0|0:0,0:0:0:0:
188,128,58459,2,0,P|192:192|160:256,1,110,8|0,0:0|0:0,0:0:0:0:
48,112,58754,1,8,0:0:0:0:
276,292,58901,1,0,0:0:0:0:
336,88,59048,6,0,L|188:168,1,165,8|0,0:0|0:0,0:0:0:0:
144,216,59636,6,0,P|216:256|328:264,1,192.500001835823,8|0,0:0|0:0,0:0:0:0:
424,228,60077,6,0,B|400:156|312:32|312:32|156:164,1,412.5,12|8,0:0|0:0,0:0:0:0:
100,248,60665,1,0,0:0:0:0:
240,328,60812,2,0,P|280:268|296:184,1,137.5
320,60,61106,1,8,0:0:0:0:
460,172,61254,1,0,0:0:0:0:
332,276,61401,6,0,P|272:244|220:172,1,137.5
96,96,61695,2,0,P|124:168|164:220,1,137.5,8|0,0:0|0:0,0:0:0:0:
268,328,61989,2,0,P|320:268|360:164,1,137.5
404,48,62283,1,8,0:0:0:0:
224,56,62430,2,0,P|152:104|220:256,1,275,4|0,0:0|0:0,0:0:0:0:
372,180,62871,1,8,0:0:0:0:
192,180,63018,1,0,0:0:0:0:
288,352,63165,2,0,P|224:320|164:212,1,137.5
152,20,63459,2,0,P|124:104|136:164,1,137.5,8|0,0:0|0:0,0:0:0:0:
280,192,63754,6,0,P|328:120|364:64,1,137.5,12|0,0:0|0:0,0:0:0:0:
480,192,64048,6,0,L|316:200,1,137.5,12|0,0:0|0:0,0:0:0:0:
404,48,64342,6,0,L|512:140,1,137.5,12|0,0:0|0:0,0:0:0:0:
312,228,64636,1,8,0:0:0:0:
196,92,64783,2,0,P|112:120|152:280,1,275,4|0,0:0|0:0,0:0:0:0:
292,184,65224,5,8,0:0:0:0:
136,96,65371,1,0,0:0:0:0:
84,268,65518,2,0,P|168:216|216:176,1,137.5
336,76,65812,1,8,0:0:0:0:
460,204,65959,1,0,0:0:0:0:
288,200,66106,6,0,P|236:256|204:332,1,137.5
136,104,66401,2,0,P|172:176|156:244,1,137.5,8|0,0:0|0:0,0:0:0:0:
320,24,66695,2,0,P|268:80|248:152,1,137.5
92,220,66989,1,8,0:0:0:0:
256,308,67136,2,0,P|348:248|296:100,1,275,4|0,0:0|0:0,0:0:0:0:
132,84,67577,5,8,0:0:0:0:
264,204,67724,1,0,0:0:0:0:
84,220,67871,1,8,0:0:0:0:
304,148,68018,1,0,0:0:0:0:
64,148,68165,1,8,0:0:0:0:
192,272,68312,1,0,0:0:0:0:
196,88,68459,6,0,L|324:200,1,165,8|0,0:0|0:0,0:0:0:0:
216,224,69048,6,0,P|148:188|124:80,1,165.000006294251,8|0,0:0|0:0,0:0:0:0:
156,40,69489,6,0,B|404:32|292:224|292:224|208:344|424:352,1,550,12|0,0:0|0:0,0:0:0:0:
260,140,77283,6,0,P|208:140|116:196,2,153.999995300293
360,264,79048,2,0,P|400:224|408:132,1,142.99999345398,12|8,0:0|0:0,0:0:0:0:
304,180,79489,5,0,0:0:0:0:
160,132,79636,1,0,0:0:0:0:
208,244,79783,1,0,0:0:0:0:
256,104,79930,2,0,P|288:68|328:48,1,71.4999967269899,8|0,0:0|0:0,0:0:0:0:
400,152,80224,2,0,P|372:188|340:196,1,71.4999967269899
184,164,80518,5,8,0:0:0:0:
112,264,80665,1,0,0:0:0:0:
244,276,80812,1,0,0:0:0:0:
100,180,80959,1,0,0:0:0:0:
184,324,81106,1,8,0:0:0:0:
280,124,81254,5,8,0:0:0:0:
280,124,81327,1,8,0:0:0:0:
280,124,81401,2,0,P|332:168|368:252,1,142.99999345398,8|8,0:0|0:0,0:0:0:0:
296,360,81842,5,0,0:0:0:0:
144,332,81989,1,0,0:0:0:0:
164,200,82136,1,0,0:0:0:0:
240,296,82283,2,0,P|288:296|312:272,1,71.4999967269899,8|0,0:0|0:0,0:0:0:0:
336,136,82577,1,0,0:0:0:0:
244,208,82724,2,0,P|192:204|164:184,1,71.4999967269899,0|8,0:0|0:0,0:0:0:0:
120,80,83018,1,0,0:0:0:0:
68,176,83165,2,0,P|68:220|80:280,1,71.4999967269899
180,320,83459,1,8,0:0:0:0:
256,176,83606,5,8,0:0:0:0:
256,176,83680,1,8,0:0:0:0:
256,176,83754,2,0,P|320:148|408:168,1,142.99999345398,12|8,0:0|0:0,0:0:0:0:
344,276,84195,1,0,0:0:0:0:
176,276,84342,1,0,0:0:0:0:
268,176,84489,1,0,0:0:0:0:
336,64,84636,6,0,P|368:100|372:136,1,71.4999967269899,8|0,0:0|0:0,0:0:0:0:
236,232,84930,2,0,P|216:196|216:160,1,71.4999967269899
378,46,85224,2,0,P|402:78|402:118,1,71.4999967269899,8|0,0:0|0:0,0:0:0:0:
168,252,85518,2,0,P|156:208|172:160,1,71.4999967269899
417,31,85812,2,0,P|441:83|433:111,1,71.4999967269899,8|0,0:0|0:0,0:0:0:0:
388,264,86106,6,0,P|344:224|308:220,1,71.4999967269899
256,300,86401,1,8,0:0:0:0:
152,320,86548,2,0,P|156:264|176:176,1,142.99999345398
60,240,86989,1,8,0:0:0:0:
268,264,87136,1,0,0:0:0:0:
200,88,87283,1,12,0:0:0:0:
344,152,87430,5,8,0:0:0:0:
344,152,87504,1,8,0:0:0:0:
344,152,87577,1,8,0:0:0:0:
108,168,87724,1,0,0:0:0:0:
204,288,87871,1,0,0:0:0:0:
232,200,88018,1,0,0:0:0:0:
144,228,88165,1,0,0:0:0:0:
124,308,88312,1,0,0:0:0:0:
184,364,88459,2,0,P|224:348|284:252,1,142.99999345398,4|8,0:0|0:0,0:0:0:0:
352,144,88901,5,0,0:0:0:0:
188,188,89048,2,0,P|144:200|96:200,1,71.4999967269899
8,124,89342,2,0,P|56:120|88:124,1,71.4999967269899,8|0,0:0|0:0,0:0:0:0:
192,236,89636,2,0,P|180:280|156:328,1,71.4999967269899
316,292,89930,1,8,0:0:0:0:
272,208,90077,1,0,0:0:0:0:
380,188,90224,2,0,P|344:220|308:228,1,71.4999967269899
160,256,90518,6,0,P|148:220|152:184,1,71.4999967269899,8|0,0:0|0:0,0:0:0:0:
168,48,90812,1,0,0:0:0:0:
312,120,90959,1,0,0:0:0:0:
88,148,91106,2,0,P|132:164|172:168,1,71.4999967269899,8|0,0:0|0:0,0:0:0:0:
300,220,91401,2,0,P|256:248|212:256,1,71.4999967269899
80,292,91695,2,0,P|120:312|160:316,1,71.4999967269899,8|0,0:0|0:0,0:0:0:0:
360,276,91989,6,0,P|384:224|380:196,1,71.4999967269899
216,168,92283,2,0,P|192:208|184:260,1,71.4999967269899,8|0,0:0|0:0,0:0:0:0:
324,312,92577,1,0,0:0:0:0:
216,208,92724,1,0,0:0:0:0:
368,144,92871,2,0,P|392:192|400:288,1,142.99999345398,8|4,0:0|0:0,0:0:0:0:
277,249,93312,5,0,0:0:0:0:
158,187,93459,2,0,P|170:140|192:112,1,71.4999967269899,8|0,0:0|0:0,0:0:0:0:
287,52,93754,2,0,P|290:97|269:134,1,71.4999967269899
197,181,94048,1,8,0:0:0:0:
259,262,94195,1,0,0:0:0:0:
166,305,94342,2,0,P|117:313|77:300,1,71.4999967269899
72,105,94636,5,8,0:0:0:0:
146,216,94783,1,0,0:0:0:0:
58,84,94930,1,0,0:0:0:0:
109,161,95077,1,0,0:0:0:0:
130,36,95224,2,0,P|172:67|194:93,1,71.4999967269899,8|0,0:0|0:0,0:0:0:0:
371,153,95518,6,0,L|420:220,1,71.4999967269899
369,334,95812,2,0,L|313:253,1,71.4999967269899,8|0,0:0|0:0,0:0:0:0:
182,251,96106,2,0,L|231:326,1,71.4999967269899,8|0,0:0|0:0,0:0:0:0:
196,92,96401,1,12,0:0:0:0:
358,124,96548,1,8,0:0:0:0:
358,124,96621,1,8,0:0:0:0:
358,124,96695,1,12,0:0:0:0:
280,230,96842,5,8,0:0:0:0:
232,245,96915,1,8,0:0:0:0:
181,245,96989,1,8,0:0:0:0:
132,232,97062,1,8,0:0:0:0:
86,211,97136,1,8,0:0:0:0:
55,171,97209,1,8,0:0:0:0:
55,120,97283,2,8,P|80:63|166:33,1,142.99999345398
364,111,97871,6,0,P|380:159|361:245,1,132,4|0,0:0|0:0,0:0:0:0:
260,275,98459,2,0,P|251:232|264:174,1,88,8|0,0:0|0:0,0:0:0:0:
316,89,98901,2,0,P|262:75|217:87,1,88
146,149,99342,2,0,L|135:243,1,88,0|8,0:0|0:0,0:0:0:0:
189,332,99783,2,0,P|237:333|286:310,1,88
406,242,100224,6,0,P|384:211|296:157,1,132,4|0,0:0|0:0,0:0:0:0:
277,156,100739,1,8,0:0:0:0:
277,156,100812,2,0,P|295:112|340:80,1,88,8|0,0:0|0:0,0:0:0:0:
444,34,101254,2,0,P|471:76|471:133,1,88
402,221,101695,2,0,P|384:188|368:126,1,88,0|8,0:0|0:0,0:0:0:0:
290,38,102136,2,0,P|278:86|278:139,1,88
241,281,102577,6,0,P|184:254|164:225,1,88,4|0,0:0|0:0,0:0:0:0:
113,76,103018,1,0,0:0:0:0:
113,76,103092,1,0,0:0:0:0:
113,76,103165,2,0,P|155:68|207:79,1,88,8|0,0:0|0:0,0:0:0:0:
296,180,103606,1,0,0:0:0:0:
296,180,103680,1,0,0:0:0:0:
296,180,103754,2,0,P|294:232|274:276,1,88
129,310,104342,2,0,P|126:260|150:209,1,88,8|0,0:0|0:0,0:0:0:0:
216,41,104930,6,0,P|240:64|264:123,1,88,4|0,0:0|0:0,0:0:0:0:
253,257,105371,1,0,0:0:0:0:
253,257,105445,1,0,0:0:0:0:
253,257,105518,2,0,P|305:224|328:174,1,110,8|0,0:0|0:0,0:0:0:0:
330,57,106106,2,0,P|297:50|194:81,1,131.99999597168
54,189,106695,2,0,P|79:217|181:232,1,142.99999345398,8|0,0:0|0:0,0:0:0:0:
185,86,107283,5,8,0:0:0:0:
291,215,107430,1,0,0:0:0:0:
304,90,107577,5,8,0:0:0:0:
165,220,107724,1,0,0:0:0:0:
127,82,107871,5,8,0:0:0:0:
340,241,108018,1,0,0:0:0:0:
294,35,108165,5,8,0:0:0:0:
196,267,108312,1,0,0:0:0:0:
173,43,108459,5,8,0:0:0:0:
312,295,108606,1,0,0:0:0:0:
108,214,108754,5,8,0:0:0:0:
389,136,108901,1,0,0:0:0:0:
167,191,109048,5,8,0:0:0:0:
167,191,109121,1,8,0:0:0:0:
167,191,109195,1,8,0:0:0:0:
329,273,109342,1,8,0:0:0:0:
371,129,109489,6,0,P|278:55|81:127,1,330,12|8,0:0|0:0,0:0:0:0:
92,288,110077,1,0,0:0:0:0:
199,140,110224,2,0,P|255:103|298:92,1,110
307,302,110518,1,8,0:0:0:0:
442,176,110665,1,0,0:0:0:0:
352,31,110812,6,0,P|300:70|249:94,1,110
234,259,111106,2,0,P|285:226|348:200,1,110,8|0,0:0|0:0,0:0:0:0:
393,60,111401,2,0,P|336:99|282:111,1,110
166,61,111695,1,8,0:0:0:0:
58,187,111842,2,0,P|70:241|237:304,1,220,4|0,0:0|0:0,0:0:0:0:
351,265,112283,6,0,P|388:212|407:149,1,110,8|0,0:0|0:0,0:0:0:0:
346,40,112577,2,0,P|295:87|261:137,1,110
198,255,112871,1,8,0:0:0:0:
106,131,113018,1,0,0:0:0:0:
252,57,113165,6,0,P|309:56|391:87,1,110,12|0,0:0|0:0,0:0:0:0:
481,195,113459,2,0,P|421:189|353:211,1,110,12|0,0:0|0:0,0:0:0:0:
216,306,113754,2,0,P|293:307|338:325,1,110,12|0,0:0|0:0,0:0:0:0:
417,165,114048,1,8,0:0:0:0:
292,52,114195,2,0,P|204:67|140:216,1,220,4|0,0:0|0:0,0:0:0:0:
143,315,114636,6,0,L|246:246,1,110,8|0,0:0|0:0,0:0:0:0:
389,70,114930,2,0,L|279:139,1,110
80,236,115224,1,8,0:0:0:0:
128,72,115371,1,0,0:0:0:0:
248,204,115518,2,0,P|308:228|376:208,1,110
492,116,115812,2,0,P|432:88|360:96,1,110,8|0,0:0|0:0,0:0:0:0:
240,288,116106,2,0,P|296:312|360:308,1,110
460,220,116401,1,8,0:0:0:0:
384,96,116548,2,0,P|320:64|200:152,1,220,4|0,0:0|0:0,0:0:0:0:
336,192,116989,5,8,0:0:0:0:
192,312,117136,1,0,0:0:0:0:
52,192,117283,1,8,0:0:0:0:
196,272,117430,1,0,0:0:0:0:
336,144,117577,1,8,0:0:0:0:
208,220,117724,1,0,0:0:0:0:
84,132,117871,6,0,P|84:84|192:88,1,165,8|0,0:0|0:0,0:0:0:0:
160,140,118459,6,0,P|196:184|360:164,1,197.99999395752,8|0,0:0|0:0,0:0:0:0:
472,72,118901,6,0,B|396:40|396:40|356:152|224:188|116:52,1,428.999980361939,12|8,0:0|0:0,0:0:0:0:
32,212,119489,5,0,0:0:0:0:
200,320,119636,2,0,P|252:272|296:180,1,142.99999345398
136,128,119930,1,8,0:0:0:0:
288,48,120077,1,0,0:0:0:0:
392,184,120224,2,0,P|428:260|436:328,1,142.99999345398
272,272,120518,2,0,P|264:200|276:104,1,142.99999345398,8|0,0:0|0:0,0:0:0:0:
128,208,120812,2,0,P|132:288|116:348,1,142.99999345398
8,216,121106,1,8,0:0:0:0:
112,80,121254,2,0,P|192:60|376:140,1,285.99998690796,4|0,0:0|0:0,0:0:0:0:
252,256,121695,5,8,0:0:0:0:
192,96,121842,1,0,0:0:0:0:
52,196,121989,2,0,P|24:128|48:52,1,142.99999345398
208,36,122283,2,0,P|244:112|228:180,1,142.99999345398,8|0,0:0|0:0,0:0:0:0:
156,340,122577,6,0,L|316:292,1,142.99999345398,12|0,0:0|0:0,0:0:0:0:
380,168,122871,6,0,L|236:236,1,142.99999345398,12|0,0:0|0:0,0:0:0:0:
96,116,123165,6,0,L|252:164,1,142.99999345398,12|0,0:0|0:0,0:0:0:0:
124,276,123459,1,8,0:0:0:0:
312,340,123606,2,0,P|388:264|324:96,1,285.99998690796,4|0,0:0|0:0,0:0:0:0:
208,216,124048,5,8,0:0:0:0:
72,108,124195,1,0,0:0:0:0:
224,32,124342,2,0,P|300:76|324:156,1,142.99999345398
292,292,124636,1,8,0:0:0:0:
120,288,124783,1,0,0:0:0:0:
180,128,124930,2,0,P|256:80|332:76,1,142.99999345398
392,248,125224,2,0,P|316:272|236:248,1,142.99999345398,8|0,0:0|0:0,0:0:0:0:
120,120,125518,2,0,P|188:64|292:56,1,142.99999345398
168,260,125812,1,8,0:0:0:0:
372,240,125959,2,0,P|344:152|160:88,1,285.99998690796,4|0,0:0|0:0,0:0:0:0:
88,236,126401,5,8,0:0:0:0:
224,340,126548,1,0,0:0:0:0:
168,176,126695,1,8,0:0:0:0:
308,276,126842,1,0,0:0:0:0:
244,116,126989,1,8,0:0:0:0:
388,212,127136,1,0,0:0:0:0:
332,64,127283,6,0,P|396:100|456:192,1,165,8|0,0:0|0:0,0:0:0:0:
416,252,127871,6,0,B|380:204|284:148|284:148|272:111,1,197.99999395752,8|0,0:0|0:0,0:0:0:0:
208,28,128312,6,0,B|136:92|128:100|112:208|112:208|136:280,1,285.99998690796,12|0,0:0|0:0,0:0:0:0:
308,264,128901,5,0,0:0:0:0:
372,164,129048,2,0,P|320:116|236:124,1,142.99999345398,8|0,0:0|0:0,0:0:0:0:
228,236,129489,2,0,P|160:216|116:144,1,142.99999345398
164,36,129930,2,0,P|200:76|200:176,1,142.99999345398,0|8,0:0|0:0,0:0:0:0:
100,220,130371,2,0,P|128:280|212:292,1,142.99999345398
300,84,130812,6,0,P|340:124|344:228,1,142.99999345398,4|0,0:0|0:0,0:0:0:0:
276,288,131254,1,0,0:0:0:0:
160,236,131401,2,0,P|152:200|204:112,1,142.99999345398,8|0,0:0|0:0,0:0:0:0:
280,184,131842,2,0,P|308:240|296:324,1,142.99999345398
192,272,132283,1,0,0:0:0:0:
88,160,132430,2,0,L|40:240,1,71.4999967269899,0|8,0:0|0:0,0:0:0:0:
100,352,132724,1,0,0:0:0:0:
200,80,133165,6,0,P|276:104|352:160,1,142.99999345398,4|0,0:0|0:0,0:0:0:0:
404,272,133606,1,0,0:0:0:0:
404,272,133680,1,0,0:0:0:0:
404,272,133754,2,0,P|352:304|256:308,1,142.99999345398,8|0,0:0|0:0,0:0:0:0:
108,284,134195,1,0,0:0:0:0:
108,284,134268,1,0,0:0:0:0:
108,284,134342,2,0,P|136:220|192:152,1,142.99999345398
228,48,134930,2,0,P|328:100|360:124,1,142.99999345398,8|0,0:0|0:0,0:0:0:0:
384,304,135518,6,0,P|408:224|392:156,1,142.99999345398,4|0,0:0|0:0,0:0:0:0:
208,60,135959,1,0,0:0:0:0:
208,60,136033,1,0,0:0:0:0:
208,60,136106,2,0,P|148:92|88:160,1,142.99999345398,8|0,0:0|0:0,0:0:0:0:
148,312,136695,2,0,P|220:340|308:340,1,142.99999345398
372,48,137283,2,0,P|288:80|236:128,1,142.99999345398,8|0,0:0|0:0,0:0:0:0:
184,156,137871,5,12,0:0:0:0:
320,284,138018,1,0,0:0:0:0:
356,128,138165,5,8,0:0:0:0:
224,260,138312,1,0,0:0:0:0:
172,112,138459,5,8,0:0:0:0:
320,228,138606,1,0,0:0:0:0:
352,72,138754,5,8,0:0:0:0:
220,200,138901,1,0,0:0:0:0:
172,64,139048,5,8,0:0:0:0:
324,172,139195,1,0,0:0:0:0:
248,44,139342,5,8,0:0:0:0:
356,196,139489,1,0,0:0:0:0:
148,112,139636,1,8,0:0:0:0:
272,248,139783,1,8,0:0:0:0:
236,112,139930,1,0,0:0:0:0:
388,64,140077,1,0,0:0:0:0:
444,192,140224,6,0,P|432:244|348:288,1,142.99999345398,4|0,0:0|0:0,0:0:0:0:
248,296,140665,1,0,0:0:0:0:
128,320,140812,2,0,L|104:236,1,71.4999967269899
184,220,141106,2,0,L|156:128,1,71.4999967269899
104,52,141401,5,0,0:0:0:0:
32,172,141548,1,0,0:0:0:0:
40,40,141695,1,0,0:0:0:0:
84,204,141842,1,0,0:0:0:0:
192,148,142136,5,0,0:0:0:0:
4,104,142283,1,0,0:0:0:0:
24,280,142577,6,0,P|72:304|172:264,1,142.99999345398,4|0,0:0|0:0,0:0:0:0:
268,260,143018,1,0,0:0:0:0:
232,160,143165,2,0,L|320:120,1,71.4999967269899
360,196,143459,2,0,L|440:156,1,71.4999967269899
344,40,143754,5,0,0:0:0:0:
492,96,143901,1,0,0:0:0:0:
404,20,144048,1,0,0:0:0:0:
440,164,144195,1,0,0:0:0:0:
344,148,144489,5,0,0:0:0:0:
484,28,144636,1,0,0:0:0:0:
500,224,144930,6,0,P|448:256|352:236,1,142.99999345398,4|0,0:0|0:0,0:0:0:0:
260,284,145371,1,0,0:0:0:0:
260,168,145518,2,0,L|176:136,1,71.4999967269899
92,196,145812,2,0,L|172:232,1,71.4999967269899
296,272,146106,5,0,0:0:0:0:
384,180,146254,1,0,0:0:0:0:
248,200,146401,1,0,0:0:0:0:
400,264,146548,1,0,0:0:0:0:
296,344,146842,5,0,0:0:0:0:
300,156,146989,1,0,0:0:0:0:
112,216,147283,6,0,P|88:148|152:100,1,142.99999345398,4|0,0:0|0:0,0:0:0:0:
184,160,147724,1,0,0:0:0:0:
268,44,147871,2,0,L|352:80,1,71.4999967269899
360,168,148165,2,0,L|448:208,1,71.4999967269899
292,340,148459,5,0,0:0:0:0:
300,160,148606,1,0,0:0:0:0:
376,312,148754,1,0,0:0:0:0:
212,200,148901,1,0,0:0:0:0:
366,255,149048,5,0,0:0:0:0:
184,284,149195,1,0,0:0:0:0:
247,179,149342,1,0,0:0:0:0:
340,304,149489,1,0,0:0:0:0:
320,176,149636,2,0,P|328:136|236:80,1,142.99999345398,4|0,0:0|0:0,0:0:0:0:
156,160,150077,5,0,0:0:0:0:
80,244,150224,2,0,L|128:308,2,71.4999967269899
20,152,150665,2,0,P|40:104|136:72,1,142.99999345398
160,152,151106,2,0,P|220:148|248:124,1,71.4999967269899
304,56,151401,1,0,0:0:0:0:
364,144,151548,2,0,P|360:184|204:256,1,214.49999018097,0|4,0:0|0:0,0:0:0:0:
72,156,152283,6,0,P|112:108|216:120,1,142.99999345398
168,200,152724,1,0,0:0:0:0:
200,320,152871,2,0,P|256:304|280:288,1,71.4999967269899
272,188,153165,2,0,P|296:156|392:120,1,142.99999345398
368,220,153606,2,0,P|304:256|224:248,1,142.99999345398
56,216,154342,6,0,P|44:160|128:96,1,142.99999345398,4|0,0:0|0:0,0:0:0:0:
164,188,154783,1,0,0:0:0:0:
232,96,154930,2,0,P|296:112|320:132,1,71.4999967269899
412,160,155224,1,0,0:0:0:0:
256,188,155371,1,0,0:0:0:0:
416,260,155518,2,0,P|376:304|280:312,1,142.99999345398
296,216,155959,2,0,P|244:216|152:256,1,142.99999345398
48,160,156695,6,0,P|60:112|260:112,1,285.99998690796,4|0,0:0|0:0,0:0:0:0:
112,216,157577,1,0,0:0:0:0:
280,272,157871,1,0,0:0:0:0:
212,76,158165,2,0,P|248:96|276:128,1,71.4999967269899
216,200,158459,1,0,0:0:0:0:
308,240,158606,1,0,0:0:0:0:
224,312,158754,1,0,0:0:0:0:
128,256,158901,1,0,0:0:0:0:
128,148,159048,2,0,P|156:124|264:132,1,142.99999345398,4|0,0:0|0:0,0:0:0:0:
416,220,159636,5,0,0:0:0:0:
328,80,159783,1,0,0:0:0:0:
340,232,159930,1,0,0:0:0:0:
408,56,160077,1,0,0:0:0:0:
484,120,160371,5,0,0:0:0:0:
304,160,160518,1,0,0:0:0:0:
480,256,160665,2,0,P|452:296|360:316,1,142.99999345398
240,356,161401,5,4,0:0:0:0:
176,272,161695,6,0,P|172:224|248:152,1,142.99999345398
336,68,162136,1,0,0:0:0:0:
368,212,162283,1,0,0:0:0:0:
192,84,162430,2,0,P|132:84|80:148,1,142.99999345398
156,164,162871,2,0,P|152:216|60:284,1,142.99999345398
44,208,163312,2,0,P|20:160|24:112,1,71.4999967269899
40,8,163754,1,4,0:0:0:0:
168,76,164048,6,0,P|216:108|304:100,1,142.99999345398
376,172,164489,1,0,0:0:0:0:
296,276,164636,2,0,P|288:216|296:176,1,71.4999967269899
264,96,164930,2,0,P|216:104|136:184,1,142.99999345398
84,224,165371,2,0,P|124:256|220:252,1,142.99999345398
296,152,166106,5,4,0:0:0:0:
316,252,166695,6,0,L|368:284,7,35.749998363495,12|0|0|0|0|0|0|0,0:0|0:0|0:0|0:0|0:0|0:0|0:0|0:0,0:0:0:0:
312,160,167283,6,0,L|264:132,7,35.749998363495,12|0|0|0|0|0|0|0,0:0|0:0|0:0|0:0|0:0|0:0|0:0|0:0,0:0:0:0:
412,132,167871,6,0,L|448:156,7,35.749998363495,12|0|0|0|0|0|0|0,0:0|0:0|0:0|0:0|0:0|0:0|0:0|0:0,0:0:0:0:
344,52,168459,6,0,L|312:32,3,35.749998363495,12|0|0|0,0:0|0:0|0:0|0:0,0:0:0:0:
368,80,168754,2,0,P|344:124|288:140,1,82.5000031471254,8|8,0:0|0:0,0:0:0:0:
180,79,169048,1,8,0:0:0:0:
242,224,169195,1,8,0:0:0:0:
40,202,169342,2,0,P|95:170|136:165,1,82.5000031471254,8|0,0:0|0:0,0:0:0:0:
223,104,169636,1,8,0:0:0:0:
393,292,169783,1,8,0:0:0:0:
393,292,169930,1,8,0:0:0:0:
438,205,170077,5,8,0:0:0:0:
421,162,170151,1,8,0:0:0:0:
392,127,170224,1,8,0:0:0:0:
350,108,170298,1,8,0:0:0:0:
301,94,170371,2,8,P|263:99|247:105,1,41.2500015735627
177,181,170518,2,8,P|227:184|253:175,1,41.2500015735627
297,303,171106,6,0,P|377:285|376:190,1,165.000006294251
177,107,171989,2,0,P|202:174|222:204,1,82.5000031471254,8|0,0:0|0:0,0:0:0:0:
403,320,172283,2,0,P|388:280|355:213,1,82.5000031471254,8|0,0:0|0:0,0:0:0:0:
71,53,172577,2,0,P|96:104|123:140,1,82.5000031471254,8|0,0:0|0:0,0:0:0:0:
198,268,172871,1,8,0:0:0:0:
324,92,173018,6,0,P|387:109|376:260,1,220,12|0,0:0|0:0,0:0:0:0:
270,298,173459,2,0,P|211:229|197:184,1,110,8|0,0:0|0:0,0:0:0:0:
224,31,173754,2,0,P|272:111|274:156,1,110
100,166,174048,1,8,0:0:0:0:
240,284,174195,1,0,0:0:0:0:
374,279,174342,6,0,P|388:223|383:122,1,110,12|0,0:0|0:0,0:0:0:0:
202,77,174636,2,0,P|290:61|343:69,1,110,12|0,0:0|0:0,0:0:0:0:
205,286,174930,2,0,P|166:228|157:163,1,110,12|0,0:0|0:0,0:0:0:0:
318,159,175224,1,8,0:0:0:0:
106,252,175371,2,0,P|68:175|175:125,1,220,4|0,0:0|0:0,0:0:0:0:
238,254,175812,6,0,P|293:232|358:196,1,110,8|0,0:0|0:0,0:0:0:0:
414,54,176106,2,0,P|348:86|307:125,1,110
225,171,176401,1,8,0:0:0:0:
329,283,176548,1,0,0:0:0:0:
440,168,176695,2,0,P|402:118|354:87,1,110
155,76,176989,2,0,P|212:121|249:136,1,110,8|0,0:0|0:0,0:0:0:0:
505,62,177283,2,0,P|416:83|390:103,1,110
404,245,177577,1,8,0:0:0:0:
270,333,177724,2,0,P|220:310|204:157,1,220,4|0,0:0|0:0,0:0:0:0:
331,81,178165,5,8,0:0:0:0:
466,212,178312,1,0,0:0:0:0:
312,241,178459,1,8,0:0:0:0:
438,108,178606,1,0,0:0:0:0:
227,145,178754,1,8,0:0:0:0:
361,314,178901,1,0,0:0:0:0:
212,303,179048,6,0,L|138:147,1,165,8|0,0:0|0:0,0:0:0:0:
154,60,179636,6,0,B|226:60|264:108|376:127,1,208.999994419098,8|0,0:0|0:0,0:0:0:0:
451,191,180077,6,0,B|455:290|455:290|383:321|296:357|296:357|266:309|184:185,1,461.999985900879,12|8,0:0|0:0,0:0:0:0:
66,41,180665,1,0,0:0:0:0:
266,37,180812,2,0,P|278:126|230:227,1,153.999995300293
92,186,181106,1,8,0:0:0:0:
271,276,181254,1,0,0:0:0:0:
462,159,181401,6,0,P|401:90|335:35,1,153.999995300293
290,209,181695,6,0,P|310:114|347:51,1,153.999995300293,8|0,0:0|0:0,0:0:0:0:
464,197,181989,6,0,P|367:234|279:232,1,153.999995300293
165,107,182283,1,8,0:0:0:0:
90,273,182430,2,0,P|156:336|312:179,1,307.999990600586,4|0,0:0|0:0,0:0:0:0:
332,73,182871,2,0,B|403:25|403:25|466:137,1,153.999995300293,8|0,0:0|0:0,0:0:0:0:
491,276,183165,2,0,P|410:295|317:268,1,153.999995300293
240,108,183459,2,0,P|146:96|61:141,1,153.999995300293,8|0,0:0|0:0,0:0:0:0:
64,265,183754,6,0,P|150:341|233:352,1,153.999995300293,12|0,0:0|0:0,0:0:0:0:
372,278,184048,2,0,P|300:248|209:255,1,153.999995300293,12|0,0:0|0:0,0:0:0:0:
94,98,184342,2,0,P|203:115|254:145,1,153.999995300293,12|0,0:0|0:0,0:0:0:0:
100,278,184636,1,8,0:0:0:0:
289,342,184783,2,0,P|371:255|276:98,1,307.999990600586,4|0,0:0|0:0,0:0:0:0:
109,158,185224,6,0,P|68:251|85:323,1,153.999995300293,8|0,0:0|0:0,0:0:0:0:
270,342,185518,2,0,P|317:266|311:182,1,153.999995300293
118,185,185812,1,8,0:0:0:0:
279,67,185959,1,0,0:0:0:0:
427,292,186106,6,0,L|313:169,1,153.999995300293
210,300,186401,6,0,L|331:167,1,153.999995300293,8|0,0:0|0:0,0:0:0:0:
400,308,186695,6,0,L|209:308,1,153.999995300293
370,151,186989,1,8,0:0:0:0:
181,218,187136,2,0,P|102:185|231:82,1,307.999990600586,4|0,0:0|0:0,0:0:0:0:
220,261,187577,5,8,0:0:0:0:
325,89,187724,1,0,0:0:0:0:
357,284,187871,5,8,0:0:0:0:
453,108,188018,1,0,0:0:0:0:
482,287,188165,5,8,0:0:0:0:
293,146,188312,1,0,0:0:0:0:
214,323,188459,6,0,P|179:262|167:162,1,165,8|0,0:0|0:0,0:0:0:0:
200,73,189048,6,0,B|266:90|307:135|408:136,1,208.999994419098,8|0,0:0|0:0,0:0:0:0:
464,279,189489,6,0,B|360:339|277:285|279:201|186:109|177:106,1,319.000009735108,12|0,0:0|0:0,0:0:0:0:
253,294,190077,5,0,0:0:0:0:
139,306,190224,2,0,P|91:254|99:170,1,142.99999345398,8|0,0:0|0:0,0:0:0:0:
105,78,190665,2,0,P|173:98|217:170,1,142.99999345398
225,269,191106,2,0,P|271:316|365:305,1,153.999995300293,0|8,0:0|0:0,0:0:0:0:
468,233,191548,2,0,P|440:173|356:161,1,142.99999345398
263,165,191989,6,0,P|223:125|219:21,1,142.99999345398,4|0,0:0|0:0,0:0:0:0:
94,152,192430,1,0,0:0:0:0:
164,308,192577,2,0,P|200:316|288:264,1,142.99999345398,8|0,0:0|0:0,0:0:0:0:
310,153,193018,2,0,P|254:125|170:137,1,142.99999345398
192,272,193459,1,0,0:0:0:0:
323,313,193606,2,0,L|359:244,1,76.9999976501466,0|8,0:0|0:0,0:0:0:0:
412,99,193901,1,0,0:0:0:0:
228,33,194342,6,0,P|152:57|111:120,1,153.999995300293,4|0,0:0|0:0,0:0:0:0:
134,242,194783,1,0,0:0:0:0:
134,242,194856,1,0,0:0:0:0:
134,242,194930,2,0,P|186:274|282:278,1,142.99999345398,8|0,0:0|0:0,0:0:0:0:
484,270,195371,1,0,0:0:0:0:
484,270,195445,1,0,0:0:0:0:
484,270,195518,2,0,P|456:206|400:138,1,142.99999345398
314,64,196106,2,0,P|219:124|199:170,1,153.999995300293,8|0,0:0|0:0,0:0:0:0:
170,314,196695,6,0,P|250:338|318:322,1,142.99999345398,4|0,0:0|0:0,0:0:0:0:
457,233,197136,1,0,0:0:0:0:
457,233,197209,1,0,0:0:0:0:
457,233,197283,2,0,P|425:173|357:113,1,142.99999345398,8|0,0:0|0:0,0:0:0:0:
167,112,197871,2,0,P|139:184|139:272,1,142.99999345398
329,41,198459,2,0,P|413:73|465:121,1,142.99999345398,8|0,0:0|0:0,0:0:0:0:
326,283,199048,5,8,0:0:0:0:
152,119,199195,1,0,0:0:0:0:
252,335,199342,5,8,0:0:0:0:
234,97,199489,1,0,0:0:0:0:
334,208,199636,5,8,0:0:0:0:
103,271,199783,1,0,0:0:0:0:
326,113,199930,5,8,0:0:0:0:
88,87,200077,1,0,0:0:0:0:
317,315,200224,5,8,0:0:0:0:
184,98,200371,1,0,0:0:0:0:
115,315,200518,5,8,0:0:0:0:
323,169,200665,1,0,0:0:0:0:
69,155,200812,5,8,0:0:0:0:
295,270,200959,1,8,0:0:0:0:
200,133,201106,1,0,0:0:0:0:
165,262,201254,1,0,0:0:0:0:
337,187,201401,2,0,P|342:133|248:62,1,153.999995300293,4|0,0:0|0:0,0:0:0:0:
126,113,201989,6,0,P|120:183|159:262,1,153.999995300293
351,253,202577,1,0,0:0:0:0:
224,219,202724,1,0,0:0:0:0:
353,203,202871,1,0,0:0:0:0:
238,266,203018,1,0,0:0:0:0:
253,139,203312,5,0,0:0:0:0:
331,327,203459,1,0,0:0:0:0:
119,298,203754,6,0,P|97:229|89:195,1,76.9999976501466,4|0,0:0|0:0,0:0:0:0:
155,96,204048,2,0,L|183:189,1,76.9999976501466
292,282,204342,2,0,L|255:186,1,76.9999976501466
307,69,204636,2,0,L|341:160,1,76.9999976501466
423,254,204930,5,0,0:0:0:0:
315,328,205077,1,0,0:0:0:0:
433,241,205224,1,0,0:0:0:0:
266,326,205371,1,0,0:0:0:0:
344,146,205665,5,0,0:0:0:0:
288,301,205812,1,0,0:0:0:0:
113,258,206106,6,0,L|164:162,1,76.9999976501466,4|0,0:0|0:0,0:0:0:0:
175,81,206401,2,0,L|275:94,1,76.9999976501466
412,159,206695,2,0,P|409:209|316:265,1,153.999995300293
106,153,207283,2,0,P|146:136|194:147,1,76.9999976501466
315,199,207577,2,0,P|262:218|214:223,1,76.9999976501466,0|8,0:0|0:0,0:0:0:0:
82,224,207871,5,8,0:0:0:0:
277,110,208018,1,8,0:0:0:0:
77,96,208165,1,0,0:0:0:0:
200,276,208312,1,0,0:0:0:0:
297,197,208459,1,4,0:0:0:0:
256,192,208533,12,0,209636,0:0:0:0:
