osu file format v14

[General]
AudioFilename: audio.mp3
AudioLeadIn: 0
PreviewTime: 56356
Countdown: 0
SampleSet: Normal
StackLeniency: 0.4
Mode: 0
LetterboxInBreaks: 0
WidescreenStoryboard: 0

[Editor]
Bookmarks: 153107
DistanceSpacing: 1
BeatDivisor: 4
GridSize: 32
TimelineZoom: 2.599999

[Metadata]
Title:ADAMAS
TitleUnicode:ADAMAS
Artist:Raon Lee
ArtistUnicode:Raon Lee
Creator:ShompiFlen
Version:Expert
Source:
Tags:Sword Art Online Cover Lisa Alicization
BeatmapID:2001906
BeatmapSetID:956220

[Difficulty]
HPDrainRate:5
CircleSize:3.9
OverallDifficulty:9
ApproachRate:9.3
SliderMultiplier:1.4
SliderTickRate:1

[Events]
//Background and Video events
0,0,"bg.jpg",0,0
//Break Periods
//Storyboard Layer 0 (Background)
//Storyboard Layer 1 (Fail)
//Storyboard Layer 2 (Pass)
//Storyboard Layer 3 (Foreground)
//Storyboard Layer 4 (Overlay)
//Storyboard Sound Samples

[TimingPoints]
2326.25852113662,628.272251308901,4,2,0,40,1,0
7195,314.13612565445,4,1,0,90,1,0
7195,-80,4,3,0,90,0,0
7352,314.13612565445,4,1,0,90,1,0
7352,-80,4,3,0,90,0,0
17247,-111.111111111111,4,1,0,90,0,0
27299,-86.9565217391304,4,1,0,90,0,0
37509,628.272251308901,4,1,0,90,1,0
37509,-66.6666666666667,4,1,0,90,0,0
47561,314.13612565445,4,1,0,90,1,0
57456,314.13612565445,4,1,0,90,1,1
57456,-76.9230769230769,4,1,0,90,0,1
57613,314.13612565445,4,1,0,90,1,1
57613,-76.9230769230769,4,1,0,90,0,1
66251,-100,4,1,0,90,0,0
67508,628.272251308901,4,1,0,90,1,0
67508,-66.6666666666667,4,1,0,90,0,0
67665,628.272251308901,4,1,0,90,1,0
67665,-66.6666666666667,4,1,0,90,0,0
71434,-57.1428571428571,4,1,0,90,0,0
72062,-76.9230769230769,4,1,0,90,0,0
72691,-57.1428571428571,4,1,0,90,0,0
77560,314.13612565445,4,1,0,90,1,0
77560,-76.9230769230769,4,1,0,90,0,0
77717,314.13612565445,4,1,0,90,1,1
77717,-76.9230769230769,4,1,0,90,0,1
85099,-76.9230769230769,4,1,0,90,0,0
95151,628.272251308901,4,1,0,90,1,0
95151,-66.6666666666667,4,1,0,90,0,0
95308,628.272251308901,4,1,0,90,1,0
95308,-66.6666666666667,4,1,0,90,0,0
103161,-66.6666666666667,4,1,0,90,0,0
105203,314.13612565445,4,1,0,90,1,0
105360,314.13612565445,4,1,0,90,1,0
105674,-90.9090909090909,4,1,0,90,0,0
116197,314.13612565445,4,1,0,90,1,1
116197,-76.9230769230769,4,1,0,90,0,1
116354,314.13612565445,4,1,0,90,1,1
116354,-76.9230769230769,4,1,0,90,0,1
124992,-100,4,1,0,90,0,0
126249,628.272251308901,4,1,0,90,1,0
126249,-66.6666666666667,4,1,0,90,0,0
126406,628.272251308901,4,1,0,90,1,0
126406,-66.6666666666667,4,1,0,90,0,0
131432,-45.4545454545455,4,1,0,90,0,0
144940,-45.4545454545455,4,1,0,5,0,0
145254,-45.4545454545455,4,1,0,90,0,0
146510,-66.6666666666667,4,1,0,90,0,0
151536,-57.1428571428571,4,1,0,90,0,0
156563,-45.4545454545455,4,1,0,90,0,0
166615,314.13612565445,4,1,0,90,1,1
167243,-80,4,1,0,90,0,1
176667,-100,4,1,0,90,0,0
180908,314.13612565445,4,1,0,90,1,1
180908,-76.9230769230769,4,1,0,90,0,1
181065,314.13612565445,4,1,0,90,1,1
181222,-76.9230769230769,4,1,0,90,0,1
184834,-86.9565217391304,4,1,0,90,0,1
185462,-80,4,1,0,90,0,1
190960,628.272251308901,4,1,0,90,1,0
190960,-57.1428571428571,4,1,0,90,0,0
191117,628.272251308901,4,1,0,90,1,0
191431,-57.1428571428571,4,1,0,90,0,0
196143,-47.6190476190476,4,1,0,90,0,0
201012,314.13612565445,4,1,0,90,1,0
201012,-76.9230769230769,4,1,0,90,0,0
201169,314.13612565445,4,1,0,90,1,1
201326,-80,4,1,0,90,0,1
208551,314.13612565445,4,1,0,90,1,0
208551,-83.3333333333333,4,1,0,90,0,0
208708,314.13612565445,4,1,0,90,1,0
208865,-83.3333333333333,4,1,0,90,0,0
213577,314.13612565445,4,1,0,90,1,1
213577,-83.3333333333333,4,1,0,90,0,1
213734,314.13612565445,4,1,0,90,1,1
218446,-100,4,1,0,90,0,0
221116,314.13612565445,4,1,0,90,1,1

[HitObjects]
93,262,2326,5,0,0:0:0:0:
93,262,2483,2,0,L|154:252,1,35
173,152,2797,1,0,0:0:0:0:
173,152,2954,2,0,L|112:142,1,35
219,246,3268,1,0,0:0:0:0:
297,183,3425,1,0,0:0:0:0:
364,304,3582,5,0,0:0:0:0:
442,248,3739,1,0,0:0:0:0:
442,248,3896,2,0,L|452:304,1,35
510,190,4211,2,0,L|503:155,1,35
404,80,4525,2,0,L|410:114,1,35
297,183,4839,5,0,0:0:0:0:
297,183,4996,2,0,L|352:167,1,35
254,85,5310,5,0,0:0:0:0:
254,85,5467,2,0,L|199:69,1,35
152,130,5781,1,0,0:0:0:0:
76,86,5938,1,0,0:0:0:0:
28,160,6095,6,0,L|7:144,2,17.5
107,204,6410,1,0,0:0:0:0:
42,309,6567,1,0,0:0:0:0:
42,309,7195,6,0,B|134:284|130:337|222:302,1,175
344,214,7666,2,0,P|356:181|335:125,1,87.5
222,72,7980,2,0,P|210:105|231:161,1,87.5
325,319,8294,1,0,0:0:0:0:
325,319,8451,1,0,0:0:0:0:
162,207,8608,6,0,L|74:183,1,87.5
222,72,8922,2,0,L|306:48,1,87.5
410,268,9236,5,0,0:0:0:0:
307,126,9393,1,0,0:0:0:0:
477,88,9550,1,0,0:0:0:0:
476,320,9708,6,0,L|287:302,1,175
95,155,10179,2,0,L|87:55,1,87.5
215,213,10493,2,0,L|207:313,1,87.5
60,313,10807,1,0,0:0:0:0:
60,313,10964,1,0,0:0:0:0:
196,122,11121,6,0,L|292:111,1,87.5
390,220,11435,2,0,L|294:209,1,87.5
512,55,11749,5,0,0:0:0:0:
511,90,11828,1,0,0:0:0:0:
511,124,11906,1,0,0:0:0:0:
445,265,12064,1,0,0:0:0:0:
419,241,12142,1,0,0:0:0:0:
385,231,12221,6,0,L|202:211,1,175
70,368,12692,2,0,P|113:377|174:363,1,87.5
235,302,13006,2,0,P|278:293|339:307,1,87.5
415,343,13320,1,0,0:0:0:0:
415,343,13477,1,0,0:0:0:0:
336,125,13634,6,0,L|327:212,1,87.5
487,110,13948,2,0,L|478:23,1,87.5
243,132,14262,5,0,0:0:0:0:
326,212,14420,1,0,0:0:0:0:
387,7,14577,1,0,0:0:0:0:
135,36,14734,6,0,L|125:245,1,175
325,88,15205,2,0,P|283:53|232:48,1,87.5
246,224,15519,2,0,P|288:259|339:264,1,87.5
448,242,15833,1,0,0:0:0:0:
448,242,15990,1,0,0:0:0:0:
276,88,16147,5,0,0:0:0:0:
232,82,16225,1,0,0:0:0:0:
187,82,16304,1,0,0:0:0:0:
145,94,16382,1,0,0:0:0:0:
115,126,16461,1,0,0:0:0:0:
103,167,16539,1,0,0:0:0:0:
97,210,16618,1,0,0:0:0:0:
91,253,16696,1,0,0:0:0:0:
89,297,16776,2,0,L|85:347,1,43.75,2|0,0:0|0:0,0:0:0:0:
195,284,16933,2,0,L|191:334,1,43.75,2|0,0:0|0:0,0:0:0:0:
292,256,17090,2,0,L|288:306,1,43.75,2|0,0:0|0:0,0:0:0:0:
385,231,17247,6,0,P|456:214|482:155,1,125.999996154785
477,51,17718,2,0,P|431:60|408:56,1,62.9999980773926
334,97,18032,2,0,P|288:88|265:92,1,62.9999980773926
195,179,18346,2,0,P|241:188|264:184,1,62.9999980773926
162,84,18660,6,0,L|89:92,1,62.9999980773926
20,202,18975,2,0,L|82:195,1,62.9999980773926
155,306,19289,2,0,L|82:314,1,62.9999980773926
195,179,19603,1,0,0:0:0:0:
272,267,19760,6,0,P|349:258|380:222,1,125.999996154785
385,129,20231,1,0,0:0:0:0:
304,178,20388,1,0,0:0:0:0:
445,273,20545,2,0,L|500:225,1,62.9999980773926
486,137,20859,2,0,L|515:70,1,62.9999980773926
430,43,21173,5,0,0:0:0:0:
385,129,21331,1,0,0:0:0:0:
343,14,21488,1,0,0:0:0:0:
298,100,21646,1,0,0:0:0:0:
225,35,21802,2,0,L|158:29,1,62.9999980773926
83,136,22116,1,0,0:0:0:0:
57,9,22273,6,0,P|44:70|54:132,1,125.999996154785
66,281,22744,2,0,L|-11:292,1,62.9999980773926
131,199,23058,2,0,L|194:208,1,62.9999980773926
201,340,23372,2,0,L|139:349,1,62.9999980773926
290,231,23687,5,0,0:0:0:0:
363,297,23844,1,0,0:0:0:0:
436,219,24001,1,0,0:0:0:0:
512,272,24158,1,0,0:0:0:0:
362,170,24315,1,0,0:0:0:0:
363,297,24472,1,0,0:0:0:0:
491,191,24629,1,0,0:0:0:0:
420,68,24786,6,0,P|378:44|299:62,1,125.999996154785
212,59,25257,6,0,L|145:52,1,62.9999980773926
108,164,25571,1,0,0:0:0:0:
172,229,25728,2,0,L|234:235,1,62.9999980773926
341,151,26043,5,0,0:0:0:0:
183,66,26357,5,0,0:0:0:0:
180,316,26671,5,0,0:0:0:0:
400,321,26985,6,0,L|410:273,1,31.4999990386963
347,181,27142,2,0,L|341:151,1,31.4999990386963
399,72,27299,6,0,P|314:56|247:91,1,161.000003070831
147,170,27770,2,0,L|61:174,1,80.5000015354157
3,304,28084,2,0,L|89:308,1,80.5000015354157
188,253,28399,1,0,0:0:0:0:
188,253,28556,1,0,0:0:0:0:
250,326,28713,5,0,0:0:0:0:
314,253,28870,1,0,0:0:0:0:
356,358,29027,1,0,0:0:0:0:
416,285,29184,1,0,0:0:0:0:
504,333,29341,1,0,0:0:0:0:
412,206,29498,1,0,0:0:0:0:
506,134,29655,1,0,0:0:0:0:
356,118,29812,6,0,P|312:155|320:261,1,161.000003070831
491,215,30283,2,0,L|412:206,1,80.5000015354157
414,52,30598,2,0,L|493:43,1,80.5000015354157
411,205,30912,2,0,L|332:214,1,80.5000015354157
257,151,31226,5,0,0:0:0:0:
193,223,31383,1,0,0:0:0:0:
117,162,31540,1,0,0:0:0:0:
1,213,31697,1,0,0:0:0:0:
115,131,31854,1,0,0:0:0:0:
0,108,32011,1,0,0:0:0:0:
92,267,32168,1,0,0:0:0:0:
277,123,32325,6,0,P|342:85|442:103,1,161.000003070831
429,259,32797,1,0,0:0:0:0:
369,178,32954,1,0,0:0:0:0:
473,173,33111,1,0,0:0:0:0:
333,256,33268,1,0,0:0:0:0:
431,295,33425,1,0,0:0:0:0:
343,379,33582,1,0,0:0:0:0:
211,356,33739,5,0,0:0:0:0:
211,356,33896,1,0,0:0:0:0:
81,283,34053,1,0,0:0:0:0:
81,283,34210,1,0,0:0:0:0:
212,125,34367,1,0,0:0:0:0:
86,164,34524,1,0,0:0:0:0:
242,279,34681,2,0,L|334:270,1,80.5000015354157
80,83,34995,6,0,L|87:181,1,80.5000015354157
218,45,35310,2,0,L|211:143,1,80.5000015354157
401,196,35624,6,0,L|408:98,1,80.5000015354157
512,245,35939,2,0,L|505:147,1,80.5000015354157
404,313,36252,5,0,0:0:0:0:
237,270,36409,2,0,L|196:268,2,40.2500007677078
401,196,36723,1,0,0:0:0:0:
280,176,36880,2,0,L|199:169,1,80.5000015354157
100,81,37194,2,0,L|20:68,1,80.5000015354157
215,63,37509,6,0,P|254:54|332:65,1,105.000004005432
438,93,37980,1,0,0:0:0:0:
438,93,38137,2,0,L|449:166,1,52.5000020027161
363,215,38451,2,0,L|352:288,1,52.5000020027161
434,315,38765,6,0,P|395:356|325:353,1,105.000004005432
236,320,39236,1,0,0:0:0:0:
236,320,39393,2,0,L|165:313,1,52.5000020027161
127,228,39707,2,0,L|198:221,1,52.5000020027161
59,307,40022,6,0,P|23:236|30:202,1,105.000004005432
58,137,40493,1,0,0:0:0:0:
141,134,40650,2,0,L|88:136,1,52.5000020027161
157,51,40964,2,0,L|218:48,1,52.5000020027161
301,126,41278,2,0,L|249:129,1,52.5000020027161
325,41,41592,2,0,L|378:44,1,52.5000020027161
411,127,41906,1,0,0:0:0:0:
477,45,42063,1,0,0:0:0:0:
325,41,42221,1,0,0:0:0:0:
502,125,42378,1,0,0:0:0:0:
502,125,42535,6,0,L|515:256,1,105.000004005432
435,296,43006,2,0,L|424:191,1,105.000004005432
351,79,43477,1,0,0:0:0:0:
351,79,43634,2,0,P|267:71|236:86,1,105.000004005432
199,180,44105,1,0,0:0:0:0:
199,180,44262,2,0,P|249:191|300:178,1,105.000004005432
249,77,44734,1,0,0:0:0:0:
94,82,44891,1,0,0:0:0:0:
94,82,44969,1,0,0:0:0:0:
94,82,45048,6,0,L|91:154,1,52.5000020027161
2,259,45362,2,0,L|0:207,1,52.5000020027161
122,267,45676,2,0,L|119:319,1,52.5000020027161
205,164,45990,2,0,L|202:111,1,52.5000020027161
365,197,46304,5,0,0:0:0:0:
278,278,46461,1,0,0:0:0:0:
202,111,46618,1,0,0:0:0:0:
278,201,46776,1,0,0:0:0:0:
340,64,46933,1,0,0:0:0:0:
202,79,47090,1,0,0:0:0:0:
360,279,47247,1,0,0:0:0:0:
346,301,47325,1,0,0:0:0:0:
326,319,47404,1,0,0:0:0:0:
304,333,47482,1,0,0:0:0:0:
270,343,47561,6,0,P|191:349|133:314,1,140
74,205,48032,1,0,0:0:0:0:
74,205,48189,2,0,L|0:200,1,70
113,345,48503,2,0,L|187:340,1,70
142,209,48817,6,0,P|88:201|60:210,1,70
218,111,49131,2,0,P|185:67|159:53,1,70
350,113,49445,2,0,P|358:58|349:30,1,70
451,158,49759,1,0,0:0:0:0:
364,315,49917,1,0,0:0:0:0:
364,315,49995,1,0,0:0:0:0:
364,315,50074,6,0,L|285:305,1,70
266,167,50388,2,0,L|335:175,1,70
186,280,50702,2,0,L|116:271,1,70
14,186,51016,6,0,L|20:116,1,70
116,271,51330,2,0,L|123:350,1,70
259,236,51644,2,0,L|266:167,1,70
163,90,51958,2,0,L|170:169,1,70
256,54,52273,1,0,0:0:0:0:
417,119,52430,5,0,0:0:0:0:
417,119,52508,1,0,0:0:0:0:
417,119,52587,6,0,B|442:219|442:219|415:270,1,140
508,161,53058,1,0,0:0:0:0:
424,251,53215,2,0,L|344:248,1,70
259,158,53529,2,0,L|339:155,1,70
144,246,53843,6,0,L|115:177,1,70
206,51,54157,2,0,L|177:120,1,70
328,155,54471,2,0,L|355:90,1,70
476,35,54786,1,0,0:0:0:0:
489,211,54943,1,0,0:0:0:0:
489,211,55021,1,0,0:0:0:0:
489,211,55100,6,0,L|407:237,1,70
232,232,55414,1,0,0:0:0:0:
232,232,55492,1,0,0:0:0:0:
232,232,55571,6,0,L|314:206,1,70
435,111,55885,5,0,0:0:0:0:
435,111,55964,1,0,0:0:0:0:
435,111,56042,1,0,0:0:0:0:
141,202,56199,1,0,0:0:0:0:
116,286,57456,6,0,L|299:270,1,181.999991668702,2|0,0:0|0:0,0:0:0:0:
384,152,57927,2,0,L|292:160,1,90.9999958343508,2|0,0:0|0:0,0:0:0:0:
290,55,58241,2,0,L|381:47,1,90.9999958343508,2|0,0:0|0:0,0:0:0:0:
493,92,58555,1,2,0:0:0:0:
384,152,58712,1,0,0:0:0:0:
185,83,58869,6,0,P|124:74|84:87,1,90.9999958343508,2|0,0:0|0:0,0:0:0:0:
293,159,59184,1,2,0:0:0:0:
136,178,59341,1,2,0:0:0:0:
286,265,59498,2,0,P|347:274|390:262,2,90.9999958343508
136,178,59969,1,2,0:0:0:0:
293,159,60126,5,2,0:0:0:0:
210,297,60283,1,2,0:0:0:0:
203,105,60440,1,2,0:0:0:0:
117,264,60597,1,2,0:0:0:0:
217,181,60754,1,2,0:0:0:0:
94,62,60911,2,0,L|-2:55,1,90.9999958343508,2|2,0:0|0:0,0:0:0:0:
136,178,61225,1,2,0:0:0:0:
11,305,61382,5,2,0:0:0:0:
195,242,61540,1,0,0:0:0:0:
61,211,61697,1,2,0:0:0:0:
228,242,61854,1,0,0:0:0:0:
95,303,62011,5,2,0:0:0:0:
262,242,62168,1,0,0:0:0:0:
61,211,62325,1,2,0:0:0:0:
246,359,62482,1,0,0:0:0:0:
346,106,62639,6,0,L|256:115,1,90.9999958343508,2|0,0:0|0:0,0:0:0:0:
159,8,62953,2,0,L|249:0,1,90.9999958343508,2|2,0:0|0:0,0:0:0:0:
90,86,63267,2,0,L|0:94,1,90.9999958343508,2|0,0:0|0:0,0:0:0:0:
181,216,63581,1,2,0:0:0:0:
181,216,63738,1,0,0:0:0:0:
346,106,63896,2,0,L|164:123,2,181.999991668702,2|0|2,0:0|0:0|0:0,0:0:0:0:
250,220,64681,1,2,0:0:0:0:
164,123,64838,1,2,0:0:0:0:
473,64,64995,6,0,P|486:107|472:150,1,90.9999958343508,2|0,0:0|0:0,0:0:0:0:
347,191,65309,2,0,P|333:138|351:98,1,90.9999958343508,2|0,0:0|0:0,0:0:0:0:
471,149,65623,6,0,L|475:240,1,90.9999958343508,2|0,0:0|0:0,0:0:0:0:
343,281,65937,2,0,L|347:188,1,90.9999958343508,2|0,0:0|0:0,0:0:0:0:
436,323,66252,5,2,0:0:0:0:
194,239,66566,5,2,0:0:0:0:
471,149,66880,5,2,0:0:0:0:
159,8,67194,5,2,0:0:0:0:
12,320,67508,6,0,P|72:331|123:318,1,105.000004005432,2|0,0:0|0:0,0:0:0:0:
167,240,67979,2,0,L|156:188,1,52.5000020027161
256,297,68293,1,2,0:0:0:0:
198,371,68450,1,2,0:0:0:0:
114,321,68607,1,2,0:0:0:0:
256,297,68764,2,0,L|310:293,1,52.5000020027161,2|0,0:0|0:0,0:0:0:0:
372,203,69078,2,0,L|319:199,2,52.5000020027161,2|0|0,0:0|0:0|0:0,0:0:0:0:
477,291,69549,5,2,0:0:0:0:
405,379,69706,1,2,0:0:0:0:
319,199,69863,1,2,0:0:0:0:
453,60,70021,6,0,L|518:53,1,52.5000020027161,2|0,0:0|0:0,0:0:0:0:
319,109,70335,2,0,L|384:116,1,52.5000020027161,2|0,0:0|0:0,0:0:0:0:
212,87,70649,2,0,L|262:45,1,52.5000020027161,2|0,0:0|0:0,0:0:0:0:
97,52,70963,2,0,L|102:104,1,52.5000020027161,2|0,0:0|0:0,0:0:0:0:
18,189,71277,6,0,L|10:125,1,52.5000020027161,2|0,0:0|0:0,0:0:0:0:
161,190,71591,1,2,0:0:0:0:
161,190,71748,2,0,L|138:262,1,61.2500005841255,2|2,0:0|0:0,0:0:0:0:
19,284,72062,5,2,0:0:0:0:
25,305,72140,1,0,0:0:0:0:
36,325,72219,1,0,0:0:0:0:
52,341,72297,1,0,0:0:0:0:
71,353,72376,1,2,0:0:0:0:
93,360,72454,1,0,0:0:0:0:
116,362,72533,1,0,0:0:0:0:
138,358,72611,1,0,0:0:0:0:
176,351,72691,6,0,L|245:341,1,61.2500005841255
385,281,73005,2,0,L|471:292,1,61.2500005841255,2|0,0:0|0:0,0:0:0:0:
259,205,73319,2,0,L|190:195,1,61.2500005841255,2|0,0:0|0:0,0:0:0:0:
452,184,73633,5,2,0:0:0:0:
324,127,73790,2,0,L|255:117,1,61.2500005841255,2|0,0:0|0:0,0:0:0:0:
500,112,74104,5,2,0:0:0:0:
377,47,74261,2,0,L|308:37,1,61.2500005841255,2|0,0:0|0:0,0:0:0:0:
462,39,74575,1,2,0:0:0:0:
324,127,74733,1,2,0:0:0:0:
445,245,74890,2,0,L|452:184,1,61.2500005841255,2|0,0:0|0:0,0:0:0:0:
367,332,75204,6,0,L|359:271,1,61.2500005841255
324,127,75518,1,2,0:0:0:0:
259,205,75675,1,0,0:0:0:0:
446,180,75832,2,0,L|506:172,1,61.2500005841255,2|0,0:0|0:0,0:0:0:0:
458,270,76146,1,2,0:0:0:0:
259,205,76303,2,0,L|190:203,1,61.2500005841255,2|0,0:0|0:0,0:0:0:0:
377,47,76617,2,0,L|446:45,1,61.2500005841255,2|0,0:0|0:0,0:0:0:0:
324,127,76932,1,2,0:0:0:0:
234,77,77089,1,2,0:0:0:0:
155,141,77246,1,2,0:0:0:0:
0,51,77403,1,2,0:0:0:0:
234,47,77560,6,2,L|445:55,1,181.999991668702,2|0,0:0|0:0,0:0:0:0:
495,172,78031,1,0,0:0:0:0:
429,240,78188,1,0,0:0:0:0:
343,158,78345,2,0,P|298:143|244:146,1,90.9999958343508
172,301,78659,2,0,P|217:301|263:276,1,90.9999958343508
118,187,78973,6,0,L|27:179,1,90.9999958343508
188,61,79287,2,0,L|279:53,1,90.9999958343508
446,127,79601,5,2,0:0:0:0:
342,181,79758,1,2,0:0:0:0:
388,0,79915,1,2,0:0:0:0:
490,242,80073,6,2,P|440:254|340:172,1,181.999991668702,2|0,0:0|0:0,0:0:0:0:
174,43,80544,2,0,L|78:38,1,90.9999958343508
121,194,80858,2,0,L|217:189,1,90.9999958343508
263,338,81172,2,0,L|167:333,1,90.9999958343508
342,181,81486,5,0,0:0:0:0:
378,344,81643,1,0,0:0:0:0:
438,207,81800,1,0,0:0:0:0:
272,256,81957,1,0,0:0:0:0:
502,260,82114,1,2,0:0:0:0:
341,181,82271,1,2,0:0:0:0:
508,170,82429,1,2,0:0:0:0:
272,256,82586,6,2,P|233:170|276:94,1,181.999991668702,2|0,0:0|0:0,0:0:0:0:
391,36,83057,2,0,P|433:30|489:37,1,90.9999958343508
437,131,83371,1,0,0:0:0:0:
253,136,83528,1,0,0:0:0:0:
471,133,83685,1,0,0:0:0:0:
320,209,83842,1,0,0:0:0:0:
478,244,83999,5,0,0:0:0:0:
472,289,84078,1,0,0:0:0:0:
449,328,84156,1,0,0:0:0:0:
408,348,84235,1,0,0:0:0:0:
363,355,84313,1,0,0:0:0:0:
317,347,84392,1,0,0:0:0:0:
274,330,84470,1,0,0:0:0:0:
228,322,84549,1,0,0:0:0:0:
183,329,84627,2,2,L|133:337,1,45.4999979171754
0,212,84785,2,2,L|44:204,1,45.4999979171754
171,67,84942,2,2,L|126:74,1,45.4999979171754
0,301,85099,6,0,B|78:287|78:287|172:235,1,181.999991668702
261,60,85570,2,0,L|170:66,1,90.9999958343508
301,175,85884,2,0,L|391:181,1,90.9999958343508
145,150,86198,1,0,0:0:0:0:
145,150,86355,1,0,0:0:0:0:
276,50,86512,2,0,L|379:43,1,90.9999958343508
392,182,86826,2,0,L|289:175,1,90.9999958343508
474,53,87141,5,0,0:0:0:0:
499,214,87298,1,0,0:0:0:0:
443,356,87455,1,0,0:0:0:0:
301,175,87612,6,0,P|299:77|377:45,1,181.999991668702
480,130,88083,2,0,P|408:137|387:131,1,90.9999958343508
284,46,88397,2,0,P|212:39|191:45,1,90.9999958343508
140,138,88711,1,0,0:0:0:0:
140,138,88868,1,0,0:0:0:0:
246,295,89025,2,0,L|336:283,1,90.9999958343508
230,149,89340,2,0,L|139:137,1,90.9999958343508
7,139,89654,5,2,0:0:0:0:
60,211,89811,1,2,0:0:0:0:
121,45,89968,1,2,0:0:0:0:
18,287,90125,6,0,B|108:344|191:284,1,181.999991668702
319,167,90596,2,0,L|324:75,1,90.9999958343508
170,36,90910,2,0,L|165:126,1,90.9999958343508
314,257,91224,2,0,L|319:165,1,90.9999958343508
99,184,91538,6,0,L|2:167,1,90.9999958343508
170,36,91853,2,0,L|267:19,1,90.9999958343508
190,216,92167,5,0,0:0:0:0:
142,122,92324,1,0,0:0:0:0:
341,39,92481,1,0,0:0:0:0:
190,216,92638,6,0,L|169:33,1,181.999991668702
356,100,93109,5,0,0:0:0:0:
142,122,93266,1,0,0:0:0:0:
319,230,93423,5,0,0:0:0:0:
280,25,93580,1,0,0:0:0:0:
190,216,93737,5,0,0:0:0:0:
432,165,93895,1,0,0:0:0:0:
142,122,94052,6,0,L|89:115,3,45.4999979171754
319,230,94366,2,0,L|372:223,3,45.4999979171754
214,223,94680,1,0,0:0:0:0:
356,100,94837,1,0,0:0:0:0:
142,122,94994,1,0,0:0:0:0:
364,224,95151,5,0,0:0:0:0:
512,101,95465,1,0,0:0:0:0:
512,101,95622,1,0,0:0:0:0:
435,166,95779,1,0,0:0:0:0:
400,33,95936,2,0,L|332:17,1,52.5000020027161
252,71,96250,1,0,0:0:0:0:
218,187,96407,2,0,P|254:144|278:78,1,105.000004005432
84,83,97035,5,0,0:0:0:0:
84,83,97114,1,0,0:0:0:0:
84,83,97192,1,0,0:0:0:0:
160,11,97349,1,0,0:0:0:0:
0,159,97506,1,0,0:0:0:0:
145,303,97664,6,0,B|187:314|229:299|229:299|269:285|318:302,1,157.500006008148
300,296,98292,1,0,0:0:0:0:
458,231,98449,2,0,L|480:336,1,105.000004005432
300,296,99077,2,0,L|278:193,1,105.000004005432
404,136,99548,1,0,0:0:0:0:
404,136,99627,1,0,0:0:0:0:
404,136,99705,1,0,0:0:0:0:
278,193,99862,1,0,0:0:0:0:
154,69,100020,1,0,0:0:0:0:
28,156,100177,6,0,P|-2:92|3:47,1,105.000004005432
154,69,100648,2,0,P|125:73|98:86,1,52.5000020027161
90,217,100962,1,0,0:0:0:0:
149,159,101119,1,0,0:0:0:0:
28,156,101276,1,0,0:0:0:0:
24,278,101433,1,0,0:0:0:0:
148,351,101590,2,0,L|210:358,1,52.5000020027161
299,242,101904,2,0,L|237:249,1,52.5000020027161
335,335,102218,5,0,0:0:0:0:
406,258,102376,1,0,0:0:0:0:
346,97,102533,1,0,0:0:0:0:
485,331,102690,6,0,L|491:260,1,52.5000020027161
502,80,103004,1,0,0:0:0:0:
502,80,103082,1,0,0:0:0:0:
502,80,103161,2,0,L|497:107,3,26.2500010013581
425,181,103475,2,0,L|420:154,1,26.2500010013581
350,41,103632,2,0,L|345:68,3,26.2500010013581
216,80,103946,5,2,0:0:0:0:
148,351,104260,5,2,0:0:0:0:
91,201,104575,5,2,0:0:0:0:
290,369,104889,6,0,L|284:325,1,26.2500010013581
350,209,105046,2,0,L|356:253,1,26.2500010013581
456,342,105203,6,0,L|438:203,1,140
396,55,105674,1,0,0:0:0:0:
309,103,105831,1,0,0:0:0:0:
242,42,105988,2,0,L|163:36,1,77.0000023498536
112,177,106302,2,0,L|191:171,1,77.0000023498536
95,89,106616,5,0,0:0:0:0:
0,147,106773,1,0,0:0:0:0:
21,250,106930,1,0,0:0:0:0:
112,177,107087,1,0,0:0:0:0:
185,262,107244,1,0,0:0:0:0:
217,168,107401,1,0,0:0:0:0:
96,290,107558,1,0,0:0:0:0:
300,227,107716,5,0,0:0:0:0:
300,227,108030,1,0,0:0:0:0:
376,224,108187,2,0,L|300:227,1,77.0000023498536
278,15,108501,2,0,L|361:12,1,77.0000023498536
475,112,108815,2,0,L|392:109,1,77.0000023498536
157,139,109129,5,0,0:0:0:0:
317,94,109286,1,0,0:0:0:0:
171,52,109443,1,0,0:0:0:0:
317,127,109600,1,0,0:0:0:0:
96,83,109757,2,0,L|7:74,1,77.0000023498536
232,266,110072,2,0,L|321:257,1,77.0000023498536
172,90,110386,6,0,L|95:82,1,77.0000023498536
181,206,110700,1,0,0:0:0:0:
248,55,110857,1,0,0:0:0:0:
43,162,111014,1,0,0:0:0:0:
257,146,111171,1,0,0:0:0:0:
96,83,111328,1,0,0:0:0:0:
72,254,111485,1,0,0:0:0:0:
225,144,111642,5,0,0:0:0:0:
43,162,111799,1,0,0:0:0:0:
243,238,111956,1,0,0:0:0:0:
77,163,112113,1,0,0:0:0:0:
257,146,112270,1,0,0:0:0:0:
79,198,112428,1,0,0:0:0:0:
324,284,112585,2,0,L|405:280,1,77.0000023498536
172,87,112899,6,0,L|93:82,1,77.0000023498536
247,288,113213,2,0,L|326:283,1,77.0000023498536
153,55,113527,2,0,L|74:50,1,77.0000023498536
281,318,113841,2,0,L|360:313,1,77.0000023498536
76,163,114155,6,0,L|34:146,3,38.5000011749268
153,55,114469,2,0,L|195:38,3,38.5000011749268
283,166,114784,2,0,L|273:203,3,38.5000011749268
440,75,115098,2,0,L|451:33,3,38.5000011749268
510,284,116197,6,0,P|430:324|347:284,1,181.999991668702,2|0,0:0|0:0,0:0:0:0:
218,150,116668,2,0,P|171:137|115:159,1,90.9999958343508,2|0,0:0|0:0,0:0:0:0:
70,324,116982,2,0,P|118:323|165:283,1,90.9999958343508,2|0,0:0|0:0,0:0:0:0:
218,150,117296,1,2,0:0:0:0:
263,243,117453,1,0,0:0:0:0:
165,59,117610,5,2,0:0:0:0:
131,147,117767,1,0,0:0:0:0:
278,87,117924,1,2,0:0:0:0:
56,88,118081,1,2,0:0:0:0:
301,171,118238,2,0,L|286:280,1,90.9999958343508
277,374,118552,1,0,0:0:0:0:
211,314,118710,1,2,0:0:0:0:
375,230,118867,5,2,0:0:0:0:
424,353,119024,1,2,0:0:0:0:
499,159,119181,1,2,0:0:0:0:
424,319,119338,1,2,0:0:0:0:
389,137,119495,1,2,0:0:0:0:
467,239,119652,1,2,0:0:0:0:
453,80,119809,1,2,0:0:0:0:
301,171,119966,1,2,0:0:0:0:
209,46,120123,6,0,B|165:31|165:31|118:36,1,90.9999958343508,2|0,0:0|0:0,0:0:0:0:
96,230,120437,2,0,B|140:234|140:234|184:219,1,90.9999958343508,2|0,0:0|0:0,0:0:0:0:
345,47,120751,6,0,P|354:82|351:150,1,90.9999958343508,2|0,0:0|0:0,0:0:0:0:
441,361,121066,2,0,P|450:326|447:258,1,90.9999958343508,2|0,0:0|0:0,0:0:0:0:
434,61,121380,6,0,P|390:47|343:48,1,90.9999958343508,2|0,0:0|0:0,0:0:0:0:
257,268,121694,2,0,P|302:268|345:254,1,90.9999958343508,2|0,0:0|0:0,0:0:0:0:
145,115,122008,1,2,0:0:0:0:
148,248,122165,1,0,0:0:0:0:
241,80,122322,1,2,0:0:0:0:
285,182,122479,1,0,0:0:0:0:
97,23,122636,6,0,B|45:97|45:97|76:202,2,181.999991668702,2|0|2,0:0|0:0|0:0,0:0:0:0:
241,80,123422,1,2,0:0:0:0:
141,97,123579,1,2,0:0:0:0:
365,59,123736,6,0,L|463:55,1,90.9999958343508,2|0,0:0|0:0,0:0:0:0:
454,263,124050,2,0,L|356:259,1,90.9999958343508,2|0,0:0|0:0,0:0:0:0:
141,97,124364,1,2,0:0:0:0:
198,296,124521,1,0,0:0:0:0:
304,155,124678,1,2,0:0:0:0:
70,184,124835,1,0,0:0:0:0:
363,259,124992,5,2,0:0:0:0:
174,174,125306,5,2,0:0:0:0:
437,69,125621,5,2,0:0:0:0:
297,347,125935,5,2,0:0:0:0:
339,66,126249,6,0,P|386:52|440:71,1,105.000004005432,2|0,0:0|0:0,0:0:0:0:
480,197,126720,2,0,B|450:209|450:209|415:210,1,52.5000020027161
297,202,127034,1,2,0:0:0:0:
383,134,127191,1,2,0:0:0:0:
381,300,127348,1,2,0:0:0:0:
243,272,127505,6,0,P|212:265|181:269,1,52.5000020027161,2|0,0:0|0:0,0:0:0:0:
77,190,127819,2,0,P|102:184|129:185,2,52.5000020027161,2|0|0,0:0|0:0|0:0,0:0:0:0:
214,192,128290,1,2,0:0:0:0:
207,350,128447,1,2,0:0:0:0:
77,190,128604,1,2,0:0:0:0:
259,59,128762,6,0,P|283:56|317:60,1,52.5000020027161,2|0,0:0|0:0,0:0:0:0:
411,228,129076,2,0,P|435:231|469:227,1,52.5000020027161,2|0,0:0|0:0,0:0:0:0:
510,108,129390,2,0,P|486:105|452:109,1,52.5000020027161,2|0,0:0|0:0,0:0:0:0:
276,149,129704,2,0,P|252:152|218:148,1,52.5000020027161,2|0,0:0|0:0,0:0:0:0:
259,59,130018,1,2,0:0:0:0:
390,211,130175,6,0,L|419:235,3,26.2500010013581,0|0|2|0,0:0|0:0|0:0|0:0,0:0:0:0:
279,261,130489,2,0,L|258:277,3,26.2500010013581,2|0|2|0,0:0|0:0|0:0|0:0,0:0:0:0:
156,145,130803,1,2,0:0:0:0:
133,127,130882,1,0,0:0:0:0:
105,117,130960,1,0,0:0:0:0:
75,117,131039,1,0,0:0:0:0:
47,125,131118,1,2,0:0:0:0:
25,144,131196,1,0,0:0:0:0:
15,171,131275,1,0,0:0:0:0:
9,199,131353,1,0,0:0:0:0:
9,227,131432,6,0,L|4:310,1,77.0000023498536
170,241,131746,1,2,0:0:0:0:
109,316,131903,1,0,0:0:0:0:
177,190,132060,2,0,L|173:113,1,77.0000023498536,2|0,0:0|0:0,0:0:0:0:
167,26,132374,1,0,0:0:0:0:
319,79,132531,6,0,L|408:96,1,77.0000023498536,2|0,0:0|0:0,0:0:0:0:
252,204,132845,2,0,L|176:189,1,77.0000023498536,2|0,0:0|0:0,0:0:0:0:
47,158,133159,1,2,0:0:0:0:
254,122,133316,1,2,0:0:0:0:
47,125,133474,1,2,0:0:0:0:
245,244,133631,2,0,L|354:262,1,77.0000023498536,2|0,0:0|0:0,0:0:0:0:
469,259,133945,5,0,0:0:0:0:
389,168,134102,1,0,0:0:0:0:
314,346,134259,2,0,P|352:352|390:345,1,77.0000023498536,2|0,0:0|0:0,0:0:0:0:
246,244,134573,2,0,P|208:236|170:242,1,77.0000023498536,2|0,0:0|0:0,0:0:0:0:
201,338,134887,1,2,0:0:0:0:
335,255,135044,2,0,L|380:245,3,38.5000011749268,2|0|0|0,0:0|0:0|0:0|0:0,0:0:0:0:
249,97,135358,2,0,L|204:87,3,38.5000011749268,2|0|0|0,0:0|0:0|0:0|0:0,0:0:0:0:
343,70,135673,5,2,0:0:0:0:
311,160,135830,1,2,0:0:0:0:
131,71,135987,1,2,0:0:0:0:
355,45,136144,1,2,0:0:0:0:
170,242,136301,5,2,0:0:0:0:
256,192,136458,12,0,140227,0:0:0:0:
98,62,140542,5,0,0:0:0:0:
138,136,140856,1,0,0:0:0:0:
80,233,141170,1,0,0:0:0:0:
153,331,141484,1,2,0:0:0:0:
256,192,141641,12,0,145097,0:0:0:0:
247,310,145254,5,0,0:0:0:0:
247,310,145332,1,0,0:0:0:0:
247,310,145411,2,0,L|224:356,3,38.5000011749268
385,220,145725,5,0,0:0:0:0:
385,220,145803,1,0,0:0:0:0:
385,220,145882,2,0,L|408:266,3,38.5000011749268
256,192,146196,1,0,0:0:0:0:
447,96,146353,1,0,0:0:0:0:
493,258,146510,6,0,P|448:342|329:317,1,210.000008010865
291,268,147453,1,0,0:0:0:0:
317,62,147767,2,0,L|402:255,1,210.000008010865
504,158,148709,1,0,0:0:0:0:
317,62,149023,6,0,P|220:25|124:62,1,210.000008010865
55,133,149966,1,0,0:0:0:0:
109,309,150280,2,0,P|187:259|222:151,1,210.000008010865
51,170,151222,1,0,0:0:0:0:
51,201,151301,1,0,0:0:0:0:
50,232,151379,1,0,0:0:0:0:
49,263,151458,1,0,0:0:0:0:
48,301,151536,6,0,L|110:309,1,61.2500005841255
179,215,151851,2,0,L|240:208,1,61.2500005841255
330,310,152165,2,0,L|390:317,1,61.2500005841255
452,218,152479,2,0,L|513:211,1,61.2500005841255
374,103,152793,6,0,P|343:105|313:101,1,61.2500005841255
264,1,153107,2,0,P|293:-3|346:6,1,61.2500005841255
165,113,153421,2,0,P|134:115|104:111,1,61.2500005841255
57,1,153735,2,0,P|86:-3|139:6,1,61.2500005841255
313,101,154049,6,0,L|343:98,3,30.6250002920628,12|0|0|0,0:0|0:0|0:0|0:0,0:0:0:0:
182,204,154364,2,0,L|152:201,3,30.6250002920628,8|0|0|0,0:0|0:0|0:0|0:0,0:0:0:0:
382,176,154678,1,8,0:0:0:0:
414,182,154756,1,0,0:0:0:0:
445,195,154835,1,0,0:0:0:0:
470,216,154913,1,0,0:0:0:0:
485,246,154992,2,0,L|510:295,3,30.6250002920628,8|0|0|0,0:0|0:0|0:0|0:0,0:0:0:0:
327,332,155306,6,0,L|302:381,3,30.6250002920628,8|0|0|0,0:0|0:0|0:0|0:0,0:0:0:0:
255,164,155620,2,0,L|230:115,3,30.6250002920628,8|0|0|0,0:0|0:0|0:0|0:0,0:0:0:0:
63,257,155934,5,8,0:0:0:0:
61,229,156012,1,0,0:0:0:0:
59,202,156091,1,0,0:0:0:0:
57,174,156169,1,0,0:0:0:0:
55,147,156248,1,8,0:0:0:0:
53,119,156326,1,0,0:0:0:0:
51,92,156405,1,0,0:0:0:0:
49,64,156483,1,0,0:0:0:0:
46,41,156563,1,0,0:0:0:0:
246,101,156720,5,2,0:0:0:0:
127,107,156877,1,2,0:0:0:0:
183,14,157034,1,2,0:0:0:0:
309,183,157191,2,0,P|230:210|159:158,1,154.000004699707,2|0,0:0|0:0,0:0:0:0:
173,179,157662,1,2,0:0:0:0:
399,93,157819,5,2,0:0:0:0:
246,101,157976,1,2,0:0:0:0:
453,166,158133,1,2,0:0:0:0:
279,100,158290,1,2,0:0:0:0:
474,79,158447,5,10,0:0:0:0:
309,204,158683,5,10,0:0:0:0:
450,337,158919,6,0,P|395:353|369:347,1,77.0000023498536,10|0,0:0|0:0,0:0:0:0:
309,191,159233,5,2,0:0:0:0:
399,93,159390,1,2,0:0:0:0:
402,238,159547,1,2,0:0:0:0:
225,128,159704,2,0,L|126:110,1,77.0000023498536,2|0,0:0|0:0,0:0:0:0:
391,13,160018,2,0,L|490:-5,1,77.0000023498536,2|0,0:0|0:0,0:0:0:0:
309,191,160332,5,2,0:0:0:0:
225,128,160489,1,2,0:0:0:0:
397,236,160646,2,0,B|376:283|337:286,1,77.0000023498536,2|0,0:0|0:0,0:0:0:0:
208,227,160960,5,10,0:0:0:0:
473,150,161196,5,10,0:0:0:0:
255,11,161432,6,0,L|203:9,1,38.5000011749268,10|0,0:0|0:0,0:0:0:0:
163,13,161589,6,0,L|89:37,1,77.0000023498536,0|2,0:0|0:0,0:0:0:0:
18,194,161903,1,2,0:0:0:0:
4,101,162060,1,2,0:0:0:0:
132,201,162217,1,2,0:0:0:0:
172,112,162374,1,2,0:0:0:0:
57,278,162531,2,0,P|52:318|61:358,1,77.0000023498536
208,227,162845,5,0,0:0:0:0:
147,311,163002,1,0,0:0:0:0:
372,255,163159,2,0,L|454:240,1,77.0000023498536
172,112,163474,6,0,P|129:103|90:109,1,77.0000023498536
318,12,163788,6,0,P|361:3|400:9,1,77.0000023498536
414,168,164102,5,0,0:0:0:0:
478,43,164259,1,0,0:0:0:0:
359,99,164416,1,0,0:0:0:0:
506,153,164573,1,0,0:0:0:0:
321,183,164730,5,0,0:0:0:0:
490,236,164887,1,0,0:0:0:0:
291,274,165044,1,0,0:0:0:0:
506,153,165201,1,0,0:0:0:0:
277,113,165358,5,0,0:0:0:0:
372,255,165515,1,0,0:0:0:0:
454,73,165673,2,0,P|466:55|488:37,3,38.5000011749268
321,183,165987,2,0,L|235:192,1,77.0000023498536
11,105,166301,1,2,0:0:0:0:
8,139,166379,1,2,0:0:0:0:
5,174,166458,1,2,0:0:0:0:
3,208,166536,1,2,0:0:0:0:
0,243,166615,5,2,0:0:0:0:
187,271,166772,5,0,0:0:0:0:
0,313,166929,1,0,0:0:0:0:
235,353,167086,1,0,0:0:0:0:
86,222,167243,2,0,P|46:206|-5:210,1,87.5
179,69,167557,2,0,P|219:53|270:57,1,87.5
415,178,167871,5,0,0:0:0:0:
234,139,168028,1,0,0:0:0:0:
418,100,168185,1,0,0:0:0:0:
239,231,168342,1,0,0:0:0:0:
458,304,168499,1,0,0:0:0:0:
161,193,168735,5,0,0:0:0:0:
430,6,168971,6,0,L|438:72,1,43.75
438,101,169128,6,0,P|394:91|346:101,1,87.5
222,205,169442,1,0,0:0:0:0:
450,237,169599,1,0,0:0:0:0:
268,136,169756,1,0,0:0:0:0:
321,334,169913,1,0,0:0:0:0:
393,176,170070,1,0,0:0:0:0:
148,278,170227,1,0,0:0:0:0:
368,262,170384,5,0,0:0:0:0:
124,197,170541,1,0,0:0:0:0:
312,206,170698,1,0,0:0:0:0:
67,264,170855,1,0,0:0:0:0:
257,67,171012,6,0,P|296:81|339:123,1,87.5
383,250,171327,1,0,0:0:0:0:
222,205,171484,1,0,0:0:0:0:
430,21,171641,6,0,P|489:76|476:197,1,175
430,316,172112,1,0,0:0:0:0:
258,303,172269,2,0,L|153:291,1,87.5
48,140,172583,2,0,P|112:120|139:128,1,87.5
274,189,172897,1,0,0:0:0:0:
106,210,173054,1,0,0:0:0:0:
299,76,173211,1,0,0:0:0:0:
186,249,173368,1,0,0:0:0:0:
218,59,173525,1,0,0:0:0:0:
276,156,173683,1,0,0:0:0:0:
81,71,173840,1,0,0:0:0:0:
278,2,173997,1,0,0:0:0:0:
223,230,174154,6,0,P|198:247|179:248,3,43.75
155,161,174468,2,0,P|130:144|111:143,3,43.75
360,97,174782,5,0,0:0:0:0:
401,86,174860,1,0,0:0:0:0:
444,95,174939,1,0,0:0:0:0:
478,122,175017,1,0,0:0:0:0:
496,161,175096,1,0,0:0:0:0:
499,178,175175,1,0,0:0:0:0:
499,194,175253,1,0,0:0:0:0:
499,211,175332,1,0,0:0:0:0:
499,228,175410,2,0,L|501:293,3,43.75
358,140,175724,2,0,L|360:75,3,43.75
271,259,176039,5,0,0:0:0:0:
219,81,176196,1,0,0:0:0:0:
444,95,176353,1,0,0:0:0:0:
216,171,176510,1,0,0:0:0:0:
404,251,176667,5,0,0:0:0:0:
404,251,176745,1,0,0:0:0:0:
404,251,176824,2,0,L|452:261,1,35
468,378,176981,5,0,0:0:0:0:
468,378,177059,1,0,0:0:0:0:
468,378,177138,2,0,L|423:370,1,35
297,325,177295,1,0,0:0:0:0:
269,319,177374,1,0,0:0:0:0:
241,317,177452,1,0,0:0:0:0:
213,311,177531,1,0,0:0:0:0:
185,308,177609,1,0,0:0:0:0:
157,304,177688,1,0,0:0:0:0:
129,300,177766,1,0,0:0:0:0:
53,95,180908,6,0,P|152:126|223:91,1,181.999991668702
410,5,181379,2,0,L|512:0,1,90.9999958343508
373,171,181693,2,0,L|271:166,1,90.9999958343508
465,107,182007,2,0,P|489:149|474:212,1,90.9999958343508
311,300,182321,5,0,0:0:0:0:
512,265,182478,1,0,0:0:0:0:
374,249,182635,1,0,0:0:0:0:
512,343,182792,1,0,0:0:0:0:
352,384,182949,2,0,L|230:376,1,90.9999958343508
282,176,183263,2,0,L|404:168,1,90.9999958343508
199,270,183578,5,2,0:0:0:0:
125,101,183735,1,2,0:0:0:0:
250,178,183892,1,2,0:0:0:0:
273,24,184049,1,2,0:0:0:0:
157,180,184206,1,0,0:0:0:0:
349,91,184363,1,2,0:0:0:0:
207,99,184520,1,2,0:0:0:0:
293,260,184677,1,2,0:0:0:0:
447,91,184834,6,0,L|454:173,1,80.5000015354157,2|0,0:0|0:0,0:0:0:0:
504,334,185148,2,0,L|510:253,1,80.5000015354157,2|0,0:0|0:0,0:0:0:0:
261,56,185462,6,0,L|151:45,1,87.5,2|0,0:0|0:0,0:0:0:0:
255,337,185777,2,0,L|342:328,1,87.5,2|0,0:0|0:0,0:0:0:0:
108,195,186091,5,0,0:0:0:0:
183,278,186248,1,0,0:0:0:0:
297,124,186405,2,0,P|325:92|345:45,1,87.5
138,39,186719,2,0,L|43:-1,1,87.5
243,199,187033,2,0,P|286:219|336:216,1,87.5
46,109,187347,6,0,B|9:188|9:188|41:275,2,175
243,199,188133,1,0,0:0:0:0:
108,195,188290,1,0,0:0:0:0:
318,58,188447,6,0,L|437:47,1,87.5
506,214,188761,2,0,L|387:203,1,87.5
283,369,189075,2,0,L|402:358,1,87.5
287,123,189389,2,0,L|168:112,1,87.5
123,295,189703,5,0,0:0:0:0:
286,40,190017,5,0,0:0:0:0:
73,136,190332,5,0,0:0:0:0:
506,73,190646,5,0,0:0:0:0:
446,299,190960,6,0,P|451:238|472:159,1,122.500001168251
436,29,191431,6,0,P|421:67|429:96,1,61.2500005841255
324,44,191745,1,0,0:0:0:0:
175,94,191902,1,0,0:0:0:0:
232,22,192059,1,0,0:0:0:0:
256,156,192216,2,0,L|265:230,1,61.2500005841255
377,333,192530,1,0,0:0:0:0:
377,333,192687,2,0,L|386:259,1,61.2500005841255
377,159,193001,5,0,0:0:0:0:
480,255,193158,1,0,0:0:0:0:
500,52,193315,1,0,0:0:0:0:
297,310,193473,6,0,P|259:299|221:301,1,61.2500005841255
193,193,193787,2,0,P|158:212|132:240,1,61.2500005841255
16,181,194101,2,0,P|12:220|21:257,1,61.2500005841255
112,77,194415,2,0,P|115:37|106:0,1,61.2500005841255
20,56,194729,1,0,0:0:0:0:
215,38,194886,6,0,L|263:33,3,30.6250002920628
331,107,195200,2,0,L|300:103,3,30.6250002920628
465,29,195514,1,0,0:0:0:0:
479,49,195593,1,0,0:0:0:0:
490,70,195671,1,0,0:0:0:0:
497,93,195750,1,0,0:0:0:0:
502,117,195829,1,0,0:0:0:0:
505,141,195907,1,0,0:0:0:0:
508,165,195986,1,0,0:0:0:0:
510,189,196064,1,0,0:0:0:0:
509,227,196143,6,0,L|511:319,1,73.4999977569581
428,235,196457,1,0,0:0:0:0:
380,336,196614,1,0,0:0:0:0:
295,241,196771,2,0,L|297:314,1,73.4999977569581
299,342,197085,1,0,0:0:0:0:
201,181,197242,2,0,L|203:107,1,73.4999977569581
151,292,197556,1,0,0:0:0:0:
77,133,197713,2,0,P|42:106|6:101,1,73.4999977569581
132,61,198027,1,0,0:0:0:0:
0,194,198185,1,0,0:0:0:0:
151,292,198342,2,0,P|186:302|239:288,1,73.4999977569581
418,97,198656,5,0,0:0:0:0:
452,192,198813,1,0,0:0:0:0:
257,59,198970,2,0,L|167:44,1,73.4999977569581
306,188,199284,2,0,L|396:173,1,73.4999977569581
494,122,199598,1,0,0:0:0:0:
259,45,199755,2,0,L|169:30,1,73.4999977569581
318,272,200069,2,0,L|408:257,1,73.4999977569581
215,168,200384,5,2,0:0:0:0:
195,291,200541,1,2,0:0:0:0:
355,163,200698,1,2,0:0:0:0:
114,63,200855,1,2,0:0:0:0:
107,330,201012,6,0,P|189:375|279:336,1,181.999991668702
355,163,201483,2,0,L|367:73,1,87.5
473,272,201797,2,0,L|461:358,1,87.5
352,195,202111,2,0,P|323:170|274:157,1,87.5
107,255,202425,6,0,L|202:261,1,87.5
89,69,202739,2,0,L|1:63,1,87.5
193,180,203053,5,0,0:0:0:0:
40,147,203210,1,0,0:0:0:0:
195,45,203367,1,0,0:0:0:0:
279,243,203525,6,0,P|215:288|124:272,1,175
303,75,203996,6,0,L|394:68,1,87.5
190,194,204310,2,0,L|99:187,1,87.5
259,363,204624,2,0,L|350:356,1,87.5
493,232,204938,1,0,0:0:0:0:
378,172,205095,1,0,0:0:0:0:
428,310,205252,2,0,P|472:333|518:328,1,87.5
374,143,205566,5,2,0:0:0:0:
357,262,205723,1,2,0:0:0:0:
512,72,205881,1,2,0:0:0:0:
297,201,206038,6,0,P|192:215|129:152,1,175
91,28,206509,2,0,L|-3:9,1,87.5
0,157,206823,1,0,0:0:0:0:
135,94,206980,1,0,0:0:0:0:
229,252,207137,1,0,0:0:0:0:
94,189,207294,1,0,0:0:0:0:
246,74,207451,5,0,0:0:0:0:
246,74,207530,1,0,0:0:0:0:
246,74,207608,2,0,L|290:69,1,43.75
388,170,207765,5,0,0:0:0:0:
388,170,207844,1,0,0:0:0:0:
388,170,207922,2,0,L|344:165,1,43.75
488,68,208079,5,0,0:0:0:0:
236,170,208237,1,0,0:0:0:0:
458,293,208394,1,0,0:0:0:0:
224,59,208551,6,0,L|45:41,1,167.999994873047
0,200,209022,6,0,P|45:213|90:206,1,83.9999974365235
224,59,209336,2,0,P|269:46|314:53,1,83.9999974365235
327,222,209650,1,0,0:0:0:0:
215,176,209807,1,0,0:0:0:0:
374,118,209964,2,0,L|474:111,1,83.9999974365235
237,268,210278,2,0,L|137:261,1,83.9999974365235
322,54,210592,5,0,0:0:0:0:
425,170,210749,1,0,0:0:0:0:
381,338,210906,1,0,0:0:0:0:
177,157,211064,6,0,B|96:120|164:64|73:20,1,167.999994873047
32,132,211535,2,0,P|57:188|85:217,1,83.9999974365235
269,155,211849,2,0,P|253:109|215:81,1,83.9999974365235
239,299,212163,2,0,P|283:307|323:293,1,83.9999974365235
428,91,212477,6,0,L|527:83,1,83.9999974365235
399,223,212791,2,0,L|300:215,1,83.9999974365235
134,151,213105,5,0,0:0:0:0:
335,123,213262,1,0,0:0:0:0:
45,228,213420,1,0,0:0:0:0:
281,378,213577,6,0,P|359:371|421:294,1,167.999994873047
448,144,214048,5,0,0:0:0:0:
245,237,214205,1,0,0:0:0:0:
411,218,214362,5,0,0:0:0:0:
194,155,214519,1,0,0:0:0:0:
212,317,214676,5,0,0:0:0:0:
281,144,214833,1,0,0:0:0:0:
316,282,214990,5,0,0:0:0:0:
256,67,215147,1,0,0:0:0:0:
166,229,215304,5,0,0:0:0:0:
340,56,215461,1,0,0:0:0:0:
129,120,215618,5,0,0:0:0:0:
408,109,215775,1,0,0:0:0:0:
316,282,215932,1,0,0:0:0:0:
177,48,216090,2,0,P|106:35|47:87,1,140
255,146,216561,5,0,0:0:0:0:
60,200,216718,1,0,0:0:0:0:
328,200,216875,5,0,0:0:0:0:
129,120,217032,1,0,0:0:0:0:
335,115,217189,5,0,0:0:0:0:
148,239,217346,1,0,0:0:0:0:
271,64,217503,5,0,0:0:0:0:
346,292,217660,1,0,0:0:0:0:
395,164,217817,5,0,0:0:0:0:
256,351,217974,1,0,0:0:0:0:
129,120,218131,5,0,0:0:0:0:
256,273,218288,1,0,0:0:0:0:
349,27,218446,1,0,0:0:0:0:
256,193,221116,5,0,0:0:0:0:
