osu file format v14

[General]
AudioFilename: audio.ogg
AudioLeadIn: 0
PreviewTime: 42834
Countdown: 0
SampleSet: Soft
StackLeniency: 0.4
Mode: 0
LetterboxInBreaks: 0
WidescreenStoryboard: 1

[Editor]
DistanceSpacing: 0.8
BeatDivisor: 4
GridSize: 4
TimelineZoom: 1.3

[Metadata]
Title:BE the HERO (TV Size)
TitleUnicode:BE the HERO (TV Size)
Artist:Raon
ArtistUnicode:라온
Creator:Log Off Now
Version:browiec's Hard
Source:惑星のさみだれ
Tags:japanese anime pop rock jpop j-pop jrock j-rock the lucifer and the biscuit hammer 2nd opening op 2 hoshino samidare browiec
BeatmapID:3864458
BeatmapSetID:1876954

[Difficulty]
HPDrainRate:4
CircleSize:3.6
OverallDifficulty:6.4
ApproachRate:8
SliderMultiplier:1.4
SliderTickRate:1

[Events]
//Background and Video events
0,0,"bethehero.png",0,0
Video,-120,"hoshino.mp4"
//Break Periods
//Storyboard Layer 0 (Background)
//Storyboard Layer 1 (Fail)
//Storyboard Layer 2 (Pass)
//Storyboard Layer 3 (Foreground)
//Storyboard Layer 4 (Overlay)
//Storyboard Sound Samples

[TimingPoints]
520,324.324324324324,4,2,1,65,1,0
520,-125,4,2,1,65,0,0
1655,-100,4,2,1,75,0,0
12033,-125,4,2,1,75,0,0
12195,-125,4,2,2,50,0,0
20952,-125,4,2,1,60,0,0
21925,-125,4,2,1,65,0,0
22411,-111.111111111111,4,2,1,65,0,0
32790,-125,4,2,1,65,0,0
33276,-125,4,2,1,60,0,0
37979,-111.111111111111,4,2,1,70,0,0
43330,-100,4,2,1,85,0,0
53547,-125,4,2,1,85,0,0
54033,-100,4,2,1,85,0,0
74790,-100,4,2,1,75,0,0
79492,363.636363636364,4,2,1,75,1,0
79492,-89.2857142857143,4,2,1,75,0,0
79856,387.096774193548,4,2,1,75,1,0
80146,300,4,2,1,75,1,0
80296,331.491712707182,4,2,1,75,1,0
80461,307.692307692308,4,2,1,75,1,0
80691,377.358490566037,4,2,1,75,1,0
80785,324.324324324324,4,2,1,75,1,0
80947,324.324324324324,4,2,1,75,1,0
85244,-100,4,2,1,50,0,0
86784,-100,4,2,1,30,0,0
88406,-100,4,2,1,10,0,0

[Colours]
Combo1 : 129,153,252
Combo2 : 255,102,102
Combo3 : 209,157,244
Combo4 : 234,194,140

[HitObjects]
152,100,520,6,0,B|99:93|99:93|95:97|95:97|40:90,2,112,2|2|2,0:3|0:3|0:3,0:0:0:0:
216,156,1330,2,0,L|271:149,1,56,8|4,0:3|0:3,0:0:0:0:
324,64,1655,6,0,P|388:42|447:77,1,140,6|0,1:2|1:2,0:2:0:0:
500,152,2141,2,0,L|491:223,1,70,8|0,0:2|0:2,0:2:0:0:
408,260,2465,2,0,L|416:331,1,70,2|2,1:2|1:2,0:0:0:0:
336,372,2790,1,10,0:2:0:0:
336,372,2952,2,0,B|284:336|284:336|204:368,1,140,2|2,1:2|1:2,0:2:0:0:
148,308,3438,1,10,0:2:0:0:
148,308,3601,2,0,L|156:236,1,70,2|0,0:2|1:2,0:2:0:0:
220,172,3925,1,2,1:2:0:0:
220,172,4087,1,10,0:2:0:0:
284,244,4249,6,0,B|335:237|335:237|366:258|366:258|417:251,1,140,2|0,1:2|1:2,0:2:0:0:
492,200,4736,2,0,L|483:128,1,70,10|0,0:2|0:2,0:2:0:0:
448,48,5060,2,0,B|416:36|416:36|380:48,1,70,2|2,1:2|1:2,0:0:0:0:
316,108,5384,1,10,0:2:0:0:
316,108,5547,2,0,L|177:90,1,140,2|0,1:2|1:2,0:2:0:0:
116,24,6033,2,0,L|44:32,1,70,10|0,0:2|0:2,0:2:0:0:
16,120,6357,1,2,1:2:0:0:
16,120,6438,1,8,0:2:0:0:
16,120,6519,2,0,L|24:191,1,70,8|8,0:2|0:2,0:0:0:0:
96,256,6844,6,0,B|172:232|160:284|232:264,1,140,4|0,1:2|1:2,0:2:0:0:
320,292,7330,2,0,P|325:257|316:223,1,70,8|0,0:2|0:2,0:2:0:0:
240,172,7655,2,0,P|234:137|243:103,1,70,2|2,1:2|1:2,0:0:0:0:
292,28,7979,1,10,0:2:0:0:
292,28,8141,2,0,B|359:19|359:19|383:49|423:52,1,140,2|2,1:2|1:2,0:2:0:0:
500,104,8628,1,10,0:2:0:0:
500,104,8790,2,0,L|491:175,1,70,2|0,0:2|1:2,0:2:0:0:
424,236,9114,1,2,1:2:0:0:
424,236,9276,1,10,0:2:0:0:
352,160,9438,6,0,B|320:124|256:136|256:136|235:165,1,140,2|0,1:2|1:2,0:2:0:0:
164,220,9925,2,0,L|172:291,1,70,10|0,0:2|0:2,0:2:0:0:
136,372,10249,2,0,P|169:380|204:375,1,70,2|2,1:2|1:2,0:0:0:0:
264,304,10574,1,10,0:2:0:0:
264,304,10736,1,2,1:2:0:0:
332,364,10898,6,0,L|403:355,1,70,8|0,0:2|1:2,0:0:0:0:
420,268,11222,2,0,L|348:259,1,70,10|0,0:2|1:2,0:0:0:0:
288,208,11547,1,10,0:2:0:0:
288,208,11628,1,8,0:3:0:0:
288,208,11709,1,2,1:2:0:0:
112,352,12195,6,0,B|84:312|84:312|100:251,1,112,4|10,1:2|0:2,0:2:0:0:
176,212,12682,1,2,0:2:0:0:
176,212,12844,2,0,B|169:160|169:160|173:155|173:155|166:100,1,112,10|10,0:2|0:2,0:2:0:0:
208,28,13330,6,0,P|256:20|316:56,1,112,2|2,0:2|0:2,0:2:0:0:
372,204,13979,2,0,L|427:197,1,56,2|8,0:2|0:2,0:2:0:0:
500,240,14303,2,0,L|493:295,1,56,2|8,0:2|0:2,0:2:0:0:
432,352,14628,2,0,B|412:356|388:346|388:346|370:360|370:360|322:354,1,112,2|2,1:2|1:2,0:0:0:0:
264,300,15114,2,0,L|152:313,2,112,10|8|8,0:2|0:2|0:2,0:2:0:0:
336,252,15925,5,2,1:2:0:0:
336,252,16087,2,0,P|344:204|308:144,1,112,10|2,0:2|0:2,0:2:0:0:
260,88,16574,2,0,L|204:81,1,56,8|0,0:3|0:2,0:2:0:0:
148,24,16898,1,4,0:3:0:0:
148,24,17060,2,0,L|92:30,1,56,4|0,0:3|1:2,0:0:0:0:
28,84,17384,6,0,B|11:144|11:144|39:184,1,112,0|10,1:2|0:2,0:2:0:0:
112,236,17871,1,2,0:2:0:0:
112,236,18033,2,0,B|172:216|164:256|220:240,1,112,10|10,0:2|0:2,0:2:0:0:
276,176,18519,6,0,P|323:148|378:155,1,112,2|2,1:2|1:2,0:0:0:0:
468,296,19168,2,0,L|412:289,1,56,2|8,0:2|0:2,0:2:0:0:
352,348,19492,2,0,L|296:341,1,56,2|8,0:2|0:2,0:2:0:0:
216,372,19817,6,0,L|202:260,1,112,2|0,0:2|0:2,0:2:0:0:
132,224,20303,1,8,0:2:0:0:
132,224,20465,2,0,L|138:168,1,56,2|8,1:2|0:2,0:0:0:0:
200,112,20790,1,0,1:2:0:0:
276,160,20952,1,10,0:2:0:0:
276,160,21114,1,10,0:2:0:0:
480,340,21925,6,0,L|476:371,5,28,8|8|8|8|8|8,0:2|0:2|0:2|0:2|0:2|0:0,0:0:0:0:
464,324,22411,6,0,B|432:314|432:314|405:324|405:324|373:314|342:324,1,125.999996154785,4|0,1:2|1:2,0:2:0:0:
268,376,22898,2,0,L|205:368,1,62.9999980773926,10|0,0:2|0:2,0:2:0:0:
144,312,23222,1,2,1:2:0:0:
144,312,23384,2,0,L|151:249,1,62.9999980773926,2|10,1:2|0:2,0:0:0:0:
88,188,23709,6,0,B|80:130|80:130|84:125|84:125|77:62,1,125.999996154785,2|2,1:2|1:2,0:2:0:0:
164,44,24195,2,0,L|171:106,1,62.9999980773926,10|0,0:2|0:2,0:2:0:0:
248,160,24519,1,2,1:2:0:0:
248,160,24682,1,2,1:2:0:0:
320,108,24844,1,10,0:2:0:0:
392,160,25006,6,0,B|418:231|418:231|390:271,1,125.999996154785,2|2,1:2|1:2,0:2:0:0:
340,348,25492,1,8,0:2:0:0:
340,348,25655,2,0,B|291:341|291:341|266:357|266:357|217:351,1,125.999996154785,2|0,0:2|1:2,0:0:0:0:
152,296,26141,2,0,L|144:233,1,62.9999980773926,8|0,0:2|1:2,0:0:0:0:
208,172,26465,6,0,B|257:158|257:158|284:185|324:189,1,125.999996154785,2|10,0:2|0:2,0:2:0:0:
400,144,26952,2,0,P|405:108|395:74,1,62.9999980773926,2|0,0:2|1:2,0:2:0:0:
320,40,27276,2,0,P|286:53|261:78,1,62.9999980773926,2|8,1:2|0:2,0:0:0:0:
180,84,27601,6,0,B|116:65|121:111|58:93,1,125.999996154785,6|0,1:2|1:2,0:2:0:0:
8,164,28087,2,0,L|15:226,1,62.9999980773926,10|0,0:2|0:2,0:2:0:0:
96,272,28411,1,2,1:2:0:0:
96,272,28574,2,0,L|103:209,1,62.9999980773926,2|8,1:2|0:2,0:0:0:0:
176,160,28898,6,0,B|224:153|224:153|249:169|249:169|298:163,1,125.999996154785,2|0,1:2|1:2,0:2:0:0:
352,96,29384,2,0,L|414:103,1,62.9999980773926,10|2,0:2|0:2,0:0:0:0:
488,52,29709,1,0,1:2:0:0:
488,52,29871,1,0,1:2:0:0:
508,136,30033,1,10,0:2:0:0:
440,192,30195,6,0,B|413:263|413:263|441:303,1,125.999996154785,6|0,1:2|1:2,0:2:0:0:
384,372,30682,2,0,L|321:364,1,62.9999980773926,8|0,0:2|1:2,0:0:0:0:
272,296,31006,1,8,0:2:0:0:
272,296,31168,1,2,1:2:0:0:
208,356,31330,1,10,0:2:0:0:
140,300,31492,6,0,B|116:279|114:245|114:245|138:221|140:186,1,125.999996154785,2|2,1:2|1:2,0:2:0:0:
96,116,31979,1,10,0:2:0:0:
96,116,32141,2,0,L|33:108,1,62.9999980773926,2|8,1:2|0:2,0:0:0:0:
8,32,32465,1,10,0:2:0:0:
8,32,32547,1,8,0:2:0:0:
8,32,32628,1,8,0:2:0:0:
92,16,32790,6,0,P|146:9|194:36,1,112,6|0,1:2|0:2,0:2:0:0:
244,104,33276,1,2,1:2:0:0:
148,244,33601,2,0,L|154:299,2,56,0|8|0,1:2|0:3|1:2,0:0:0:0:
228,216,34087,2,0,B|296:236|296:236|334:220,1,112,4|0,0:3|0:2,0:0:0:0:
384,152,34574,1,2,1:2:0:0:
384,152,34736,2,0,L|377:96,1,56,8|0,0:3|1:2,0:0:0:0:
460,84,35060,2,0,L|466:139,1,56,4|0,0:3|1:2,0:0:0:0:
496,220,35384,6,0,P|468:267|475:322,2,112,4|2|2,0:2|0:2|0:2,0:2:0:0:
466,139,36195,1,0,1:2:0:0:
466,139,36357,2,0,L|460:84,1,56,8|0,0:3|1:2,0:0:0:0:
384,44,36682,6,0,B|364:40|340:50|340:50|322:36|322:36|304:32|274:42,1,112,12|0,0:2|1:2,0:2:0:0:
216,96,37168,2,0,L|209:151,1,56,10|0,0:2|1:2,0:0:0:0:
244,228,37492,1,8,0:3:0:0:
180,280,37655,1,4,0:3:0:0:
180,280,37736,1,8,0:2:0:0:
180,280,37817,1,8,0:2:0:0:
100,232,37979,6,0,B|72:192|72:192|92:160|84:116,1,125.999996154785,6|0,1:2|1:2,0:2:0:0:
52,36,38465,2,0,P|82:29|113:34,1,62.9999980773926,10|0,0:2|0:2,0:2:0:0:
172,104,38790,2,0,P|202:110|233:105,1,62.9999980773926,2|0,1:2|1:2,0:0:0:0:
292,40,39114,1,8,0:2:0:0:
360,96,39276,6,0,B|353:151|353:151|356:156|356:156|348:219,1,125.999996154785,2|0,1:2|1:2,0:2:0:0:
268,252,39763,2,0,L|275:314,1,62.9999980773926,10|0,0:2|0:2,0:2:0:0:
344,372,40087,1,2,1:2:0:0:
344,372,40249,1,2,1:2:0:0:
412,316,40411,1,10,0:2:0:0:
496,348,40574,6,0,P|501:312|456:236,1,125.999996154785,6|0,1:2|1:2,0:2:0:0:
372,232,41060,2,0,L|310:239,1,62.9999980773926,10|0,0:2|0:2,0:2:0:0:
256,308,41384,2,0,L|194:301,1,62.9999980773926,2|0,1:2|1:2,0:0:0:0:
132,236,41709,1,10,0:2:0:0:
204,184,41871,6,0,B|211:135|211:135|195:110|195:110|201:61,1,125.999996154785,6|2,1:2|1:2,0:2:0:0:
132,8,42357,1,8,0:2:0:0:
52,44,42519,1,2,1:2:0:0:
92,124,42682,1,8,0:2:0:0:
28,184,42844,1,8,0:2:0:0:
28,184,42925,1,8,0:2:0:0:
28,184,43006,2,0,L|35:246,1,62.9999980773926,8|8,0:2|0:2,0:0:0:0:
100,328,43330,6,0,P|133:319|168:324,1,70,6|0,1:2|1:2,0:0:0:0:
252,376,43655,1,8,0:2:0:0:
252,376,43817,2,0,B|319:367|319:367|323:371|323:371|391:362,1,140,0|0,1:2|1:2,0:2:0:0:
456,300,44303,1,10,0:2:0:0:
392,236,44465,6,0,B|360:200|296:212|296:212|275:241,1,140,2|0,1:2|1:2,0:2:0:0:
200,292,44952,2,0,L|128:284,1,70,8|0,0:2|1:2,0:0:0:0:
48,324,45276,2,0,P|39:290|44:255,1,70,0|0,0:2|1:2,0:0:0:0:
112,192,45601,1,10,0:2:0:0:
112,192,45763,1,2,0:2:0:0:
52,96,45925,6,0,P|32:48|104:36,1,140,2|10,1:2|0:2,0:0:0:0:
172,84,46411,2,0,L|244:76,1,70,2|0,1:2|0:2,0:2:0:0:
304,12,46736,2,0,L|373:19,1,70,2|8,1:2|0:2,0:0:0:0:
452,64,47060,6,0,P|456:98|447:132,1,70,2|0,1:2|0:2,0:2:0:0:
432,220,47384,2,0,P|399:206|375:182,1,70,2|8,1:2|0:2,0:2:0:0:
300,132,47709,2,0,P|267:145|243:169,1,70,2|0,1:2|0:2,0:2:0:0:
164,212,48033,1,0,1:2:0:0:
164,212,48195,2,0,L|176:315,1,105,10|0,0:2|0:0,0:2:0:0:
204,352,48519,6,0,B|280:328|268:380|340:360,1,140,6|8,1:2|0:2,0:2:0:0:
416,312,49006,2,0,P|425:278|420:243,1,70,0|0,1:2|0:2,0:2:0:0:
360,184,49330,1,0,1:2:0:0:
360,184,49492,1,10,0:2:0:0:
276,224,49655,6,0,B|224:204|224:204|196:240|150:239,1,140,2|0,1:2|1:2,0:2:0:0:
76,188,50141,2,0,P|67:154|71:119,1,70,8|2,0:2|1:2,0:0:0:0:
132,52,50465,1,0,0:2:0:0:
132,52,50628,1,0,1:2:0:0:
204,108,50790,2,0,L|276:100,1,70,10|0,0:2|0:2,0:2:0:0:
376,56,51114,6,0,L|368:128,1,70,2|0,1:2|1:2,0:0:0:0:
428,196,51438,1,8,0:2:0:0:
368,264,51601,1,2,0:2:0:0:
368,264,51682,1,8,0:2:0:0:
368,264,51763,1,0,1:2:0:0:
292,200,51925,2,0,L|287:164,2,35,10|10|10,0:2|0:2|0:2,0:0:0:0:
208,272,52249,5,6,1:2:0:0:
148,100,52574,6,0,L|76:92,1,70,4|8,1:2|0:2,0:0:0:0:
12,152,52898,1,6,1:2:0:0:
124,296,53222,5,6,1:2:0:0:
276,180,53547,6,0,B|316:160|316:160|348:196|404:192,1,140,2|2,0:2|0:2,0:2:0:0:
440,168,54033,6,0,B|472:120|436:68|436:68|408:84,1,140,6|0,1:2|0:2,0:2:0:0:
316,68,54519,1,2,1:2:0:0:
244,16,54682,1,10,0:2:0:0:
180,80,54844,6,0,B|173:131|173:131|194:162|194:162|187:213,1,140,2|0,1:2|1:2,0:2:0:0:
108,256,55330,2,0,L|116:328,1,70,8|0,0:2|1:2,0:0:0:0:
196,380,55655,1,0,0:2:0:0:
264,320,55817,1,2,1:2:0:0:
264,320,55979,1,10,0:2:0:0:
364,368,56141,6,0,B|404:352|440:368|440:368|472:356|482:324,1,140,2|2,0:2|0:2,0:2:0:0:
444,248,56628,1,10,0:2:0:0:
444,248,56790,2,0,P|409:252|375:243,1,70,2|0,1:2|0:2,0:2:0:0:
324,168,57114,1,2,1:2:0:0:
324,168,57276,1,8,0:2:0:0:
236,196,57438,6,0,L|166:188,1,70,2|0,1:2|0:2,0:2:0:0:
80,160,57763,1,2,1:2:0:0:
60,72,57925,1,10,0:2:0:0:
140,24,58087,6,0,L|209:16,1,70,2|0,1:2|0:2,0:2:0:0:
284,76,58411,1,2,1:2:0:0:
284,76,58574,2,0,L|388:64,1,105,10|0,0:2|0:2,0:2:0:0:
428,44,58898,6,0,P|470:96|457:164,1,140,6|8,1:2|0:2,0:2:0:0:
392,224,59384,2,0,L|322:216,1,70,0|0,1:2|0:2,0:0:0:0:
244,168,59709,1,2,1:2:0:0:
172,220,59871,1,10,0:2:0:0:
124,144,60033,6,0,B|92:108|28:120|28:120|7:149,1,140,2|0,1:2|1:2,0:2:0:0:
36,236,60519,2,0,L|28:306,1,70,8|0,0:2|1:2,0:0:0:0:
104,368,60844,1,0,0:2:0:0:
104,368,61006,1,2,1:2:0:0:
172,308,61168,2,0,P|206:302|240:309,1,70,10|2,0:2|0:2,0:0:0:0:
356,292,61492,5,6,1:2:0:0:
356,292,61655,2,0,P|376:244|362:195,1,105,2|0,0:2|0:0,0:2:0:0:
328,164,61979,2,0,L|258:172,1,70,2|0,1:2|0:2,0:2:0:0:
188,120,62303,1,2,1:2:0:0:
188,120,62465,1,8,0:2:0:0:
264,36,62628,6,0,B|340:12|328:64|400:44,1,140,2|2,1:2|1:2,0:2:0:0:
488,32,63114,1,8,0:2:0:0:
456,116,63276,5,6,1:2:0:0:
508,292,63601,5,6,1:2:0:0:
332,244,63925,6,0,B|281:237|281:237|250:258|250:258|199:251,1,140,14|0,0:2|1:2,0:2:0:0:
128,308,64411,2,0,L|58:300,1,70,14|0,0:2|1:2,0:0:0:0:
8,228,64736,1,12,0:2:0:0:
8,228,64898,1,2,1:2:0:0:
76,168,65060,1,12,0:2:0:0:
24,92,65222,1,2,1:2:0:0:
116,28,65384,6,0,P|164:20|228:80,1,140,14|14,0:2|0:2,0:0:0:0:
200,168,65871,1,0,1:2:0:0:
200,168,66033,2,0,L|208:238,1,70,14|0,0:2|1:2,0:0:0:0:
264,308,66357,1,14,0:2:0:0:
336,224,66519,6,0,B|388:204|388:204|416:240|462:239,1,140,2|2,1:2|1:2,0:0:0:0:
504,160,67006,2,0,L|496:90,1,70,14|2,0:2|1:2,0:0:0:0:
432,32,67330,1,14,0:2:0:0:
432,32,67492,1,2,1:2:0:0:
364,92,67655,1,14,0:2:0:0:
280,16,67817,6,0,B|244:48|256:112|256:112|285:133,1,140,2|0,1:2|1:2,0:0:0:0:
360,184,68303,2,0,L|352:254,1,70,12|0,0:2|1:2,0:0:0:0:
280,308,68628,1,12,0:2:0:0:
280,308,68790,1,0,1:2:0:0:
204,256,68952,1,12,0:2:0:0:
156,336,69114,1,8,0:2:0:0:
156,336,69195,1,8,0:2:0:0:
156,336,69276,6,0,B|80:312|92:364|20:344,2,140,6|10|2,1:2|0:2|1:2,0:0:0:0:
204,256,70087,1,0,1:2:0:0:
204,256,70249,1,10,0:2:0:0:
144,188,70411,6,0,P|138:154|145:120,1,70,2|0,1:2|0:0,0:2:0:0:
224,72,70736,2,0,P|256:83|282:106,1,70,0|8,1:2|0:2,0:0:0:0:
344,184,71060,1,2,0:2:0:0:
344,184,71222,2,0,L|414:176,1,70,2|2,1:2|1:2,0:0:0:0:
468,100,71547,1,10,0:2:0:0:
380,32,71709,6,0,B|298:6|298:6|254:38,1,140,2|0,1:2|1:2,0:2:0:0:
204,112,72195,2,0,L|212:182,1,70,10|0,0:2|0:2,0:2:0:0:
156,256,72519,1,2,1:2:0:0:
156,256,72682,1,0,1:2:0:0:
68,244,72844,1,10,0:2:0:0:
36,160,73006,6,0,B|9:136|7:99|7:99|33:73|36:34,1,140,6|0,1:2|1:2,0:2:0:0:
124,12,73492,2,0,P|156:23|182:46,1,70,10|0,0:2|1:2,0:0:0:0:
224,128,73817,1,8,0:3:0:0:
308,88,73979,1,4,0:3:0:0:
308,88,74060,1,4,0:3:0:0:
308,88,74141,1,10,0:2:0:0:
404,148,74303,6,0,P|426:212|391:271,1,140,6|0,1:2|1:2,0:2:0:0:
304,292,74790,2,0,L|233:283,1,70,12|0,0:2|0:2,0:2:0:0:
180,208,75114,2,0,L|109:217,1,70,2|2,1:2|1:2,0:0:0:0:
40,168,75438,1,10,0:2:0:0:
40,168,75601,6,0,P|32:112|108:108,1,140,2|2,1:2|1:2,0:2:0:0:
196,112,76087,1,10,0:2:0:0:
196,112,76249,2,0,L|265:103,1,70,2|0,0:2|1:2,0:2:0:0:
328,36,76574,1,2,1:2:0:0:
328,36,76736,1,8,0:2:0:0:
404,120,76898,6,0,B|440:152|428:216|428:216|399:237,1,140,2|0,1:2|1:2,0:2:0:0:
320,192,77384,2,0,P|285:184|251:190,1,70,10|0,0:2|0:2,0:2:0:0:
204,268,77709,2,0,P|214:301|237:327,1,70,2|2,1:2|1:2,0:0:0:0:
324,364,78033,1,10,0:2:0:0:
324,364,78195,6,0,B|400:340|388:392|460:372,1,140,6|0,1:2|1:2,0:2:0:0:
508,296,78682,2,0,L|499:226,1,70,8|2,0:2|0:2,0:0:0:0:
440,164,79006,1,8,1:2:0:0:
440,164,79087,1,8,0:2:0:0:
440,164,79168,1,8,0:2:0:0:
364,216,79330,1,8,0:2:0:0:
314,115,79492,6,0,L|158:94,1,156.800001914063,6|8,1:2|0:2,0:2:0:0:
138,75,79952,2,0,B|106:63|106:63|70:75,1,70,0|8,1:2|0:2,0:2:0:0:
12,140,80296,2,0,L|20:209,1,70,0|2,1:2|0:2,0:0:0:0:
88,280,80614,1,0,1:2:0:0:
88,280,80785,6,0,P|146:245|210:267,1,140,8|2,0:2|0:2,0:2:0:0:
272,336,81271,1,2,1:2:0:0:
344,280,81433,1,8,0:2:0:0:
344,280,81514,1,8,0:2:0:0:
344,280,81595,2,0,L|352:210,1,70,2|8,1:2|0:2,0:2:0:0:
292,148,81919,1,8,0:2:0:0:
292,148,82001,1,8,0:2:0:0:
292,148,82082,6,0,B|283:81|283:81|313:57|316:17,1,140,6|8,1:2|1:2,0:2:0:0:
404,0,82568,2,0,P|436:11|462:35,1,70,8|8,1:2|1:2,0:0:0:0:
432,120,82892,1,8,1:2:0:0:
432,120,83055,1,8,1:2:0:0:
496,184,83217,1,8,1:2:0:0:
456,264,83379,1,12,1:2:0:0:
368,248,83541,6,0,B|286:222|286:222|242:254,1,140,8|8,1:2|0:2,0:0:0:0:
180,320,84028,1,2,0:2:0:0:
180,320,84109,1,8,0:2:0:0:
180,320,84190,1,8,0:2:0:0:
116,256,84352,1,8,0:2:0:0:
180,188,84514,2,0,L|171:118,1,70,4|8,0:3|0:3,0:2:0:0:
228,44,84838,1,0,1:2:0:0:
344,184,85163,5,4,1:2:0:0:
256,192,85325,12,0,88731,0:2:0:0:
