osu file format v14

[General]
AudioFilename: audio.ogg
AudioLeadIn: 0
PreviewTime: 42834
Countdown: 0
SampleSet: Soft
StackLeniency: 0.4
Mode: 0
LetterboxInBreaks: 0
WidescreenStoryboard: 1

[Editor]
DistanceSpacing: 1
BeatDivisor: 4
GridSize: 4
TimelineZoom: 1.8

[Metadata]
Title:BE the HERO (TV Size)
TitleUnicode:BE the HERO (TV Size)
Artist:Raon
ArtistUnicode:라온
Creator:Log Off Now
Version:Normal
Source:惑星のさみだれ
Tags:japanese anime pop rock jpop j-pop jrock j-rock the lucifer and the biscuit hammer 2nd opening op 2 hoshino samidare browiec
BeatmapID:3864381
BeatmapSetID:1876954

[Difficulty]
HPDrainRate:3.5
CircleSize:3
OverallDifficulty:4
ApproachRate:5
SliderMultiplier:0.999999999999999
SliderTickRate:1

[Events]
//Background and Video events
0,0,"bethehero.png",0,0
Video,-120,"hoshino.mp4"
//Break Periods
//Storyboard Layer 0 (Background)
//Storyboard Layer 1 (Fail)
//Storyboard Layer 2 (Pass)
//Storyboard Layer 3 (Foreground)
//Storyboard Layer 4 (Overlay)
//Storyboard Sound Samples

[TimingPoints]
520,324.324324324324,4,2,1,65,1,0
520,-100,4,2,1,65,0,0
1655,-100,4,2,1,75,0,0
12195,-100,4,2,2,50,0,0
20952,-100,4,2,1,60,0,0
21925,-100,4,2,1,65,0,0
22411,-100,4,2,1,65,0,0
33276,-100,4,2,1,60,0,0
37979,-100,4,2,1,70,0,0
43330,-90.9090909090909,4,2,1,85,0,1
53547,-90.9090909090909,4,2,1,85,0,0
54033,-90.9090909090909,4,2,1,85,0,1
74790,-100,4,2,1,75,0,0
79492,363.636363636364,4,2,1,75,1,0
79492,-90.9090909090909,4,2,1,75,0,0
79856,387.096774193548,4,2,1,75,1,0
80146,300,4,2,1,75,1,0
80296,331.491712707182,4,2,1,75,1,0
80461,307.692307692308,4,2,1,75,1,0
80691,377.358490566037,4,2,1,75,1,0
80785,324.324324324324,4,2,1,75,1,0
80947,324.324324324324,4,2,1,75,1,0
85163,-100,4,2,1,75,0,0
85244,-100,4,2,1,50,0,0
86784,-100,4,2,1,30,0,0
88406,-100,4,2,1,10,0,0

[Colours]
Combo1 : 129,153,252
Combo2 : 255,102,102
Combo3 : 209,157,244
Combo4 : 234,194,140

[HitObjects]
194,301,520,5,2,0:3:0:0:
265,231,844,1,2,0:3:0:0:
202,152,1168,2,0,L|147:166,2,50,2|8|4,0:3|0:3|0:3,0:0:0:0:
240,119,1655,6,0,P|295:132|359:146,1,99.9999999999999,6|0,1:2|1:2,0:2:0:0:
379,114,2141,1,8,0:2:0:0:
458,173,2465,2,0,L|439:233,1,50,2|2,1:2|1:2,0:0:0:0:
430,272,2790,1,10,0:2:0:0:
430,272,2952,1,2,1:2:0:0:
340,315,3276,2,0,L|321:255,1,50,2|10,1:2|0:2,0:0:0:0:
306,220,3601,1,2,0:2:0:0:
225,160,3925,1,2,1:2:0:0:
146,222,4249,6,0,P|85:204|34:195,1,99.9999999999999,2|0,1:2|1:2,0:2:0:0:
28,151,4736,1,10,0:2:0:0:
88,71,5060,2,0,L|72:17,2,50,2|2|10,1:2|1:2|0:2,0:0:0:0:
132,94,5547,2,0,P|182:95|230:50,1,99.9999999999999,2|0,1:2|1:2,0:2:0:0:
246,23,6033,1,10,0:2:0:0:
325,83,6357,1,2,1:2:0:0:
325,83,6519,2,0,L|308:144,1,50,8|8,0:2|0:2,0:0:0:0:
274,165,6844,6,0,P|291:219|306:276,1,99.9999999999999,4|0,1:2|1:2,0:2:0:0:
340,293,7330,1,8,0:2:0:0:
421,234,7655,2,0,L|437:177,1,50,2|2,1:2|1:2,0:0:0:0:
479,161,7979,1,10,0:2:0:0:
479,161,8141,1,2,1:2:0:0:
405,92,8465,2,0,L|389:35,1,50,2|10,1:2|0:2,0:0:0:0:
355,8,8790,1,2,0:2:0:0:
281,76,9114,1,2,1:2:0:0:
190,34,9438,6,0,P|149:47|92:65,1,99.9999999999999,2|0,1:2|1:2,0:2:0:0:
65,104,9925,1,10,0:2:0:0:
146,162,10249,2,0,L|131:219,1,50,2|2,1:2|1:2,0:0:0:0:
122,259,10574,1,10,0:2:0:0:
122,259,10736,2,0,P|146:297|208:305,1,99.9999999999999,2|0,1:2|1:2,0:0:0:0:
236,276,11222,1,10,0:2:0:0:
306,347,11547,1,10,0:2:0:0:
306,347,11709,1,2,1:2:0:0:
401,231,12195,6,0,P|383:177|370:115,1,99.9999999999999,4|10,1:2|0:2,0:2:0:0:
305,61,12844,2,0,P|248:32|202:37,1,99.9999999999999,10|10,0:2|0:2,0:2:0:0:
176,66,13330,2,0,P|172:113|150:165,1,99.9999999999999,2|2,0:2|0:2,0:2:0:0:
84,234,13978,1,2,0:2:0:0:
136,319,14303,1,2,0:2:0:0:
223,269,14628,6,0,L|239:212,2,50,2|0|2,1:2|1:2|1:2,0:0:0:0:
255,307,15114,2,0,P|310:289|374:276,1,99.9999999999999,10|8,0:2|0:2,0:2:0:0:
437,331,15763,2,0,P|452:289|463:265,1,50,8|2,0:2|1:2,0:0:0:0:
492,251,16087,2,0,P|472:193|459:139,1,99.9999999999999,10|2,0:2|0:2,0:2:0:0:
491,114,16574,1,8,0:3:0:0:
410,55,16898,6,0,P|422:16|429:-4,2,50,4|4|0,0:3|0:3|1:2,0:0:0:0:
366,78,17384,1,0,1:2:0:0:
281,24,17709,6,0,P|249:17|213:23,1,50,10|2,0:2|0:2,0:0:0:0:
189,45,18033,2,0,P|206:104|222:157,1,99.9999999999999,10|10,0:2|0:2,0:2:0:0:
201,188,18519,1,2,1:2:0:0:
102,172,18844,1,2,1:2:0:0:
28,239,19168,2,0,P|42:290|51:339,1,99.9999999999999,2|2,0:2|0:2,0:2:0:0:
146,364,19817,6,0,P|205:357|217:269,1,150,2|8,0:2|0:2,0:2:0:0:
184,246,20465,1,2,1:2:0:0:
265,187,20790,2,0,L|334:202,1,50,0|10,1:2|0:2,0:0:0:0:
340,240,21114,1,10,0:2:0:0:
463,23,21925,6,0,L|532:8,2,50,8|8|8,0:2|0:2|0:2,0:0:0:0:
415,9,22411,6,0,L|297:40,1,99.9999999999999,4|0,1:2|1:2,0:2:0:0:
291,76,22898,1,10,0:2:0:0:
208,19,23222,1,2,1:2:0:0:
208,19,23384,1,2,1:2:0:0:
123,72,23709,2,0,P|138:120|157:186,1,99.9999999999999,2|2,1:2|1:2,0:2:0:0:
126,210,24195,1,10,0:2:0:0:
204,272,24519,6,0,P|197:300|191:330,2,50,2|2|10,1:2|1:2|0:2,0:0:0:0:
248,248,25006,2,0,P|305:239|356:271,1,99.9999999999999,2|2,1:2|1:2,0:2:0:0:
369,297,25492,1,8,0:2:0:0:
369,297,25655,2,0,P|402:321|482:258,1,150,2|8,0:2|0:2,0:0:0:0:
440,177,26465,6,0,P|425:125|411:74,1,99.9999999999999,2|10,0:2|0:2,0:2:0:0:
395,33,26952,1,2,0:2:0:0:
296,14,27276,2,0,P|269:22|242:29,1,50,2|8,1:2|0:2,0:0:0:0:
209,59,27601,2,0,P|163:48|106:38,1,99.9999999999999,6|0,1:2|1:2,0:2:0:0:
70,67,28087,1,10,0:2:0:0:
119,153,28411,6,0,P|135:204|108:259,1,99.9999999999999,2|8,1:2|0:2,0:0:0:0:
103,293,28898,2,0,P|139:332|199:341,1,99.9999999999999,2|0,1:2|1:2,0:2:0:0:
227,319,29384,1,10,0:2:0:0:
311,372,29709,2,0,L|329:319,1,50,0|0,1:2|1:2,0:0:0:0:
366,293,30033,1,10,0:2:0:0:
366,293,30195,2,0,P|350:245|339:186,1,99.9999999999999,6|0,1:2|1:2,0:2:0:0:
367,154,30682,1,8,0:2:0:0:
282,100,31006,6,0,L|220:115,1,50,8|2,0:2|1:2,0:0:0:0:
206,153,31330,1,10,0:2:0:0:
206,153,31492,2,0,P|137:138|90:131,1,99.9999999999999,2|2,1:2|1:2,0:2:0:0:
81,97,31979,1,10,0:2:0:0:
81,97,32141,1,2,1:2:0:0:
5,162,32465,1,10,0:2:0:0:
56,248,32790,6,0,B|88:258|116:295|116:295|146:276|196:280,1,150,6|2,1:2|1:2,0:2:0:0:
267,341,33601,1,0,1:2:0:0:
351,287,33925,1,0,1:2:0:0:
351,287,34087,2,0,P|366:229|382:181,2,99.9999999999999,4|0|8,0:3|0:2|0:3,0:0:0:0:
418,361,35060,1,4,0:3:0:0:
497,300,35384,2,0,P|515:255|490:191,1,99.9999999999999,4|0,0:2|0:2,0:2:0:0:
426,141,36033,5,0,0:2:0:0:
426,141,36195,2,0,L|443:79,1,50,0|8,1:2|0:3,0:0:0:0:
456,45,36519,1,0,1:2:0:0:
456,45,36682,1,12,0:2:0:0:
359,20,37006,1,0,1:2:0:0:
359,20,37168,2,0,P|314:51|256:56,1,99.9999999999999,10|8,0:2|0:3,0:0:0:0:
176,22,37817,5,8,0:2:0:0:
176,22,37979,2,0,B|130:62|130:62|169:165,1,150,6|10,1:2|0:2,0:2:0:0:
248,195,38790,2,0,P|228:240|205:303,1,99.9999999999999,2|8,1:2|0:2,0:0:0:0:
179,326,39276,2,0,P|125:345|70:318,1,99.9999999999999,2|0,1:2|1:2,0:2:0:0:
56,291,39763,1,10,0:2:0:0:
78,193,40087,6,0,L|63:137,2,50,2|2|10,1:2|1:2|0:2,0:0:0:0:
125,210,40574,2,0,P|183:224|237:238,1,99.9999999999999,6|0,1:2|1:2,0:2:0:0:
261,203,41060,1,10,0:2:0:0:
304,292,41384,6,0,L|362:309,1,50,2|0,1:2|1:2,0:0:0:0:
400,318,41709,1,10,0:2:0:0:
400,318,41871,2,0,P|445:282|441:227,1,99.9999999999999,6|2,1:2|1:2,0:2:0:0:
428,196,42357,1,8,0:2:0:0:
428,196,42519,1,2,1:2:0:0:
472,52,43006,2,0,L|406:70,1,50,8|8,0:2|0:2,0:0:0:0:
379,98,43330,6,0,L|255:66,1,110.000003356934,6|8,1:2|0:2,0:0:0:0:
219,53,43817,2,0,P|176:83|179:149,1,110.000003356934,0|0,1:2|1:2,0:2:0:0:
205,180,44303,1,10,0:2:0:0:
205,180,44465,1,2,1:2:0:0:
141,269,44790,2,0,B|68:254,1,55.0000016784668,0|8,1:2|0:2,0:0:0:0:
63,208,45114,2,0,P|50:162|25:99,1,110.000003356934,0|0,1:2|1:2,0:2:0:0:
5,53,45601,1,10,0:2:0:0:
112,31,45925,6,0,B|140:37|163:48|163:48|198:36|228:30,1,110.000003356934,2|10,1:2|0:2,0:0:0:0:
267,11,46411,1,2,1:2:0:0:
343,90,46736,2,0,L|296:126,1,55.0000016784668,2|8,1:2|0:0,0:0:0:0:
256,157,47060,1,2,1:2:0:0:
294,259,47384,2,0,P|319:285|345:293,1,55.0000016784668,2|8,1:2|0:0,0:0:0:0:
391,291,47709,2,0,P|408:239|429:184,1,110.000003356934,2|0,1:2|1:2,0:2:0:0:
471,154,48195,1,10,0:2:0:0:
408,63,48519,6,0,B|460:43|525:26,2,110.000003356934,6|8|0,1:2|0:2|0:2,0:2:0:0:
326,137,49492,1,10,0:2:0:0:
326,137,49655,2,0,P|284:100|208:96,1,110.000003356934,2|0,1:2|1:2,0:2:0:0:
191,127,50141,1,8,0:2:0:0:
191,127,50303,1,2,1:2:0:0:
244,223,50628,1,0,1:2:0:0:
244,223,50790,1,10,0:2:0:0:
154,286,51114,6,0,P|98:271|28:257,1,110.000003356934,2|8,1:2|0:2,0:0:0:0:
19,212,51601,1,2,0:2:0:0:
96,134,51925,2,0,L|81:75,1,55.0000016784668,10|10,0:2|0:2,0:0:0:0:
64,28,52249,5,6,1:2:0:0:
171,4,52574,1,4,1:2:0:0:
260,67,52898,5,6,1:2:0:0:
367,43,53223,1,6,1:2:0:0:
459,102,53547,6,0,P|444:146|419:218,1,110.000003356934,2|2,0:2|0:2,0:2:0:0:
436,259,54033,1,6,1:2:0:0:
359,337,54357,1,0,0:2:0:0:
359,337,54519,2,0,L|294:319,1,55.0000016784668,2|10,1:2|0:2,0:0:0:0:
271,279,54844,2,0,L|156:308,1,110.000003356934,2|0,1:2|1:2,0:2:0:0:
129,348,55330,1,8,0:2:0:0:
129,348,55492,1,0,1:2:0:0:
39,283,55817,6,0,L|59:225,1,55.0000016784668,2|10,1:2|0:2,0:0:0:0:
79,181,56141,1,2,0:2:0:0:
163,110,56465,5,2,0:2:0:0:
215,127,56628,1,10,0:2:0:0:
265,148,56790,1,2,1:2:0:0:
325,239,57114,6,0,P|382:227|437:215,1,110.000003356934,2|2,1:2|1:2,0:2:0:0:
475,114,57763,2,0,L|532:125,2,55.0000016784668,2|10|2,1:2|0:2|1:2,0:0:0:0:
409,25,58411,2,0,P|355:10|300:44,1,110.000003356934,2|0,1:2|0:0,0:0:0:0:
285,83,58898,6,0,P|296:128|312:193,1,110.000003356934,6|8,1:2|0:2,0:2:0:0:
325,243,59384,2,0,P|300:286|232:292,1,110.000003356934,0|2,1:2|1:2,0:0:0:0:
197,266,59871,1,10,0:2:0:0:
197,266,60033,1,2,1:2:0:0:
99,316,60357,2,0,L|85:375,2,55.0000016784668,0|8|0,1:2|0:2|1:2,0:0:0:0:
41,222,61006,5,2,1:2:0:0:
41,222,61168,2,0,L|53:168,1,55.0000016784668,10|2,0:2|0:2,0:0:0:0:
69,115,61492,1,6,1:2:0:0:
69,115,61655,1,2,0:2:0:0:
160,175,61979,1,2,1:2:0:0:
236,96,62303,1,2,1:2:0:0:
311,176,62628,6,0,P|375:191|441:216,2,110.000003356934,2|2|6,1:2|1:2|1:2,0:2:0:0:
235,256,63601,1,6,1:2:0:0:
289,351,63925,6,0,P|339:368|395:321,1,110.000003356934,14|0,0:2|1:2,0:2:0:0:
416,295,64411,1,14,0:2:0:0:
360,199,64736,6,0,L|343:134,1,55.0000016784668,12|2,0:2|1:2,0:0:0:0:
335,91,65060,1,12,0:2:0:0:
335,91,65222,1,2,1:2:0:0:
422,24,65547,5,0,1:2:0:0:
422,24,65709,2,0,P|467:47|475:111,1,110.000003356934,14|14,0:2|0:2,0:0:0:0:
409,187,66357,5,14,0:2:0:0:
409,187,66519,2,0,P|351:172|284:161,1,110.000003356934,2|2,1:2|1:2,0:0:0:0:
256,131,67006,2,0,P|212:144|186:149,1,55.0000016784668,14|2,0:2|1:2,0:0:0:0:
166,187,67330,1,14,0:2:0:0:
66,153,67655,5,14,0:2:0:0:
66,153,67817,2,0,P|52:97|32:40,1,110.000003356934,2|0,1:2|1:2,0:0:0:0:
73,8,68303,1,12,0:2:0:0:
176,45,68628,6,0,L|163:105,2,55.0000016784668,12|0|12,0:2|1:2|0:2,0:0:0:0:
221,14,69114,1,8,0:2:0:0:
221,14,69276,2,0,P|268:5|336:48,1,110.000003356934,6|10,1:2|0:2,0:0:0:0:
277,131,69925,2,0,P|257:177|245:240,1,110.000003356934,2|10,1:2|0:2,0:0:0:0:
277,279,70411,1,2,1:2:0:0:
367,216,70736,1,0,1:2:0:0:
450,287,71060,6,0,L|468:224,1,55.0000016784668,2|2,0:2|1:2,0:0:0:0:
497,190,71384,2,0,L|479:127,1,55.0000016784668,2|10,1:2|0:2,0:0:0:0:
451,91,71709,2,0,P|416:76|342:108,1,110.000003356934,2|0,1:2|1:2,0:2:0:0:
316,140,72195,1,10,0:2:0:0:
222,82,72519,1,2,1:2:0:0:
138,153,72844,5,10,0:2:0:0:
138,153,73006,2,0,P|151:205|168:278,1,110.000003356934,6|0,1:2|1:2,0:2:0:0:
148,312,73492,1,10,0:2:0:0:
246,361,73817,2,0,L|312:342,1,55.0000016784668,8|4,0:3|0:3,0:0:0:0:
332,302,74141,1,10,0:2:0:0:
332,302,74303,6,0,P|385:315|447:340,1,110.000003356934,6|0,1:2|1:2,0:2:0:0:
481,312,74790,1,12,0:2:0:0:
443,219,75114,2,0,L|462:159,1,50,2|2,1:2|1:2,0:0:0:0:
471,120,75439,1,10,0:2:0:0:
471,120,75601,1,2,1:2:0:0:
397,52,75925,2,0,L|337:71,1,50,2|10,1:2|0:2,0:0:0:0:
302,86,76250,1,2,0:2:0:0:
242,167,76574,1,2,1:2:0:0:
172,95,76898,6,0,P|111:77|72:101,1,99.9999999999999,2|0,1:2|1:2,0:2:0:0:
49,131,77385,1,10,0:2:0:0:
88,222,77709,2,0,L|34:238,2,50,2|2|10,1:2|1:2|0:2,0:0:0:0:
138,216,78196,2,0,P|166:255|165:305,1,99.9999999999999,6|0,1:2|1:2,0:2:0:0:
145,350,78682,1,8,0:2:0:0:
244,383,79006,1,8,1:2:0:0:
244,383,79168,2,0,L|305:366,1,50,8|8,0:2|0:2,0:0:0:0:
329,336,79492,6,0,P|395:350|448:369,1,110.000003356934,6|8,1:2|0:2,0:2:0:0:
490,295,80146,1,8,0:2:0:0:
426,211,80461,1,2,0:2:0:0:
495,139,80785,1,8,0:2:0:0:
420,72,81109,2,0,L|435:18,2,50,2|2|8,0:2|1:2|0:2,0:2:0:0:
334,123,81757,6,0,L|283:135,1,50,8|8,0:2|0:2,0:0:0:0:
237,149,82082,2,0,P|226:186|260:254,1,99.9999999999999,6|8,1:2|1:2,0:2:0:0:
280,279,82569,1,8,1:2:0:0:
218,358,82893,2,0,L|149:345,1,50,8|8,1:2|1:2,0:0:0:0:
120,338,83217,1,8,1:2:0:0:
120,338,83379,6,0,P|105:278|83:222,1,99.9999999999999,12|8,1:2|0:3,0:0:0:0:
57,205,83866,1,8,0:2:0:0:
127,134,84190,1,8,0:2:0:0:
127,134,84352,2,0,P|179:147|286:170,1,150,8|0,0:2|1:2,0:2:0:0:
334,246,85163,5,4,1:2:0:0:
256,192,85325,12,0,88730,0:2:0:0:
