osu file format v14

[General]
AudioFilename: audio.ogg
AudioLeadIn: 0
PreviewTime: 42834
Countdown: 0
SampleSet: Soft
StackLeniency: 0.4
Mode: 0
LetterboxInBreaks: 0
WidescreenStoryboard: 0

[Editor]
Bookmarks: 79856
DistanceSpacing: 1
BeatDivisor: 4
GridSize: 4
TimelineZoom: 1.8

[Metadata]
Title:BE the HERO (TV Size)
TitleUnicode:BE the HERO (TV Size)
Artist:Raon
ArtistUnicode:라온
Creator:Log Off Now
Version:CRUSH the FEAR
Source:惑星のさみだれ
Tags:japanese anime pop rock jpop j-pop jrock j-rock the lucifer and the biscuit hammer 2nd opening op 2 hoshino samidare browiec
BeatmapID:3863230
BeatmapSetID:1876954

[Difficulty]
HPDrainRate:5.5
CircleSize:4
OverallDifficulty:9.2
ApproachRate:9.4
SliderMultiplier:1.8
SliderTickRate:1

[Events]
//Background and Video events
0,0,"bethehero.png",0,0
Video,-120,"hoshino.mp4"
//Break Periods
//Storyboard Layer 0 (Background)
//Storyboard Layer 1 (Fail)
//Storyboard Layer 2 (Pass)
//Storyboard Layer 3 (Foreground)
//Storyboard Layer 4 (Overlay)
//Storyboard Sound Samples

[TimingPoints]
520,324.324324324324,4,2,1,65,1,0
520,-100,4,2,1,65,0,0
1655,-100,4,2,1,75,0,0
12195,-125,4,2,2,50,0,0
20952,-125,4,2,1,60,0,0
21925,-125,4,2,1,65,0,0
22411,-100,4,2,1,65,0,0
33276,-111.111111111111,4,2,1,60,0,0
36682,-100,4,2,1,60,0,0
37979,-90.9090909090909,4,2,1,70,0,0
43330,-83.3333333333333,4,2,1,85,0,1
53547,-200,4,2,1,85,0,0
54033,-83.3333333333333,4,2,1,85,0,1
74790,-100,4,2,1,75,0,0
79492,363.636363636364,4,2,1,75,1,0
79492,-90.9090909090909,4,2,1,75,0,0
79856,387.096774193548,4,2,1,75,1,0
80146,300,4,2,1,75,1,0
80296,331.491712707182,4,2,1,75,1,0
80461,307.692307692308,4,2,1,75,1,0
80691,377.358490566037,4,2,1,75,1,0
80785,324.324324324324,4,2,1,75,1,0
80785,-90.9090909090909,4,2,1,75,0,0
80947,324.324324324324,4,2,1,75,1,0
80947,-90.9090909090909,4,2,1,75,0,0
85163,-100,4,2,1,75,0,0
85244,-100,4,2,1,50,0,0
86784,-100,4,2,1,30,0,0
88406,-100,4,2,1,10,0,0

[Colours]
Combo1 : 129,153,252
Combo2 : 255,102,102
Combo3 : 209,157,244
Combo4 : 234,194,140

[HitObjects]
37,262,520,5,2,0:3:0:0:
106,209,844,1,2,0:3:0:0:
63,136,1168,1,2,0:3:0:0:
129,70,1330,5,8,0:3:0:0:
129,70,1411,1,8,0:3:0:0:
129,70,1492,1,4,0:3:0:0:
220,171,1655,6,0,P|297:191|401:217,1,180,6|0,1:2|1:2,0:2:0:0:
350,31,2141,2,0,P|297:59|282:112,1,90,8|0,0:2|0:2,0:2:0:0:
320,298,2465,1,2,1:2:0:0:
429,126,2628,1,2,1:2:0:0:
218,262,2790,1,10,0:2:0:0:
382,374,2952,2,0,P|421:318|415:275,1,90,2|0,1:2|0:2,0:2:0:0:
356,66,3276,5,2,1:2:0:0:
313,271,3438,1,10,0:2:0:0:
499,173,3601,2,0,P|441:159|392:149,1,90,2|0,0:2|1:2,0:2:0:0:
141,198,3925,1,2,1:2:0:0:
270,49,4087,1,10,0:2:0:0:
126,300,4249,6,0,P|104:220|73:117,1,180,2|0,1:2|1:2,0:2:0:0:
255,0,4736,2,0,P|244:40|228:91,1,90,10|0,0:2|0:2,0:2:0:0:
5,239,5060,1,2,1:2:0:0:
99,115,5222,1,2,1:2:0:0:
162,308,5384,1,10,0:2:0:0:
15,97,5547,6,0,P|41:48|167:57,1,180,2|0,1:2|1:2,0:2:0:0:
266,298,6033,2,0,P|226:287|174:271,1,90,10|0,0:2|0:2,0:2:0:0:
274,88,6357,5,2,1:2:0:0:
308,59,6438,1,8,0:2:0:0:
352,53,6519,1,8,0:2:0:0:
392,71,6600,1,8,0:2:0:0:
417,108,6682,2,0,P|410:129|401:166,1,45,8|8,0:2|0:2,0:2:0:0:
317,368,6844,6,0,P|297:292|265:177,1,180,4|0,1:2|1:2,0:2:0:0:
136,64,7330,2,0,P|203:86|238:99,1,90,8|0,0:2|0:2,0:2:0:0:
388,285,7655,1,2,1:2:0:0:
102,181,7817,1,2,1:2:0:0:
311,115,7979,1,10,0:2:0:0:
213,298,8141,2,0,P|148:305|114:274,1,90,2|0,1:2|0:2,0:2:0:0:
46,84,8465,5,2,1:2:0:0:
178,221,8628,1,10,0:2:0:0:
22,352,8790,2,0,P|38:294|48:254,1,90,2|0,0:2|1:2,0:2:0:0:
215,66,9114,1,2,1:2:0:0:
21,174,9276,1,10,0:2:0:0:
196,308,9438,6,0,B|225:298|246:274|246:274|283:283|318:302|318:302|350:275|389:271,1,180,2|0,1:2|1:2,0:2:0:0:
286,116,9925,2,0,P|304:178|312:204,1,90,10|0,0:2|0:2,0:2:0:0:
373,368,10249,5,2,1:2:0:0:
449,174,10411,1,2,1:2:0:0:
279,337,10574,1,10,0:2:0:0:
494,254,10736,1,2,1:2:0:0:
257,136,10898,5,8,0:2:0:0:
458,350,11060,1,0,1:2:0:0:
404,83,11222,5,10,0:2:0:0:
281,367,11384,2,0,L|270:315,1,45,0|0,1:2|1:2,0:2:0:0:
221,58,11547,1,10,0:2:0:0:
351,232,11709,1,2,1:2:0:0:
327,255,12195,6,0,P|272:272|182:303,1,144,4|10,1:2|0:2,0:2:0:0:
114,256,12682,1,2,0:2:0:0:
207,139,12844,2,0,P|193:191|185:223,1,72,10|0,0:2|0:2,0:2:0:0:
51,326,13168,1,10,0:2:0:0:
51,326,13330,2,0,P|37:274|29:242,1,72,2|8,0:2|0:2,0:2:0:0:
146,78,13655,6,0,P|194:57|228:70,1,72,2|8,0:2|0:2,0:2:0:0:
96,177,13979,2,0,P|35:161|9:154,1,72,2|8,0:2|0:2,0:2:0:0:
48,7,14303,2,0,P|56:41|66:76,1,72,2|8,0:2|0:2,0:2:0:0:
121,268,14628,5,2,1:2:0:0:
231,205,14790,1,0,1:2:0:0:
125,156,14952,1,2,1:2:0:0:
212,307,15114,2,0,B|261:320|292:335|292:335|333:321|359:292,2,144,10|8|8,0:2|0:2|0:2,0:2:0:0:
301,155,15925,5,2,1:2:0:0:
436,298,16087,2,0,P|423:340|415:368,1,72,10|0,0:2|1:2,0:2:0:0:
358,238,16411,1,2,0:2:0:0:
358,238,16574,2,0,P|393:210|435:203,1,72,8|0,0:3|0:2,0:2:0:0:
512,371,16898,5,4,0:3:0:0:
336,330,17060,1,4,0:3:0:0:
436,298,17222,1,0,1:2:0:0:
252,379,17384,6,0,P|186:359|109:339,1,144,0|10,1:2|0:2,0:2:0:0:
25,369,17871,1,2,0:2:0:0:
184,204,18033,2,0,P|207:254|197:290,1,72,10|0,0:2|0:2,0:2:0:0:
39,182,18357,1,10,0:2:0:0:
191,116,18519,5,2,1:2:0:0:
118,263,18682,1,0,1:2:0:0:
42,95,18844,2,0,P|60:42|69:12,1,72,2|8,1:2|0:2,0:2:0:0:
141,276,19168,2,0,P|159:329|168:359,1,72,2|8,0:2|0:2,0:2:0:0:
224,113,19492,2,0,P|242:60|251:30,1,72,2|8,0:2|0:2,0:2:0:0:
386,230,19817,6,0,P|343:178|263:196,1,144,2|0,0:2|0:2,0:2:0:0:
345,322,20303,1,8,0:2:0:0:
449,158,20465,1,2,1:2:0:0:
268,274,20628,1,8,0:2:0:0:
437,334,20790,1,0,1:2:0:0:
279,67,20952,5,10,0:2:0:0:
202,353,21114,1,10,0:2:0:0:
105,225,21925,5,8,0:2:0:0:
142,233,22006,1,8,0:2:0:0:
178,243,22087,1,8,0:2:0:0:
215,253,22168,1,8,0:2:0:0:
251,262,22249,1,8,0:2:0:0:
382,52,22411,6,0,P|319:35|253:124,1,180,4|0,1:2|1:2,0:2:0:0:
445,246,22898,2,0,P|460:190|478:133,1,90,10|0,0:2|0:2,0:2:0:0:
263,15,23222,1,2,1:2:0:0:
360,253,23384,1,2,1:2:0:0:
472,63,23547,1,10,0:2:0:0:
288,200,23709,6,0,P|222:215|185:224,1,90,2|0,1:2|0:2,0:2:0:0:
108,60,24033,1,2,1:2:0:0:
21,246,24195,2,0,P|64:256|108:266,1,90,10|0,0:2|0:2,0:2:0:0:
248,102,24519,5,2,1:2:0:0:
70,161,24682,1,2,1:2:0:0:
276,93,24844,1,10,0:2:0:0:
133,275,25006,2,0,P|123:323|160:368,1,90,2|0,1:2|0:2,0:2:0:0:
374,210,25330,2,0,P|306:194|269:184,1,90,2|8,1:2|0:2,0:2:0:0:
121,60,25655,1,2,0:2:0:0:
210,233,25817,5,0,1:2:0:0:
281,10,25979,1,0,1:2:0:0:
129,162,26141,1,8,0:2:0:0:
359,98,26303,1,0,1:2:0:0:
68,2,26465,6,0,P|83:54|95:97,1,90,2|0,0:2|1:2,0:2:0:0:
332,186,26790,1,10,0:2:0:0:
152,324,26952,2,0,P|167:271|179:228,1,90,2|0,0:2|1:2,0:2:0:0:
238,63,27276,1,2,1:2:0:0:
295,284,27438,1,8,0:2:0:0:
100,115,27601,6,0,P|53:155|90:266,1,180,6|0,1:2|1:2,0:2:0:0:
274,173,28087,2,0,P|204:189|157:202,1,90,10|0,0:2|0:2,0:2:0:0:
294,369,28411,1,2,1:2:0:0:
364,163,28574,1,2,1:2:0:0:
446,365,28736,1,8,0:2:0:0:
274,147,28898,6,0,P|297:96|421:96,1,180,2|0,1:2|1:2,0:2:0:0:
320,283,29384,1,10,0:2:0:0:
450,168,29547,1,2,0:2:0:0:
381,370,29709,1,0,1:2:0:0:
289,164,29871,1,0,1:2:0:0:
476,282,30033,1,10,0:2:0:0:
247,357,30195,2,0,B|197:346|168:327|168:327|141:331|109:349|109:349|92:345|77:332,1,180,6|0,1:2|1:2,0:2:0:0:
100,111,30682,5,8,0:2:0:0:
0,338,30844,1,0,1:2:0:0:
263,146,31006,5,8,0:2:0:0:
1,240,31168,1,2,1:2:0:0:
306,293,31330,5,10,0:2:0:0:
195,88,31492,2,0,P|180:44|168:-5,1,90,2|0,1:2|0:2,0:2:0:0:
399,182,31817,5,2,1:2:0:0:
282,27,31979,1,10,0:2:0:0:
220,270,32141,5,2,1:2:0:0:
427,70,32303,1,8,0:2:0:0:
169,169,32465,6,0,L|241:187,1,45,10|8,0:2|0:2,0:2:0:0:
466,235,32628,1,8,0:2:0:0:
308,37,32790,6,0,P|329:111|356:210,1,180,6|0,1:2|0:2,0:2:0:0:
251,321,33276,2,0,P|261:284|273:242,1,80.9999975280763,2|0,1:2|0:2,0:2:0:0:
433,151,33601,1,0,1:2:0:0:
387,297,33763,5,8,0:3:0:0:
347,179,33925,1,0,1:2:0:0:
478,274,34087,1,4,0:3:0:0:
478,274,34249,2,0,P|481:323|461:355,1,80.9999975280763,0|0,1:2|0:2,0:2:0:0:
302,267,34574,1,2,1:2:0:0:
448,124,34736,5,8,0:3:0:0:
290,63,34898,1,0,1:2:0:0:
340,167,35060,1,4,0:3:0:0:
405,29,35222,1,0,1:2:0:0:
245,151,35384,2,0,P|197:136|154:124,1,80.9999975280763,4|0,0:2|1:2,0:2:0:0:
340,271,35709,2,0,P|388:256|431:244,1,80.9999975280763,0|2,0:2|1:2,0:2:0:0:
341,136,36033,5,0,0:2:0:0:
259,345,36195,1,0,1:2:0:0:
156,93,36357,1,8,0:3:0:0:
340,271,36519,1,0,1:2:0:0:
130,373,36682,6,0,B|94:333|94:333|138:178,1,180,12|0,0:2|1:2,0:2:0:0:
352,57,37168,1,10,0:2:0:0:
214,284,37330,1,0,1:2:0:0:
188,120,37492,1,8,0:3:0:0:
329,277,37655,1,4,0:3:0:0:
329,277,37736,1,8,0:2:0:0:
329,277,37817,1,8,0:2:0:0:
432,46,37979,6,0,P|377:22|271:101,1,198.000006042481,6|0,1:2|1:2,0:2:0:0:
451,239,38465,2,0,P|476:163|488:117,1,99.0000030212403,10|0,0:2|0:2,0:2:0:0:
297,17,38790,1,2,1:2:0:0:
362,236,38952,1,0,1:2:0:0:
432,46,39114,1,8,0:2:0:0:
288,182,39276,6,0,P|231:202|174:166,1,99.0000030212403,2|0,1:2|0:2,0:2:0:0:
125,29,39601,1,0,1:2:0:0:
20,155,39763,2,0,P|88:137|123:129,1,99.0000030212403,10|0,0:2|0:2,0:2:0:0:
318,72,40087,1,2,1:2:0:0:
125,268,40249,1,2,1:2:0:0:
215,60,40411,1,10,0:2:0:0:
323,305,40574,6,0,P|229:336|134:367,1,198.000006042481,6|0,1:2|1:2,0:2:0:0:
54,172,41060,2,0,P|102:142|158:148,1,99.0000030212403,10|0,0:2|0:2,0:2:0:0:
241,372,41384,1,2,1:2:0:0:
304,134,41547,1,0,1:2:0:0:
125,268,41709,1,10,0:2:0:0:
387,365,41871,2,0,P|413:315|393:264,1,99.0000030212403,6|0,1:2|0:2,0:2:0:0:
219,75,42195,5,2,1:2:0:0:
300,307,42357,1,8,0:2:0:0:
387,32,42519,1,2,1:2:0:0:
160,277,42682,1,8,0:2:0:0:
446,132,42844,6,0,L|377:114,1,49.5000015106202,8|8,0:2|0:2,0:2:0:0:
219,75,43006,1,8,0:2:0:0:
172,97,43087,1,8,0:2:0:0:
148,143,43168,1,8,0:2:0:0:
153,194,43249,1,8,0:2:0:0:
188,232,43330,1,6,1:2:0:0:
387,32,43492,5,0,1:2:0:0:
453,265,43655,1,8,0:2:0:0:
236,158,43817,2,0,P|300:139|355:121,1,107.999996704102,0|0,1:2|0:2,0:2:0:0:
245,314,44141,1,0,1:2:0:0:
157,75,44303,1,10,0:2:0:0:
52,322,44465,6,0,B|10:251|10:251|58:106,1,215.999993408203,2|0,1:2|1:2,0:2:0:0:
152,324,44952,1,8,0:2:0:0:
267,124,45114,2,0,P|216:92|165:101,1,107.999996704102,0|0,1:2|0:2,0:2:0:0:
248,301,45438,1,0,1:2:0:0:
373,54,45601,1,10,0:2:0:0:
187,193,45763,1,2,0:2:0:0:
477,305,45925,5,2,1:2:0:0:
296,113,46087,1,0,1:2:0:0:
371,359,46249,1,10,0:2:0:0:
480,127,46411,2,0,P|491:66|454:14,1,107.999996704102,2|0,1:2|0:2,0:2:0:0:
273,302,46736,5,2,1:2:0:0:
210,78,46898,1,8,0:2:0:0:
398,238,47060,2,0,P|335:220|267:204,1,107.999996704102,2|0,1:2|0:2,0:2:0:0:
104,74,47384,2,0,P|167:56|235:40,1,107.999996704102,2|8,1:2|0:2,0:2:0:0:
233,271,47709,2,0,P|203:198|224:163,1,107.999996704102,2|0,1:2|0:2,0:2:0:0:
443,95,48033,1,0,1:2:0:0:
341,350,48195,2,0,P|325:288|308:221,1,107.999996704102,10|0,0:2|0:2,0:2:0:0:
94,54,48519,6,0,P|78:116|61:183,1,107.999996704102,6|0,1:2|1:2,0:2:0:0:
177,359,48844,1,8,0:2:0:0:
272,124,49006,2,0,P|224:87|167:93,1,107.999996704102,0|0,1:2|0:2,0:2:0:0:
85,346,49330,1,0,1:2:0:0:
297,209,49492,1,10,0:2:0:0:
94,54,49655,6,0,B|52:125|52:125|100:270,1,215.999993408203,2|0,1:2|1:2,0:2:0:0:
300,112,50141,1,8,0:2:0:0:
182,331,50303,2,0,P|200:260|211:214,1,107.999996704102,2|0,1:2|0:2,0:2:0:0:
260,37,50628,1,0,1:2:0:0:
387,281,50790,2,0,P|332:310|275:282,1,107.999996704102,10|0,0:2|0:2,0:2:0:0:
374,53,51114,5,2,1:2:0:0:
482,325,51276,1,0,1:2:0:0:
237,185,51438,1,8,0:2:0:0:
461,84,51601,2,0,L|446:154,1,53.9999983520508,2|8,0:2|0:2,0:2:0:0:
358,362,51763,1,0,1:2:0:0:
298,109,51925,1,10,0:2:0:0:
298,109,52006,1,10,0:2:0:0:
298,109,52087,2,0,L|283:39,1,53.9999983520508,10|8,0:2|0:2,0:2:0:0:
165,307,52249,5,6,1:2:0:0:
182,323,52574,5,4,1:2:0:0:
438,166,52736,1,8,0:2:0:0:
140,67,52898,1,6,1:2:0:0:
191,151,53222,5,6,1:2:0:0:
114,225,53547,6,0,P|65:211|15:198,1,90,2|2,0:2|0:2,0:2:0:0:
169,150,53952,5,2,0:2:0:0:
169,150,54033,2,0,P|205:205|121:316,1,215.999993408203,6|0,1:2|0:2,0:2:0:0:
76,100,54519,1,2,1:2:0:0:
231,369,54682,1,10,0:2:0:0:
297,130,54844,2,0,P|314:62|327:14,1,107.999996704102,2|0,1:2|0:2,0:2:0:0:
369,297,55168,5,0,1:2:0:0:
193,130,55330,1,8,0:2:0:0:
419,18,55492,2,0,P|466:47|462:128,1,107.999996704102,0|0,1:2|0:2,0:2:0:0:
247,242,55817,1,2,1:2:0:0:
387,99,55979,1,10,0:2:0:0:
434,274,56141,2,0,P|353:294|292:313,1,107.999996704102,2|0,0:2|1:2,0:2:0:0:
265,114,56465,5,2,0:2:0:0:
164,324,56627,1,10,0:2:0:0:
80,91,56789,2,0,P|161:71|219:58,1,107.999996704102,2|0,1:2|0:2,0:2:0:0:
294,203,57114,2,0,P|230:206|188:166,1,107.999996704102,2|8,1:2|0:2,0:2:0:0:
382,21,57438,2,0,P|366:82|351:143,1,107.999996704102,2|0,1:2|0:2,0:2:0:0:
302,337,57763,5,2,1:2:0:0:
249,105,57925,1,10,0:2:0:0:
391,294,58087,2,0,P|455:297|497:257,1,107.999996704102,2|0,1:2|0:2,0:2:0:0:
466,42,58411,1,2,1:2:0:0:
322,220,58574,2,0,P|242:241|143:270,1,161.999995056153,10|0,0:2|0:2,0:2:0:0:
95,211,58898,6,0,P|68:158|84:114,1,107.999996704102,6|0,1:2|0:2,0:2:0:0:
341,48,59222,1,8,0:2:0:0:
258,287,59384,1,0,1:2:0:0:
192,68,59547,1,0,0:2:0:0:
399,279,59709,5,2,1:2:0:0:
156,154,59871,1,10,0:2:0:0:
472,80,60033,2,0,P|499:133|483:177,1,107.999996704102,2|0,1:2|0:2,0:2:0:0:
215,53,60357,1,0,1:2:0:0:
425,6,60519,1,8,0:2:0:0:
276,239,60682,2,0,P|200:220|139:208,1,107.999996704102,0|0,1:2|0:2,0:2:0:0:
18,63,61006,5,2,1:2:0:0:
101,304,61168,1,10,0:2:0:0:
201,38,61330,1,2,0:2:0:0:
93,337,61492,1,6,1:2:0:0:
7,35,61655,2,8,P|70:13|126:38,1,107.999996704102,2|8,1:2|0:2,0:2:0:0:
92,220,61979,2,0,P|70:136|60:100,1,107.999996704102,2|0,1:2|0:2,0:2:0:0:
301,10,62303,2,0,P|279:94|269:130,1,107.999996704102,2|8,1:2|0:2,0:2:0:0:
212,337,62628,2,0,P|275:359|331:334,1,107.999996704102,2|0,1:2|0:2,0:2:0:0:
452,94,62952,5,2,1:2:0:0:
194,225,63114,1,8,0:2:0:0:
459,355,63276,2,0,P|476:282|487:232,1,107.999996704102,6|0,1:2|0:2,0:2:0:0:
329,22,63601,2,0,P|346:95|357:145,1,107.999996704102,6|0,1:2|0:2,0:2:0:0:
162,265,63925,2,0,P|146:200|274:149,1,215.999993408203,14|0,0:2|1:2,0:2:0:0:
350,364,64411,5,14,0:2:0:0:
26,247,64574,1,0,1:2:0:0:
308,68,64736,5,12,0:2:0:0:
199,353,64898,1,2,1:2:0:0:
188,39,65060,5,12,0:2:0:0:
281,301,65222,1,2,1:2:0:0:
389,34,65384,6,0,P|440:16|494:38,1,107.999996704102,12|0,0:0|1:0,0:0:0:0:
397,291,65709,5,14,0:2:0:0:
301,34,65871,1,0,1:2:0:0:
258,321,66033,5,14,0:2:0:0:
344,111,66195,1,0,1:2:0:0:
349,377,66357,5,14,0:2:0:0:
264,144,66519,1,2,1:2:0:0:
154,384,66682,5,12,0:2:0:0:
218,71,66844,1,2,1:2:0:0:
245,353,67006,5,14,0:2:0:0:
141,139,67168,1,2,1:2:0:0:
62,367,67330,5,12,0:2:0:0:
341,215,67492,1,2,1:2:0:0:
29,86,67655,5,14,0:2:0:0:
157,384,67817,1,2,1:2:0:0:
269,33,67979,6,0,P|210:45|136:61,1,107.999996704102,14|0,0:0|1:0,0:0:0:0:
0,283,68303,5,12,0:2:0:0:
404,145,68465,1,0,1:2:0:0:
82,11,68628,5,12,0:2:0:0:
248,364,68790,1,0,1:2:0:0:
425,56,68952,5,12,0:2:0:0:
425,56,69033,1,8,0:2:0:0:
425,56,69114,2,0,L|411:122,1,53.9999983520508,8|8,0:2|0:2,0:2:0:0:
366,351,69276,5,6,1:2:0:0:
313,127,69438,1,0,1:2:0:0:
501,235,69601,2,0,P|439:254|387:271,1,107.999996704102,10|0,0:2|0:2,0:2:0:0:
197,185,69925,5,2,1:2:0:0:
265,355,70087,1,0,1:2:0:0:
333,121,70249,1,10,0:2:0:0:
112,302,70411,2,0,B|66:263|66:263|109:103,1,215.999993408203,2|0,1:2|1:2,0:2:0:0:
323,30,70898,5,8,0:2:0:0:
177,212,71060,1,2,0:2:0:0:
127,23,71222,1,2,1:2:0:0:
281,188,71384,1,2,1:2:0:0:
20,93,71547,1,10,0:2:0:0:
227,1,71709,6,0,P|207:82|174:223,1,215.999993408203,2|0,1:2|1:2,0:2:0:0:
375,158,72195,2,0,P|332:104|276:105,1,107.999996704102,10|0,0:2|0:2,0:2:0:0:
326,361,72519,1,2,1:2:0:0:
398,137,72682,1,0,1:2:0:0:
202,230,72844,1,10,0:2:0:0:
414,346,73006,2,0,P|396:258|383:202,1,107.999996704102,6|0,1:2|0:2,0:2:0:0:
267,22,73330,5,0,1:2:0:0:
197,330,73492,1,10,0:2:0:0:
135,108,73655,1,0,1:2:0:0:
421,227,73817,1,8,0:3:0:0:
104,339,73979,1,4,0:3:0:0:
359,34,74141,5,10,0:2:0:0:
359,34,74222,1,10,0:2:0:0:
359,34,74303,2,0,B|353:88|324:128|324:128|329:155|350:184|350:184|333:208|319:242,1,215.999993408203,6|0,1:2|1:2,0:2:0:0:
187,365,74790,2,0,P|273:341|306:332,1,90,12|0,0:2|0:2,0:2:0:0:
424,126,75114,5,2,1:2:0:0:
235,237,75276,1,2,1:2:0:0:
467,306,75438,1,10,0:2:0:0:
239,145,75601,2,0,P|178:165|151:204,1,90,2|0,1:2|0:2,0:2:0:0:
238,373,75925,5,2,1:2:0:0:
322,165,76087,1,10,0:2:0:0:
151,326,76249,2,0,P|89:342|40:357,1,90,2|0,0:2|1:2,0:2:0:0:
137,62,76574,5,2,1:2:0:0:
241,284,76736,1,8,0:2:0:0:
325,38,76898,2,0,P|380:6|475:84,1,180,2|0,1:2|1:2,0:2:0:0:
407,176,77303,1,2,0:2:0:0:
407,176,77384,2,0,P|337:193|302:204,1,90,10|0,0:2|0:2,0:2:0:0:
115,168,77709,5,2,1:2:0:0:
309,80,77871,1,2,1:2:0:0:
219,283,78033,1,10,0:2:0:0:
154,71,78195,2,0,B|108:58|75:28|75:28|59:85|23:121,1,180,6|0,1:2|1:2,0:2:0:0:
127,313,78682,1,8,0:2:0:0:
236,92,78844,5,2,0:2:0:0:
272,67,78925,1,8,0:2:0:0:
316,69,79006,1,8,1:2:0:0:
349,94,79087,1,8,0:2:0:0:
363,139,79168,1,8,0:2:0:0:
343,179,79249,1,8,0:2:0:0:
303,200,79330,2,0,L|241:183,1,45,8|8,0:2|0:2,0:2:0:0:
139,65,79492,6,0,P|162:138|198:263,1,198.000006042481,6|8,1:2|0:2,0:2:0:0:
130,303,79952,2,0,P|144:320|168:333,1,45,0|0,1:0|0:0,0:0:0:0:
290,213,80146,2,0,P|270:282|264:304,1,90,8|0,0:2|1:2,0:2:0:0:
433,375,80461,5,2,0:2:0:0:
433,375,80537,1,8,0:2:0:0:
433,375,80614,2,0,L|414:303,1,45,0|0,1:2|0:2,0:2:0:0:
379,249,80785,2,0,P|401:171|414:122,1,99.0000030212403,8|0,0:2|1:2,0:2:0:0:
237,8,81109,2,0,L|253:71,1,49.5000015106202,2|8,0:2|0:2,0:2:0:0:
287,222,81271,1,2,1:2:0:0:
378,18,81433,5,8,0:2:0:0:
378,18,81514,1,8,0:2:0:0:
378,18,81595,2,0,L|315:37,1,49.5000015106202,2|8,1:2|0:2,0:2:0:0:
224,279,81757,5,8,0:2:0:0:
265,305,81839,1,8,0:2:0:0:
313,303,81920,1,8,0:2:0:0:
353,274,82001,1,8,0:2:0:0:
370,229,82082,2,0,P|353:169|340:120,1,99.0000030212403,6|0,1:2|0:2,0:2:0:0:
126,126,82406,5,8,1:2:0:0:
260,194,82568,1,8,1:2:0:0:
136,13,82731,1,8,1:2:0:0:
202,298,82893,5,8,1:2:0:0:
285,27,83055,1,8,1:2:0:0:
44,265,83217,1,8,1:2:0:0:
430,131,83379,1,12,1:2:0:0:
290,365,83542,1,8,1:2:0:0:
187,96,83704,5,8,0:3:0:0:
187,96,83785,1,8,0:2:0:0:
187,96,83866,2,0,L|173:154,1,49.5000015106202,8|0,0:2|0:2,0:2:0:0:
273,316,84028,5,2,0:2:0:0:
308,294,84109,1,8,0:2:0:0:
325,257,84190,1,8,0:2:0:0:
319,216,84271,1,8,0:2:0:0:
289,186,84352,2,0,L|230:203,1,49.5000015106202,8|8,0:2|0:3,0:2:0:0:
178,316,84514,2,0,L|119:299,1,49.5000015106202,4|4,0:3|0:3,0:2:0:0:
71,239,84677,6,0,L|60:193,3,33.0000010070801,8|8|4|0,0:3|0:3|0:3|1:2,0:2:0:0:
14,352,85163,5,4,1:2:0:0:
256,192,85244,12,0,88730,0:2:0:0:
