osu file format v14

[General]
AudioFilename: audio2.mp3
AudioLeadIn: 0
PreviewTime: 14540
Countdown: 0
SampleSet: None
StackLeniency: 0.7
Mode: 0
LetterboxInBreaks: 0
WidescreenStoryboard: 0

[Editor]
DistanceSpacing: 1.1
BeatDivisor: 1
GridSize: 4
TimelineZoom: 1.9

[Metadata]
Title:SARPBC Theme Song
TitleUnicode:SARPBC Theme Song
Artist:Rant Theory
ArtistUnicode:Rant Theory
Creator:ShompiFlen
Version:Easy
Source:Supersonic Acrobatic Rocket-Powered Battle-Cars
Tags:Rocket League
BeatmapID:1945697
BeatmapSetID:928997

[Difficulty]
HPDrainRate:3
CircleSize:3
OverallDifficulty:3
ApproachRate:4
SliderMultiplier:0.799999999999999
SliderTickRate:1

[Events]
//Background and Video events
0,0,"bg.jpg",0,0
//Break Periods
//Storyboard Layer 0 (Background)
//Storyboard Layer 1 (Fail)
//Storyboard Layer 2 (Pass)
//Storyboard Layer 3 (Foreground)
//Storyboard Sound Samples

[TimingPoints]
1167,260.869565217391,4,1,0,75,1,0
2210,-100,4,3,0,75,0,0
6123,-100,4,3,0,75,0,0
6384,-100,4,3,0,75,0,0
10297,-100,4,3,0,75,0,0
10558,-100,4,3,0,75,0,0
15775,-100,4,3,0,75,0,0
18384,-100,4,3,0,75,0,0
18906,-100,4,3,0,75,0,1
28297,-100,4,3,0,75,0,1
29080,-100,4,3,0,75,0,1
32471,-100,4,3,0,75,0,1
35536,-100,4,3,0,75,0,0
35612,266.666666666667,4,3,0,75,1,1
35612,-100,4,3,0,75,0,1
37212,-100,4,3,0,75,0,0
37353,-100,4,3,0,5,0,0

[HitObjects]
71,87,2210,6,0,P|170:98|251:83,1,160,2|2,0:0|0:0,0:0:0:0:
304,59,2993,1,10,0:0:0:0:
380,35,3253,2,0,B|388:107|388:107|402:153|402:153|410:217,1,160,2|0,0:0|0:0,0:0:0:0:
395,352,4297,6,0,P|305:321|231:327,1,160,2|2,0:0|0:0,0:0:0:0:
86,363,5340,2,0,B|86:310|86:310|71:256|71:256|71:189,1,160,2|0,0:0|0:0,0:0:0:0:
65,124,6123,1,10,0:0:0:0:
51,45,6384,6,0,L|237:37,1,160,2|0,0:0|0:0,0:0:0:0:
288,58,7166,1,10,0:0:0:0:
334,122,7427,2,0,P|356:197|304:277,1,160,2|0,0:0|0:0,0:0:0:0:
248,303,8210,1,8,0:0:0:0:
168,290,8471,6,0,P|175:225|264:187,2,160,2|2|2,0:0|0:0|0:0,0:0:0:0:
312,358,10036,2,0,L|415:359,1,79.9999999999999,0|10,0:0|0:0,0:0:0:0:
471,368,10558,6,0,P|486:270|487:204,1,160,2|2,0:0|0:0,0:0:0:0:
491,129,11340,1,8,0:0:0:0:
466,52,11601,2,0,P|367:46|285:26,1,160,2|0,0:0|0:0,0:0:0:0:
228,19,12384,1,8,0:0:0:0:
148,15,12645,6,0,P|127:97|75:164,2,160,2|2|2,0:0|0:0|0:0,0:0:0:0:
228,19,13949,1,10,0:0:0:0:
307,16,14210,2,0,L|408:19,1,79.9999999999999,10|10,0:0|0:0,0:0:0:0:
464,60,14732,6,0,P|490:151|482:242,1,160,2|0,0:0|0:0,0:0:0:0:
465,300,15514,1,8,0:0:0:0:
393,351,15775,6,0,L|217:336,1,160,2|0,0:0|0:0,0:0:0:0:
152,302,16558,1,8,0:0:0:0:
224,252,16819,6,0,L|411:236,1,160,2|0,0:0|0:0,0:0:0:0:
441,172,17601,1,10,0:0:0:0:
402,92,17862,5,8,0:0:0:0:
237,27,18384,1,8,0:0:0:0:
340,169,18906,6,0,L|401:323,1,160,2|0,0:0|0:0,0:0:0:0:
246,269,19949,6,0,L|187:120,1,160,2|0,0:0|0:0,0:0:0:0:
48,40,20993,6,0,P|60:119|45:205,1,160,2|2,0:0|0:0,0:0:0:0:
20,281,21775,1,10,0:0:0:0:
0,366,22036,2,0,P|99:384|168:369,1,160,2|0,0:0|0:0,0:0:0:0:
231,326,22819,1,8,0:0:0:0:
302,378,23080,6,0,L|486:370,1,160,2|0,0:0|0:0,0:0:0:0:
508,201,24123,6,0,L|324:193,1,160,2|0,0:0|0:0,0:0:0:0:
172,206,25166,6,0,P|125:194|68:88,1,160,2|2,0:0|0:0,0:0:0:0:
123,35,25949,1,10,0:0:0:0:
168,110,26210,2,0,P|240:123|328:102,1,160,2|0,0:0|0:0,0:0:0:0:
399,58,26993,1,8,0:0:0:0:
465,115,27253,6,0,B|477:179|477:179|471:218|471:218|482:292,1,160,2|0,0:0|0:0,0:0:0:0:
310,324,28297,6,0,B|298:260|298:260|304:221|304:221|293:147,1,160,2|0,0:0|0:0,0:0:0:0:
163,49,29340,6,0,L|-2:56,1,160,2|2,0:0|0:0,0:0:0:0:
2,144,30123,1,10,0:0:0:0:
0,233,30384,2,0,L|165:226,1,160,2|0,0:0|0:0,0:0:0:0:
162,138,31166,1,8,0:0:0:0:
163,49,31427,6,0,B|224:49|224:49|272:64|272:64|336:64,1,160,2|0,0:0|0:0,0:0:0:0:
477,145,32471,6,0,B|416:145|416:145|368:160|368:160|304:160,1,160,2|0,0:0|0:0,0:0:0:0:
167,248,33514,6,0,B|228:248|228:248|276:263|276:263|340:263,1,160,2|2,0:0|0:0,0:0:0:0:
409,239,34297,1,10,0:0:0:0:
441,157,34558,2,0,B|380:157|380:157|332:172|332:172|268:172,1,160,2|0,0:0|0:0,0:0:0:0:
196,159,35340,1,8,0:0:0:0:
112,119,35612,6,0,B|74:155|74:155|65:204,1,79.9999999999999,10|10,0:0|0:0,0:0:0:0:
69,270,36145,1,10,0:0:0:0:
120,341,36412,1,10,0:0:0:0:
207,350,36678,6,0,L|310:349,1,79.9999999999999,10|10,0:0|0:0,0:0:0:0:
370,318,37212,1,8,0:0:0:0:
