osu file format v14

[General]
AudioFilename: audio.mp3
AudioLeadIn: 0
PreviewTime: 51297
Countdown: 0
SampleSet: Soft
StackLeniency: 0.7
Mode: 3
LetterboxInBreaks: 0
SpecialStyle: 0
WidescreenStoryboard: 1

[Editor]
DistanceSpacing: 1.5
BeatDivisor: 4
GridSize: 4
TimelineZoom: 2.5

[Metadata]
Title:"PUSH" (TV Size)
TitleUnicode:"PUSH" (TV Size)
Artist:Randy Marsh (VO: Sia)
ArtistUnicode:Randy Marsh (VO: Sia)
Creator:MocaLoca
Version:Normal
Source:South Park
Tags:Feeling Good on a Wednesday pop electronic english parody trey parker matt stone jamie dunlap alex ball lorde linlime jawbraiker jawbraiker14 comedy central cartoon
BeatmapID:4043952
BeatmapSetID:1952781

[Difficulty]
HPDrainRate:6
CircleSize:4
OverallDifficulty:6
ApproachRate:5
SliderMultiplier:1.4
SliderTickRate:1

[Events]
//Background and Video events
0,0,"i am lorde jajaja.jpg",0,0
Video,50,"cissy.mp4"
//Break Periods
//Storyboard Layer 0 (Background)
//Storyboard Layer 1 (Fail)
//Storyboard Layer 2 (Pass)
//Storyboard Layer 3 (Foreground)
//Storyboard Layer 4 (Overlay)
//Storyboard Sound Samples

[TimingPoints]
4245,315.789459228516,4,2,1,30,1,0

[HitObjects]
320,192,4244,5,0,0:0:0:0:
192,192,4560,1,0,0:0:0:0:
320,192,4718,1,0,0:0:0:0:
448,192,4876,1,0,0:0:0:0:
64,192,4876,1,0,0:0:0:0:
192,192,5192,1,0,0:0:0:0:
64,192,5350,1,0,0:0:0:0:
320,192,5508,1,0,0:0:0:0:
192,192,5823,1,0,0:0:0:0:
320,192,5981,1,0,0:0:0:0:
448,192,6139,1,0,0:0:0:0:
64,192,6139,1,0,0:0:0:0:
320,192,6455,1,0,0:0:0:0:
448,192,6613,1,0,0:0:0:0:
192,192,6771,1,0,0:0:0:0:
320,192,6929,1,0,0:0:0:0:
64,192,7087,1,0,0:0:0:0:
448,192,7244,1,0,0:0:0:0:
320,192,7402,1,0,0:0:0:0:
192,192,7402,1,0,0:0:0:0:
64,192,7718,1,0,0:0:0:0:
320,192,7876,1,0,0:0:0:0:
192,192,8034,1,0,0:0:0:0:
448,192,8350,1,0,0:0:0:0:
320,192,8508,1,0,0:0:0:0:
192,192,8666,1,0,0:0:0:0:
64,192,8666,1,0,0:0:0:0:
320,192,8981,1,0,0:0:0:0:
192,192,9139,1,0,0:0:0:0:
448,192,9297,1,0,0:0:0:0:
192,192,9613,1,0,0:0:0:0:
320,192,9771,1,0,0:0:0:0:
64,192,9929,1,0,0:0:0:0:
448,192,9929,1,0,0:0:0:0:
192,192,10244,1,0,0:0:0:0:
320,192,10402,1,0,0:0:0:0:
64,192,10560,1,0,0:0:0:0:
448,192,10876,1,0,0:0:0:0:
192,192,11034,1,0,0:0:0:0:
320,192,11192,1,0,0:0:0:0:
64,192,11192,1,0,0:0:0:0:
448,192,11508,1,0,0:0:0:0:
192,192,11666,1,0,0:0:0:0:
320,192,11823,1,0,0:0:0:0:
192,192,12139,1,0,0:0:0:0:
320,192,12297,1,0,0:0:0:0:
64,192,12455,1,0,0:0:0:0:
448,192,12455,1,0,0:0:0:0:
192,192,12771,1,0,0:0:0:0:
64,192,12929,1,0,0:0:0:0:
320,192,13087,1,0,0:0:0:0:
448,192,13402,1,0,0:0:0:0:
192,192,13560,1,0,0:0:0:0:
320,192,13718,1,0,0:0:0:0:
64,192,13718,1,0,0:0:0:0:
192,192,14034,1,0,0:0:0:0:
320,192,14192,1,0,0:0:0:0:
448,192,14350,1,0,0:0:0:0:
192,192,14666,1,0,0:0:0:0:
320,192,14823,1,0,0:0:0:0:
64,192,14981,1,0,0:0:0:0:
448,192,14981,1,0,0:0:0:0:
192,192,15297,1,0,0:0:0:0:
320,192,15455,1,0,0:0:0:0:
448,192,15613,1,0,0:0:0:0:
192,192,15929,1,0,0:0:0:0:
64,192,16087,1,0,0:0:0:0:
320,192,16244,1,0,0:0:0:0:
448,192,16244,1,0,0:0:0:0:
192,192,16560,1,0,0:0:0:0:
320,192,16718,1,0,0:0:0:0:
64,192,16876,1,0,0:0:0:0:
448,192,17192,1,0,0:0:0:0:
192,192,17350,1,0,0:0:0:0:
320,192,17508,1,0,0:0:0:0:
64,192,17508,1,0,0:0:0:0:
192,192,17823,1,0,0:0:0:0:
448,192,17981,1,0,0:0:0:0:
320,192,18139,1,0,0:0:0:0:
192,192,18455,1,0,0:0:0:0:
64,192,18613,1,0,0:0:0:0:
320,192,18771,1,0,0:0:0:0:
448,192,18771,1,0,0:0:0:0:
192,192,19087,1,0,0:0:0:0:
320,192,19244,1,0,0:0:0:0:
64,192,19402,1,0,0:0:0:0:
192,192,19718,1,0,0:0:0:0:
320,192,19876,1,0,0:0:0:0:
448,192,20034,1,0,0:0:0:0:
64,192,20034,1,0,0:0:0:0:
320,192,20350,1,0,0:0:0:0:
192,192,20508,1,0,0:0:0:0:
448,192,20666,1,0,0:0:0:0:
320,192,20981,1,0,0:0:0:0:
192,192,21139,1,0,0:0:0:0:
448,192,21297,1,0,0:0:0:0:
64,192,21297,1,0,0:0:0:0:
192,192,21613,1,0,0:0:0:0:
448,192,21771,1,0,0:0:0:0:
320,192,21929,1,0,0:0:0:0:
64,192,22244,1,0,0:0:0:0:
320,192,22402,1,0,0:0:0:0:
448,192,22560,1,0,0:0:0:0:
192,192,22560,1,0,0:0:0:0:
64,192,22876,1,0,0:0:0:0:
320,192,23034,1,0,0:0:0:0:
192,192,23192,128,0,23508:0:0:0:0:
320,192,23508,1,0,0:0:0:0:
448,192,23666,1,0,0:0:0:0:
192,192,23823,128,0,24139:0:0:0:0:
64,192,23823,1,0,0:0:0:0:
320,192,24139,1,0,0:0:0:0:
64,192,24297,1,0,0:0:0:0:
192,192,24455,128,0,24771:0:0:0:0:
448,192,24771,1,0,0:0:0:0:
320,192,24929,1,0,0:0:0:0:
192,192,25087,1,0,0:0:0:0:
64,192,25087,1,0,0:0:0:0:
320,192,25402,1,0,0:0:0:0:
448,192,25718,128,0,26350:0:0:0:0:
192,192,26192,1,0,0:0:0:0:
320,192,26350,1,0,0:0:0:0:
64,192,26350,1,0,0:0:0:0:
192,192,26666,128,0,27297:0:0:0:0:
320,192,26823,1,0,0:0:0:0:
448,192,26981,1,0,0:0:0:0:
64,192,27297,1,0,0:0:0:0:
320,192,27455,1,0,0:0:0:0:
448,192,27613,1,0,0:0:0:0:
64,192,27613,1,0,0:0:0:0:
320,192,28087,1,0,0:0:0:0:
192,192,28244,128,0,28876:0:0:0:0:
320,192,28718,1,0,0:0:0:0:
448,192,28876,1,0,0:0:0:0:
64,192,28876,1,0,0:0:0:0:
448,192,29192,128,0,29823:0:0:0:0:
192,192,29350,1,0,0:0:0:0:
320,192,29508,1,0,0:0:0:0:
192,192,29823,1,0,0:0:0:0:
320,192,29981,1,0,0:0:0:0:
448,192,30139,1,0,0:0:0:0:
64,192,30139,1,0,0:0:0:0:
320,192,30613,1,0,0:0:0:0:
64,192,30771,128,0,31402:0:0:0:0:
320,192,31244,1,0,0:0:0:0:
448,192,31402,1,0,0:0:0:0:
192,192,31402,1,0,0:0:0:0:
320,192,31718,128,0,32350:0:0:0:0:
64,192,31876,1,0,0:0:0:0:
448,192,32034,1,0,0:0:0:0:
192,192,32350,1,0,0:0:0:0:
64,192,32508,1,0,0:0:0:0:
320,192,32666,1,0,0:0:0:0:
448,192,32666,1,0,0:0:0:0:
64,192,32981,1,0,0:0:0:0:
320,192,33139,1,0,0:0:0:0:
192,192,33297,1,0,0:0:0:0:
64,192,33613,1,0,0:0:0:0:
320,192,33771,1,0,0:0:0:0:
448,192,33929,1,0,0:0:0:0:
64,192,33929,1,0,0:0:0:0:
320,192,34244,1,0,0:0:0:0:
192,192,34402,1,0,0:0:0:0:
448,192,34560,1,0,0:0:0:0:
192,192,34876,1,0,0:0:0:0:
64,192,35034,1,0,0:0:0:0:
320,192,35192,1,0,0:0:0:0:
448,192,35192,1,0,0:0:0:0:
320,192,35508,1,0,0:0:0:0:
192,192,35666,1,0,0:0:0:0:
64,192,35823,128,0,36455:0:0:0:0:
320,192,36297,1,0,0:0:0:0:
192,192,36455,1,0,0:0:0:0:
448,192,36455,1,0,0:0:0:0:
64,192,36771,1,0,0:0:0:0:
192,192,36929,1,0,0:0:0:0:
320,192,37087,1,0,0:0:0:0:
448,192,37402,1,0,0:0:0:0:
192,192,37560,1,0,0:0:0:0:
64,192,37718,1,0,0:0:0:0:
448,192,37718,1,0,0:0:0:0:
320,192,38034,1,0,0:0:0:0:
192,192,38192,1,0,0:0:0:0:
448,192,38350,1,0,0:0:0:0:
320,192,38666,1,0,0:0:0:0:
192,192,38823,1,0,0:0:0:0:
64,192,38981,1,0,0:0:0:0:
448,192,38981,1,0,0:0:0:0:
192,192,39297,1,0,0:0:0:0:
320,192,39455,1,0,0:0:0:0:
448,192,39613,1,0,0:0:0:0:
64,192,39929,1,0,0:0:0:0:
320,192,40087,1,0,0:0:0:0:
64,192,40244,1,0,0:0:0:0:
448,192,40244,1,0,0:0:0:0:
64,192,40560,1,0,0:0:0:0:
192,192,40718,1,0,0:0:0:0:
320,192,40876,1,0,0:0:0:0:
448,192,41192,1,0,0:0:0:0:
192,192,41350,1,0,0:0:0:0:
64,192,41508,1,0,0:0:0:0:
320,192,41508,1,0,0:0:0:0:
192,192,41823,1,0,0:0:0:0:
448,192,41981,1,0,0:0:0:0:
64,192,42139,1,0,0:0:0:0:
320,192,42455,1,0,0:0:0:0:
448,192,42613,1,0,0:0:0:0:
192,192,42771,1,0,0:0:0:0:
64,192,42771,1,0,0:0:0:0:
448,192,43087,1,0,0:0:0:0:
192,192,43244,1,0,0:0:0:0:
64,192,43402,1,0,0:0:0:0:
320,192,43718,1,0,0:0:0:0:
192,192,43876,1,0,0:0:0:0:
64,192,44034,1,0,0:0:0:0:
448,192,44034,1,0,0:0:0:0:
192,192,44350,1,0,0:0:0:0:
320,192,44508,1,0,0:0:0:0:
448,192,44666,1,0,0:0:0:0:
64,192,44981,1,0,0:0:0:0:
448,192,45139,1,0,0:0:0:0:
192,192,45297,1,0,0:0:0:0:
64,192,45297,1,0,0:0:0:0:
320,192,45771,1,0,0:0:0:0:
192,192,45929,1,0,0:0:0:0:
64,192,46402,1,0,0:0:0:0:
192,192,46560,1,0,0:0:0:0:
320,192,46560,1,0,0:0:0:0:
448,192,47034,1,0,0:0:0:0:
320,192,47192,1,0,0:0:0:0:
192,192,47508,1,0,0:0:0:0:
320,192,47666,1,0,0:0:0:0:
64,192,47823,1,0,0:0:0:0:
448,192,47823,1,0,0:0:0:0:
320,192,48297,1,0,0:0:0:0:
192,192,48455,1,0,0:0:0:0:
320,192,48929,1,0,0:0:0:0:
64,192,49087,1,0,0:0:0:0:
448,192,49087,128,0,49402:0:0:0:0:
320,192,49402,128,0,49718:0:0:0:0:
192,192,49560,1,0,0:0:0:0:
64,192,49718,128,0,50666:0:0:0:0:
448,192,49718,1,0,0:0:0:0:
320,192,50034,1,0,0:0:0:0:
192,192,50192,1,0,0:0:0:0:
448,192,50350,1,0,0:0:0:0:
320,192,50350,1,0,0:0:0:0:
192,192,50823,1,0,0:0:0:0:
64,192,50981,1,0,0:0:0:0:
320,192,51297,1,0,0:0:0:0:
192,192,51455,1,0,0:0:0:0:
448,192,51613,1,0,0:0:0:0:
64,192,51613,128,0,51929:0:0:0:0:
320,192,51929,128,0,52244:0:0:0:0:
448,192,52244,128,0,53192:0:0:0:0:
192,192,52718,1,0,0:0:0:0:
320,192,52876,1,0,0:0:0:0:
64,192,52876,1,0,0:0:0:0:
192,192,53350,1,0,0:0:0:0:
320,192,53508,1,0,0:0:0:0:
448,192,53823,1,0,0:0:0:0:
320,192,53981,1,0,0:0:0:0:
192,192,54139,1,0,0:0:0:0:
64,192,54139,1,0,0:0:0:0:
192,192,54613,1,0,0:0:0:0:
320,192,54771,128,0,56034:0:0:0:0:
448,192,55244,1,0,0:0:0:0:
192,192,55402,1,0,0:0:0:0:
64,192,55402,1,0,0:0:0:0:
192,192,55876,1,0,0:0:0:0:
64,192,56034,1,0,0:0:0:0:
320,192,56350,1,0,0:0:0:0:
192,192,56508,1,0,0:0:0:0:
448,192,56666,1,0,0:0:0:0:
64,192,56666,1,0,0:0:0:0:
320,192,57139,1,0,0:0:0:0:
192,192,57297,1,0,0:0:0:0:
64,192,57771,1,0,0:0:0:0:
320,192,57929,1,0,0:0:0:0:
448,192,57929,128,0,58560:0:0:0:0:
192,192,58402,1,0,0:0:0:0:
320,192,58560,1,0,0:0:0:0:
192,192,58876,1,0,0:0:0:0:
448,192,59034,1,0,0:0:0:0:
320,192,59192,1,0,0:0:0:0:
64,192,59192,1,0,0:0:0:0:
448,192,59666,1,0,0:0:0:0:
192,192,59823,128,0,60771:0:0:0:0:
320,192,60297,1,0,0:0:0:0:
448,192,60455,1,0,0:0:0:0:
64,192,60455,1,0,0:0:0:0:
320,192,60929,1,0,0:0:0:0:
192,192,61087,1,0,0:0:0:0:
320,192,61402,1,0,0:0:0:0:
192,192,61560,1,0,0:0:0:0:
64,192,61718,1,0,0:0:0:0:
448,192,61718,1,0,0:0:0:0:
192,192,62192,1,0,0:0:0:0:
448,192,62350,128,0,62981:0:0:0:0:
64,192,62823,1,0,0:0:0:0:
320,192,62981,1,0,0:0:0:0:
192,192,62981,1,0,0:0:0:0:
64,192,63297,128,0,63771:0:0:0:0:
320,192,63455,1,0,0:0:0:0:
448,192,63613,1,0,0:0:0:0:
320,192,63929,1,0,0:0:0:0:
192,192,64087,1,0,0:0:0:0:
64,192,64244,1,0,0:0:0:0:
448,192,64244,1,0,0:0:0:0:
192,192,64718,1,0,0:0:0:0:
64,192,64876,1,0,0:0:0:0:
320,192,65034,128,0,65823:0:0:0:0:
192,192,65350,1,0,0:0:0:0:
64,192,65508,1,0,0:0:0:0:
448,192,65508,1,0,0:0:0:0:
192,192,65981,1,0,0:0:0:0:
320,192,66139,1,0,0:0:0:0:
64,192,66455,1,0,0:0:0:0:
192,192,66613,1,0,0:0:0:0:
448,192,66771,1,0,0:0:0:0:
320,192,66771,1,0,0:0:0:0:
448,192,67244,1,0,0:0:0:0:
192,192,67402,128,0,68350:0:0:0:0:
320,192,67876,1,0,0:0:0:0:
448,192,68034,1,0,0:0:0:0:
64,192,68034,1,0,0:0:0:0:
320,192,68508,1,0,0:0:0:0:
192,192,68666,128,0,68981:0:0:0:0:
64,192,68981,128,0,69297:0:0:0:0:
320,192,69139,1,0,0:0:0:0:
192,192,69297,1,0,0:0:0:0:
448,192,69297,128,0,69771:0:0:0:0:
320,192,69771,1,0,0:0:0:0:
192,192,69929,128,0,70244:0:0:0:0:
64,192,70244,128,0,70560:0:0:0:0:
448,192,70402,1,0,0:0:0:0:
320,192,70560,128,0,71034:0:0:0:0:
192,192,70560,1,0,0:0:0:0:
448,192,71034,1,0,0:0:0:0:
192,192,71192,128,0,71508:0:0:0:0:
64,192,71508,128,0,71823:0:0:0:0:
320,192,71666,1,0,0:0:0:0:
448,192,71823,128,0,72297:0:0:0:0:
192,192,71823,1,0,0:0:0:0:
64,192,72297,1,0,0:0:0:0:
192,192,72455,128,0,72771:0:0:0:0:
64,192,72771,128,0,73087:0:0:0:0:
448,192,72929,1,0,0:0:0:0:
320,192,73087,128,0,73402:0:0:0:0:
192,192,73087,1,0,0:0:0:0:
64,192,73560,1,0,0:0:0:0:
320,192,73718,128,0,74034:0:0:0:0:
448,192,74034,128,0,74350:0:0:0:0:
192,192,74192,1,0,0:0:0:0:
64,192,74350,128,0,74981:0:0:0:0:
320,192,74350,1,0,0:0:0:0:
448,192,74823,1,0,0:0:0:0:
320,192,74981,1,0,0:0:0:0:
192,192,75455,1,0,0:0:0:0:
320,192,75613,128,0,75929:0:0:0:0:
64,192,75613,1,0,0:0:0:0:
448,192,75929,128,0,76244:0:0:0:0:
64,192,76087,1,0,0:0:0:0:
192,192,76244,128,0,76876:0:0:0:0:
320,192,76560,1,0,0:0:0:0:
448,192,76718,1,0,0:0:0:0:
64,192,76876,1,0,0:0:0:0:
320,192,76876,1,0,0:0:0:0:
320,192,77350,1,0,0:0:0:0:
192,192,77508,128,0,77981:0:0:0:0:
320,192,77981,1,0,0:0:0:0:
448,192,78139,1,0,0:0:0:0:
64,192,78139,1,0,0:0:0:0:
320,192,78613,1,0,0:0:0:0:
192,192,78771,128,0,79087:0:0:0:0:
64,192,79087,128,0,79402:0:0:0:0:
320,192,79244,1,0,0:0:0:0:
448,192,79402,128,0,79876:0:0:0:0:
192,192,79402,1,0,0:0:0:0:
320,192,79876,1,0,0:0:0:0:
192,192,80034,128,0,80350:0:0:0:0:
64,192,80350,128,0,80666:0:0:0:0:
448,192,80508,1,0,0:0:0:0:
320,192,80666,128,0,80981:0:0:0:0:
192,192,80666,1,0,0:0:0:0:
448,192,81139,1,0,0:0:0:0:
192,192,81297,1,0,0:0:0:0:
320,192,81613,1,0,0:0:0:0:
64,192,81771,1,0,0:0:0:0:
448,192,81929,1,0,0:0:0:0:
192,192,81929,128,0,82560:0:0:0:0:
320,192,82402,1,0,0:0:0:0:
