osu file format v14

[General]
AudioFilename: audio.mp3
AudioLeadIn: 0
PreviewTime: 9070
Countdown: 0
SampleSet: Normal
StackLeniency: 0.3
Mode: 0
LetterboxInBreaks: 0
WidescreenStoryboard: 1

[Editor]
DistanceSpacing: 1
BeatDivisor: 4
GridSize: 4
TimelineZoom: 2.799999

[Metadata]
Title:Waidmanns Heil
TitleUnicode:Waidmanns Heil
Artist:Rammstein
ArtistUnicode:Rammstein
Creator:Frey
Version:Insane
Source:
Tags:Love is there for everyone Huntsman's Salute Liebe ist für fuer fur alle da German industrial metal hard rock Guitar Hero Warriors
BeatmapID:3136803
BeatmapSetID:1533921

[Difficulty]
HPDrainRate:5.5
CircleSize:4
OverallDifficulty:7
ApproachRate:9
SliderMultiplier:1.6
SliderTickRate:1

[Events]
//Background and Video events
0,0,"ab09c09a8fc8f8ac58f5e3d74f53a7d0.jpg",0,0
//Break Periods
2,153412,161755
2,162841,164041
2,165127,166327
//Storyboard Layer 0 (Background)
//Storyboard Layer 1 (Fail)
//Storyboard Layer 2 (Pass)
//Storyboard Layer 3 (Foreground)
//Storyboard Layer 4 (Overlay)
//Storyboard Sound Samples

[TimingPoints]
70,285.714285714286,4,1,1,66,1,0
27498,-100,4,1,1,60,0,0
45784,-133.333333333333,4,1,1,60,0,0
52641,-100,4,1,1,66,0,1
70927,-100,4,1,1,60,0,0
91498,-100,4,1,1,63,0,0
109784,-133.333333333333,4,1,1,60,0,0
116641,-100,4,1,1,66,0,1
153212,-100,4,1,1,60,0,0
171498,-100,4,1,1,70,0,1
208070,-100,4,1,1,70,0,0

[Colours]
Combo1 : 143,112,252
Combo2 : 255,70,209
Combo3 : 43,226,255
Combo4 : 254,175,46

[HitObjects]
152,136,6927,6,0,P|248:128|324:116,1,160,4|2,0:0|0:0,0:0:0:0:
360,248,7355,2,0,P|264:256|188:268,1,160,12|2,0:0|0:0,0:0:0:0:
123,287,7784,2,0,P|85:278|48:248,1,80,8|2,0:0|0:0,0:0:0:0:
0,152,8070,6,0,P|31:128|70:118,1,80,8|2,0:0|0:0,0:0:0:0:
152,136,8355,2,0,P|190:127|227:97,1,80,8|2,0:0|0:0,0:0:0:0:
256,28,8641,1,8,0:0:0:0:
256,28,8712,1,2,0:0:0:0:
256,28,8784,1,2,0:0:0:0:
336,44,8927,1,8,0:0:0:0:
352,124,9070,1,8,0:0:0:0:
464,107,9212,6,2,P|450:185|440:272,1,160,6|8,0:0|0:0,0:0:0:0:
432,344,9641,1,0,0:0:0:0:
356,316,9784,2,0,P|296:324|252:348,1,80,2|2,0:0|0:0,0:0:0:0:
154,243,10070,2,0,P|194:240|232:228,1,80,8|0,0:0|0:0,0:0:0:0:
79,343,10355,6,2,P|29:284|32:206,2,160,2|8|2,0:0|0:0|0:0,0:0:0:0:
160,324,11070,1,2,0:0:0:0:
154,243,11212,2,0,L|148:152,1,80,8|0,0:0|0:0,0:0:0:0:
13,39,11498,6,2,P|68:93|143:80,1,160,2|8,0:0|0:0,0:0:0:0:
208,32,11927,1,0,0:0:0:0:
288,28,12070,2,0,P|336:40|400:44,1,80,2|2,0:0|0:0,0:0:0:0:
433,134,12355,2,0,P|442:95|447:55,1,80,8|0,0:0|0:0,0:0:0:0:
333,162,12641,6,2,P|294:158|255:147,1,80,2|0,0:0|0:0,0:0:0:0:
177,220,12927,2,2,P|216:224|255:235,1,80,8|0,0:0|0:0,0:0:0:0:
336,252,13212,2,2,P|374:243|404:217,1,80,2|0,0:0|0:0,0:0:0:0:
175,131,13498,2,2,P|137:140|107:166,1,80,8|0,0:0|0:0,0:0:0:0:
52,308,13784,6,2,L|26:149,1,160,2|8,0:0|0:0,0:0:0:0:
60,76,14212,1,0,0:0:0:0:
136,48,14355,2,0,P|178:55|248:60,1,80,2|2,0:0|0:0,0:0:0:0:
252,203,14641,2,0,P|256:163|264:124,1,80,8|0,0:0|0:0,0:0:0:0:
344,44,14927,6,2,P|428:55|492:12,2,160,2|8|2,0:0|0:0|0:0,0:0:0:0:
273,4,15641,1,2,0:0:0:0:
215,59,15784,2,0,L|222:138,1,80,8|0,0:0|0:0,0:0:0:0:
290,246,16070,6,2,L|449:230,1,160,2|8,0:0|0:0,0:0:0:0:
500,332,16498,1,0,0:0:0:0:
420,340,16641,2,0,P|388:352|348:392,1,80,2|2,0:0|0:0,0:0:0:0:
268,324,16927,2,0,P|233:305|213:270,1,80,8|0,0:0|0:0,0:0:0:0:
256,140,17212,5,2,0:0:0:0:
256,140,17284,1,2,0:0:0:0:
256,140,17355,1,2,0:0:0:0:
347,204,17498,2,2,L|334:126,1,80,8|0,0:0|0:0,0:0:0:0:
178,126,17784,2,2,L|164:204,1,80,2|0,0:0|0:0,0:0:0:0:
191,47,18070,2,2,L|111:56,1,80,8|0,0:0|0:0,0:0:0:0:
21,216,18355,6,2,P|72:276|149:282,1,160,2|8,0:0|0:0,0:0:0:0:
216,236,18784,1,0,0:0:0:0:
296,236,18927,2,0,L|309:314,1,80,2|2,0:0|0:0,0:0:0:0:
404,372,19212,2,0,P|460:360|484:336,1,80,8|0,0:0|0:0,0:0:0:0:
497,187,19498,6,2,L|338:164,2,160,2|8|2,0:0|0:0|0:0,0:0:0:0:
485,107,20212,1,2,0:0:0:0:
473,27,20355,2,0,P|434:37|393:38,1,80,8|0,0:0|0:0,0:0:0:0:
255,84,20641,6,2,P|188:104|120:44,1,160,2|8,0:0|0:0,0:0:0:0:
200,24,21070,1,0,0:0:0:0:
312,24,21212,2,0,P|333:57|336:104,1,80,2|2,0:0|0:0,0:0:0:0:
279,241,21498,2,0,P|258:207|256:167,1,80,8|0,0:0|0:0,0:0:0:0:
352,280,21784,6,2,P|396:268|436:252,1,80,2|0,0:0|0:0,0:0:0:0:
432,151,22070,2,2,P|394:165|356:176,1,80,8|0,0:0|0:0,0:0:0:0:
160,280,22355,2,2,P|116:268|76:252,1,80,2|0,0:0|0:0,0:0:0:0:
79,151,22641,2,2,P|117:165|156:176,1,80,8|0,0:0|0:0,0:0:0:0:
256,320,22927,6,2,B|280:240|232:240|256:164,1,160,2|8,0:0|0:0,0:0:0:0:
313,106,23355,1,0,0:0:0:0:
356,174,23498,2,0,L|436:184,1,80,2|2,0:0|0:0,0:0:0:0:
401,35,23784,2,0,L|321:25,1,80,8|0,0:0|0:0,0:0:0:0:
154,65,24070,6,2,P|182:137|256:163,2,160,2|8|2,0:0|0:0|0:0,0:0:0:0:
20,40,24784,1,2,0:0:0:0:
28,120,24927,2,0,L|40:224,1,80,8|0,0:0|0:0,0:0:0:0:
52,328,25212,6,2,P|144:332|212:384,1,160,2|8,0:0|0:0,0:0:0:0:
256,308,25641,1,0,0:0:0:0:
267,227,25784,2,0,P|228:232|195:253,1,80,2|2,0:0|0:0,0:0:0:0:
314,368,26070,2,0,P|353:363|386:342,1,80,8|0,0:0|0:0,0:0:0:0:
428,180,26355,5,2,0:0:0:0:
428,180,26427,1,2,0:0:0:0:
428,180,26498,1,2,0:0:0:0:
361,57,26641,2,2,L|344:136,1,80,8|0,0:0|0:0,0:0:0:0:
256,12,26927,2,2,L|256:92,1,80,2|0,0:0|0:0,0:0:0:0:
150,57,27212,2,2,L|167:135,1,80,8|0,0:0|0:0,0:0:0:0:
101,257,27498,6,0,L|67:101,1,160,6|8,0:0|0:0,0:0:0:0:
0,248,27927,1,0,0:0:0:0:
44,316,28070,2,0,P|117:337|176:287,1,160,2|8,0:0|0:0,0:0:0:0:
256,192,28498,1,0,0:0:0:0:
304,256,28641,6,0,P|372:272|412:296,1,80,2|0,0:0|0:0,0:0:0:0:
460,192,28927,2,0,L|380:192,1,80,8|0,0:0|0:0,0:0:0:0:
304,128,29212,2,0,P|372:112|412:88,1,80,2|0,0:0|0:0,0:0:0:0:
440,52,29498,1,8,0:0:0:0:
364,28,29641,1,0,0:0:0:0:
284,48,29784,6,0,P|216:64|136:12,1,160,2|8,0:0|0:0,0:0:0:0:
64,48,30212,1,0,0:0:0:0:
36,124,30355,2,0,L|56:212,1,80,2|2,0:0|0:0,0:0:0:0:
80,312,30641,1,8,0:0:0:0:
160,292,30784,1,0,0:0:0:0:
224,344,30927,6,0,L|264:172,1,160,2|8,0:0|0:0,0:0:0:0:
280,108,31355,1,0,0:0:0:0:
352,72,31498,2,0,P|412:88|444:116,1,80,2|0,0:0|0:0,0:0:0:0:
512,192,31784,1,8,0:0:0:0:
484,268,31927,1,0,0:0:0:0:
432,204,32070,6,0,P|364:200|288:252,1,160,2|8,0:0|0:0,0:0:0:0:
256,324,32498,1,0,0:0:0:0:
144,368,32641,2,0,P|100:320|112:216,1,160,2|8,0:0|0:0,0:0:0:0:
148,160,33070,1,0,0:0:0:0:
228,172,33212,6,0,P|237:130|240:84,1,80,2|0,0:0|0:0,0:0:0:0:
128,28,33498,2,0,L|36:40,1,80,8|0,0:0|0:0,0:0:0:0:
8,108,33784,2,0,L|18:187,1,80,2|0,0:0|0:0,0:0:0:0:
112,288,34070,1,8,0:0:0:0:
102,209,34212,1,0,0:0:0:0:
176,240,34355,6,0,P|256:220|288:152,1,160,2|8,0:0|0:0,0:0:0:0:
298,72,34784,1,0,0:0:0:0:
368,28,34927,2,0,P|406:37|446:38,1,80,2|2,0:0|0:0,0:0:0:0:
512,132,35212,1,8,0:0:0:0:
448,184,35355,1,0,0:0:0:0:
368,172,35498,6,0,L|384:344,1,160,2|8,0:0|0:0,0:0:0:0:
256,384,35927,1,0,0:0:0:0:
192,335,36070,2,0,P|222:310|261:303,1,80,2|0,0:0|0:0,0:0:0:0:
316,244,36355,1,8,0:0:0:0:
256,192,36498,1,0,0:0:0:0:
144,212,36641,6,0,L|128:40,1,160,6|8,0:0|0:0,0:0:0:0:
16,56,37070,1,0,0:0:0:0:
0,134,37212,2,0,P|1:210|69:247,1,160,2|8,0:0|0:0,0:0:0:0:
144,212,37641,1,0,0:0:0:0:
224,232,37784,6,0,L|244:152,1,80,2|0,0:0|0:0,0:0:0:0:
284,329,38070,2,0,L|304:252,1,80,8|0,0:0|0:0,0:0:0:0:
403,194,38355,2,0,L|384:272,1,80,2|0,0:0|0:0,0:0:0:0:
444,368,38641,1,8,0:0:0:0:
464,290,38784,1,0,0:0:0:0:
484,211,38927,6,0,P|463:137|388:112,1,160,2|8,0:0|0:0,0:0:0:0:
316,144,39355,1,0,0:0:0:0:
256,88,39498,2,0,L|232:-12,1,80,2|2,0:0|0:0,0:0:0:0:
176,112,39784,1,8,0:0:0:0:
236,168,39927,1,0,0:0:0:0:
156,192,40070,6,0,L|-4:172,1,160,2|8,0:0|0:0,0:0:0:0:
12,284,40498,1,0,0:0:0:0:
80,328,40641,2,0,P|116:312|168:312,1,80,2|0,0:0|0:0,0:0:0:0:
228,352,40927,1,8,0:0:0:0:
280,288,41070,1,0,0:0:0:0:
352,331,41212,6,0,L|372:168,1,160,2|8,0:0|0:0,0:0:0:0:
496,228,41641,1,0,0:0:0:0:
505,149,41784,2,0,P|457:89|380:92,1,160,2|8,0:0|0:0,0:0:0:0:
292,163,42212,1,0,0:0:0:0:
282,242,42355,6,0,L|272:321,1,80,2|0,0:0|0:0,0:0:0:0:
218,193,42641,2,0,L|138:183,1,80,8|0,0:0|0:0,0:0:0:0:
40,127,42927,2,0,P|26:165|29:204,1,80,2|0,0:0|0:0,0:0:0:0:
76,308,43212,1,8,0:0:0:0:
144,264,43355,1,0,0:0:0:0:
138,183,43498,6,0,L|126:11,1,160,2|8,0:0|0:0,0:0:0:0:
204,0,43927,1,0,0:0:0:0:
256,64,44070,2,0,P|312:76|348:68,1,80,2|2,0:0|0:0,0:0:0:0:
428,136,44355,1,8,0:0:0:0:
448,56,44498,1,0,0:0:0:0:
508,112,44641,6,0,P|490:187|420:218,2,160,2|8|2,0:0|0:0|0:0,0:0:0:0:
448,56,45355,1,8,0:0:0:0:
368,36,45498,1,8,0:0:0:0:
288,16,45641,1,8,0:0:0:0:
334,175,45784,5,6,0:0:0:0:
80,384,46355,1,8,0:0:0:0:
26,59,46927,2,0,P|88:76|152:68,1,120.000004577637,2|2,0:0|0:0,0:0:0:0:
216,32,47498,1,8,0:0:0:0:
296,352,48070,6,0,L|312:212,1,120.000004577637,2|0,0:0|0:0,0:0:0:0:
318,151,48641,2,0,P|370:127|438:143,1,120.000004577637,8|2,0:0|0:0,0:0:0:0:
481,204,49212,2,0,P|481:318|361:362,1,240.000009155274,2|8,0:0|0:0,0:0:0:0:
219,339,50355,6,0,L|198:100,1,240.000009155274,2|0,0:0|0:0,0:0:0:0:
135,48,51070,1,8,0:0:0:0:
82,110,51212,1,2,0:0:0:0:
54,33,51355,1,2,0:0:0:0:
212,19,51498,5,8,0:0:0:0:
184,352,52641,6,2,P|256:384|328:352,1,160,6|8,0:0|0:0,0:0:0:0:
356,276,53070,1,0,0:0:0:0:
256,232,53212,2,0,L|256:152,1,80,2|2,0:0|0:0,0:0:0:0:
156,276,53498,2,0,L|122:191,1,80,8|0,0:0|0:0,0:0:0:0:
184,31,53784,6,2,P|254:0|326:30,2,160,2|8|2,0:0|0:0|0:0,0:0:0:0:
156,108,54498,1,2,0:0:0:0:
80,136,54641,2,0,P|60:80|64:40,1,80,8|0,0:0|0:0,0:0:0:0:
236,100,54927,6,2,L|204:260,1,160,2|8,0:0|0:0,0:0:0:0:
188,336,55355,1,0,0:0:0:0:
109,320,55498,2,0,P|49:324|17:336,1,80,2|2,0:0|0:0,0:0:0:0:
8,184,55784,2,0,P|47:183|86:173,1,80,8|0,0:0|0:0,0:0:0:0:
157,84,56070,6,2,L|236:100,1,80,2|0,0:0|0:0,0:0:0:0:
354,299,56355,2,2,L|276:284,1,80,8|0,0:0|0:0,0:0:0:0:
180,189,56641,2,2,L|196:268,1,80,2|0,0:0|0:0,0:0:0:0:
316,116,56927,2,2,L|332:196,1,80,8|0,0:0|0:0,0:0:0:0:
435,315,57212,6,2,P|490:261|489:183,1,160,2|8,0:0|0:0,0:0:0:0:
396,100,57641,1,0,0:0:0:0:
316,116,57784,2,0,P|276:112|232:100,1,80,2|2,0:0|0:0,0:0:0:0:
196,268,58070,2,0,P|235:271|274:282,1,80,8|0,0:0|0:0,0:0:0:0:
159,196,58355,6,2,P|116:259|144:330,2,160,2|8|2,0:0|0:0|0:0,0:0:0:0:
240,180,59070,1,2,0:0:0:0:
237,101,59212,2,0,P|232:53|220:16,1,80,8|0,0:0|0:0,0:0:0:0:
376,84,59498,6,2,L|356:248,1,160,2|8,0:0|0:0,0:0:0:0:
448,360,59927,1,0,0:0:0:0:
498,299,60070,2,0,P|464:280|424:282,1,80,2|2,0:0|0:0,0:0:0:0:
312,384,60355,2,0,L|302:304,1,80,8|0,0:0|0:0,0:0:0:0:
200,212,60641,5,2,0:0:0:0:
200,212,60712,1,2,0:0:0:0:
200,212,60784,1,2,0:0:0:0:
256,72,60927,2,2,L|256:152,1,80,8|0,0:0|0:0,0:0:0:0:
384,178,61212,2,2,P|346:192|312:212,1,80,2|0,0:0|0:0,0:0:0:0:
127,178,61498,2,2,P|165:192|200:212,1,80,8|0,0:0|0:0,0:0:0:0:
344,288,61784,6,2,P|420:282|456:214,1,160,6|8,0:0|0:0,0:0:0:0:
452,132,62212,1,0,0:0:0:0:
380,96,62355,2,0,L|296:108,1,80,2|2,0:0|0:0,0:0:0:0:
212,16,62641,2,0,L|132:4,1,80,8|0,0:0|0:0,0:0:0:0:
53,83,62927,6,2,L|212:107,2,160,2|8|2,0:0|0:0|0:0,0:0:0:0:
8,152,63641,1,2,0:0:0:0:
24,232,63784,2,0,L|40:320,1,80,8|0,0:0|0:0,0:0:0:0:
143,211,64070,6,2,P|218:231|256:300,1,160,2|8,0:0|0:0,0:0:0:0:
256,380,64498,1,0,0:0:0:0:
324,255,64641,2,0,P|363:258|401:271,1,80,2|2,0:0|0:0,0:0:0:0:
501,176,64927,2,0,P|463:189|423:191,1,80,8|0,0:0|0:0,0:0:0:0:
362,94,65212,6,2,L|344:172,1,80,2|0,0:0|0:0,0:0:0:0:
204,326,65498,2,2,L|186:249,1,80,8|0,0:0|0:0,0:0:0:0:
149,94,65784,2,2,L|168:172,1,80,2|0,0:0|0:0,0:0:0:0:
307,326,66070,2,2,L|326:249,1,80,8|0,0:0|0:0,0:0:0:0:
168,172,66355,6,2,P|104:180|40:268,1,160,2|8,0:0|0:0,0:0:0:0:
56,364,66784,1,0,0:0:0:0:
108,300,66927,2,0,L|188:312,1,80,2|2,0:0|0:0,0:0:0:0:
247,183,67212,2,0,L|167:171,1,80,8|0,0:0|0:0,0:0:0:0:
27,89,67498,6,2,L|43:248,2,160,2|8|2,0:0|0:0|0:0,0:0:0:0:
108,12,68212,1,2,0:0:0:0:
188,28,68355,2,0,P|248:24|284:12,1,80,8|0,0:0|0:0,0:0:0:0:
436,85,68641,6,2,P|358:72|284:100,1,160,2|8,0:0|0:0,0:0:0:0:
228,160,69070,1,0,0:0:0:0:
200,236,69212,2,0,L|216:328,1,80,2|2,0:0|0:0,0:0:0:0:
357,236,69498,2,0,P|318:235|280:224,1,80,8|0,0:0|0:0,0:0:0:0:
148,172,69784,5,2,0:0:0:0:
148,172,69855,1,2,0:0:0:0:
148,172,69927,1,2,0:0:0:0:
177,48,70070,2,2,P|217:47|256:36,1,80,8|0,0:0|0:0,0:0:0:0:
430,136,70355,2,2,P|390:135|352:124,1,80,2|0,0:0|0:0,0:0:0:0:
148,172,70641,2,2,P|188:171|227:160,1,80,8|0,0:0|0:0,0:0:0:0:
400,259,70927,6,0,P|480:248|492:160,1,160,4|2,0:0|0:2,0:0:0:0:
430,136,71355,1,0,0:0:0:0:
352,157,71498,2,0,L|331:81,1,80,2|0,0:2|0:0,0:0:0:0:
276,182,71784,2,0,L|252:94,1,80,2|0,0:2|0:0,0:0:0:0:
154,52,72070,6,0,L|196:206,2,160,2|2|2,0:2|0:2|0:2,0:0:0:0:
73,73,72784,1,0,0:2:0:0:
4,164,72927,2,0,P|64:168|100:192,1,80,2|0,0:2|0:2,0:0:0:0:
146,272,73212,6,0,P|221:285|273:229,1,160,6|8,0:0|0:0,0:0:0:0:
196,206,73641,1,0,0:0:0:0:
80,176,73784,2,0,L|64:256,1,80,2|2,0:0|0:0,0:0:0:0:
44,364,74070,2,0,P|100:372|132:388,1,80,8|0,0:0|0:0,0:0:0:0:
200,368,74355,6,0,L|376:340,2,160,2|8|2,0:0|0:0|0:0,0:0:0:0:
187,288,75070,1,0,0:0:0:0:
252,195,75212,2,0,L|332:183,1,80,8|0,0:0|0:0,0:0:0:0:
424,248,75498,6,0,P|476:244|500:136,1,160,2|8,0:0|0:0,0:0:0:0:
464,84,75927,1,0,0:0:0:0:
392,44,76070,2,0,P|354:75|340:112,1,80,2|2,0:0|0:0,0:0:0:0:
252,195,76355,2,0,L|239:115,1,80,8|0,0:0|0:0,0:0:0:0:
77,59,76641,6,0,P|155:73|223:36,2,160,2|8|2,0:0|0:0|0:0,0:0:0:0:
24,120,77355,1,0,0:0:0:0:
12,232,77498,2,0,P|54:229|108:252,1,80,8|0,0:0|0:0,0:0:0:0:
184,144,77784,6,0,L|208:320,1,160,2|8,0:0|0:0,0:0:0:0:
216,384,78212,1,0,0:0:0:0:
307,302,78355,2,0,L|319:210,1,80,2|2,0:0|0:0,0:0:0:0:
375,163,78641,2,0,P|415:161|451:176,1,80,8|0,0:0|0:0,0:0:0:0:
495,308,78927,6,0,P|442:364|364:360,2,160,2|8|2,0:0|0:0|0:0,0:0:0:0:
512,230,79641,1,0,0:0:0:0:
451,176,79784,2,0,L|467:97,1,80,8|0,0:0|0:0,0:0:0:0:
346,226,80070,6,0,L|322:50,1,160,2|8,0:0|0:0,0:0:0:0:
256,24,80498,1,0,0:0:0:0:
188,67,80641,2,0,P|136:59|104:39,1,80,2|2,0:0|0:0,0:0:0:0:
44,137,80927,2,0,P|83:140|119:158,1,80,8|0,0:0|0:0,0:0:0:0:
166,226,81212,6,0,L|9:257,2,160,2|8|2,0:0|0:0|0:0,0:0:0:0:
232,344,81927,1,0,0:0:0:0:
154,362,82070,2,0,P|104:357|78:342,1,80,8|0,0:0|0:0,0:0:0:0:
166,226,82355,6,0,P|246:222|326:278,1,160,2|8,0:0|0:0,0:0:0:0:
360,372,82784,1,0,0:0:0:0:
434,342,82927,2,0,P|464:308|472:272,1,80,2|2,0:0|0:0,0:0:0:0:
424,172,83212,2,0,L|344:184,1,80,8|0,0:0|0:0,0:0:0:0:
256,52,83498,6,0,L|414:28,2,160,2|8|2,0:0|0:0|0:0,0:0:0:0:
208,120,84212,1,0,0:0:0:0:
144,68,84355,2,0,P|112:56|56:60,1,80,8|0,0:0|0:0,0:0:0:0:
16,168,84641,6,0,P|85:205|161:189,1,160,2|8,0:0|0:0,0:0:0:0:
208,120,85070,1,0,0:0:0:0:
288,140,85212,2,0,L|296:232,1,80,2|2,0:0|0:0,0:0:0:0:
225,319,85498,2,0,P|176:304|128:308,1,80,8|0,0:0|0:0,0:0:0:0:
1,327,85784,6,0,L|15:167,2,160,2|8|2,0:0|0:0|0:0,0:0:0:0:
80,352,86498,1,0,0:0:0:0:
136,224,86641,2,0,P|173:210|213:208,1,80,8|0,0:0|0:0,0:0:0:0:
376,224,86927,6,0,P|302:196|256:132,1,160,2|8,0:0|0:0,0:0:0:0:
256,52,87355,1,0,0:0:0:0:
360,40,87498,2,0,L|368:132,1,80,2|2,0:0|0:0,0:0:0:0:
455,217,87784,2,0,L|448:137,1,80,8|0,0:0|0:0,0:0:0:0:
376,224,88070,6,0,L|216:238,2,160,2|8|2,0:0|0:0|0:0,0:0:0:0:
424,292,88784,1,0,0:0:0:0:
328,380,88927,2,0,P|272:368|248:352,1,80,8|0,0:0|0:0,0:0:0:0:
135,243,89212,6,0,P|58:255|11:317,1,160,2|8,0:0|0:0,0:0:0:0:
118,355,89641,1,0,0:0:0:0:
185,307,89784,2,0,P|209:276|216:237,1,80,2|2,0:0|0:0,0:0:0:0:
199,96,90070,2,0,P|176:127|169:166,1,80,8|0,0:0|0:0,0:0:0:0:
52,32,90355,6,0,L|70:190,2,160,2|8|2,0:0|0:0|0:0,0:0:0:0:
184,16,91070,1,8,0:0:0:0:
256,52,91212,1,8,0:0:0:0:
328,16,91355,1,8,0:0:0:0:
332,160,91498,6,0,P|256:140|172:164,1,160,6|8,0:0|0:0,0:0:0:0:
136,232,91927,1,0,0:0:0:0:
136,316,92070,2,0,L|220:332,1,80,2|2,0:0|0:0,0:0:0:0:
376,232,92355,2,0,L|292:248,1,80,8|0,0:0|0:0,0:0:0:0:
398,343,92641,6,0,P|457:293|453:216,2,160,2|8|2,0:0|0:0|0:0,0:0:0:0:
297,246,93355,1,0,0:0:0:0:
312,167,93498,2,0,L|332:63,1,80,8|0,0:0|0:0,0:0:0:0:
184,60,93784,6,0,L|153:217,1,160,2|8,0:0|0:0,0:0:0:0:
88,264,94212,1,0,0:0:0:0:
17,227,94355,2,0,P|42:196|79:184,1,80,2|2,0:0|0:0,0:0:0:0:
184,60,94641,2,0,P|146:47|121:16,1,80,8|0,0:0|0:0,0:0:0:0:
208,156,94927,6,0,L|364:124,2,160,2|8|2,0:0|0:0|0:0,0:0:0:0:
153,217,95641,1,0,0:0:0:0:
215,314,95784,2,0,L|232:236,1,80,8|0,0:0|0:0,0:0:0:0:
120,373,96070,6,0,P|72:332|92:220,1,160,6|8,0:0|0:0,0:0:0:0:
120,120,96498,1,0,0:0:0:0:
200,140,96641,2,0,P|248:132|292:108,1,80,2|2,0:0|0:0,0:0:0:0:
312,244,96927,2,0,P|264:252|220:276,1,80,8|0,0:0|0:0,0:0:0:0:
392,373,97212,6,0,P|440:332|420:220,2,160,2|8|2,0:0|0:0|0:0,0:0:0:0:
324,324,97927,1,0,0:0:0:0:
244,344,98070,2,0,L|235:265,1,80,8|0,0:0|0:0,0:0:0:0:
320,140,98355,6,0,L|477:169,1,160,6|8,0:0|0:0,0:0:0:0:
448,36,98784,1,0,0:0:0:0:
369,58,98927,2,0,P|330:52|296:32,1,80,2|2,0:0|0:0,0:0:0:0:
142,58,99212,2,0,P|181:52|216:32,1,80,8|0,0:0|0:0,0:0:0:0:
64,36,99498,6,0,L|44:208,2,160,2|8|2,0:0|0:0|0:0,0:0:0:0:
142,58,100212,1,0,0:0:0:0:
132,137,100355,2,0,L|122:216,1,80,8|0,0:0|0:0,0:0:0:0:
256,112,100641,6,0,P|292:176|264:256,1,160,6|8,0:0|0:0,0:0:0:0:
168,356,101069,1,0,0:0:0:0:
112,295,101212,2,0,L|24:271,1,80,2|2,0:0|0:0,0:0:0:0:
104,120,101498,2,0,L|181:141,1,80,8|0,0:0|0:0,0:0:0:0:
331,141,101784,6,0,L|485:97,2,160,2|8|2,0:0|0:0|0:0,0:0:0:0:
296,216,102498,1,0,0:0:0:0:
364,264,102641,2,0,P|403:261|439:244,1,80,8|0,0:0|0:0,0:0:0:0:
503,336,102927,6,0,P|434:373|354:375,1,160,6|8,0:0|0:0,0:0:0:0:
256,288,103355,1,0,0:0:0:0:
195,232,103498,2,0,P|178:267|177:307,1,80,2|2,0:0|0:0,0:0:0:0:
56,376,103784,2,0,L|38:298,1,80,8|0,0:0|0:0,0:0:0:0:
77,140,104070,6,0,L|236:160,2,160,2|8|2,0:0|0:0|0:0,0:0:0:0:
88,60,104784,1,0,0:0:0:0:
0,133,104927,2,0,P|3:172|27:203,1,80,8|0,0:0|0:0,0:0:0:0:
150,329,105212,6,0,P|225:310|255:239,1,160,6|8,0:0|0:0,0:0:0:0:
236,160,105641,1,0,0:0:0:0:
159,128,105784,2,0,P|154:167|167:204,1,80,2|2,0:0|0:0,0:0:0:0:
344,204,106070,2,0,P|357:167|352:128,1,80,8|0,0:0|0:0,0:0:0:0:
207,59,106355,6,0,P|131:50|77:106,2,160,2|8|2,0:0|0:0|0:0,0:0:0:0:
256,128,107070,1,0,0:0:0:0:
256,208,107212,2,0,L|256:288,1,80,8|0,0:0|0:0,0:0:0:0:
328,167,107498,6,0,P|404:158|457:213,1,160,6|8,0:0|0:0,0:0:0:0:
401,376,107927,1,0,0:0:0:0:
350,310,108070,2,0,L|377:235,1,80,2|2,0:0|0:0,0:0:0:0:
484,138,108355,2,0,L|457:213,1,80,8|0,0:0|0:0,0:0:0:0:
328,168,108641,6,0,P|272:172|244:188,1,80,2|8,0:0|0:0,0:0:0:0:
188,236,108927,1,8,0:0:0:0:
264,264,109070,1,8,0:0:0:0:
176,156,109212,2,0,P|139:171|99:170,1,80,8|8,0:0|0:0,0:0:0:0:
24,200,109498,1,8,0:0:0:0:
36,120,109641,1,8,0:0:0:0:
193,41,109784,5,6,0:0:0:0:
319,343,110355,1,8,0:0:0:0:
468,48,110927,2,0,P|380:64|352:96,1,120.000004577637,2|2,0:0|0:0,0:0:0:0:
320,156,111498,1,8,0:0:0:0:
44,336,112070,6,0,L|32:212,1,120.000004577637,2|0,0:0|0:0,0:0:0:0:
24,136,112641,2,0,P|84:132|148:156,1,120.000004577637,8|0,0:0|0:0,0:0:0:0:
188,216,113212,2,0,P|324:216|344:112,1,240.000009155274,2|8,0:0|0:0,0:0:0:0:
479,35,114355,6,0,L|496:291,1,240.000009155274,2|8,0:0|0:0,0:0:0:0:
420,244,115212,1,2,0:0:0:0:
420,244,115284,1,2,0:0:0:0:
420,244,115355,1,2,0:0:0:0:
390,358,115498,5,8,0:0:0:0:
122,26,116641,6,2,P|56:44|24:136,1,160,6|8,0:0|0:0,0:0:0:0:
40,204,117070,1,0,0:0:0:0:
200,188,117212,2,0,L|192:100,1,80,2|2,0:0|0:0,0:0:0:0:
319,108,117498,2,0,L|312:188,1,80,8|0,0:0|0:0,0:0:0:0:
207,267,117784,6,2,L|47:281,2,160,2|8|2,0:0|0:0|0:0,0:0:0:0:
256,368,118498,1,2,0:0:0:0:
305,267,118641,2,0,P|344:274|378:295,1,80,8|0,0:0|0:0,0:0:0:0:
512,160,118927,6,2,P|451:208|373:198,1,160,2|8,0:0|0:0,0:0:0:0:
320,135,119355,1,0,0:0:0:0:
383,41,119498,2,0,L|399:119,1,80,2|2,0:0|0:0,0:0:0:0:
309,293,119784,2,0,L|292:214,1,80,8|0,0:0|0:0,0:0:0:0:
164,160,120070,6,2,P|100:176|76:192,1,80,2|0,0:0|0:0,0:0:0:0:
127,315,120355,2,2,P|163:298|202:293,1,80,8|0,0:0|0:0,0:0:0:0:
423,182,120641,2,2,P|387:165|348:159,1,80,2|0,0:0|0:0,0:0:0:0:
309,293,120927,2,2,P|348:298|384:315,1,80,8|0,0:0|0:0,0:0:0:0:
476,243,121212,6,2,P|504:172|461:108,1,160,2|0,0:0|0:0,0:0:0:0:
341,80,121641,1,0,0:0:0:0:
348,160,121784,2,0,L|356:260,1,80,2|2,0:0|0:0,0:0:0:0:
157,144,122070,2,0,L|164:224,1,80,8|0,0:0|0:0,0:0:0:0:
35,128,122355,6,2,P|5:198|46:263,2,160,2|8|2,0:0|0:0|0:0,0:0:0:0:
104,84,123070,1,2,0:0:0:0:
157,144,123212,2,0,P|200:144|252:112,1,80,8|0,0:0|0:0,0:0:0:0:
355,240,123498,6,2,L|198:271,1,160,2|8,0:0|0:0,0:0:0:0:
136,368,123927,1,0,0:0:0:0:
40,304,124070,2,0,L|118:288,1,80,2|2,0:0|0:0,0:0:0:0:
294,336,124355,2,0,L|216:352,1,80,8|0,0:0|0:0,0:0:0:0:
102,209,124641,5,2,0:0:0:0:
102,209,124712,1,2,0:0:0:0:
102,209,124784,1,2,0:0:0:0:
176,68,124927,2,2,L|200:148,1,80,8|0,0:0|0:0,0:0:0:0:
336,68,125212,2,2,L|313:144,1,80,2|0,0:0|0:0,0:0:0:0:
410,209,125498,2,2,L|387:285,1,80,8|0,0:0|0:0,0:0:0:0:
256,376,125784,6,2,P|180:376|116:312,1,160,6|8,0:0|0:0,0:0:0:0:
102,209,126212,1,0,0:0:0:0:
168,160,126355,2,0,P|183:196|179:236,1,80,2|2,0:0|0:0,0:0:0:0:
35,257,126641,2,0,P|19:220|23:180,1,80,8|0,0:0|0:0,0:0:0:0:
80,44,126927,6,2,L|244:68,2,160,2|8|2,0:0|0:0|0:0,0:0:0:0:
20,100,127641,1,2,0:0:0:0:
23,180,127784,2,0,P|68:172|124:184,1,80,8|0,0:0|0:0,0:0:0:0:
156,310,128070,6,2,L|180:152,1,160,2|8,0:0|0:0,0:0:0:0:
332,152,128498,1,0,0:0:0:0:
344,232,128641,2,0,P|383:232|421:219,1,80,2|2,0:0|0:0,0:0:0:0:
488,124,128927,2,0,P|448:123|410:136,1,80,8|0,0:0|0:0,0:0:0:0:
256,188,129212,6,2,L|256:108,1,80,2|0,0:0|0:0,0:0:0:0:
256,272,129498,2,2,L|256:372,1,80,8|0,0:0|0:0,0:0:0:0:
156,296,129784,2,2,L|132:216,1,80,2|0,0:0|0:0,0:0:0:0:
356,296,130070,2,2,L|380:216,1,80,8|0,0:0|0:0,0:0:0:0:
448,364,130355,6,2,L|496:204,1,160,2|8,0:0|0:0,0:0:0:0:
468,132,130784,1,0,0:0:0:0:
387,140,130927,2,0,P|348:138|313:120,1,80,2|2,0:0|0:0,0:0:0:0:
200,40,131212,2,0,P|160:41|125:59,1,80,8|0,0:0|0:0,0:0:0:0:
24,164,131498,6,2,P|85:211|162:200,2,160,2|8|2,0:0|0:0|0:0,0:0:0:0:
180,120,132212,1,2,0:0:0:0:
240,176,132355,2,0,L|228:255,1,80,8|0,0:0|0:0,0:0:0:0:
296,348,132641,6,2,L|319:189,1,160,2|8,0:0|0:0,0:0:0:0:
464,122,133070,1,0,0:0:0:0:
452,202,133212,2,0,P|415:187|392:156,1,80,2|2,0:0|0:0,0:0:0:0:
296,60,133498,2,0,L|374:44,1,80,8|0,0:0|0:0,0:0:0:0:
256,132,133784,5,2,0:0:0:0:
256,132,133855,1,2,0:0:0:0:
256,132,133927,1,2,0:0:0:0:
137,44,134070,2,2,L|216:60,1,80,8|0,0:0|0:0,0:0:0:0:
398,168,134355,2,2,L|320:184,1,80,8|0,0:0|0:0,0:0:0:0:
113,168,134641,2,2,L|192:184,1,80,8|0,0:0|0:0,0:0:0:0:
257,296,134927,6,0,L|296:304,3,40,6|2|2|2,0:0|0:0|0:0|0:0,0:0:0:0:
335,311,135212,2,0,P|371:267|371:231,1,80,8|0,0:0|0:0,0:0:0:0:
320,184,135498,1,8,0:0:0:0:
256,92,135641,1,2,0:0:0:0:
356,36,135784,2,0,P|418:50|462:50,1,80,8|2,0:0|0:0,0:0:0:0:
446,211,136070,6,0,L|388:240,3,40,2|2|2|2,0:0|0:0|0:0|0:0,0:0:0:0:
374,246,136355,2,0,P|312:232|268:232,1,80,8|0,0:0|0:0,0:0:0:0:
216,252,136641,1,8,0:0:0:0:
256,144,136784,1,2,0:0:0:0:
144,120,136927,2,0,P|104:124|65:134,1,80,8|2,0:0|0:0,0:0:0:0:
0,280,137212,6,0,L|8:328,3,40,2|2|2|2,0:0|0:0|0:0|0:0,0:0:0:0:
14,359,137498,2,0,P|52:349|92:345,1,80,8|0,0:0|0:0,0:0:0:0:
168,380,137784,1,8,0:0:0:0:
256,312,137927,1,2,0:0:0:0:
196,218,138070,2,0,P|234:228|274:232,1,80,8|2,0:0|0:0,0:0:0:0:
416,304,138355,6,0,L|431:237,3,40,2|2|2|2,0:0|0:0|0:0|0:0,0:0:0:0:
434,225,138641,2,0,L|458:117,1,80,8|0,0:0|0:0,0:0:0:0:
369,9,138927,6,0,L|361:48,3,40,2|2|2|2,0:0|0:0|0:0|0:0,0:0:0:0:
352,88,139213,2,0,L|335:167,1,80,8|0,0:0|0:0,0:0:0:0:
195,246,139498,6,0,L|186:204,3,40,2|2|2|2,0:0|0:0|0:0|0:0,0:0:0:0:
177,167,139784,2,0,L|159:88,1,80,8|0,0:0|0:0,0:0:0:0:
96,36,140070,1,8,0:0:0:0:
0,92,140212,1,2,0:0:0:0:
44,196,140355,2,0,P|80:228|116:236,1,80,8|2,0:0|0:0,0:0:0:0:
256,168,140641,6,0,L|264:129,3,40,2|2|2|2,0:0|0:0|0:0|0:0,0:0:0:0:
273,89,140927,2,0,P|313:73|361:77,1,80,8|0,0:0|0:0,0:0:0:0:
420,32,141212,1,8,0:0:0:0:
512,96,141355,1,2,0:0:0:0:
452,192,141498,2,0,P|412:208|364:204,1,80,8|2,0:0|0:0,0:0:0:0:
239,295,141784,6,0,L|228:240,3,40,2|2|2|2,0:0|0:0|0:0|0:0,0:0:0:0:
224,216,142070,2,0,P|160:248|144:272,1,80,8|0,0:0|0:0,0:0:0:0:
132,332,142355,1,8,0:0:0:0:
25,369,142498,1,2,0:0:0:0:
44,256,142641,2,0,L|64:144,1,80,8|2,0:0|0:0,0:0:0:0:
84,20,142927,6,0,L|128:72,3,40,2|2|2|2,0:0|0:0|0:0|0:0,0:0:0:0:
136,80,143212,2,0,L|248:64,1,80,8|0,0:0|0:0,0:0:0:0:
376,80,143498,6,0,L|320:72,3,40,2|2|2|2,0:0|0:0|0:0|0:0,0:0:0:0:
296,68,143784,2,0,L|280:168,1,80,8|0,0:0|0:0,0:0:0:0:
420,236,144070,6,0,L|426:196,3,40,6|2|2|2,0:0|0:0|0:0|0:0,0:0:0:0:
432,156,144355,2,0,P|492:148|520:128,1,80,8|0,0:0|0:0,0:0:0:0:
488,60,144641,1,8,0:0:0:0:
388,4,144784,1,2,0:0:0:0:
331,104,144927,2,0,P|292:103|256:86,1,80,8|2,0:0|0:0,0:0:0:0:
124,4,145212,6,0,L|136:52,3,40,2|2|2|2,0:0|0:0|0:0|0:0,0:0:0:0:
145,81,145498,2,0,P|144:120|127:156,1,80,8|0,0:0|0:0,0:0:0:0:
64,212,145784,1,8,0:0:0:0:
36,324,145927,1,2,0:0:0:0:
132,260,146070,2,0,L|216:248,1,80,8|2,0:0|0:0,0:0:0:0:
300,380,146355,6,0,L|342:374,3,40,2|2|2|2,0:0|0:0|0:0|0:0,0:0:0:0:
380,367,146641,2,0,P|405:337|412:296,1,80,8|0,0:0|0:0,0:0:0:0:
376,224,146927,1,8,0:0:0:0:
484,260,147070,1,2,0:0:0:0:
462,149,147212,2,0,L|380:120,1,80,8|2,0:0|0:0,0:0:0:0:
256,32,147498,6,0,L|256:72,3,40,2|2|2|2,0:0|0:0|0:0|0:0,0:0:0:0:
256,112,147784,2,0,L|256:192,1,80,8|0,0:0|0:0,0:0:0:0:
256,352,148070,6,0,L|256:312,3,40,2|2|2|2,0:0|0:0|0:0|0:0,0:0:0:0:
256,272,148355,2,0,P|188:292|160:288,1,80,8|0,0:0|0:0,0:0:0:0:
52,192,148641,6,0,L|44:144,3,40,2|2|2|2,0:0|0:0|0:0|0:0,0:0:0:0:
36,112,148927,2,0,P|104:92|132:96,1,80,8|0,0:0|0:0,0:0:0:0:
176,40,149212,1,8,0:0:0:0:
256,120,149355,1,2,0:0:0:0:
189,211,149498,2,0,L|180:291,1,80,8|2,0:0|0:0,0:0:0:0:
337,330,149784,6,0,L|332:290,3,40,2|2|2|2,0:0|0:0|0:0|0:0,0:0:0:0:
326,250,150070,2,0,P|352:216|412:208,1,80,8|0,0:0|0:0,0:0:0:0:
468,216,150355,1,8,0:0:0:0:
512,112,150498,1,2,0:0:0:0:
400,124,150641,2,0,P|356:120|304:84,1,80,8|2,0:0|0:0,0:0:0:0:
184,24,150927,6,0,P|189:53|192:84,3,40,2|2|2|2,0:0|0:0|0:0|0:0,0:0:0:0:
187,104,151212,2,0,P|151:121|112:124,1,80,8|0,0:0|0:0,0:0:0:0:
32,112,151498,1,8,0:0:0:0:
0,220,151641,1,2,0:0:0:0:
88,288,151784,2,0,L|192:272,1,80,8|2,0:0|0:0,0:0:0:0:
304,364,152070,5,8,0:0:0:0:
304,364,152141,1,2,0:0:0:0:
304,364,152212,2,0,L|312:324,2,40,8|2|2,0:0|0:0|0:0,0:0:0:0:
400,304,152498,5,8,0:0:0:0:
400,304,152570,1,2,0:0:0:0:
400,304,152641,2,0,L|408:264,2,40,8|2|2,0:0|0:0|0:0,0:0:0:0:
496,244,152927,5,8,0:0:0:0:
496,244,152998,1,2,0:0:0:0:
496,244,153070,1,8,0:0:0:0:
334,212,153212,1,4,0:0:0:0:
24,308,162355,6,0,L|16:264,3,40,8|0|0|0,0:0|0:0|0:0|0:0,0:0:0:0:
8,228,162641,1,8,0:0:0:0:
488,308,164641,6,0,L|496:264,3,40,8|0|0|0,0:0|0:0|0:0|0:0,0:0:0:0:
504,228,164927,1,8,0:0:0:0:
256,28,166927,6,0,L|256:88,3,40,8|0|0|0,0:0|0:0|0:0|0:0,0:0:0:0:
256,108,167212,1,8,0:0:0:0:
256,356,168070,6,0,L|256:296,3,40,8|0|0|0,0:0|0:0|0:0|0:0,0:0:0:0:
256,276,168355,1,8,0:0:0:0:
180,136,168641,1,8,0:0:0:0:
256,108,168784,1,8,0:0:0:0:
332,136,168927,2,0,P|371:136|410:125,1,80,8|8,0:0|0:0,0:0:0:0:
484,0,169212,5,6,0:0:0:0:
512,320,170355,5,8,0:0:0:0:
512,320,170427,1,2,0:0:0:0:
512,320,170498,2,0,L|508:268,2,40,8|2|2,0:0|0:0|0:0,0:0:0:0:
404,348,170784,5,8,0:0:0:0:
404,348,170855,1,2,0:0:0:0:
404,348,170927,2,0,L|400:308,2,40,8|2|2,0:0|0:0|0:0,0:0:0:0:
296,376,171212,5,8,0:0:0:0:
296,376,171284,1,2,0:0:0:0:
296,376,171355,1,8,0:0:0:0:
148,304,171498,6,2,L|133:131,1,160,6|8,0:0|0:0,0:0:0:0:
188,80,171927,1,0,0:0:0:0:
291,174,172070,2,0,P|251:174|214:160,1,80,2|2,0:0|0:0,0:0:0:0:
148,304,172355,1,8,0:0:0:0:
256,280,172498,1,0,0:0:0:0:
191,373,172641,6,2,P|115:377|68:316,2,160,2|8|2,0:0|0:0|0:0,0:0:0:0:
256,280,173355,1,2,0:0:0:0:
160,220,173498,2,0,L|81:234,1,80,8|0,0:0|0:0,0:0:0:0:
119,73,173784,6,2,P|194:56|255:103,1,160,2|8,0:0|0:0,0:0:0:0:
280,184,174212,1,0,0:0:0:0:
352,44,174355,2,0,L|337:122,1,80,2|2,0:0|0:0,0:0:0:0:
346,281,174641,2,0,L|360:202,1,80,8|0,0:0|0:0,0:0:0:0:
151,202,174927,6,2,L|166:281,1,80,2|0,0:0|0:0,0:0:0:0:
332,360,175212,2,2,P|371:357|404:336,1,80,8|0,0:0|0:0,0:0:0:0:
256,152,175498,2,2,L|256:232,1,80,2|0,0:0|0:0,0:0:0:0:
179,360,175784,2,2,P|140:357|107:336,1,80,8|0,0:0|0:0,0:0:0:0:
37,189,176070,6,2,L|72:12,1,160,2|8,0:0|0:0,0:0:0:0:
148,48,176498,1,0,0:0:0:0:
196,116,176641,2,0,P|248:112|288:88,1,80,2|2,0:0|0:0,0:0:0:0:
436,44,176927,1,8,0:0:0:0:
300,24,177070,1,0,0:0:0:0:
332,156,177212,6,2,P|402:120|480:130,2,160,2|8|2,0:0|0:0|0:0,0:0:0:0:
284,224,177927,1,2,0:0:0:0:
256,300,178070,2,0,P|304:308|336:328,1,80,8|0,0:0|0:0,0:0:0:0:
124,216,178355,6,2,L|152:380,1,160,2|8,0:0|0:0,0:0:0:0:
45,229,178784,1,0,0:0:0:0:
72,151,178927,2,0,P|107:135|156:140,1,80,2|2,0:0|0:0,0:0:0:0:
284,260,179212,2,0,P|248:276|208:275,1,80,8|0,0:0|0:0,0:0:0:0:
124,216,179498,5,2,0:0:0:0:
124,216,179570,1,2,0:0:0:0:
124,216,179641,1,2,0:0:0:0:
228,124,179784,2,2,P|263:107|303:108,1,80,8|0,0:0|0:0,0:0:0:0:
136,57,180070,2,2,L|147:136,1,80,2|0,0:0|0:0,0:0:0:0:
376,244,180355,2,2,L|364:164,1,80,8|0,0:0|0:0,0:0:0:0:
344,35,180641,6,2,P|422:39|475:95,1,160,6|8,0:0|0:0,0:0:0:0:
444,288,181070,1,0,0:0:0:0:
376,244,181212,2,0,P|337:243|301:260,1,80,2|2,0:0|0:0,0:0:0:0:
136,244,181498,1,8,0:0:0:0:
148,373,181641,1,0,0:0:0:0:
213,260,181784,6,2,L|196:89,2,160,2|8|2,0:0|0:0|0:0,0:0:0:0:
72,356,182498,1,2,0:0:0:0:
22,293,182641,2,0,P|31:255|60:227,1,80,8|0,0:0|0:0,0:0:0:0:
0,76,182927,6,2,P|49:135|127:139,1,160,2|8,0:0|0:0,0:0:0:0:
197,100,183355,1,0,0:0:0:0:
276,120,183498,2,0,P|320:132|360:160,1,80,2|2,0:0|0:0,0:0:0:0:
236,264,183784,2,0,P|192:252|152:224,1,80,8|0,0:0|0:0,0:0:0:0:
256,40,184070,6,2,L|352:24,1,80,2|0,0:0|0:0,0:0:0:0:
427,136,184355,2,2,L|348:149,1,80,8|0,0:0|0:0,0:0:0:0:
85,136,184641,2,2,L|163:149,1,80,2|0,0:0|0:0,0:0:0:0:
256,40,184927,2,2,L|160:24,1,80,8|0,0:0|0:0,0:0:0:0:
15,92,185212,6,2,P|9:168|96:216,1,160,2|8,0:0|0:0,0:0:0:0:
184,236,185641,1,0,0:0:0:0:
128,336,185784,2,0,P|91:337|44:352,1,80,2|2,0:0|0:0,0:0:0:0:
69,215,186070,1,8,0:0:0:0:
192,156,186212,1,0,0:0:0:0:
256,276,186355,6,2,P|328:276|384:192,2,160,2|8|2,0:0|0:0|0:0,0:0:0:0:
184,236,187070,1,2,0:0:0:0:
104,220,187212,2,0,L|116:316,1,80,8|0,0:0|0:0,0:0:0:0:
192,156,187498,6,2,L|372:132,1,160,2|8,0:0|0:0,0:0:0:0:
408,192,187927,1,0,0:0:0:0:
484,74,188070,2,0,P|489:113|480:152,1,80,2|2,0:0|0:0,0:0:0:0:
332,292,188355,2,0,P|322:253|327:214,1,80,8|0,0:0|0:0,0:0:0:0:
340,52,188641,5,2,0:0:0:0:
340,52,188712,1,2,0:0:0:0:
340,52,188784,1,2,0:0:0:0:
211,120,188927,2,2,P|173:112|140:89,1,80,8|0,0:0|0:0,0:0:0:0:
212,264,189212,2,2,P|173:271|140:294,1,80,8|0,0:0|0:0,0:0:0:0:
340,332,189498,2,2,L|355:253,1,80,8|0,0:0|0:0,0:0:0:0:
468,88,189784,6,2,L|436:244,1,160,6|8,0:0|0:0,0:0:0:0:
316,184,190212,1,0,0:0:0:0:
236,200,190355,2,0,P|240:256|260:292,1,80,2|2,0:0|0:0,0:0:0:0:
260,124,190641,1,8,0:0:0:0:
156,216,190784,1,0,0:0:0:0:
96,92,190927,6,2,L|66:249,2,160,2|8|2,0:0|0:0|0:0,0:0:0:0:
112,12,191641,1,2,0:0:0:0:
212,64,191784,2,0,P|256:80|304:76,1,80,8|0,0:0|0:0,0:0:0:0:
462,79,192070,6,2,P|384:87|334:147,1,160,2|8,0:0|0:0,0:0:0:0:
324,228,192498,1,0,0:0:0:0:
198,307,192641,2,0,L|186:211,1,80,2|2,0:0|0:0,0:0:0:0:
98,157,192927,2,0,L|107:236,1,80,8|0,0:0|0:0,0:0:0:0:
256,364,193212,5,2,0:0:0:0:
256,364,193284,1,2,0:0:0:0:
256,364,193355,1,2,0:0:0:0:
404,236,193498,2,2,L|414:157,1,80,8|0,0:0|0:0,0:0:0:0:
245,102,193784,2,2,P|206:103|168:92,1,80,2|0,0:0|0:0,0:0:0:0:
266,281,194070,2,2,P|305:280|344:292,1,80,8|0,0:0|0:0,0:0:0:0:
484,251,194355,6,2,P|516:181|472:104,1,160,6|8,0:0|0:0,0:0:0:0:
408,76,194784,1,0,0:0:0:0:
340,120,194927,2,0,P|328:172|328:224,1,80,2|2,0:0|0:0,0:0:0:0:
172,264,195212,1,8,0:0:0:0:
88,156,195355,1,0,0:0:0:0:
224,136,195498,6,2,P|244:212|256:296,2,160,2|8|2,0:0|0:0|0:0,0:0:0:0:
144,56,196212,1,2,0:0:0:0:
86,154,196355,2,0,P|53:133|35:98,1,80,8|0,0:0|0:0,0:0:0:0:
208,7,196641,6,2,P|285:14|337:73,1,160,2|8,0:0|0:0,0:0:0:0:
360,196,197070,1,0,0:0:0:0:
479,110,197212,2,0,P|442:124|402:125,1,80,2|2,0:0|0:0,0:0:0:0:
240,252,197498,2,0,P|279:253|317:266,1,80,8|0,0:0|0:0,0:0:0:0:
396,384,197784,5,2,0:0:0:0:
396,384,197855,1,2,0:0:0:0:
396,384,197927,1,2,0:0:0:0:
440,196,198070,2,2,L|452:276,1,80,8|0,0:0|0:0,0:0:0:0:
280,340,198355,2,2,P|240:338|202:325,1,80,2|0,0:0|0:0,0:0:0:0:
72,196,198641,2,2,L|83:116,1,80,8|0,0:0|0:0,0:0:0:0:
256,36,198927,6,2,B|228:116|284:116|256:192,1,160,6|8,0:0|0:0,0:0:0:0:
184,152,199355,1,0,0:0:0:0:
328,76,199498,2,0,P|368:88|416:84,1,80,2|2,0:0|0:0,0:0:0:0:
504,204,199784,1,8,0:0:0:0:
484,60,199927,1,0,0:0:0:0:
384,164,200070,6,2,L|360:328,2,160,2|8|2,0:0|0:0|0:0,0:0:0:0:
305,150,200784,1,2,0:0:0:0:
206,233,200927,2,0,L|127:219,1,80,8|0,0:0|0:0,0:0:0:0:
7,129,201212,6,2,P|68:80|145:91,1,160,2|8,0:0|0:0,0:0:0:0:
204,152,201641,1,0,0:0:0:0:
206,233,201784,2,0,L|192:311,1,80,2|2,0:0|0:0,0:0:0:0:
306,151,202070,2,0,L|319:72,1,80,8|0,0:0|0:0,0:0:0:0:
463,177,202355,5,2,0:0:0:0:
463,177,202427,1,2,0:0:0:0:
463,177,202498,1,2,0:0:0:0:
408,280,202641,2,2,L|328:291,1,80,8|0,0:0|0:0,0:0:0:0:
112,322,202927,2,2,L|192:311,1,80,2|0,0:0|0:0,0:0:0:0:
275,140,203212,2,2,L|196:152,1,80,8|0,0:0|0:0,0:0:0:0:
47,272,203498,6,2,P|8:208|36:120,1,160,6|8,0:0|0:0,0:0:0:0:
120,68,203927,1,0,0:0:0:0:
195,152,204070,6,0,L|204:212,3,40,2|2|2|2,0:0|0:0|0:0|0:0,0:0:0:0:
208,232,204355,2,0,P|260:240|300:260,1,80,8|0,0:0|0:0,0:0:0:0:
432,92,204641,6,0,L|426:131,3,40,2|2|2|2,0:0|0:0|0:0|0:0,0:0:0:0:
418,171,204927,2,0,P|379:176|342:190,1,80,8|0,0:0|0:0,0:0:0:0:
190,36,205212,6,0,L|196:76,3,40,2|2|2|2,0:0|0:0|0:0|0:0,0:0:0:0:
203,117,205498,2,0,P|242:121|280:136,1,80,8|0,0:0|0:0,0:0:0:0:
112,216,205784,6,0,L|99:137,1,80,8|2,0:0|0:0,0:0:0:0:
32,232,206070,2,0,L|19:153,1,80,8|2,0:0|0:0,0:0:0:0:
154,352,206355,6,0,L|167:273,1,80,8|2,0:0|0:0,0:0:0:0:
234,368,206641,2,0,L|247:289,1,80,8|2,0:0|0:0,0:0:0:0:
356,168,206927,5,8,0:0:0:0:
356,168,206998,1,2,0:0:0:0:
356,168,207070,1,2,0:0:0:0:
224,208,207212,1,8,0:0:0:0:
326,301,207355,1,2,0:0:0:0:
308,100,207498,6,0,P|271:117|232:124,1,80,8|2,0:0|0:0,0:0:0:0:
407,293,207784,2,0,P|410:253|424:216,1,80,2|2,0:0|0:0,0:0:0:0:
192,340,208070,5,4,0:0:0:0:
