osu file format v14

[General]
AudioFilename: Mann Gegen Mann.mp3
AudioLeadIn: 0
PreviewTime: 58582
Countdown: 0
SampleSet: Soft
StackLeniency: 0.7
Mode: 0
LetterboxInBreaks: 0
WidescreenStoryboard: 0

[Editor]
Bookmarks: 5180,6626,23975,29758,35541,52890,58667,81799,87582,104932,110715,130962,133847,154088,156980,168546
DistanceSpacing: 1.7
BeatDivisor: 4
GridSize: 32
TimelineZoom: 2.2

[Metadata]
Title:Mann gegen Mann
TitleUnicode:Mann gegen Mann
Artist:Rammstein
ArtistUnicode:Rammstein
Creator:Sieg
Version:Insane
Source:
Tags:rosenrot cut version industrial metal rock german
BeatmapID:888488
BeatmapSetID:396339

[Difficulty]
HPDrainRate:6.5
CircleSize:4.2
OverallDifficulty:9
ApproachRate:8.7
SliderMultiplier:2
SliderTickRate:1

[Events]
//Background and Video events
0,0,"2.jpg",0,0
//Break Periods
2,82005,86582
//Storyboard Layer 0 (Background)
//Storyboard Layer 1 (Fail)
//Storyboard Layer 2 (Pass)
//Storyboard Layer 3 (Foreground)
//Storyboard Sound Samples

[TimingPoints]
6625,361.44578313253,4,2,1,60,1,0
28311,-100,4,2,1,65,0,0
28492,-100,4,2,1,70,0,0
28673,-100,4,2,1,73,0,0
28853,-100,4,2,1,76,0,0
29034,-100,4,2,1,79,0,0
29215,-100,4,2,1,82,0,0
29396,-100,4,2,1,85,0,0
29576,-100,4,2,1,88,0,0
29757,-83.3333333333333,4,2,1,65,0,1
35540,-100,4,2,1,60,0,0
57227,-100,4,2,1,70,0,0
57317,-100,4,2,1,71,0,0
57408,-100,4,2,1,72,0,0
57498,-100,4,2,1,73,0,0
57588,-100,4,2,1,74,0,0
57679,-100,4,2,1,75,0,0
57769,-100,4,2,1,76,0,0
57859,-100,4,2,1,77,0,0
57950,-100,4,2,1,78,0,0
58040,-100,4,2,1,79,0,0
58131,-100,4,2,1,80,0,0
58221,-100,4,2,1,81,0,0
58311,-100,4,2,1,82,0,0
58402,-100,4,2,1,83,0,0
58492,-100,4,2,1,84,0,0
58582,-100,4,2,1,86,0,0
58673,-83.3333333333333,4,2,2,75,0,1
81805,-100,4,2,2,75,0,1
81896,-100,4,2,2,75,0,0
87227,-100,4,2,1,90,0,0
87589,-100,4,2,1,60,0,0
109275,-100,4,2,1,65,0,0
109456,-100,4,2,1,70,0,0
109637,-100,4,2,1,73,0,0
109817,-100,4,2,1,76,0,0
109998,-100,4,2,1,79,0,0
110179,-100,4,2,1,82,0,0
110360,-100,4,2,1,85,0,0
110540,-100,4,2,1,88,0,0
110721,-83.3333333333333,4,2,2,75,0,1
133763,-83.3333333333333,4,2,2,75,0,0
133853,-76.9230769230769,4,2,2,75,0,1
145329,-76.9230769230769,4,2,2,75,0,0
145420,-76.9230769230769,4,2,2,75,0,1
154094,-76.9230769230769,4,2,2,75,0,0
156986,-100,4,2,1,80,0,0
166745,-100,4,2,1,60,0,0

[Colours]
Combo1 : 210,105,30
Combo2 : 0,123,167
Combo3 : 146,67,73
Combo4 : 58,143,122

[HitObjects]
256,218,6263,5,0,0:0:0:0:
256,218,6625,6,0,L|245:116,1,100,2|0,1:0|0:0,0:0:0:0:
76,94,6986,1,10,0:1:0:0:
39,261,7167,2,0,P|78:301|207:257,1,200,2|0,1:0|0:0,0:0:0:0:
346,170,7709,2,0,P|397:169|440:212,1,100,10|0,0:1|0:0,0:0:0:0:
343,342,8070,5,2,0:1:0:0:
270,187,8251,1,2,1:0:0:0:
251,356,8432,1,10,0:1:0:0:
178,201,8612,1,2,1:0:0:0:
366,273,8793,2,0,L|469:262,1,100,2|0,1:0|0:0,0:0:0:0:
270,187,9155,2,0,P|225:177|170:207,1,100,10|0,0:1|0:0,0:0:0:0:
281,311,9516,6,0,P|326:307|370:262,1,100,2|0,1:0|0:0,0:0:0:0:
442,117,9878,1,10,0:1:0:0:
300,21,10058,2,0,P|263:47|298:205,1,200,2|0,1:0|0:0,0:0:0:0:
341,340,10600,2,0,L|222:361,1,100,10|0,0:1|0:0,0:0:0:0:
76,317,10962,5,2,0:1:0:0:
232,250,11143,1,2,1:0:0:0:
122,174,11323,1,10,0:1:0:0:
291,190,11504,1,2,1:0:0:0:
165,74,11685,1,2,1:0:0:0:
15,150,11865,1,2,1:0:0:0:
142,277,12046,2,0,P|189:279|238:239,1,100,10|0,0:1|0:0,0:0:0:0:
360,123,12408,6,0,L|465:112,1,100,2|0,1:0|0:0,0:0:0:0:
291,190,12769,1,10,0:1:0:0:
375,345,12950,2,0,P|449:353|467:234,1,200,2|0,1:0|0:0,0:0:0:0:
360,123,13492,2,0,B|351:45|351:45|325:10,1,100,10|0,0:1|0:0,0:0:0:0:
171,60,13853,5,2,0:1:0:0:
171,60,14034,1,2,1:0:0:0:
15,130,14215,2,0,B|6:209|6:209|23:247,1,100,10|0,0:1|0:0,0:0:0:0:
171,310,14576,2,0,P|200:345|262:353,1,100,2|0,1:0|0:0,0:0:0:0:
287,140,14938,2,0,P|302:184|279:242,1,100,10|0,0:1|0:0,0:0:0:0:
134,138,15299,6,0,P|118:94|142:37,1,100,2|0,0:1|0:0,0:0:0:0:
308,22,15661,1,10,0:1:0:0:
308,22,15841,2,0,P|402:36|425:141,1,200,2|0,1:0|0:0,0:0:0:0:
342,273,16384,2,0,P|394:352|499:328,1,200,10|2,0:1|0:1,0:0:0:0:
389,201,16926,5,2,1:0:0:0:
231,263,17106,1,10,0:1:0:0:
72,325,17287,1,2,1:0:0:0:
199,192,17468,2,0,P|247:189|298:224,1,100,2|0,1:0|0:0,0:0:0:0:
161,346,17829,2,0,P|115:352|65:315,1,100,10|0,0:1|0:0,0:0:0:0:
17,162,18191,6,0,L|29:56,1,100,2|0,1:0|0:0,0:0:0:0:
77,225,18552,1,10,0:1:0:0:
274,100,18733,2,0,P|163:81|116:165,1,200,2|0,1:0|0:0,0:0:0:0:
258,240,19275,2,0,L|476:186,1,200,10|2,0:1|0:1,0:0:0:0:
323,303,19817,5,2,1:0:0:0:
167,212,19998,1,10,0:1:0:0:
332,144,20179,1,2,1:0:0:0:
431,296,20359,2,0,P|417:340|364:374,1,100,2|0,1:0|0:0,0:0:0:0:
211,269,20721,2,0,P|167:253|138:197,1,100,10|0,0:1|0:0,0:0:0:0:
271,42,21082,6,0,P|303:75|306:138,1,100,2|0,1:0|0:0,0:0:0:0:
290,297,21444,1,10,0:1:0:0:
390,153,21624,2,0,P|460:151|504:258,1,200,2|0,1:0|0:0,0:0:0:0:
303,205,22167,2,0,P|260:188|290:52,1,200,10|2,0:1|0:1,0:0:0:0:
440,23,22709,5,2,1:0:0:0:
306,128,22890,1,10,0:1:0:0:
150,61,23070,1,2,1:0:0:0:
347,53,23251,1,2,1:0:0:0:
196,131,23432,1,2,1:0:0:0:
385,123,23612,2,0,P|431:122|478:163,1,100,10|0,0:1|0:0,0:0:0:0:
484,324,23974,6,0,L|373:312,1,100,2|0,0:1|0:0,0:0:0:0:
255,204,24335,1,10,0:1:0:0:
164,344,24516,2,0,P|265:340|322:255,1,200,2|0,1:0|0:0,0:0:0:0:
328,88,25058,2,0,L|228:74,1,100,10|0,0:1|0:0,0:0:0:0:
58,64,25420,5,2,0:1:0:0:
206,146,25600,1,2,1:0:0:0:
78,192,25781,1,10,0:1:0:0:
196,301,25962,1,2,1:0:0:0:
339,208,26143,2,0,L|445:226,1,100,2|0,1:0|0:0,0:0:0:0:
258,235,26504,2,0,L|145:215,1,100,10|0,0:1|0:1,0:0:0:0:
242,57,26865,6,0,P|292:25|352:31,1,100,2|0,1:0|0:0,0:0:0:0:
481,118,27227,1,10,0:1:0:0:
481,118,27408,2,0,P|501:208|437:297,1,200,2|0,1:0|0:0,0:0:0:0:
277,301,27950,2,0,P|298:258|290:190,1,100,10|0,0:1|0:0,0:0:0:0:
288,30,28311,5,4,1:3:0:0:
111,22,28492,1,8,1:0:0:0:
272,104,28673,5,8,1:0:0:0:
95,96,28854,1,8,1:0:0:0:
254,178,29034,5,8,1:0:0:0:
77,170,29215,1,8,1:0:0:0:
235,256,29396,5,8,1:0:0:0:
58,248,29577,1,8,1:0:0:0:
316,304,29757,6,0,P|360:322|429:297,1,119.999996337891,4|0,1:0|0:0,0:0:0:0:
235,256,30118,1,12,1:0:0:0:
61,221,30299,2,0,P|64:278|219:332,1,239.999992675781,4|0,1:2|2:0,0:0:0:0:
451,163,30841,2,0,B|472:77|472:77|462:33,1,119.999996337891,4|0,1:0|0:0,0:0:0:0:
61,221,31384,6,0,B|40:307|40:307|50:351,1,119.999996337891,4|0,1:0|0:0,0:0:0:0:
207,232,31745,1,0,1:0:0:0:
124,54,31926,2,0,B|79:40|79:40|40:44|40:44|-3:29,1,119.999996337891,4|0,1:0|1:0,0:0:0:0:
177,126,32287,1,12,1:2:0:0:
196,304,32649,6,0,P|152:322|83:297,1,119.999996337891,4|0,1:0|0:0,0:0:0:0:
265,241,33010,1,12,1:0:0:0:
451,221,33191,2,0,P|442:278|282:318,1,239.999992675781,4|0,1:2|2:0,0:0:0:0:
61,163,33733,2,0,B|40:77|40:77|50:33,1,119.999996337891,4|0,1:0|0:0,0:0:0:0:
451,221,34276,6,0,B|472:307|472:307|462:351,1,119.999996337891,4|0,1:0|0:0,0:0:0:0:
305,232,34637,1,0,1:0:0:0:
388,54,34818,2,0,B|433:40|433:40|472:44|472:44|515:29,1,119.999996337891,4|0,1:0|1:0,0:0:0:0:
335,126,35179,1,12,1:2:0:0:
60,103,35540,6,0,P|121:112|154:157,1,100,2|0,1:0|0:0,0:0:0:0:
190,305,35902,1,8,0:1:0:0:
82,175,36082,1,0,0:0:0:0:
236,249,36263,2,0,B|353:239|351:239,1,100,0|0,0:0|0:0,0:0:0:0:
433,100,36624,2,0,L|319:74,1,100,10|0,0:1|0:0,0:0:0:0:
165,54,36986,5,2,0:1:0:0:
288,170,37167,1,2,1:0:0:0:
151,270,37347,2,0,P|183:322|237:332,1,100,10|0,0:1|0:0,0:0:0:0:
353,223,37709,2,0,P|373:162|352:124,1,100,2|0,1:0|0:0,0:0:0:0:
188,45,38070,2,0,L|71:61,1,100,10|0,0:1|0:0,0:0:0:0:
91,269,38432,6,0,P|88:177|194:131,1,200,2|10,1:0|0:1,0:0:0:0:
283,258,38974,1,2,1:0:0:0:
283,258,39155,2,0,P|307:299|306:362,1,100,0|0,0:0|0:0,0:0:0:0:
415,177,39516,2,0,P|391:218|392:281,1,100,10|0,0:1|0:0,0:0:0:0:
499,127,39878,6,0,P|458:85|391:81,1,100,2|2,0:1|1:0,0:0:0:0:
257,126,40239,1,10,0:1:0:0:
378,19,40420,1,2,1:0:0:0:
287,197,40600,2,0,P|231:198|188:158,1,100,2|0,1:0|0:0,0:0:0:0:
145,332,40962,2,0,P|98:354|37:339,1,100,10|0,0:1|0:0,0:0:0:0:
40,166,41323,6,0,B|22:57,1,100,2|0,1:0|0:0,0:0:0:0:
122,206,41685,1,10,0:1:0:0:
191,47,41865,2,0,P|245:59|275:192,1,200,2|0,0:1|0:0,0:0:0:0:
407,68,42408,2,0,P|454:37|514:41,1,100,10|0,0:1|0:0,0:0:0:0:
376,155,42769,5,2,0:1:0:0:
199,140,42950,1,2,1:0:0:0:
356,239,43131,2,0,B|481:213,1,100,10|0,0:1|0:0,0:0:0:0:
294,328,43492,2,0,L|191:314,1,100,2|0,1:0|0:0,0:0:0:0:
92,178,43853,2,0,P|79:128|21:91,1,100,10|0,0:1|0:0,0:0:0:0:
19,276,44215,6,0,P|73:307|129:288,1,100,2|0,0:1|0:0,0:0:0:0:
269,248,44576,1,10,0:1:0:0:
179,105,44757,2,0,B|88:73|37:144|37:144|77:196,1,200,2|0,1:0|0:0,0:0:0:0:
204,293,45299,2,0,P|260:327|347:244,1,200,10|2,0:1|0:1,0:0:0:0:
379,81,45841,5,2,1:0:0:0:
438,240,46022,1,10,0:1:0:0:
269,248,46203,1,2,1:0:0:0:
440,160,46384,1,2,1:0:0:0:
266,170,46564,1,2,1:0:0:0:
410,300,46745,2,0,P|470:327|526:318,1,100,10|0,0:1|0:0,0:0:0:0:
359,239,47106,6,0,P|333:281|337:331,1,100,2|0,1:0|0:0,0:0:0:0:
425,185,47467,1,10,0:1:0:0:
260,232,47649,2,0,B|182:219|182:219|163:202,1,100,2|0,1:0|0:0,0:0:0:0:
75,61,48010,1,0,0:0:0:0:
14,220,48191,2,0,P|109:230|156:147,1,200,10|2,0:1|0:1,0:0:0:0:
32,30,48734,5,2,1:0:0:0:
196,69,48914,2,0,P|240:104|301:99,1,100,10|2,0:1|1:0,0:0:0:0:
461,89,49275,2,0,P|417:54|356:59,1,100,2|0,1:0|0:0,0:0:0:0:
306,211,49636,2,0,B|297:292|297:292|280:319,1,100,10|0,0:1|0:0,0:0:0:0:
177,131,49998,6,0,B|185:49|185:49|202:22,1,100,2|0,1:0|0:0,0:0:0:0:
221,201,50360,1,10,0:1:0:0:
136,347,50540,2,0,P|82:346|23:215,1,200,2|0,1:0|0:0,0:0:0:0:
181,283,51083,2,0,B|260:275|260:275|282:260,1,100,10|0,0:1|0:0,0:0:0:0:
368,119,51444,5,2,0:1:0:0:
215,46,51624,1,2,1:0:0:0:
143,200,51805,1,10,0:1:0:0:
279,107,51986,1,2,1:0:0:0:
160,272,52167,2,0,P|136:311|146:373,1,100,2|0,1:0|0:0,0:0:0:0:
309,342,52528,2,0,P|355:343|402:302,1,100,10|0,0:1|0:0,0:0:0:0:
494,171,52890,6,0,L|383:159,1,100,2|0,1:0|0:0,0:0:0:0:
236,222,53251,1,10,0:1:0:0:
72,151,53432,1,2,1:0:0:0:
232,97,53612,2,0,B|257:86|257:86|330:80,1,100
279,282,53974,2,0,P|235:296|181:270,1,100,10|0,0:1|0:0,0:0:0:0:
72,151,54335,5,2,1:0:0:0:
236,222,54516,1,2,1:0:0:0:
106,70,54697,1,10,0:1:0:0:
111,240,54878,1,2,1:0:0:0:
195,65,55058,2,0,P|243:26|287:25,1,100,2|0,1:0|0:0,0:0:0:0:
434,98,55420,2,0,P|379:111|348:160,1,100,10|0,0:1|0:1,0:0:0:0:
288,304,55781,6,0,P|233:327|175:312,1,100,2|0,1:0|0:0,0:0:0:0:
320,226,56143,1,10,0:1:0:0:
148,254,56324,1,2,1:0:0:0:
216,105,56504,2,0,P|252:72|259:24,1,100,0|0,0:0|0:0,0:0:0:0:
263,248,56866,2,0,P|271:198|306:165,1,100,10|0,0:1|0:0,0:0:0:0:
407,309,57227,6,0,B|357:299,3,50,8|8|8|8,1:0|1:0|1:0|1:0,0:0:0:0:
295,336,57588,2,0,B|225:322,3,50,8|8|8|8,1:0|1:0|1:0|1:0,0:0:0:0:
191,279,57950,1,8,1:0:0:0:
175,271,58040,1,8,1:0:0:0:
158,267,58130,1,8,1:0:0:0:
140,265,58221,1,8,1:0:0:0:
123,266,58311,1,8,1:3:0:0:
106,271,58402,1,8,1:3:0:0:
90,278,58492,1,8,1:3:0:0:
75,287,58582,1,8,1:3:0:0:
60,300,58673,6,0,P|11:251|10:200,1,119.999996337891,4|0,1:0|0:0,0:0:0:0:
136,52,59034,1,12,1:2:0:0:
327,88,59215,2,0,P|374:91|431:32,2,119.999996337891,6|0|0,1:0|0:0|0:0,0:0:0:0:
141,128,59757,2,0,P|93:116|63:38,1,119.999996337891,10|0,1:0|0:0,0:0:0:0:
239,133,60118,5,2,1:0:0:0:
239,133,60299,1,2,1:0:0:0:
133,344,60480,2,0,P|91:309|78:239,1,119.999996337891,10|2,1:0|1:0,0:0:0:0:
239,133,60842,2,0,P|278:97|350:97,1,119.999996337891,2|0,1:0|0:0,0:0:0:0:
422,323,61203,2,0,P|367:323|313:276,1,119.999996337891,10|0,1:0|0:0,0:0:0:0:
344,94,61564,5,2,1:0:0:0:
193,217,61745,1,0,0:0:0:0:
389,249,61926,1,10,1:0:0:0:
266,72,62106,1,2,1:0:0:0:
237,290,62287,2,0,B|154:320|154:320|119:314,1,119.999996337891,2|0,1:0|0:0,0:0:0:0:
24,143,62649,2,0,B|5:103|5:103|17:53|73:-12|148:35|166:63,1,239.999992675781,10|2,1:0|0:1,0:0:0:0:
279,208,63191,5,2,1:0:0:0:
94,114,63371,2,0,B|78:210|78:210|89:251,1,119.999996337891,10|2,1:0|1:0,0:0:0:0:
239,113,63733,1,2,1:0:0:0:
424,51,63914,1,2,1:0:0:0:
269,180,64094,2,0,P|219:184|169:130,1,119.999996337891,10|0,1:0|0:0,0:0:0:0:
381,122,64456,6,0,P|425:145|436:219,1,119.999996337891,4|0,1:0|0:0,0:0:0:0:
300,348,64817,1,12,1:2:0:0:
145,228,64998,2,0,B|51:218|51:218|25:230,1,119.999996337891,6|0,1:0|0:0,0:0:0:0:
206,305,65359,1,0,0:0:0:0:
400,365,65540,2,0,P|443:348|464:270,1,119.999996337891,12|0,1:1|0:0,0:0:0:0:
372,108,65902,6,0,L|386:234,1,119.999996337891,2|2,1:0|1:0,0:0:0:0:
285,62,66263,1,10,1:0:0:0:
100,127,66444,1,2,1:0:0:0:
274,215,66625,2,0,B|286:240|286:240|288:349,1,119.999996337891,2|0,1:0|0:0,0:0:0:0:
372,108,66986,2,0,P|418:111|477:168,1,119.999996337891,10|0,1:0|0:0,0:0:0:0:
285,62,67347,6,0,B|191:80|191:80|159:111,1,119.999996337891,2|0,1:0|0:0,0:0:0:0:
108,283,67709,1,10,1:0:0:0:
286,336,67890,2,0,P|336:331|382:274,1,119.999996337891,2|0,1:0|0:0,0:0:0:0:
360,92,68250,1,0,0:0:0:0:
224,262,68432,2,0,B|133:288|133:288|93:280,1,119.999996337891,10|0,1:0|0:0,0:0:0:0:
288,201,68793,5,2,0:1:0:0:
426,338,68974,1,2,1:0:0:0:
217,333,69154,2,0,P|174:313|160:232,1,119.999996337891,10|0,1:0|0:0,0:0:0:0:
229,67,69516,1,2,1:0:0:0:
417,118,69697,1,2,1:0:0:0:
220,142,69877,1,8,1:0:0:0:
180,126,69967,1,8,1:0:0:0:
156,92,70057,1,8,1:0:0:0:
154,49,70148,1,8,1:0:0:0:
174,14,70239,6,0,L|311:24,1,119.999996337891,4|0,1:0|0:0,0:0:0:0:
470,110,70600,1,12,1:2:0:0:
350,265,70781,2,0,P|347:312|406:369,2,119.999996337891,6|0|0,1:0|0:0|0:0,0:0:0:0:
398,60,71323,2,0,B|317:35|317:35|257:37,1,119.999996337891,10|0,1:0|0:0,0:0:0:0:
236,211,71684,5,2,1:0:0:0:
424,164,71865,1,2,1:0:0:0:
266,281,72046,2,0,P|309:312|382:305,1,119.999996337891,10|2,1:0|1:0,0:0:0:0:
178,332,72407,2,0,P|126:319|61:355,1,119.999996337891,2|0,1:0|0:0,0:0:0:0:
172,120,72769,2,0,P|160:172|196:237,1,119.999996337891,10|0,1:0|0:0,0:0:0:0:
301,72,73130,5,2,1:0:0:0:
266,268,73311,1,0,0:0:0:0:
218,42,73492,2,0,P|159:29|105:54,1,119.999996337891,10|2,1:0|1:0,0:0:0:0:
0,255,73853,2,0,B|83:286|83:286|117:280,1,119.999996337891,2|0,1:0|0:0,0:0:0:0:
247,135,74215,2,0,P|328:155|356:197,1,119.999996337891,10|0,1:0|0:0,0:0:0:0:
154,183,74576,5,2,0:1:0:0:
243,356,74757,1,2,1:0:0:0:
423,283,74937,2,0,B|439:187|439:187|428:146,1,119.999996337891,10|2,1:0|1:0,0:0:0:0:
239,113,75299,1,2,1:0:0:0:
424,51,75480,1,2,1:0:0:0:
269,180,75660,2,0,P|219:184|169:130,1,119.999996337891,10|0,1:0|0:0,0:0:0:0:
385,228,76022,6,0,P|424:279|408:353,1,119.999996337891,4|0,1:0|0:0,0:0:0:0:
227,371,76383,1,12,1:2:0:0:
16,261,76564,2,0,P|67:222|141:238,1,119.999996337891,6|0,1:0|0:0,0:0:0:0:
292,320,76925,1,0,0:0:0:0:
449,206,77106,2,0,L|439:73,1,119.999996337891,12|0,1:1|0:0,0:0:0:0:
282,199,77468,6,0,L|292:332,1,119.999996337891,2|2,1:0|1:0,0:0:0:0:
320,127,77829,1,10,1:0:0:0:
199,279,78010,1,2,1:0:0:0:
379,351,78191,2,0,L|370:230,1,119.999996337891,2|0,1:0|0:0,0:0:0:0:
238,85,78552,2,0,P|193:88|134:145,1,119.999996337891,10|0,1:0|0:0,0:0:0:0:
126,331,78913,6,0,B|31:312|31:312|0:281,1,119.999996337891,2|0,1:0|0:0,0:0:0:0:
209,296,79275,1,10,1:0:0:0:
64,164,79456,1,2,1:0:0:0:
228,369,79636,2,0,P|275:333|281:272,1,119.999996337891,0|0,0:0|0:0,0:0:0:0:
63,163,79998,2,0,B|51:188|51:188|58:283,1,119.999996337891,10|0,1:0|0:0,0:0:0:0:
179,131,80359,5,2,0:1:0:0:
343,235,80540,1,2,1:0:0:0:
223,72,80721,2,0,P|165:59|115:95,1,119.999996337891,10|0,1:0|0:0,0:0:0:0:
263,148,81082,1,2,1:0:0:0:
456,169,81263,1,2,1:0:0:0:
496,359,81443,1,8,1:0:0:0:
343,235,81624,1,0,1:0:0:0:
226,348,81805,1,4,0:1:0:0:
256,218,87227,5,2,1:0:0:0:
256,218,87589,6,0,P|212:127|127:150,1,200,2|8,1:0|0:1,0:0:0:0:
293,95,88131,1,2,1:0:0:0:
218,281,88311,2,0,P|185:241|193:181,1,100,0|0,0:0|0:0,0:0:0:0:
351,149,88673,2,0,P|402:148|445:191,1,100,10|0,0:1|0:0,0:0:0:0:
360,328,89034,5,2,0:1:0:0:
270,183,89215,1,2,1:0:0:0:
380,53,89396,1,10,0:1:0:0:
213,23,89576,1,2,1:0:0:0:
339,136,89757,2,0,L|442:125,1,100,2|0,1:0|0:0,0:0:0:0:
253,95,90119,2,0,P|208:105|153:75,1,100,10|0,0:1|0:0,0:0:0:0:
45,209,90480,6,0,B|24:287|24:287|32:318,1,100,2|0,1:0|0:0,0:0:0:0:
212,253,90842,2,0,B|233:175|233:175|228:156,1,100,10|2,0:1|1:0,0:0:0:0:
112,279,91202,1,0,0:0:0:0:
275,326,91383,1,0,0:0:0:0:
424,207,91564,2,0,L|305:228,1,100,10|0,0:1|0:0,0:0:0:0:
154,190,91926,6,0,L|273:169,1,100,2|2,0:1|1:0,0:0:0:0:
85,140,92287,1,10,0:1:0:0:
196,268,92468,1,2,1:0:0:0:
298,90,92649,2,0,P|344:96|385:142,1,100,2|2,1:0|1:0,0:0:0:0:
295,315,93010,2,0,P|302:268|350:228,1,100,10|0,0:1|0:0,0:0:0:0:
174,351,93372,6,0,P|88:357|11:258,1,200,2|10,1:0|0:1,0:0:0:0:
112,140,93914,1,2,1:0:0:0:
239,218,94095,1,0,0:0:0:0:
111,284,94276,1,0,0:0:0:0:
197,152,94456,2,0,P|245:141|302:174,1,100,10|0,0:1|0:0,0:0:0:0:
383,304,94818,5,2,0:1:0:0:
239,218,94999,1,2,1:0:0:0:
377,90,95179,2,0,B|456:81|456:81|494:98,1,100,10|0,0:1|0:0,0:0:0:0:
320,228,95540,2,0,P|365:235|419:203,1,100,2|0,1:0|0:0,0:0:0:0:
270,299,95901,2,0,P|225:309|188:360,1,100,10|0,0:1|0:0,0:0:0:0:
187,140,96263,6,0,P|197:184|248:221,1,100,2|0,0:1|0:0,0:0:0:0:
320,69,96624,1,10,0:1:0:0:
111,114,96805,2,0,P|137:77|266:134,1,200,2|0,1:0|0:0,0:0:0:0:
310,302,97348,2,0,B|232:321|232:321|207:313,1,100,10|0,0:1|0:0,0:0:0:0:
80,196,97709,6,0,B|158:177|158:177|183:185,1,100,2|2,0:1|1:0,0:0:0:0:
92,331,98070,1,10,0:1:0:0:
232,234,98251,1,2,1:0:0:0:
28,253,98432,2,0,P|6:209|18:149,1,100,2|2,1:0|1:0,0:0:0:0:
238,142,98793,2,0,P|251:186|223:241,1,100,10|0,0:1|0:0,0:0:0:0:
124,77,99155,6,0,B|169:6|281:39|281:39|280:69,1,200,2|10,1:0|0:1,0:0:0:0:
231,233,99697,2,0,B|225:311|225:311|243:341,1,100,2|0,1:0|0:0,0:0:0:0:
404,301,100058,1,0,0:0:0:0:
476,145,100239,2,0,B|481:66|481:66|463:36,1,100,10|0,0:1|0:0,0:0:0:0:
407,207,100601,5,2,0:1:0:0:
305,71,100781,1,2,1:0:0:0:
258,234,100962,1,10,0:1:0:0:
176,84,101143,1,2,1:0:0:0:
330,151,101323,2,0,P|360:185|362:248,1,100,2|0,1:0|0:0,0:0:0:0:
193,325,101685,2,0,P|156:354|93:350,1,100,10|0,0:1|0:0,0:0:0:0:
35,159,102046,6,0,P|79:148|135:178,1,100,2|0,1:0|0:0,0:0:0:0:
261,276,102408,1,10,0:1:0:0:
191,115,102588,2,0,L|206:223,1,100,2|0,1:0|0:0,0:0:0:0:
262,52,102950,1,0,0:0:0:0:
295,237,103131,2,0,P|340:230|380:181,1,100,10|0,0:1|0:0,0:0:0:0:
262,52,103492,5,2,0:1:0:0:
432,59,103673,1,2,1:0:0:0:
200,95,103853,1,10,0:1:0:0:
387,118,104034,1,2,1:0:0:0:
226,161,104215,2,0,P|202:200|212:262,1,100,2|2,1:0|1:0,0:0:0:0:
57,171,104576,2,0,P|103:172|150:131,1,100,10|0,0:1|0:0,0:0:0:0:
19,257,104938,6,0,L|7:368,1,100,2|0,0:1|0:0,0:0:0:0:
129,240,105299,1,10,0:1:0:0:
226,100,105480,2,0,P|263:153|230:278,1,200,2|0,1:0|0:0,0:0:0:0:
413,294,106022,2,0,P|455:267|474:222,1,100,10|0,0:1|0:0,0:0:0:0:
407,37,106384,6,0,P|362:59|336:100,1,100,2|2,0:1|1:0,0:0:0:0:
295,271,106745,2,0,L|181:285,1,100,10|0,0:1|0:0,0:0:0:0:
341,194,107106,1,2,1:0:0:0:
170,160,107287,1,0,0:0:0:0:
18,267,107468,2,0,P|74:266|115:226,1,100,10|0,0:1|0:1,0:0:0:0:
211,75,107829,6,0,P|266:52|324:67,1,100,2|0,1:0|0:0,0:0:0:0:
457,135,108191,1,10,0:1:0:0:
381,304,108372,1,2,1:0:0:0:
270,129,108552,2,0,P|234:162|227:210,1,100,0|0,0:0|0:0,0:0:0:0:
381,304,108914,2,0,P|373:254|338:221,1,100,14|0,0:1|0:0,0:0:0:0:
183,291,109275,5,8,1:0:0:0:
190,120,109456,1,8,1:0:0:0:
50,270,109637,1,8,1:0:0:0:
6,105,109818,1,8,1:0:0:0:
156,204,109999,1,8,1:0:0:0:
102,360,110179,1,8,1:0:0:0:
245,228,110360,1,8,1:0:0:0:
161,50,110541,1,8,1:1:0:0:
269,303,110721,6,0,P|317:255|318:204,1,119.999996337891,4|0,1:0|0:0,0:0:0:0:
142,128,111082,1,12,1:2:0:0:
348,91,111263,2,0,B|444:78|444:78|467:62,2,119.999996337891,6|0|0,1:0|0:0|0:0,0:0:0:0:
173,219,111805,2,0,L|41:240,1,119.999996337891,10|0,1:0|0:0,0:0:0:0:
228,156,112166,5,2,1:0:0:0:
228,156,112347,1,2,1:0:0:0:
401,240,112528,2,0,P|406:292|368:351,1,119.999996337891,10|2,1:0|1:0,0:0:0:0:
180,315,112890,2,0,P|128:313|77:264,1,119.999996337891,2|0,1:0|0:0,0:0:0:0:
181,55,113251,2,0,P|219:92|225:163,1,119.999996337891,10|0,1:0|0:0,0:0:0:0:
79,269,113612,5,2,1:0:0:0:
266,228,113793,1,0,0:0:0:0:
419,343,113974,1,10,1:0:0:0:
232,298,114154,1,2,1:0:0:0:
13,334,114335,2,0,B|95:364|95:364|129:358,1,119.999996337891,2|0,1:0|0:0,0:0:0:0:
311,340,114697,2,0,P|317:255|175:226,1,239.999992675781,10|2,1:0|0:1,0:0:0:0:
380,166,115239,5,2,1:0:0:0:
192,127,115419,2,0,B|98:111|98:111|57:122,1,119.999996337891,10|2,1:0|1:0,0:0:0:0:
266,95,115781,1,2,1:0:0:0:
455,64,115962,1,2,1:0:0:0:
285,177,116142,2,0,P|236:177|189:119,1,119.999996337891,10|0,1:0|0:0,0:0:0:0:
422,138,116504,6,0,P|465:160|476:233,1,119.999996337891,4|0,1:0|0:0,0:0:0:0:
339,358,116865,1,12,1:2:0:0:
285,177,117046,2,0,B|308:87|308:87|329:67,1,119.999996337891,6|0,1:0|0:0,0:0:0:0:
328,260,117407,1,0,0:0:0:0:
150,354,117588,2,0,P|103:349|63:281,1,119.999996337891,12|0,1:1|0:0,0:0:0:0:
136,113,117950,6,0,L|150:237,1,119.999996337891,2|2,1:0|1:0,0:0:0:0:
45,70,118311,1,10,1:0:0:0:
235,97,118492,1,2,1:0:0:0:
393,205,118673,2,0,L|407:337,1,119.999996337891,2|0,1:0|0:0,0:0:0:0:
376,112,119034,2,0,P|421:115|479:171,1,119.999996337891,10|0,1:0|0:0,0:0:0:0:
275,174,119395,6,0,B|181:185|181:185|141:167,1,119.999996337891,2|0,1:0|0:0,0:0:0:0:
4,57,119757,1,10,1:0:0:0:
62,253,119938,2,0,P|57:302|1:348,1,119.999996337891,2|0,1:0|0:0,0:0:0:0:
5,155,120298,1,0,0:0:0:0:
152,30,120480,2,0,P|209:43|236:96,1,119.999996337891,10|0,1:0|0:0,0:0:0:0:
219,285,120841,5,2,0:1:0:0:
163,102,121022,1,2,1:0:0:0:
292,290,121203,2,0,P|277:333|199:356,1,119.999996337891,10|0,1:0|0:0,0:0:0:0:
178,177,121564,1,8,1:0:0:0:
202,165,121654,1,8,1:0:0:0:
227,159,121744,1,8,1:0:0:0:
254,156,121835,1,8,1:0:0:0:
280,157,121925,1,8,1:1:0:0:
305,165,122016,1,8,1:1:0:0:
329,175,122106,1,8,1:1:0:0:
352,189,122196,1,8,1:1:0:0:
369,209,122287,6,0,L|359:344,1,119.999996337891,4|0,1:0|0:0,0:0:0:0:
424,134,122648,1,12,1:2:0:0:
478,340,122829,2,0,L|489:207,2,119.999996337891,6|0|0,1:0|0:0|0:0,0:0:0:0:
248,338,123371,2,0,B|166:324|166:324|113:296,1,119.999996337891,10|0,1:0|0:0,0:0:0:0:
319,257,123732,5,2,1:0:0:0:
205,101,123913,1,2,1:0:0:0:
377,193,124094,2,0,P|417:227|489:226,1,119.999996337891,10|2,1:0|1:0,0:0:0:0:
287,235,124456,2,0,P|236:218|169:247,1,119.999996337891,2|0,1:0|0:0,0:0:0:0:
299,26,124817,2,0,P|282:75|311:142,1,119.999996337891,10|0,1:0|0:0,0:0:0:0:
393,307,125178,5,2,1:0:0:0:
457,125,125359,1,0,0:0:0:0:
237,103,125540,2,0,P|234:162|271:209,1,119.999996337891,10|2,1:0|1:0,0:0:0:0:
159,38,125901,2,0,B|73:56|73:56|40:45,1,119.999996337891,2|0,1:0|0:0,0:0:0:0:
246,17,126263,2,0,P|312:63|324:112,1,119.999996337891,10|0,1:0|0:0,0:0:0:0:
296,288,126624,5,2,0:1:0:0:
237,103,126805,1,2,1:0:0:0:
229,333,126986,2,0,B|135:349|135:349|94:338,1,119.999996337891,10|2,1:0|1:0,0:0:0:0:
66,154,127347,1,2,1:0:0:0:
247,218,127528,1,2,1:0:0:0:
48,224,127709,2,0,P|6:196|1:124,1,119.999996337891,10|0,1:0|0:0,0:0:0:0:
251,142,128070,6,0,P|307:170|318:235,1,119.999996337891,4|0,1:0|0:0,0:0:0:0:
156,122,128431,1,12,1:2:0:0:
21,302,128612,2,0,P|83:298|129:239,1,119.999996337891,6|0,1:0|0:0,0:0:0:0:
92,70,128973,1,0,0:0:0:0:
291,53,129154,2,0,L|419:26,1,119.999996337891,12|0,1:1|0:0,0:0:0:0:
343,209,129516,6,0,L|214:235,1,119.999996337891,2|2,1:0|1:0,0:0:0:0:
400,153,129877,1,10,1:0:0:0:
289,310,130058,1,2,1:0:0:0:
172,158,130239,2,0,L|288:133,1,119.999996337891,2|0,1:0|0:0,0:0:0:0:
115,51,130600,2,0,P|70:54|12:110,1,119.999996337891,10|0,1:0|0:0,0:0:0:0:
224,65,130962,6,0,B|327:47|327:47|365:64,1,119.999996337891,2|0,1:0|0:0,0:0:0:0:
471,195,131323,1,10,1:0:0:0:
289,133,131504,1,2,1:0:0:0:
123,228,131684,2,0,P|86:273|93:333,1,119.999996337891,0|0,0:0|0:0,0:0:0:0:
258,231,132046,2,0,B|283:242|283:242|376:236,1,119.999996337891,10|0,1:0|0:0,0:0:0:0:
193,172,132407,5,2,0:1:0:0:
282,342,132588,1,8,1:0:0:0:
464,281,132769,1,8,1:0:0:0:
312,163,132950,1,8,1:0:0:0:
431,352,133130,1,8,1:0:0:0:
382,131,133311,1,8,1:0:0:0:
358,358,133491,1,8,1:0:0:0:
452,159,133672,1,8,1:0:0:0:
299,306,133853,6,0,P|232:215|296:89,1,259.999988098145,12|0,1:0|1:0,0:0:0:0:
103,192,134396,2,0,B|124:215|147:205|147:205|160:242|160:242|265:299|330:181,1,259.999988098145,12|0,1:0|1:0,0:0:0:0:
57,74,134938,2,0,B|58:126|16:162|16:162|92:231|61:322,1,259.999988098145,12|0,1:2|1:0,0:0:0:0:
264,155,135480,2,0,B|305:125|353:150|353:150|384:120|381:75|381:75|423:49|466:64,1,259.999988098145,12|0,1:0|1:0,0:0:0:0:
184,133,136022,6,0,P|231:82|299:68,1,129.999994049073,8|0,1:0|1:0,0:0:0:0:
460,262,136384,2,0,P|441:194|458:135,1,129.999994049073,8|0,1:0|1:0,0:0:0:0:
279,311,136745,6,0,B|249:330|214:318|214:318|196:378|105:333|105:333|129:260,1,259.999988098145,12|0,1:2|1:0,0:0:0:0:
20,43,137287,2,0,P|110:39|126:201,1,259.999988098145,12|0,1:0|1:0,0:0:0:0:
427,73,137829,2,0,B|392:52|392:52|365:67|354:91|354:91|264:45|212:125,1,259.999988098145,12|0,1:2|1:0,0:0:0:0:
346,363,138371,2,0,B|358:342|341:326|341:326|362:296|362:296|385:249|376:208|344:167|310:150|267:158,1,259.999988098145,12|0,1:0|1:0,0:0:0:0:
214,350,138914,6,0,P|237:271|305:255,1,129.999994049073,8|0,1:0|1:0,0:0:0:0:
480,87,139275,2,0,P|415:138|350:112,1,129.999994049073,8|0,1:0|1:0,0:0:0:0:
120,47,139637,6,0,B|131:82|131:82|111:115|111:115|176:155|177:237|126:283,1,259.999988098145,12|0,1:2|1:0,0:0:0:0:
351,281,140179,2,0,P|284:230|193:352,1,259.999988098145,12|0,1:0|1:0,0:0:0:0:
401,257,140721,2,0,B|461:245|477:164|428:124|428:124|438:81|438:81|409:77|396:52,1,259.999988098145,12|0,1:2|1:0,0:0:0:0:
170,240,141263,2,0,B|230:216|281:270|281:270|311:195|380:181,1,259.999988098145,12|0,1:0|1:0,0:0:0:0:
120,73,141805,6,0,P|19:89|-5:127,1,129.999994049073,8|0,1:0|1:0,0:0:0:0:
240,118,142167,2,0,P|224:17|186:-7,1,129.999994049073,8|0,1:0|1:0,0:0:0:0:
79,158,142528,6,0,B|73:204|73:204|23:246|23:246|106:282|87:374,1,259.999988098145,12|0,1:2|1:0,0:0:0:0:
331,240,143070,2,0,B|284:264|242:224|242:224|199:285|125:262|125:262|106:302,1,259.999988098145,12|0,1:0|1:0,0:0:0:0:
368,328,143612,2,0,B|359:307|382:294|382:294|414:263|411:216|397:176|338:164|338:164|387:153|376:95,1,259.999988098145,12|0,1:2|1:0,0:0:0:0:
506,350,144155,6,0,P|466:299|472:222,1,129.999994049073,8|0,1:0|1:0,0:0:0:0:
444,28,144516,1,8,1:0:0:0:
294,173,144697,1,8,1:0:0:0:
147,25,144878,1,8,1:0:0:0:
352,54,145058,1,8,1:0:0:0:
202,199,145239,1,8,1:0:0:0:
448,121,145420,6,0,B|453:150|433:171|433:171|489:239|408:320|408:320|372:298,1,259.999988098145,12|0,1:0|1:0,0:0:0:0:
148,340,145963,2,0,B|161:312|186:315|186:315|189:276|189:276|274:192|369:288,1,259.999988098145,12|0,1:0|1:0,0:0:0:0:
53,83,146505,2,0,B|63:133|29:177|29:177|43:222|43:222|117:230|113:318,1,259.999988098145,12|0,1:2|1:0,0:0:0:0:
349,167,147047,2,0,B|311:190|311:190|270:172|270:172|242:220|192:240|144:220|118:190,1,259.999988098145,12|0,1:0|1:0,0:0:0:0:
290,65,147589,6,0,P|222:77|185:130,1,129.999994049073,8|0,1:0|1:0,0:0:0:0:
408,243,147950,2,0,P|476:230|512:177,1,129.999994049073,8|0,1:0|1:0,0:0:0:0:
268,145,148312,6,0,B|256:174|256:174|269:204|269:204|219:209|198:254|193:305|246:335|286:331,1,259.999988098145,12|0,1:2|1:0,0:0:0:0:
29,197,148854,2,0,P|119:193|135:355,1,259.999988098145,12|0,1:0|1:0,0:0:0:0:
242,70,149396,2,0,B|282:51|327:87|327:87|423:40|478:133,1,259.999988098145,12|0,1:2|1:0,0:0:0:0:
174,228,149938,2,0,B|197:235|209:215|209:215|242:229|242:229|293:242|331:225|365:185|374:148|358:108,1,259.999988098145,12|0,1:0|1:0,0:0:0:0:
102,249,150481,6,0,P|125:170|193:154,1,129.999994049073,8|0,1:0|1:0,0:0:0:0:
432,157,150842,2,0,P|367:208|303:177,1,129.999994049073,8|0,1:0|1:0,0:0:0:0:
92,316,151204,6,0,B|81:281|81:281|101:248|101:248|36:208|35:126|86:80,1,259.999988098145,12|0,1:2|1:0,0:0:0:0:
348,156,151746,2,0,B|320:157|320:157|290:136|290:136|261:214|166:218|118:142,1,259.999988098145,12|0,1:0|1:0,0:0:0:0:
368,229,152288,2,0,B|428:217|444:136|395:96|395:96|405:53|405:53|376:49|363:24,1,259.999988098145,12|0,1:2|1:0,0:0:0:0:
246,263,152830,2,0,B|309:273|325:345|325:345|390:297|456:320,1,259.999988098145,12|0,1:0|1:0,0:0:0:0:
195,197,153372,6,0,P|94:213|70:251,1,129.999994049073,8|0,1:0|1:0,0:0:0:0:
368,229,153734,2,0,P|352:128|314:104,1,129.999994049073,8|0,1:0|1:0,0:0:0:0:
155,271,154094,6,0,P|220:349|265:350,2,129.999994049073,12|0|0,1:2|1:0|1:0,0:0:0:0:
253,47,154637,2,0,B|344:32|344:32|400:42,2,129.999994049073,8|0|0,1:0|1:0|1:0,0:0:0:0:
34,130,155179,2,0,P|88:182|152:170,1,129.999994049073,12|0,1:2|1:0,0:0:0:0:
337,115,155540,5,0,1:0:0:0:
260,308,155721,1,8,1:0:0:0:
449,165,155902,1,0,1:0:0:0:
381,367,156083,1,8,1:0:0:0:
287,181,156264,1,8,1:0:0:0:
476,86,156444,1,8,1:0:0:0:
268,68,156625,1,8,1:0:0:0:
378,244,156806,1,8,1:0:0:0:
213,138,156986,6,0,P|147:133|105:248,1,200,4|0,1:0|2:0,0:0:0:0:
287,181,157528,1,0,1:0:0:0:
108,68,157709,1,12,1:2:0:0:
339,340,158070,2,0,P|435:340|488:248,1,200,4|0,1:0|2:0,0:0:0:0:
261,307,158612,1,0,1:0:0:0:
351,52,158974,2,0,L|421:32,1,50,0|0,1:0|1:0,0:0:0:0:
282,27,159155,1,8,1:0:0:0:
181,333,159516,2,0,P|125:345|75:318,1,100,4|0,1:1|2:0,0:0:0:0:
261,249,159878,1,4,1:0:0:0:
256,192,159968,12,8,162046,1:0:0:0:
299,137,162408,5,4,1:2:0:0:
299,137,162769,2,0,P|391:149|410:241,1,200,4|0,1:0|2:0,0:0:0:0:
221,275,163311,2,0,L|168:255,1,50,0|0,1:0|1:0,0:0:0:0:
272,329,163492,1,12,1:2:0:0:
172,44,163853,2,0,P|77:44|24:125,1,200,4|0,1:0|2:0,0:0:0:0:
251,77,164395,1,0,1:0:0:0:
365,327,164757,1,0,1:0:0:0:
163,360,164938,1,8,1:0:0:0:
330,52,165299,2,0,P|378:39|424:55,1,100,4|0,1:0|2:0,0:0:0:0:
251,135,165661,1,4,1:0:0:0:
256,192,165751,12,8,166745,1:0:0:0:
212,136,167106,6,0,P|225:98|214:65,2,66.6666666666667,8|8|8,1:0|1:0|1:0,0:0:0:0:
168,263,167468,2,0,P|141:281|123:314,2,66.6666666666667,8|8|8,1:0|1:0|1:0,0:0:0:0:
307,316,167829,2,0,P|338:331|382:325,2,66.6666666666667,8|8|8,1:0|1:0|1:0,0:0:0:0:
312,184,168191,2,0,P|310:148|327:119,2,66.6666666666667,4|4|4,1:3|1:3|1:3,0:0:0:0:
352,259,168551,1,4,1:1:0:0:
