osu file format v14

[General]
AudioFilename: audio.mp3
AudioLeadIn: 0
PreviewTime: 45419
Countdown: 0
SampleSet: None
StackLeniency: 0.7
Mode: 0
LetterboxInBreaks: 0
WidescreenStoryboard: 0

[Editor]
Bookmarks: 2763,75419
DistanceSpacing: 1.1
BeatDivisor: 4
GridSize: 16
TimelineZoom: 0.9

[Metadata]
Title:The Queen's Justice
TitleUnicode:The Queen's Justice
Artist:Ramin Djawadi
ArtistUnicode:Ramin Djawadi
Creator:TheKoala
Version:Normal
Source:Game of Thrones
Tags:Rains of Castamere lannister theme GoT season 7
BeatmapID:1404909
BeatmapSetID:663572

[Difficulty]
HPDrainRate:4
CircleSize:3
OverallDifficulty:4
ApproachRate:5
SliderMultiplier:1
SliderTickRate:1

[Events]
//Background and Video events
0,0,"daenerys.jpg",0,0
//Break Periods
//Storyboard Layer 0 (Background)
//Storyboard Layer 1 (Fail)
//Storyboard Layer 2 (Pass)
//Storyboard Layer 3 (Foreground)
//Storyboard Sound Samples

[TimingPoints]
419,468.75,4,3,1,35,1,0
3583,-100,4,3,1,5,0,0
3700,-100,4,3,1,35,0,0
11083,-100,4,3,1,5,0,0
11200,-100,4,3,1,35,0,0
15419,-100,4,3,1,40,0,0
37919,-100,4,3,1,45,0,0
44013,-100,4,3,1,50,0,0
44481,-100,4,3,1,55,0,0
44950,-100,4,3,1,60,0,0
45419,-100,4,3,1,55,0,1
46005,-100,4,3,1,45,0,1
48934,-100,4,3,1,50,0,1
49169,-100,4,3,1,55,0,1
49755,-100,4,3,1,45,0,1
56200,-100,4,3,1,50,0,1
56434,-100,4,3,1,55,0,1
56669,-100,4,3,1,60,0,1
57255,-100,4,3,1,45,0,1
59481,-100,4,3,1,45,0,0
59950,-100,4,3,1,50,0,1
60184,-100,4,3,1,55,0,1
60419,-100,4,3,1,60,0,1
61005,-100,4,3,1,50,0,1
64169,-100,4,3,1,60,0,1
64755,-100,4,3,1,50,0,1
68388,-100,4,3,1,45,0,1
69794,-100,4,3,1,55,0,1
71200,-100,4,3,1,55,0,1
71669,-100,4,3,1,35,0,0
75419,-100,4,3,1,5,0,0

[Colours]
Combo1 : 255,215,91
Combo2 : 128,128,128
Combo3 : 192,192,192
Combo4 : 194,12,12
Combo5 : 255,145,34

[HitObjects]
100,250,419,6,0,P|79:191|91:130,1,100,14|0,0:0|0:0,0:0:0:0:
154,71,1356,2,0,L|271:60,1,100,2|0,0:0|0:0,0:0:0:0:
363,49,2294,1,2,0:0:0:0:
352,158,2762,2,0,L|357:221,1,50,2|0,0:0|0:0,0:0:0:0:
380,257,3231,1,2,0:0:0:0:
270,264,3700,1,0,0:0:0:0:
221,289,3934,1,12,0:0:0:0:
171,265,4169,6,0,P|119:255|40:280,1,100,14|0,0:0|0:0,0:0:0:0:
36,159,5106,2,0,P|88:169|167:144,1,100,2|0,0:0|0:0,0:0:0:0:
173,58,6044,1,2,0:0:0:0:
281,74,6512,2,0,P|319:81|344:74,1,50,2|0,0:0|0:0,0:0:0:0:
378,53,6981,1,2,0:0:0:0:
399,160,7450,1,8,0:0:0:0:
409,213,7684,1,12,0:0:0:0:
419,266,7919,54,0,L|296:282,1,100,14|0,0:0|0:0,0:0:0:0:
217,318,8856,2,0,L|117:305,1,100,2|0,0:0|0:0,0:0:0:0:
9,285,9794,1,2,0:0:0:0:
22,175,10262,2,0,L|28:125,1,50,2|0,0:0|0:0,0:0:0:0:
40,71,10731,1,2,0:0:0:0:
143,32,11200,1,0,0:0:0:0:
194,50,11434,1,12,0:0:0:0:
244,29,11669,6,0,P|313:26|379:42,1,100,14|0,0:0|0:0,0:0:0:0:
442,78,12606,2,0,L|450:199,1,100,2|0,0:0|0:0,0:0:0:0:
456,288,13544,1,2,0:0:0:0:
351,255,14012,2,0,P|311:252|278:258,1,50,2|0,0:0|0:0,0:0:0:0:
247,263,14481,1,2,0:0:0:0:
149,314,14950,1,8,0:0:0:0:
97,332,15184,1,12,0:0:0:0:
43,320,15419,54,0,B|31:287|31:287|45:187,1,100,14|0,0:0|0:0,0:0:0:0:
143,184,16356,2,0,B|155:151|155:151|141:51,1,100,2|0,0:0|0:0,0:0:0:0:
242,33,17294,1,2,0:0:0:0:
350,47,17762,2,0,L|418:45,1,50,2|8,0:0|0:0,0:0:0:0:
455,43,18231,1,2,0:0:0:0:
440,152,18700,1,0,0:0:0:0:
464,201,18934,1,12,0:0:0:0:
456,255,19169,6,0,L|339:279,1,100,14|0,0:0|0:0,0:0:0:0:
304,288,19872,1,0,0:0:0:0:
250,300,20106,2,0,P|217:247|222:180,1,100,2|0,0:0|0:0,0:0:0:0:
236,102,21044,1,2,0:0:0:0:
150,32,21512,1,10,0:0:0:0:
61,97,21981,1,2,0:0:0:0:
97,200,22450,1,10,0:0:0:0:
84,253,22684,1,12,0:0:0:0:
92,307,22919,54,0,L|207:315,1,100,14|0,0:0|0:0,0:0:0:0:
301,317,23856,2,0,P|294:259|305:177,1,100,2|0,0:0|0:0,0:0:0:0:
313,108,24794,1,2,0:0:0:0:
407,164,25262,2,0,L|468:169,1,50,2|8,0:0|0:0,0:0:0:0:
511,176,25731,1,2,0:0:0:0:
460,274,26200,1,0,0:0:0:0:
449,327,26434,1,12,0:0:0:0:
434,380,26669,6,0,L|314:380,1,100,14|0,0:0|0:0,0:0:0:0:
224,374,27606,2,0,P|200:326|215:269,1,100,2|0,0:0|0:0,0:0:0:0:
294,214,28544,1,2,0:0:0:0:
331,110,29012,2,0,P|341:80|338:51,1,50,2|0,0:0|0:0,0:0:0:0:
329,7,29481,1,2,0:0:0:0:
219,15,29950,1,8,0:0:0:0:
164,15,30184,1,12,0:0:0:0:
108,15,30419,54,0,L|91:142,1,100,14|0,0:0|0:0,0:0:0:0:
146,211,31356,2,0,L|129:338,1,100,2|0,0:0|0:0,0:0:0:0:
235,350,32294,1,2,0:0:0:0:
313,272,32762,2,0,L|379:268,1,50,2|8,0:0|0:0,0:0:0:0:
417,264,33231,1,2,0:0:0:0:
351,175,33700,1,0,0:0:0:0:
364,121,33934,1,12,0:0:0:0:
376,67,34169,6,0,P|302:51|261:63,1,100,14|0,0:0|0:0,0:0:0:0:
188,118,35106,2,0,P|114:134|73:122,1,100,2|0,0:0|0:0,0:0:0:0:
18,212,36044,1,2,0:0:0:0:
53,315,36512,1,10,0:0:0:0:
162,308,36981,2,0,L|228:320,1,50,2|0,0:0|0:0,0:0:0:0:
264,332,37450,1,10,0:0:0:0:
318,328,37684,1,12,0:0:0:0:
371,339,37919,54,0,P|358:280|372:217,1,100,14|0,0:0|0:0,0:0:0:0:
380,189,38622,1,0,0:0:0:0:
403,139,38856,2,0,L|283:125,1,100,2|0,0:0|0:0,0:0:0:0:
194,110,39794,1,2,0:0:0:0:
201,219,40262,2,0,P|207:252|197:287,1,50,2|0,0:0|0:0,0:0:0:0:
193,322,40731,1,2,0:0:0:0:
85,301,41200,1,0,0:0:0:0:
72,247,41434,1,12,0:0:0:0:
86,193,41669,6,0,P|98:142|75:83,1,100,14|0,0:0|0:0,0:0:0:0:
111,49,42372,1,8,0:0:0:0:
161,27,42606,2,0,L|292:43,1,100,2|8,0:0|0:0,0:0:0:0:
368,58,43544,1,10,0:0:0:0:
400,162,44012,1,10,0:0:0:0:
378,269,44481,1,14,0:0:0:0:
270,291,44950,2,0,L|220:285,1,50,14|12,0:0|0:0,0:0:0:0:
165,283,45419,5,6,0:0:0:0:
116,256,45653,1,2,0:0:0:0:
62,270,45887,2,0,P|36:222|42:166,1,100,2|0,0:0|0:0,0:0:0:0:
72,73,46825,1,2,0:0:0:0:
172,117,47294,2,0,P|266:144|363:123,1,200,2|0,0:0|0:0,0:0:0:0:
466,82,48700,2,0,P|472:113|482:147,1,50,2|0,0:0|0:0,0:0:0:0:
501,179,49169,21,6,0:0:0:0:
495,233,49403,1,2,0:0:0:0:
503,287,49637,2,0,B|473:273|473:273|367:283,1,100,2|0,0:0|0:0,0:0:0:0:
297,295,50575,1,2,0:0:0:0:
203,352,51044,2,0,L|74:341,1,100,2|0,0:0|0:0,0:0:0:0:
15,277,51981,1,0,0:0:0:0:
64,178,52450,2,0,L|57:119,1,50,2|12,0:0|0:0,0:0:0:0:
38,77,52919,37,6,0:0:0:0:
92,71,53153,1,2,0:0:0:0:
144,85,53387,2,0,P|198:90|262:73,1,100,2|0,0:0|0:0,0:0:0:0:
349,55,54325,1,2,0:0:0:0:
437,120,54794,2,0,L|449:243,1,100,2|0,0:0|0:0,0:0:0:0:
391,314,55731,1,0,0:0:0:0:
292,264,56200,2,0,L|222:274,1,50,2|0,0:0|0:0,0:0:0:0:
188,282,56669,5,6,0:0:0:0:
134,292,56903,1,2,0:0:0:0:
84,268,57137,2,0,P|50:216|59:157,1,100,2|0,0:0|0:0,0:0:0:0:
89,76,58075,1,2,0:0:0:0:
193,114,58544,2,0,L|305:112,1,100,2|0,0:0|0:0,0:0:0:0:
402,106,59481,1,0,0:0:0:0:
390,215,59950,2,0,B|387:242|387:242|393:270,1,50,14|14,0:0|0:0,0:0:0:0:
408,316,60419,53,6,0:0:0:0:
353,321,60653,1,2,0:0:0:0:
306,350,60887,2,0,L|198:348,1,100,2|0,0:0|0:0,0:0:0:0:
95,345,61825,1,2,0:0:0:0:
152,251,62294,2,0,P|151:191|136:130,1,100,2|0,0:0|0:0,0:0:0:0:
76,64,63231,1,0,0:0:0:0:
182,34,63700,2,0,L|272:42,1,50,2|0,0:0|0:0,0:0:0:0:
284,55,64169,22,0,P|333:61|380:47,1,100,6|0,0:0|0:0,0:0:0:0:
475,104,65106,2,0,P|463:153|477:218,1,100,2|0,0:0|0:0,0:0:0:0:
476,311,66044,2,0,L|370:314,1,100,2|0,0:0|0:0,0:0:0:0:
266,321,66981,2,0,P|213:289|144:293,1,100,2|0,0:0|0:0,0:0:0:0:
122,297,67684,1,12,0:0:0:0:
70,316,67919,38,0,P|63:228|140:117,1,200,14|0,0:0|0:0,0:0:0:0:
227,130,69325,2,0,L|300:143,1,50,2|8,0:0|0:0,0:0:0:0:
329,152,69794,2,0,L|439:144,1,100,2|2,0:0|0:0,0:0:0:0:
433,34,70731,2,0,L|323:26,1,100,2|2,0:0|0:0,0:0:0:0:
223,15,71669,37,4,0:0:0:0:
256,192,71786,12,0,75419,0:0:0:0:
