osu file format v14

[General]
AudioFilename: audio.mp3
AudioLeadIn: 0
PreviewTime: 45419
Countdown: 0
SampleSet: None
StackLeniency: 0.5
Mode: 0
LetterboxInBreaks: 0
WidescreenStoryboard: 0

[Editor]
Bookmarks: 2763,75419
DistanceSpacing: 1.3
BeatDivisor: 4
GridSize: 16
TimelineZoom: 0.9

[Metadata]
Title:The Queen's Justice
TitleUnicode:The Queen's Justice
Artist:Ramin Djawadi
ArtistUnicode:Ramin Djawadi
Creator:TheKoala
Version:Hard
Source:Game of Thrones
Tags:Rains of Castamere lannister theme GoT season 7
BeatmapID:1404891
BeatmapSetID:663572

[Difficulty]
HPDrainRate:5
CircleSize:3.7
OverallDifficulty:7
ApproachRate:6
SliderMultiplier:1.2
SliderTickRate:1

[Events]
//Background and Video events
0,0,"daenerys.jpg",0,0
//Break Periods
//Storyboard Layer 0 (Background)
//Storyboard Layer 1 (Fail)
//Storyboard Layer 2 (Pass)
//Storyboard Layer 3 (Foreground)
//Storyboard Sound Samples

[TimingPoints]
419,468.75,4,3,1,35,1,0
15419,-90.9090909090909,4,3,1,40,0,0
37919,-83.3333333333333,4,3,1,45,0,0
44013,-83.3333333333333,4,3,1,50,0,0
44481,-83.3333333333333,4,3,1,55,0,0
44950,-83.3333333333333,4,3,1,60,0,0
45419,-76.9230769230769,4,3,1,55,0,1
46005,-76.9230769230769,4,3,1,45,0,1
48934,-76.9230769230769,4,3,1,50,0,1
49169,-76.9230769230769,4,3,1,55,0,1
49755,-76.9230769230769,4,3,1,45,0,1
56200,-76.9230769230769,4,3,1,50,0,1
56434,-76.9230769230769,4,3,1,55,0,1
56669,-76.9230769230769,4,3,1,60,0,1
57255,-76.9230769230769,4,3,1,45,0,1
59481,-76.9230769230769,4,3,1,45,0,0
59950,-76.9230769230769,4,3,1,50,0,1
60184,-76.9230769230769,4,3,1,55,0,1
60419,-76.9230769230769,4,3,1,60,0,1
61005,-76.9230769230769,4,3,1,50,0,1
64169,-76.9230769230769,4,3,1,60,0,1
64755,-76.9230769230769,4,3,1,50,0,1
68388,-76.9230769230769,4,3,1,45,0,1
69794,-76.9230769230769,4,3,1,55,0,1
70262,-76.9230769230769,4,3,1,55,0,1
70731,-76.9230769230769,4,3,1,55,0,1
71200,-76.9230769230769,4,3,1,55,0,1
71669,-142.857142857143,4,3,1,35,0,0
75419,-142.857142857143,4,3,1,5,0,0

[Colours]
Combo1 : 255,215,91
Combo2 : 128,128,128
Combo3 : 192,192,192
Combo4 : 194,12,12
Combo5 : 255,145,34

[HitObjects]
32,70,184,5,12,0:0:0:0:
32,70,419,2,0,P|90:35|157:47,1,120,14|0,0:0|0:0,0:0:0:0:
210,85,1122,1,0,0:0:0:0:
195,167,1356,2,0,L|207:298,1,120,2|0,0:0|0:0,0:0:0:0:
284,317,2059,1,0,0:0:0:0:
284,317,2294,2,0,P|323:310|368:322,1,60,2|0,0:0|0:0,0:0:0:0:
425,329,2762,2,0,P|464:336|509:324,1,60,2|0,0:0|0:0,0:0:0:0:
499,250,3231,2,0,P|470:201|475:130,1,120,2|0,0:0|0:0,0:0:0:0:
484,28,3934,1,12,0:0:0:0:
484,28,4169,6,0,L|344:30,1,120,14|0,0:0|0:0,0:0:0:0:
280,39,4872,1,0,0:0:0:0:
292,122,5106,2,0,P|301:177|302:270,1,120,2|0,0:0|0:0,0:0:0:0:
227,279,5809,1,0,0:0:0:0:
163,223,6044,2,0,L|80:229,1,60,2|0,0:0|0:0,0:0:0:0:
20,238,6512,1,2,0:0:0:0:
52,160,6747,1,0,0:0:0:0:
103,227,6981,2,0,L|116:351,1,120,2|8,0:0|0:0,0:0:0:0:
225,383,7684,1,12,0:0:0:0:
225,383,7919,53,14,0:0:0:0:
464,341,8387,1,0,0:0:0:0:
387,374,8622,1,0,0:0:0:0:
397,290,8856,2,0,P|387:233|402:154,1,120,2|0,0:0|0:0,0:0:0:0:
436,98,9559,1,0,0:0:0:0:
378,36,9794,2,0,L|308:40,1,60,2|0,0:0|0:0,0:0:0:0:
238,64,10262,2,0,L|178:60,1,60,2|0,0:0|0:0,0:0:0:0:
94,50,10731,2,0,P|107:122|88:181,1,120,2|0,0:0|0:0,0:0:0:0:
64,270,11434,1,12,0:0:0:0:
64,270,11669,6,0,B|126:260|126:260|202:277,1,120,14|0,0:0|0:0,0:0:0:0:
261,299,12372,1,0,0:0:0:0:
342,277,12606,2,0,P|361:235|350:144,1,120,2|0,0:0|0:0,0:0:0:0:
324,83,13309,1,0,0:0:0:0:
240,94,13544,2,0,P|237:143|248:174,1,60,2|0,0:0|0:0,0:0:0:0:
271,230,14012,1,2,0:0:0:0:
188,213,14247,1,0,0:0:0:0:
106,232,14481,1,2,0:0:0:0:
186,379,14950,1,8,0:0:0:0:
284,328,15184,1,12,0:0:0:0:
284,328,15419,53,14,0:0:0:0:
450,367,15887,1,0,0:0:0:0:
492,292,16122,1,8,0:0:0:0:
440,223,16356,2,0,L|442:78,1,132.00000402832,2|0,0:0|0:0,0:0:0:0:
443,4,17059,1,8,0:0:0:0:
368,47,17294,2,0,P|317:55|283:44,1,66.0000020141602,2|0,0:0|0:0,0:0:0:0:
218,41,17762,1,2,0:0:0:0:
144,86,17997,1,8,0:0:0:0:
64,54,18231,2,0,P|47:115|59:213,1,132.00000402832,2|0,0:0|0:0,0:0:0:0:
89,282,18934,1,12,0:0:0:0:
89,282,19169,6,0,L|221:293,1,132.00000402832,14|0,0:0|0:0,0:0:0:0:
311,309,19872,1,0,0:0:0:0:
393,267,20106,2,0,P|374:215|394:134,1,132.00000402832,2|0,0:0|0:0,0:0:0:0:
476,109,20809,1,8,0:0:0:0:
489,200,21044,2,0,L|490:274,1,66.0000020141602,2|0,0:0|0:0,0:0:0:0:
487,358,21512,1,10,0:0:0:0:
396,336,21747,1,0,0:0:0:0:
304,349,21981,2,0,L|222:360,2,66.0000020141602,2|0|10,0:0|0:0|0:0,0:0:0:0:
376,246,22684,1,12,0:0:0:0:
376,246,22919,53,14,0:0:0:0:
444,74,23387,1,0,0:0:0:0:
364,29,23622,1,8,0:0:0:0:
288,85,23856,2,0,L|135:74,1,132.00000402832,2|0,0:0|0:0,0:0:0:0:
64,61,24559,1,8,0:0:0:0:
45,151,24794,2,0,L|55:224,1,66.0000020141602,2|0,0:0|0:0,0:0:0:0:
66,307,25262,1,2,0:0:0:0:
156,288,25497,1,8,0:0:0:0:
224,349,25731,2,0,P|306:356|369:348,1,132.00000402832,2|0,0:0|0:0,0:0:0:0:
460,287,26434,1,12,0:0:0:0:
460,287,26669,6,0,L|463:150,1,132.00000402832,14|0,0:0|0:0,0:0:0:0:
465,62,27372,1,8,0:0:0:0:
380,99,27606,2,0,L|233:88,1,132.00000402832,2|0,0:0|0:0,0:0:0:0:
158,66,28309,1,8,0:0:0:0:
180,155,28544,2,0,P|184:218|175:239,1,66.0000020141602,2|0,0:0|0:0,0:0:0:0:
92,204,29012,1,2,0:0:0:0:
74,112,29247,1,0,0:0:0:0:
158,66,29481,1,2,0:0:0:0:
335,125,29950,1,8,0:0:0:0:
422,42,30184,1,12,0:0:0:0:
422,42,30419,53,14,0:0:0:0:
419,226,30887,1,0,0:0:0:0:
506,255,31122,1,0,0:0:0:0:
439,319,31356,2,0,P|374:302|301:327,1,132.00000402832,2|0,0:0|0:0,0:0:0:0:
245,382,32059,1,8,0:0:0:0:
165,335,32294,2,0,P|132:343|96:331,1,66.0000020141602,2|0,0:0|0:0,0:0:0:0:
46,261,32762,1,2,0:0:0:0:
137,245,32997,1,8,0:0:0:0:
76,174,33231,2,0,P|54:109|88:42,1,132.00000402832,2|0,0:0|0:0,0:0:0:0:
189,23,33934,1,12,0:0:0:0:
189,23,34169,6,0,B|233:10|233:10|327:30,1,132.00000402832,14|0,0:0|0:0,0:0:0:0:
409,59,34872,1,8,0:0:0:0:
499,89,35106,2,0,P|490:154|514:235,1,132.00000402832,2|0,0:0|0:0,0:0:0:0:
504,312,35809,1,8,0:0:0:0:
405,309,36044,2,0,L|314:309,1,66.0000020141602,2|0,0:0|0:0,0:0:0:0:
248,307,36512,1,10,0:0:0:0:
161,333,36747,1,0,0:0:0:0:
181,243,36981,2,0,P|182:202|179:175,1,66.0000020141602,2|0,0:0|0:0,0:0:0:0:
152,88,37450,1,10,0:0:0:0:
278,135,37684,1,12,0:0:0:0:
278,135,37919,53,14,0:0:0:0:
433,5,38387,1,0,0:0:0:0:
494,83,38622,1,0,0:0:0:0:
500,183,38856,2,0,P|488:278|508:327,1,143.999995605469,2|0,0:0|0:0,0:0:0:0:
416,369,39559,1,8,0:0:0:0:
322,330,39794,2,0,L|190:333,1,71.9999978027344,2|0,0:0|0:0,0:0:0:0:
149,333,40262,1,2,0:0:0:0:
195,243,40497,1,0,0:0:0:0:
94,246,40731,2,0,P|65:164|66:92,1,143.999995605469,2|0,0:0|0:0,0:0:0:0:
142,19,41434,1,12,0:0:0:0:
142,19,41669,6,0,B|212:7|212:7|297:28,1,143.999995605469,14|0,0:0|0:0,0:0:0:0:
372,71,42372,1,8,0:0:0:0:
466,36,42606,2,0,B|454:106|454:106|475:191,1,143.999995605469,2|8,0:0|0:0,0:0:0:0:
500,273,43309,1,0,0:0:0:0:
404,331,43544,54,0,L|280:350,1,71.9999978027344,10|0,0:0|0:0,0:0:0:0:
234,364,44012,1,10,0:0:0:0:
234,364,44247,1,4,0:0:0:0:
267,269,44481,2,0,L|260:191,1,71.9999978027344,14|0,0:0|0:0,0:0:0:0:
245,97,44950,1,14,0:0:0:0:
158,158,45184,1,12,0:0:0:0:
31,69,45419,22,0,P|25:120|40:177,1,77.9999964294435,6|2,0:0|0:0,0:0:0:0:
69,238,45887,2,0,L|249:241,1,155.999992858887,2|0,0:0|0:0,0:0:0:0:
415,170,46825,1,2,0:0:0:0:
326,120,47059,1,8,0:0:0:0:
329,221,47294,22,0,P|372:301|448:325,1,155.999992858887,2|0,0:0|0:0,0:0:0:0:
501,203,48231,1,0,0:0:0:0:
428,91,48700,2,0,P|390:96|355:112,1,77.9999964294435,2|0,0:0|0:0,0:0:0:0:
221,167,49169,37,6,0:0:0:0:
120,154,49403,1,2,0:0:0:0:
20,133,49637,2,0,B|30:188|30:188|8:233|8:233|26:328,1,155.999992858887,2|0,0:0|0:0,0:0:0:0:
228,324,50575,1,2,0:0:0:0:
266,231,50809,1,8,0:0:0:0:
353,179,51044,6,0,L|512:203,1,155.999992858887,2|0,0:0|0:0,0:0:0:0:
496,101,51747,1,0,0:0:0:0:
435,10,51981,2,0,L|276:34,1,155.999992858887,0|2,0:0|0:0,0:0:0:0:
123,61,52684,1,12,0:0:0:0:
39,119,52919,54,0,P|28:206|41:233,1,77.9999964294435,6|2,0:0|0:0,0:0:0:0:
78,279,53387,2,0,P|118:257|246:287,1,155.999992858887,2|0,0:0|0:0,0:0:0:0:
403,365,54325,1,2,0:0:0:0:
412,264,54559,1,8,0:0:0:0:
475,184,54794,22,0,L|442:24,1,155.999992858887,2|0,0:0|0:0,0:0:0:0:
344,10,55497,1,8,0:0:0:0:
284,90,55731,2,0,L|187:103,1,77.9999964294435
106,118,56200,2,0,P|92:81|94:43,1,77.9999964294435,2|0,0:0|0:0,0:0:0:0:
206,100,56669,37,6,0:0:0:0:
226,199,56903,1,2,0:0:0:0:
253,296,57137,2,0,P|310:254|409:281,1,155.999992858887,2|0,0:0|0:0,0:0:0:0:
473,80,58075,1,2,0:0:0:0:
373,62,58309,1,8,0:0:0:0:
294,126,58544,6,0,P|218:156|125:137,1,155.999992858887,2|0,0:0|0:0,0:0:0:0:
59,93,59247,1,8,0:0:0:0:
16,184,59481,1,0,0:0:0:0:
16,184,59950,5,14,0:0:0:0:
8,284,60184,1,14,0:0:0:0:
76,359,60419,38,0,B|114:349|114:349|180:363,1,77.9999964294435,6|2,0:0|0:0,0:0:0:0:
252,366,60887,2,0,L|440:357,1,155.999992858887,2|0,0:0|0:0,0:0:0:0:
439,157,61825,1,2,0:0:0:0:
373,234,62059,1,8,0:0:0:0:
472,256,62294,22,0,P|472:169|442:59,1,155.999992858887,2|0,0:0|0:0,0:0:0:0:
372,47,62997,1,8,0:0:0:0:
310,127,63231,2,0,P|245:139|208:128,1,77.9999964294435
131,50,63700,2,0,P|143:115|132:152,1,77.9999964294435,2|0,0:0|0:0,0:0:0:0:
114,251,64169,38,0,P|153:332|214:262,1,155.999992858887,6|0,0:0|0:0,0:0:0:0:
251,229,64872,1,8,0:0:0:0:
302,318,65106,2,0,P|373:321|387:251,1,155.999992858887,2|0,0:0|0:0,0:0:0:0:
360,145,65809,1,8,0:0:0:0:
413,49,66044,6,0,P|325:31|235:68,1,155.999992858887,2|0,0:0|0:0,0:0:0:0:
179,107,66747,1,8,0:0:0:0:
126,20,66981,2,0,P|143:107|106:197,1,155.999992858887,2|0,0:0|0:0,0:0:0:0:
80,298,67684,1,12,0:0:0:0:
80,298,67919,54,0,B|122:283|122:283|272:301,1,155.999992858887,14|0,0:0|0:0,0:0:0:0:
329,325,68622,1,8,0:0:0:0:
325,223,68856,1,0,0:0:0:0:
180,81,69325,2,0,L|79:86,1,77.9999964294435,2|8,0:0|0:0,0:0:0:0:
10,142,69794,22,0,P|12:195|28:231,1,77.9999964294435,2|0,0:0|0:0,0:0:0:0:
165,213,70262,2,0,P|118:188|78:184,1,77.9999964294435,2|0,0:0|0:0,0:0:0:0:
93,269,70731,2,0,P|139:293|179:297,1,77.9999964294435,2|0,0:0|0:0,0:0:0:0:
297,208,71200,2,0,P|252:236|228:268,1,77.9999964294435,2|0,0:0|0:0,0:0:0:0:
191,375,71669,21,4,0:0:0:0:
256,192,71903,12,0,75419,0:0:0:0:
