osu file format v14

[General]
AudioFilename: audio.mp3
AudioLeadIn: 0
PreviewTime: 18348
Countdown: 0
SampleSet: Soft
StackLeniency: 0.7
Mode: 2
LetterboxInBreaks: 0
WidescreenStoryboard: 0

[Editor]
DistanceSpacing: 1
BeatDivisor: 4
GridSize: 4
TimelineZoom: 1

[Metadata]
Title:Main Titles (TV Size)
TitleUnicode:Main Titles (TV Size)
Artist:Ramin Djawadi
ArtistUnicode:Ramin Djawadi
Creator:Secre
Version:Escape
Source:Prison Break
Tags:chickenbible dahcreeper elux michael scofield lincoln burrows escape fox tv television drama crime action serial 20th century instrumental
BeatmapID:3767279
BeatmapSetID:1835043

[Difficulty]
HPDrainRate:6
CircleSize:4
OverallDifficulty:8.5
ApproachRate:8.5
SliderMultiplier:2.4
SliderTickRate:2

[Events]
//Background and Video events
0,0,"i will break out of a prison to watch fauna.jpg",0,0
Video,0,"omg mikel skofld livestrem.mp4"
//Break Periods
//Storyboard Layer 0 (Background)
//Storyboard Layer 1 (Fail)
//Storyboard Layer 2 (Pass)
//Storyboard Layer 3 (Foreground)
//Storyboard Layer 4 (Overlay)
//Storyboard Sound Samples

[TimingPoints]
349,461.538461538462,4,2,1,30,1,0
7272,461.538461538462,4,2,1,40,1,0
14656,-100,4,2,1,50,0,0
18810,461.538461538462,4,2,1,65,1,1
23425,461.538461538462,4,2,1,30,1,0
27578,461.538461538462,4,2,1,30,1,0
29885,-100,4,2,1,15,0,0

[Colours]
Combo1 : 134,150,155
Combo2 : 18,79,152

[HitObjects]
361,126,349,6,0,L|176:223,4,180,4|0|0|0|0,3:0|0:0|0:0|0:0|0:0,0:0:0:0:
65,57,2195,6,0,L|67:310,1,240
285,202,3118,1,0,0:0:0:0:
172,198,3348,1,0,0:0:0:0:
60,199,3579,1,0,0:0:0:0:
423,140,4041,6,0,L|234:240,1,180,0|0,3:0|0:0,0:0:0:0:
93,66,4733,2,0,L|297:64,1,180
440,62,5425,1,0,0:0:0:0:
60,210,5887,6,0,L|316:260,2,240
60,210,7041,1,0,0:0:0:0:
430,162,7272,6,0,P|488:150|415:40,1,240,4|0,3:0|0:0,0:0:0:0:
303,123,7964,1,2,0:0:0:0:
424,55,8195,2,0,L|497:56,2,60
198,68,8656,2,0,L|197:232,1,120,2|0,0:0|0:0,0:0:0:0:
424,213,9118,6,0,L|297:214,2,120,8|0|0,3:2|0:0|0:0,0:0:0:0:
202,108,9810,1,2,0:0:0:0:
310,57,10041,2,0,L|385:57,2,60
84,108,10502,2,0,L|84:237,1,120,2|0,0:0|0:0,0:0:0:0:
148,213,10848,1,0,0:0:0:0:
343,158,10964,6,0,L|486:159,2,120,8|0|0,3:2|0:0|0:0,0:0:0:0:
149,131,11656,1,2,0:0:0:0:
343,158,11887,2,0,L|413:156,2,60
117,59,12348,2,0,L|116:192,1,120,2|0,0:0|0:0,0:0:0:0:
179,177,12695,1,0,0:0:0:0:
377,199,12810,6,0,L|501:199,1,120,8|0,3:2|0:0,0:0:0:0:
268,194,13272,1,0,0:0:0:0:
384,194,13502,1,2,0:0:0:0:
65,220,13733,2,0,L|63:96,1,120,8|2,3:2|0:0,0:0:0:0:
380,157,14195,2,0,L|385:25,1,120,8|0,3:2|0:0,0:0:0:0:
27,123,14656,6,0,L|157:121,2,120,8|0|0,3:2|0:0|0:0,0:0:0:0:
324,128,15348,2,0,L|384:128,2,60,2|0|0,0:0|0:0|0:0,0:0:0:0:
131,139,15810,1,0,0:0:0:0:
430,192,16041,2,0,L|430:62,1,120,2|0,0:0|0:0,0:0:0:0:
366,58,16387,1,0,0:0:0:0:
141,44,16502,6,0,L|-6:45,2,120,8|0|0,3:2|0:0|0:0,0:0:0:0:
448,154,17195,1,2,0:0:0:0:
146,107,17425,2,0,L|76:108,2,60
447,34,17887,2,0,L|449:182,1,120,10|0,3:2|0:0,0:0:0:0:
387,159,18233,1,0,0:0:0:0:
70,172,18348,2,0,L|67:45,1,120,10|0,3:2|0:0,0:0:0:0:
131,53,18695,1,0,0:0:0:0:
304,160,18810,5,4,3:0:0:0:
485,167,19040,1,0,0:0:0:0:
406,167,19156,1,0,0:0:0:0:
485,167,19271,1,0,0:0:0:0:
171,99,19502,2,0,L|39:100,1,120,6|0,0:0|0:0,0:0:0:0:
356,62,19963,1,0,0:0:0:0:
177,107,20194,1,6,0:0:0:0:
356,62,20425,1,0,0:0:0:0:
271,62,20540,1,0,0:0:0:0:
478,133,20656,5,8,3:2:0:0:
400,133,20771,1,0,0:0:0:0:
478,133,20886,1,0,0:0:0:0:
170,146,21117,1,0,0:0:0:0:
478,133,21348,2,0,L|480:256,1,120,6|0,0:0|0:0,0:0:0:0:
108,188,21810,1,0,0:0:0:0:
299,183,22040,1,6,0:0:0:0:
108,188,22271,1,0,0:0:0:0:
182,196,22386,1,0,0:0:0:0:
396,200,22502,5,8,3:2:0:0:
208,97,22733,1,8,3:2:0:0:
290,98,22848,1,8,3:2:0:0:
80,40,22963,1,8,3:2:0:0:
10,43,23078,1,8,3:2:0:0:
216,48,23194,1,8,3:2:0:0:
399,44,23310,1,8,3:2:0:0:
63,45,23425,6,0,P|50:82|70:311,1,240,4|0,3:0|0:0,0:0:0:0:
284,121,24348,2,0,L|21:195,1,240
429,259,25271,6,0,L|436:3,1,240
217,55,26194,2,0,L|458:126,1,240
130,198,27579,5,4,3:0:0:0:
256,192,27808,12,0,31731,0:0:0:0:
