osu file format v14

[General]
AudioFilename: audio.mp3
AudioLeadIn: 0
PreviewTime: 44245
Countdown: 0
SampleSet: Normal
StackLeniency: 0.5
Mode: 0
LetterboxInBreaks: 0
WidescreenStoryboard: 1

[Editor]
Bookmarks: 22176,33211,44245,55280,66314,77349,88383,99418,110452,121487,132521
DistanceSpacing: 1.1
BeatDivisor: 4
GridSize: 4
TimelineZoom: 1.4

[Metadata]
Title:Neon Rainbow
TitleUnicode:Neon Rainbow
Artist:Rameses B feat. Anna Yvette
ArtistUnicode:Rameses B feat. Anna Yvette
Creator:Seynar
Version:Light Insane
Source:
Tags:Monstercat DnB Dubstep Drumstep Electronic
BeatmapID:1017186
BeatmapSetID:447093

[Difficulty]
HPDrainRate:6
CircleSize:4
OverallDifficulty:7
ApproachRate:9
SliderMultiplier:1.6
SliderTickRate:1

[Events]
//Background and Video events
0,0,"big_df0a494ea16f325d57094b794133762a1f26e5ba.jpg",0,0
//Break Periods
//Storyboard Layer 0 (Background)
//Storyboard Layer 1 (Fail)
//Storyboard Layer 2 (Pass)
//Storyboard Layer 3 (Foreground)
//Storyboard Sound Samples

[TimingPoints]
22177,344.827586206897,4,1,1,50,1,0
33211,-90.9090909090909,4,1,1,60,0,0
44245,-90.9090909090909,4,1,1,80,0,1
66314,-90.9090909090909,4,1,1,60,0,0
77349,-90.9090909090909,4,1,1,70,0,0
88383,-90.9090909090909,4,1,1,50,0,0
121487,-90.9090909090909,4,1,1,60,0,0

[Colours]
Combo1 : 0,0,255
Combo2 : 255,0,0
Combo3 : 128,0,255

[HitObjects]
297,167,22176,6,0,L|451:90,2,160,8|0|8,0:0|0:0|0:0,0:0:0:0:
222,198,23211,2,0,P|150:182|122:158,1,80,0|0,0:0|0:0,0:0:0:0:
201,121,23728,2,0,P|273:137|301:161,1,80,0|0,0:0|0:0,0:0:0:0:
337,192,24245,1,8,0:0:0:0:
260,274,24590,1,0,0:0:0:0:
151,207,24935,5,8,0:0:0:0:
286,121,25280,1,0,0:0:0:0:
446,116,25625,1,8,0:0:0:0:
372,258,25970,2,0,L|336:329,1,80,0|0,0:0|0:0,0:0:0:0:
281,271,26487,2,0,L|245:199,1,80,0|0,0:0|0:0,0:0:0:0:
405,192,27004,1,8,0:0:0:0:
204,267,27694,5,8,0:0:0:0:
275,123,28039,1,0,0:0:0:0:
286,282,28383,1,8,0:0:0:0:
193,150,28728,2,0,P|146:114|89:103,1,80,0|0,0:0|0:0,0:0:0:0:
122,267,29245,2,0,P|151:293|188:309,1,80,0|0,0:0|0:0,0:0:0:0:
277,217,29763,1,8,0:0:0:0:
361,121,30108,1,0,0:0:0:0:
317,308,30452,5,8,0:0:0:0:
416,253,30797,1,0,0:0:0:0:
369,151,31142,1,8,0:0:0:0:
241,139,31487,2,0,P|252:197|289:230,1,80,0|0,0:0|0:0,0:0:0:0:
443,46,32004,2,0,P|387:26|340:42,1,80,0|0,0:0|0:0,0:0:0:0:
291,132,32521,1,8,0:0:0:0:
165,106,32866,1,0,0:0:0:0:
144,188,33039,1,0,0:0:0:0:
144,188,33125,1,0,0:0:0:0:
144,188,33211,6,0,L|239:153,1,88.000002685547,8|0,0:0|0:0,0:0:0:0:
376,102,33556,1,0,0:0:0:0:
288,208,33728,1,0,0:0:0:0:
301,129,33901,2,0,P|281:93|231:78,1,88.000002685547,8|0,0:0|0:0,0:0:0:0:
163,105,34245,1,0,0:0:0:0:
150,184,34418,2,0,P|170:220|220:235,1,88.000002685547
287,207,34763,6,0,L|382:172,2,88.000002685547,0|0|0,0:0|0:0|0:0,0:0:0:0:
313,117,35280,2,0,L|390:51,1,88.000002685547,8|0,0:0|0:0,0:0:0:0:
428,124,35625,2,0,L|505:58,1,88.000002685547,0|0,0:0|0:0,0:0:0:0:
490,175,35970,6,0,P|457:203|414:203,1,88.000002685547,8|0,0:0|0:0,0:0:0:0:
366,73,36314,1,0,0:0:0:0:
428,124,36487,1,0,0:0:0:0:
354,151,36659,2,0,P|313:136|291:99,1,88.000002685547,8|0,0:0|0:0,0:0:0:0:
303,21,37004,1,0,0:0:0:0:
214,127,37177,2,0,P|193:164|201:207,1,88.000002685547,0|8,0:0|0:0,0:0:0:0:
261,258,37521,6,0,P|282:220|274:178,1,88.000002685547,0|0,0:0|0:0,0:0:0:0:
226,49,37866,1,0,0:0:0:0:
138,156,38039,1,12,0:0:0:0:
156,281,38728,6,0,L|260:261,1,88.000002685547,8|0,0:0|0:0,0:0:0:0:
179,198,39073,2,0,L|75:178,1,88.000002685547,8|0,0:0|0:0,0:0:0:0:
247,145,39418,2,0,L|351:125,1,88.000002685547,8|0,0:0|0:0,0:0:0:0:
270,62,39763,2,0,L|166:42,1,88.000002685547,8|0,0:0|0:0,0:0:0:0:
114,83,40108,6,0,P|94:145|128:181,1,88.000002685547,8|0,0:0|0:0,0:0:0:0:
45,226,40452,2,0,P|107:246|143:212,1,88.000002685547,8|0,0:0|0:0,0:0:0:0:
187,295,40797,2,0,P|207:233|173:197,1,88.000002685547,8|0,0:0|0:0,0:0:0:0:
256,151,41141,2,0,P|194:131|158:165,1,88.000002685547,8|0,0:0|0:0,0:0:0:0:
131,204,41487,6,0,L|104:268,3,44.0000013427735,8|0|8|0,0:0|0:0|0:0|0:0,0:0:0:0:
177,250,41832,2,0,L|204:314,3,44.0000013427735,8|0|8|0,0:0|0:0|0:0|0:0,0:0:0:0:
264,204,42177,2,0,L|237:268,3,44.0000013427735,8|0|8|0,0:0|0:0|0:0|0:0,0:0:0:0:
310,250,42522,2,0,L|337:314,3,44.0000013427735,8|0|8|0,0:0|0:0|0:0|0:0,0:0:0:0:
365,299,42866,6,0,B|392:228|454:230|492:154,1,176.000005371094,12|0,0:0|0:0,0:0:0:0:
468,92,43383,1,0,0:0:0:0:
418,29,43556,2,0,L|323:39,1,88.000002685547,8|0,0:0|0:0,0:0:0:0:
251,48,43901,2,2,L|186:55,3,44.0000013427735
177,75,44245,6,0,P|155:112|163:154,1,88.000002685547,12|0,0:0|0:0,0:0:0:0:
226,205,44590,1,0,0:0:0:0:
239,126,44763,1,0,0:0:0:0:
301,177,44935,2,0,P|309:219|287:256,1,88.000002685547,8|0,0:0|0:0,0:0:0:0:
165,153,45280,1,0,0:0:0:0:
313,99,45452,2,0,P|353:113|374:150,1,88.000002685547,0|8,0:0|0:0,0:0:0:0:
348,308,45797,5,0,0:0:0:0:
435,200,45970,2,0,P|457:163|449:121,1,88.000002685547,0|0,0:0|0:0,0:0:0:0:
313,99,46314,1,8,0:0:0:0:
374,151,46487,1,0,0:0:0:0:
325,21,46659,2,2,P|281:20|249:48,1,88.000002685547
201,117,47004,5,8,0:0:0:0:
329,73,47177,1,0,0:0:0:0:
252,184,47349,1,0,0:0:0:0:
331,156,47522,1,0,0:0:0:0:
249,48,47694,2,0,P|205:29|158:48,1,88.000002685547,8|0,0:0|0:0,0:0:0:0:
80,146,48039,5,0,0:0:0:0:
129,276,48211,2,0,P|150:313|190:327,1,88.000002685547,0|8,0:0|0:0,0:0:0:0:
340,271,48556,2,0,P|318:233|278:219,1,88.000002685547,0|0,0:0|0:0,0:0:0:0:
204,247,48901,1,0,0:0:0:0:
265,299,49073,1,8,0:0:0:0:
352,192,49245,1,0,0:0:0:0:
204,247,49418,2,2,L|104:286,1,88.000002685547
278,219,49763,6,0,L|359:187,1,88.000002685547,8|0,0:0|0:0,0:0:0:0:
509,131,50108,1,0,0:0:0:0:
385,29,50280,1,0,0:0:0:0:
434,159,50452,2,0,P|442:201|420:238,1,88.000002685547,8|0,0:0|0:0,0:0:0:0:
373,107,50797,2,0,P|405:78|448:79,1,88.000002685547,0|0,0:0|0:0,0:0:0:0:
509,131,51142,5,8,0:0:0:0:
359,187,51314,2,0,P|318:172|297:135,1,88.000002685547,0|0,0:0|0:0,0:0:0:0:
309,55,51659,1,0,0:0:0:0:
221,162,51832,1,8,0:0:0:0:
371,106,52004,1,0,0:0:0:0:
235,82,52177,2,2,P|192:81|160:110,1,88.000002685547
134,267,52521,5,8,0:0:0:0:
284,211,52694,1,0,0:0:0:0:
222,160,52866,1,0,0:0:0:0:
209,239,53039,1,0,0:0:0:0:
359,184,53211,1,8,0:0:0:0:
310,54,53383,1,0,0:0:0:0:
284,212,53556,2,0,P|304:249|345:262,1,88.000002685547
359,184,53901,5,8,0:0:0:0:
298,132,54073,2,0,P|255:130|224:159,1,88.000002685547
210,239,54418,2,0,L|195:334,2,88.000002685547,0|8|0,0:0|0:0|0:0,0:0:0:0:
223,160,54935,1,2,0:0:0:0:
236,142,55021,1,2,0:0:0:0:
255,131,55107,1,2,0:0:0:0:
276,127,55193,1,2,0:0:0:0:
298,132,55280,6,0,P|338:146|361:183,1,88.000002685547,12|0,0:0|0:0,0:0:0:0:
347,262,55625,1,0,0:0:0:0:
423,234,55797,1,0,0:0:0:0:
335,341,55970,1,8,0:0:0:0:
485,285,56142,1,0,0:0:0:0:
347,262,56314,2,0,P|307:248|286:209,1,88.000002685547,0|0,0:0|0:0,0:0:0:0:
374,102,56659,5,8,0:0:0:0:
436,153,56832,2,0,P|403:180|359:179,1,88.000002685547,0|0,0:0|0:0,0:0:0:0:
237,79,57177,1,0,0:0:0:0:
211,237,57349,1,8,0:0:0:0:
299,130,57521,1,0,0:0:0:0:
150,185,57694,2,2,L|59:217,1,88.000002685547
127,266,58039,6,0,L|210:236,1,88.000002685547,8|0,0:0|0:0,0:0:0:0:
358,180,58383,1,0,0:0:0:0:
284,208,58556,1,0,0:0:0:0:
371,102,58728,1,8,0:0:0:0:
297,130,58901,1,0,0:0:0:0:
419,230,59073,2,0,P|386:257|342:256,1,88.000002685547,0|0,0:0|0:0,0:0:0:0:
223,158,59418,5,8,0:0:0:0:
371,102,59590,2,0,P|377:144|355:181,1,88.000002685547,0|0,0:0|0:0,0:0:0:0:
284,208,59935,1,0,0:0:0:0:
149,186,60108,2,0,P|142:143|164:106,1,88.000002685547,8|0,0:0|0:0,0:0:0:0:
236,80,60452,1,2,0:0:0:0:
257,84,60538,1,2,0:0:0:0:
276,95,60624,1,2,0:0:0:0:
289,112,60710,1,2,0:0:0:0:
297,130,60797,6,0,P|303:172|281:209,1,88.000002685547,12|0,0:0|0:0,0:0:0:0:
206,237,61142,2,0,P|200:195|222:158,1,88.000002685547,0|0,0:0|0:0,0:0:0:0:
371,102,61487,1,8,0:0:0:0:
432,152,61659,1,0,0:0:0:0:
358,180,61832,2,0,P|318:168|296:125,1,88.000002685547,0|0,0:0|0:0,0:0:0:0:
310,52,62177,5,8,0:0:0:0:
384,24,62349,2,0,P|424:36|446:79,1,88.000002685547,0|0,0:0|0:0,0:0:0:0:
419,230,62694,1,0,0:0:0:0:
371,102,62866,1,8,0:0:0:0:
432,152,63039,1,0,0:0:0:0:
284,208,63211,2,2,L|193:242,1,88.000002685547
115,259,63556,6,0,L|53:269,3,44.0000013427735,8|0|8|0,0:0|0:0|0:0|0:0,0:0:0:0:
164,180,63901,2,0,L|102:168,3,44.0000013427735,8|0|8|0,0:0|0:0|0:0|0:0,0:0:0:0:
237,122,64245,2,0,L|183:89,3,44.0000013427735,8|0|8|0,0:0|0:0|0:0|0:0,0:0:0:0:
325,92,64590,2,0,L|285:43,3,44.0000013427735,8|0|8|0,0:0|0:0|0:0|0:0,0:0:0:0:
417,93,64935,6,0,P|446:167|452:205,1,88.000002685547,8|0,0:0|0:0,0:0:0:0:
405,252,65280,2,0,P|326:240|290:226,1,88.000002685547,0|0,0:0|0:0,0:0:0:0:
235,207,65625,1,8,0:0:0:0:
232,118,65797,1,0,0:0:0:0:
232,118,65883,1,0,0:0:0:0:
232,118,65970,2,2,P|281:55|311:31,1,88.000002685547
374,35,66314,6,0,P|414:47|454:83,1,88.000002685547,12|0,0:0|0:0,0:0:0:0:
369,114,66659,2,0,P|397:144|414:195,1,88.000002685547,0|0,0:0|0:0,0:0:0:0:
325,179,67004,2,0,P|334:219|323:272,1,88.000002685547,0|0,0:0|0:0,0:0:0:0:
254,214,67349,2,0,P|242:254|206:294,1,88.000002685547,0|0,0:0|0:0,0:0:0:0:
138,317,67694,5,8,0:0:0:0:
151,239,67866,1,0,0:0:0:0:
77,267,68039,2,0,P|72:225|94:187,1,88.000002685547,0|0,0:0|0:0,0:0:0:0:
286,261,68383,1,0,0:0:0:0:
212,289,68556,1,0,0:0:0:0:
225,211,68728,2,0,P|260:186|309:185,1,88.000002685547,0|0,0:0|0:0,0:0:0:0:
421,284,69073,5,8,0:0:0:0:
347,312,69245,1,0,0:0:0:0:
360,234,69418,1,0,0:0:0:0:
363,214,69504,1,0,0:0:0:0:
367,195,69590,1,0,0:0:0:0:
370,176,69676,1,0,0:0:0:0:
373,156,69763,6,0,P|352:120|312:100,1,88.000002685547,0|0,0:0|0:0,0:0:0:0:
384,52,70108,2,0,P|320:28|278:32,1,88.000002685547,0|0,0:0|0:0,0:0:0:0:
139,26,70452,2,0,P|167:57|209:58,1,88.000002685547,8|0,0:0|0:0,0:0:0:0:
238,133,70797,2,0,P|214:168|224:209,1,88.000002685547,0|0,0:0|0:0,0:0:0:0:
346,310,71142,1,0,0:0:0:0:
198,366,71314,1,0,0:0:0:0:
285,260,71487,2,0,P|308:224|298:183,1,88.000002685547,0|0,0:0|0:0,0:0:0:0:
177,83,71832,5,8,0:0:0:0:
225,211,72004,1,0,0:0:0:0:
164,161,72177,1,0,0:0:0:0:
373,155,72349,1,0,0:0:0:0:
237,133,72521,2,0,P|194:130|163:159,1,88.000002685547,0|0,0:0|0:0,0:0:0:0:
298,183,72866,2,0,P|321:147|311:106,1,88.000002685547,0|0,0:0|0:0,0:0:0:0:
225,211,73211,6,0,P|297:263|372:210,1,176.000005371094,8|0,0:0|0:0,0:0:0:0:
310,105,73728,2,0,P|238:53|163:106,1,176.000005371094,0|0,0:0|0:0,0:0:0:0:
132,170,74245,1,0,0:0:0:0:
269,269,74590,6,0,B|343:318|327:252|424:310,2,132.00000402832,8|0|0,0:0|0:0|0:0,0:0:0:0:
192,224,75280,2,0,B|118:175|134:241|37:183,2,132.00000402832,0|0|0,0:0|0:0|0:0,0:0:0:0:
280,223,75970,2,0,P|408:165|431:128,1,176.000005371094,8|0,0:0|0:0,0:0:0:0:
448,54,76487,1,0,0:0:0:0:
360,56,76659,6,8,L|288:56,3,44.0000013427735,8|8|8|8,3:0|3:0|3:0|3:0,3:0:0:0:
272,108,77004,2,8,L|200:119,3,44.0000013427735,8|8|8|8,3:0|3:0|3:0|3:0,3:0:0:0:
185,161,77349,6,12,P|161:196|171:237,1,88.000002685547,0|0,0:0|0:0,0:0:0:0:
254,341,77694,1,0,0:0:0:0:
244,211,77866,1,0,0:0:0:0:
175,322,78038,1,0,0:0:0:0:
297,274,78211,1,0,0:0:0:0:
171,238,78383,6,0,P|128:235|97:265,1,88.000002685547,0|0,0:0|0:0,0:0:0:0:
232,288,78728,1,8,0:0:0:0:
184,160,78901,1,0,0:0:0:0:
245,210,79073,2,0,P|268:174|258:132,1,88.000002685547,0|0,0:0|0:0,0:0:0:0:
171,238,79418,1,0,0:0:0:0:
158,316,79590,2,0,P|177:354|218:365,1,88.000002685547,0|0,0:0|0:0,0:0:0:0:
367,310,79935,1,0,0:0:0:0:
245,210,80108,5,8,0:0:0:0:
293,338,80280,1,0,0:0:0:0:
380,232,80452,1,0,0:0:0:0:
232,288,80625,2,0,P|190:277|171:239,1,88.000002685547,0|0,0:0|0:0,0:0:0:0:
197,82,80970,1,0,0:0:0:0:
97,267,81142,1,0,0:0:0:0:
184,160,81314,1,0,0:0:0:0:
232,288,81487,5,8,0:0:0:0:
332,104,81659,1,0,0:0:0:0:
245,210,81832,1,0,0:0:0:0:
393,154,82004,2,0,P|415:118|403:77,1,88.000002685547,0|0,0:0|0:0,0:0:0:0:
271,54,82349,1,0,0:0:0:0:
345,26,82521,1,0,0:0:0:0:
319,182,82694,2,0,P|338:219|380:229,1,88.000002685547,0|8,0:0|0:0,0:0:0:0:
467,126,83039,5,0,0:0:0:0:
332,104,83211,2,0,P|290:101|260:133,1,88.000002685547,0|0,0:0|0:0,0:0:0:0:
233,289,83556,1,0,0:0:0:0:
233,289,83728,1,0,0:0:0:0:
381,233,83901,1,0,0:0:0:0:
246,211,84073,2,0,P|204:208|174:240,1,88.000002685547,0|8,0:0|0:0,0:0:0:0:
160,318,84418,5,0,0:0:0:0:
25,296,84590,1,0,0:0:0:0:
51,140,84763,2,0,P|80:108|123:110,1,88.000002685547,0|0,0:0|0:0,0:0:0:0:
99,268,85108,1,0,0:0:0:0:
112,190,85280,2,0,P|153:199|173:237,1,88.000002685547,0|0,0:0|0:0,0:0:0:0:
160,318,85625,6,0,B|193:318|208:311|223:303|241:291|252:280|258:261|261:235|256:213|246:197|240:188|235:178|237:162|243:152|250:144|259:137|267:134|313:127,1,264.000008056641,8|0,0:0|0:0,0:0:0:0:
299,128,86228,1,0,0:0:0:0:
311,125,86314,2,0,L|408:99,2,88.000002685547,0|0|0,0:0|0:0|0:0,0:0:0:0:
183,163,87004,6,0,B|69:171|55:75,2,176.000005371094,8|0|0,0:0|0:0|0:0,0:0:0:0:
267,136,87866,1,8,0:0:0:0:
349,105,88039,1,8,0:0:0:0:
349,105,88125,1,8,0:0:0:0:
349,105,88211,1,8,0:0:0:0:
256,192,88383,12,8,91142,0:0:0:0:
311,143,91487,5,0,0:0:0:0:
224,249,91832,1,0,0:0:0:0:
176,121,92177,2,0,P|133:119|92:149,1,88.000002685547,0|0,0:0|0:0,0:0:0:0:
144,270,92694,2,0,P|186:271|228:242,1,88.000002685547,0|0,0:0|0:0,0:0:0:0:
310,142,93211,6,0,L|366:73,1,88.000002685547,0|0,0:0|0:0,0:0:0:0:
427,124,93556,2,0,L|370:191,1,88.000002685547,0|0,0:0|0:0,0:0:0:0:
223,248,93901,5,8,0:0:0:0:
236,170,94073,1,0,0:0:0:0:
323,64,94245,2,0,P|364:75|383:117,1,88.000002685547,0|0,0:0|0:0,0:0:0:0:
371,192,94590,1,0,0:0:0:0:
297,220,94763,1,0,0:0:0:0:
162,198,94935,2,0,P|151:156|177:119,1,88.000002685547,0|0,0:0|0:0,0:0:0:0:
249,92,95280,5,8,0:0:0:0:
310,142,95452,1,0,0:0:0:0:
358,270,95625,2,0,P|327:300|282:295,1,88.000002685547,0|0,0:0|0:0,0:0:0:0:
236,170,95970,1,0,0:0:0:0:
297,220,96142,1,0,0:0:0:0:
371,192,96314,2,2,P|394:156|383:115,1,88.000002685547
312,61,96659,5,8,0:0:0:0:
183,29,96832,1,0,0:0:0:0:
238,89,97004,1,0,0:0:0:0:
110,125,97177,1,0,0:0:0:0:
225,167,97349,1,0,0:0:0:0:
132,262,97522,1,0,0:0:0:0:
287,216,97694,2,0,P|310:180|299:139,1,88.000002685547,0|0,0:0|0:0,0:0:0:0:
177,39,98039,5,8,0:0:0:0:
312,61,98211,2,0,P|353:71|373:109,1,88.000002685547,0|0,0:0|0:0,0:0:0:0:
347,265,98556,1,0,0:0:0:0:
408,315,98728,2,0,P|450:316|480:286,1,88.000002685547,0|0,0:0|0:0,0:0:0:0:
432,158,99073,2,2,P|389:156|359:186,1,88.000002685547
309,259,99418,6,0,B|289:273|273:281|259:286|244:286|225:284|203:270|195:257|192:234|196:215|200:200|200:200|186:204|169:210|149:211|129:210|108:200|98:185|96:166|95:134|110:116|124:102|144:85,1,352.000010742188,8|0,0:0|0:0,0:0:0:0:
195,59,100280,2,0,P|252:52|306:65,2,88.000002685547,0|0|0,0:0|0:0|0:0,0:0:0:0:
243,132,100797,6,0,P|286:136|329:129,1,88.000002685547,8|0,0:0|0:0,0:0:0:0:
362,47,101142,2,0,P|408:88|411:142,1,88.000002685547,0|0,0:0|0:0,0:0:0:0:
416,199,101487,2,0,P|374:245|320:248,1,88.000002685547,0|0,0:0|0:0,0:0:0:0:
265,230,101832,2,2,P|306:183|360:180,1,88.000002685547
342,301,102177,6,0,L|240:336,1,88.000002685547,8|0,0:0|0:0,0:0:0:0:
195,267,102521,2,0,L|93:232,1,88.000002685547,0|0,0:0|0:0,0:0:0:0:
103,145,102866,2,0,L|47:52,1,88.000002685547,0|0,0:0|0:0,0:0:0:0:
145,59,103211,2,0,L|190:134,1,88.000002685547,0|0,0:0|0:0,0:0:0:0:
237,209,103556,5,8,0:0:0:0:
372,231,103728,2,0,P|395:194|377:142,1,88.000002685547,0|0,0:0|0:0,0:0:0:0:
250,131,104073,1,0,0:0:0:0:
298,259,104245,2,0,P|318:297|372:307,1,88.000002685547,0|0,0:0|0:0,0:0:0:0:
311,181,104590,2,2,P|267:179|231:221,1,88.000002685547
224,287,104935,5,8,0:0:0:0:
372,231,105108,1,0,0:0:0:0:
311,181,105280,1,0,0:0:0:0:
385,153,105452,1,0,0:0:0:0:
298,259,105625,5,0,0:0:0:0:
446,203,105798,1,0,0:0:0:0:
385,153,105970,1,0,0:0:0:0:
459,125,106142,1,0,0:0:0:0:
324,103,106314,6,0,P|301:140|319:191,1,88.000002685547,8|0,0:0|0:0,0:0:0:0:
432,281,106659,1,0,0:0:0:0:
385,153,106832,1,0,0:0:0:0:
298,259,107004,2,0,P|256:245|236:194,1,88.000002685547,0|0,0:0|0:0,0:0:0:0:
323,103,107349,1,0,0:0:0:0:
310,181,107521,1,0,0:0:0:0:
249,131,107694,6,0,L|186:78,3,44.0000013427735,8|0|8|0,0:0|0:0|0:0|0:0,0:0:0:0:
161,173,108039,2,0,L|237:200,3,44.0000013427735,8|0|8|0,0:0|0:0|0:0|0:0,0:0:0:0:
226,272,108383,2,0,L|307:272,3,44.0000013427735,8|0|8|0,0:0|0:0|0:0|0:0,0:0:0:0:
320,342,108728,2,0,L|396:314,3,44.0000013427735,8|0|8|0,0:0|0:0|0:0|0:0,0:0:0:0:
384,292,109073,5,12,0:0:0:0:
407,158,109245,1,0,0:0:0:0:
310,252,109418,1,0,0:0:0:0:
444,233,109590,1,0,0:0:0:0:
324,170,109763,1,12,0:0:0:0:
188,192,110452,5,12,0:0:0:0:
262,164,110625,2,0,L|314:144,2,44.0000013427735,0|0|0,0:0|0:0|0:0,0:0:0:0:
248,241,110970,2,0,L|207:257,2,44.0000013427735,0|0|0,0:0|0:0|0:0,0:0:0:0:
323,214,111314,1,0,0:0:0:0:
397,186,111487,2,0,L|438:170,2,44.0000013427735,0|0|0,0:0|0:0|0:0,0:0:0:0:
336,136,111832,5,8,0:0:0:0:
458,236,112004,2,0,L|491:264,2,44.0000013427735,0|0|0,0:0|0:0|0:0,0:0:0:0:
310,292,112349,2,0,L|302:335,2,44.0000013427735,0|0|0,0:0|0:0|0:0,0:0:0:0:
336,136,112694,1,0,0:0:0:0:
410,108,112866,2,0,L|451:92,2,44.0000013427735,0|0|0,0:0|0:0|0:0,0:0:0:0:
262,164,113211,5,8,0:0:0:0:
275,86,113383,1,0,0:0:0:0:
276,75,113469,1,0,0:0:0:0:
278,64,113555,1,0,0:0:0:0:
201,114,113728,2,0,L|161:81,2,44.0000013427735,0|0|0,0:0|0:0|0:0,0:0:0:0:
323,214,114073,5,0,0:0:0:0:
200,260,114245,1,0,0:0:0:0:
189,264,114331,1,0,0:0:0:0:
179,268,114417,1,0,0:0:0:0:
323,214,114590,5,8,0:0:0:0:
408,112,114763,1,0,0:0:0:0:
414,103,114849,1,0,0:0:0:0:
421,94,114935,1,0,0:0:0:0:
332,80,115108,2,0,L|338:31,2,44.0000013427735,0|0|0,0:0|0:0|0:0,0:0:0:0:
323,214,115452,2,2,P|343:251|403:261,2,88.000002685547
397,186,115970,6,0,B|379:145|379:145|332:130,1,88.000002685547,12|0,0:0|0:0,0:0:0:0:
309,290,116314,1,0,0:0:0:0:
263,161,116487,2,0,B|253:118|253:118|280:82,1,88.000002685547,0|0,0:0|0:0,0:0:0:0:
341,132,116832,1,0,0:0:0:0:
328,210,117004,2,0,B|298:243|298:243|254:238,1,88.000002685547,0|0,0:0|0:0,0:0:0:0:
176,222,117349,6,0,B|132:212|132:212|114:171,1,88.000002685547,8|0,0:0|0:0,0:0:0:0:
127,94,117694,1,0,0:0:0:0:
250,194,117866,2,0,B|263:237|263:237|236:273,1,88.000002685547,0|0,0:0|0:0,0:0:0:0:
163,300,118211,1,0,0:0:0:0:
189,144,118383,2,0,B|219:110|219:110|264:115,1,88.000002685547,0|0,0:0|0:0,0:0:0:0:
324,166,118728,5,8,0:0:0:0:
385,216,118901,2,0,L|453:271,2,88.000002685547,0|0|0,0:0|0:0|0:0,0:0:0:0:
262,115,119418,2,0,L|193:59,1,88.000002685547,0|0,0:0|0:0,0:0:0:0:
119,87,119763,2,0,L|187:142,1,88.000002685547,0|0,0:0|0:0,0:0:0:0:
249,193,120108,6,0,P|258:235|231:275,1,88.000002685547,0|8,0:0|0:0,0:0:0:0:
161,299,120452,1,0,0:0:0:0:
222,349,120625,2,0,P|264:349|306:319,1,88.000002685547,0|0,0:0|0:0,0:0:0:0:
457,187,120970,2,0,P|425:215|382:214,1,88.000002685547,0|0,0:0|0:0,0:0:0:0:
262,115,121314,1,0,0:0:0:0:
262,115,121401,1,0,0:0:0:0:
261,114,121487,6,0,P|238:150|247:192,1,88.000002685547,12|0,0:0|0:0,0:0:0:0:
396,136,121832,1,0,0:0:0:0:
274,36,122004,1,0,0:0:0:0:
322,164,122177,1,8,0:0:0:0:
261,114,122349,1,0,0:0:0:0:
261,115,122435,1,0,0:0:0:0:
261,115,122521,6,0,P|218:113|182:139,1,88.000002685547,0|0,0:0|0:0,0:0:0:0:
95,244,122866,1,8,0:0:0:0:
217,344,123039,1,0,0:0:0:0:
243,188,123211,1,0,0:0:0:0:
169,216,123383,1,0,0:0:0:0:
169,215,123469,1,0,0:0:0:0:
169,215,123555,6,0,P|188:252|231:267,1,88.000002685547,8|0,0:0|0:0,0:0:0:0:
377,209,123901,2,0,P|356:170|316:156,1,88.000002685547,0|0,0:0|0:0,0:0:0:0:
364,287,124245,2,0,P|406:288|439:260,1,88.000002685547,8|0,0:0|0:0,0:0:0:0:
442,255,124504,1,0,0:0:0:0:
444,251,124590,1,0,0:0:0:0:
451,181,124763,6,0,P|430:144|390:129,1,88.000002685547,0|8,0:0|0:0,0:0:0:0:
242,184,125108,1,0,0:0:0:0:
268,28,125280,1,0,0:0:0:0:
316,156,125452,1,0,0:0:0:0:
194,56,125625,6,0,P|152:55|119:83,1,88.000002685547,8|0,0:0|0:0,0:0:0:0:
181,134,125970,1,0,0:0:0:0:
242,184,126142,2,0,P|209:212|166:211,1,88.000002685547,0|8,0:0|0:0,0:0:0:0:
105,161,126487,2,2,P|137:132|180:133,2,88.000002685547
92,239,127004,5,8,0:0:0:0:
79,317,127176,1,0,0:0:0:0:
166,211,127349,1,8,0:0:0:0:
227,261,127521,1,0,0:0:0:0:
314,155,127694,1,8,0:0:0:0:
288,311,127866,1,0,0:0:0:0:
240,183,128039,1,8,0:0:0:0:
375,205,128211,1,0,0:0:0:0:
318,72,128383,6,0,L|295:19,3,44.0000013427735,8|0|8|0,0:0|0:0|0:0|0:0,0:0:0:0:
228,66,128728,2,0,L|174:44,3,44.0000013427735,8|0|8|0,0:0|0:0|0:0|0:0,0:0:0:0:
160,125,129073,2,0,L|107:148,3,44.0000013427735,8|0|8|0,0:0|0:0|0:0|0:0,0:0:0:0:
153,214,129418,2,0,L|131:267,3,44.0000013427735,8|0|8|0,0:0|0:0|0:0|0:0,0:0:0:0:
173,279,129763,6,0,P|232:314|278:320,1,88.000002685547,12|0,0:0|0:0,0:0:0:0:
319,262,130108,2,0,P|319:193|302:150,1,88.000002685547,0|0,0:0|0:0,0:0:0:0:
235,136,130452,2,0,P|234:204|251:247,1,88.000002685547,8|0,0:0|0:0,0:0:0:0:
313,90,130797,2,0,P|254:55|208:48,1,88.000002685547,0|0,0:0|0:0,0:0:0:0:
156,89,131142,6,0,B|130:174|130:174|188:263,1,176.000005371094,8|0,0:0|0:0,0:0:0:0:
268,247,131659,1,0,0:0:0:0:
356,245,131832,2,0,B|406:168|406:168|374:89,1,176.000005371094,0|8,0:0|0:0,0:0:0:0:
372,85,132263,1,8,0:0:0:0:
370,80,132349,1,8,0:0:0:0:
311,166,132521,5,12,0:0:0:0:
