osu file format v14

[General]
AudioFilename: audio.mp3
AudioLeadIn: 0
PreviewTime: 44245
Countdown: 0
SampleSet: Normal
StackLeniency: 0.5
Mode: 0
LetterboxInBreaks: 0
WidescreenStoryboard: 1

[Editor]
Bookmarks: 22176,33211,44245,55280,66314,77349,88383,99418,110452,121487,132521
DistanceSpacing: 1.1
BeatDivisor: 4
GridSize: 4
TimelineZoom: 1.4

[Metadata]
Title:Neon Rainbow
TitleUnicode:Neon Rainbow
Artist:Rameses B feat. Anna Yvette
ArtistUnicode:Rameses B feat. Anna Yvette
Creator:Seynar
Version:Hard
Source:
Tags:Monstercat DnB Dubstep Drumstep Electronic
BeatmapID:963101
BeatmapSetID:447093

[Difficulty]
HPDrainRate:5
CircleSize:3.8
OverallDifficulty:6
ApproachRate:7.5
SliderMultiplier:1.5
SliderTickRate:1

[Events]
//Background and Video events
0,0,"big_df0a494ea16f325d57094b794133762a1f26e5ba.jpg",0,0
//Break Periods
2,91342,93076
//Storyboard Layer 0 (Background)
//Storyboard Layer 1 (Fail)
//Storyboard Layer 2 (Pass)
//Storyboard Layer 3 (Foreground)
//Storyboard Sound Samples

[TimingPoints]
22177,344.827586206897,4,1,1,50,1,0
33211,-100,4,1,1,60,0,0
44245,-100,4,1,1,80,0,1
66314,-100,4,1,1,60,0,0
77349,-100,4,1,1,70,0,0
88383,-100,4,1,1,50,0,0
121487,-100,4,1,1,60,0,0

[Colours]
Combo1 : 128,0,128
Combo2 : 255,0,0
Combo3 : 0,0,255

[HitObjects]
232,192,22176,6,0,L|378:137,2,150,8|0|8,0:0|0:0|0:0,0:0:0:0:
219,269,23211,2,0,P|205:316|207:350,1,75,0|0,0:0|0:0,0:0:0:0:
279,319,23728,2,0,P|292:271|291:238,1,75,0|0,0:0|0:0,0:0:0:0:
233,189,24245,2,0,P|246:113|327:93,1,150,8|0,0:0|0:0,0:0:0:0:
438,188,24935,5,8,0:0:0:0:
292,242,25280,1,0,0:0:0:0:
318,88,25625,1,8,0:0:0:0:
378,138,25970,2,0,L|363:230,1,75,0|0,0:0|0:0,0:0:0:0:
292,242,26487,2,0,L|304:167,1,75,0|0,0:0|0:0,0:0:0:0:
424,264,27004,1,8,0:0:0:0:
231,191,27694,5,8,0:0:0:0:
244,114,28039,1,0,0:0:0:0:
291,241,28383,1,8,0:0:0:0:
315,168,28728,2,0,L|330:84,1,75,0|0,0:0|0:0,0:0:0:0:
238,192,29245,2,0,P|262:228|302:242,1,75,0|0,0:0|0:0,0:0:0:0:
410,261,29763,1,8,0:0:0:0:
363,134,30108,1,0,0:0:0:0:
213,121,30452,5,8,0:0:0:0:
316,232,30797,2,0,P|429:213|463:179,1,150,0|8,0:0|0:0,0:0:0:0:
371,60,31487,2,0,P|319:32|274:25,1,75,0|0,0:0|0:0,0:0:0:0:
291,166,32004,2,0,P|240:197|212:232,1,75,0|0,0:0|0:0,0:0:0:0:
143,312,32521,1,8,0:0:0:0:
289,258,32866,2,2,P|339:226|367:191,1,75
420,190,33211,6,0,P|383:149|350:139,1,75,8|0,0:0|0:0,0:0:0:0:
415,85,33556,2,0,P|363:68|329:76,1,75,0|0,0:0|0:0,0:0:0:0:
269,58,33901,2,0,P|280:110|303:135,1,75,8|0,0:0|0:0,0:0:0:0:
278,200,34246,2,0,P|330:217|363:209,1,75,0|0,0:0|0:0,0:0:0:0:
444,255,34590,6,0,P|432:201|409:176,1,75,8|0,0:0|0:0,0:0:0:0:
408,82,34935,2,0,P|367:118|357:151,1,75,0|0,0:0|0:0,0:0:0:0:
347,213,35280,1,8,0:0:0:0:
493,159,35625,1,0,0:0:0:0:
373,59,35970,6,0,L|264:37,1,75,8|0,0:0|0:0,0:0:0:0:
319,129,36314,2,0,L|217:147,1,75,0|0,0:0|0:0,0:0:0:0:
364,227,36659,2,0,L|255:205,1,75,8|0,0:0|0:0,0:0:0:0:
217,239,37004,2,0,P|199:290|207:324,1,75,0|0,0:0|0:0,0:0:0:0:
277,289,37349,5,8,0:0:0:0:
336,338,37521,2,0,P|353:286|345:252,1,75,0|0,0:0|0:0,0:0:0:0:
290,212,37866,1,0,0:0:0:0:
217,239,38039,1,8,0:0:0:0:
143,250,38211,1,0,0:0:0:0:
72,225,38383,2,0,P|69:187|84:152,1,75,0|0,0:0|0:0,0:0:0:0:
126,92,38728,5,8,0:0:0:0:
126,92,38901,1,0,0:0:0:0:
195,48,39073,1,0,0:0:0:0:
195,48,39245,1,0,0:0:0:0:
277,50,39418,1,8,0:0:0:0:
277,50,39590,1,0,0:0:0:0:
248,127,39763,1,0,0:0:0:0:
248,127,39935,1,0,0:0:0:0:
167,117,40108,6,0,P|108:145|96:167,1,75,8|0,0:0|0:0,0:0:0:0:
111,232,40452,2,0,P|170:204|182:182,1,75,8|0,0:0|0:0,0:0:0:0:
239,147,40797,2,0,B|257:114|257:114|318:86,1,75,8|0,0:0|0:0,0:0:0:0:
311,180,41142,2,0,B|293:213|293:213|232:241,1,75,8|0,0:0|0:0,0:0:0:0:
186,255,41487,5,8,0:0:0:0:
199,178,41659,1,8,0:0:0:0:
259,228,41832,2,8,P|262:270|234:318,1,75,8|8,0:0|0:0,0:0:0:0:
173,332,42177,1,8,0:0:0:0:
113,282,42349,1,8,0:0:0:0:
126,205,42521,2,8,P|160:181|216:181,1,75,8|8,0:0|0:0,0:0:0:0:
266,192,42866,6,12,B|361:234|304:248|403:283,1,150,0|0,0:0|0:0,0:0:0:0:
459,257,43383,2,0,P|414:207|383:200,1,75,0|8,0:0|0:0,0:0:0:0:
356,150,43728,1,0,0:0:0:0:
288,116,43901,2,2,L|239:89,3,37.5
220,83,44245,6,0,P|123:72|75:87,1,150,12|0,0:0|0:0,0:0:0:0:
61,164,44763,1,0,0:0:0:0:
48,241,44935,2,0,P|87:238|131:197,1,75,8|0,0:0|0:0,0:0:0:0:
134,137,45280,2,0,P|165:116|202:114,1,75,0|0,0:0|0:0,0:0:0:0:
242,186,45625,6,0,P|279:183|310:163,2,75,8|0|0,0:0|0:0|0:0,0:0:0:0:
178,238,46142,2,0,B|152:204|163:158,2,75,0|8|0,0:0|0:0|0:0,0:0:0:0:
230,302,46659,2,2,B|270:316|310:282,1,75
327,210,47004,6,0,L|407:180,1,75,8|0,0:0|0:0,0:0:0:0:
353,56,47349,2,0,L|338:140,1,75,0|0,0:0|0:0,0:0:0:0:
473,156,47694,2,0,L|407:101,1,75,8|0,0:0|0:0,0:0:0:0:
280,83,48039,1,0,0:0:0:0:
400,183,48211,6,0,P|438:179|472:156,1,75,0|8,0:0|0:0,0:0:0:0:
415,108,48556,1,0,0:0:0:0:
342,135,48728,2,0,P|325:170|328:211,1,75,0|0,0:0|0:0,0:0:0:0:
391,256,49073,1,8,0:0:0:0:
373,332,49245,1,0,0:0:0:0:
313,282,49418,2,2,P|277:265|236:268,1,75
167,275,49763,6,0,B|153:240|153:240|190:209,1,75,8|0,0:0|0:0,0:0:0:0:
255,189,50108,2,0,L|331:161,1,75,0|0,0:0|0:0,0:0:0:0:
341,85,50452,2,0,L|270:110,1,75,8|0,0:0|0:0,0:0:0:0:
201,211,50797,1,0,0:0:0:0:
271,186,50970,1,0,0:0:0:0:
198,89,51142,1,8,0:0:0:0:
155,150,51314,6,0,B|121:183|128:222,1,75,0|0,0:0|0:0,0:0:0:0:
134,229,51659,1,0,0:0:0:0:
181,287,51832,1,8,0:0:0:0:
244,326,52004,2,0,B|284:324|310:283,2,75,0|2|2,0:0|0:0|0:0,0:0:0:0:
109,327,52521,6,0,B|131:362|171:364,1,75,8|0,0:0|0:0,0:0:0:0:
181,287,52866,1,0,0:0:0:0:
248,254,53039,1,0,0:0:0:0:
308,210,53211,1,8,0:0:0:0:
311,135,53383,1,0,0:0:0:0:
243,168,53556,2,0,B|205:154|186:121,1,75,0|0,0:0|0:0,0:0:0:0:
228,16,53901,5,8,0:0:0:0:
332,55,54073,2,0,B|338:94|319:127,1,75,0|0,0:0|0:0,0:0:0:0:
269,192,54418,1,0,0:0:0:0:
395,152,54590,2,0,B|381:190|348:209,1,75,8|0,0:0|0:0,0:0:0:0:
218,259,54935,2,2,L|161:279,3,37.5
148,284,55280,6,0,P|111:268|90:231,1,75,12|0,0:0|0:0,0:0:0:0:
174,130,55625,1,0,0:0:0:0:
101,157,55797,1,0,0:0:0:0:
234,180,55970,2,0,P|249:145|247:107,1,75,8|0,0:0|0:0,0:0:0:0:
161,207,56314,2,0,P|183:237|217:254,1,75,0|0,0:0|0:0,0:0:0:0:
294,230,56659,1,8,0:0:0:0:
319,81,56832,6,0,P|281:85|249:106,1,75,0|0,0:0|0:0,0:0:0:0:
161,207,57177,1,0,0:0:0:0:
161,207,57349,2,0,P|183:237|217:254,1,75,8|0,0:0|0:0,0:0:0:0:
294,230,57694,2,2,L|346:210,3,37.5
367,203,58039,6,0,P|412:222|425:260,1,75,8|0,0:0|0:0,0:0:0:0:
294,230,58383,2,0,P|275:275|237:288,1,75,0|0,0:0|0:0,0:0:0:0:
255,162,58728,2,0,P|210:143|197:105,1,75,8|0,0:0|0:0,0:0:0:0:
328,135,59072,2,0,P|347:90|385:77,1,75,0|0,0:0|0:0,0:0:0:0:
434,187,59418,1,8,0:0:0:0:
435,312,59590,2,0,P|386:318|356:291,1,75,0|0,0:0|0:0,0:0:0:0:
246,205,59935,5,0,0:0:0:0:
220,359,60108,1,8,0:0:0:0:
306,255,60280,1,0,0:0:0:0:
233,282,60452,2,2,L|197:295,3,37.5
160,309,60797,6,0,P|123:293|102:256,1,75,12|0,0:0|0:0,0:0:0:0:
33,248,61142,2,0,P|49:211|86:190,1,75,0|0,0:0|0:0,0:0:0:0:
92,122,61487,2,0,P|129:138|150:175,1,75,8|0,0:0|0:0,0:0:0:0:
218,182,61832,2,0,P|202:219|165:240,1,75,0|0,0:0|0:0,0:0:0:0:
104,264,62177,1,8,0:0:0:0:
30,275,62349,6,0,P|46:312|83:333,1,75,0|0,0:0|0:0,0:0:0:0:
148,322,62694,1,0,0:0:0:0:
183,256,62866,1,8,0:0:0:0:
148,188,63039,1,0,0:0:0:0:
71,181,63211,2,2,P|68:144|90:99,1,75
167,64,63556,6,0,L|227:45,3,37.5,0|0|8|0,0:0|0:0|0:0|0:0,0:0:0:0:
234,125,63901,2,0,L|296:127,3,37.5,8|0|8|0,0:0|0:0|0:0|0:0,0:0:0:0:
276,205,64245,2,0,L|334:229,3,37.5,8|0|8|0,0:0|0:0|0:0|0:0,0:0:0:0:
288,294,64590,2,0,L|334:336,3,37.5,8|0|8|0,0:0|0:0|0:0|0:0,0:0:0:0:
351,331,64935,6,0,P|398:308|436:275,2,75,12|0|0,0:0|0:0|0:0,0:0:0:0:
275,329,65452,1,0,0:0:0:0:
201,311,65625,2,0,P|157:250|151:230,1,75,8|0,0:0|0:0,0:0:0:0:
136,178,65970,1,2,0:0:0:0:
170,111,66142,1,2,0:0:0:0:
170,111,66228,1,8,0:0:0:0:
170,111,66314,6,0,P|225:85|263:94,1,75,8|0,0:0|0:0,0:0:0:0:
308,64,66659,2,0,P|303:124|276:153,1,75,0|0,0:0|0:0,0:0:0:0:
279,207,67004,2,0,P|228:172|217:134,1,75,0|0,0:0|0:0,0:0:0:0:
237,85,67349,1,0,0:0:0:0:
297,135,67521,1,0,0:0:0:0:
357,185,67694,6,0,L|434:250,1,75,8|0,0:0|0:0,0:0:0:0:
477,285,68039,1,0,0:0:0:0:
331,339,68211,1,0,0:0:0:0:
331,339,68383,2,0,P|293:323|269:281,2,75,0|0|0,0:0|0:0|0:0,0:0:0:0:
406,331,68901,1,0,0:0:0:0:
396,256,69073,6,0,L|384:181,1,75,8|0,0:0|0:0,0:0:0:0:
370,108,69418,1,0,0:0:0:0:
296,135,69590,1,0,0:0:0:0:
284,213,69763,1,0,0:0:0:0:
344,263,69935,1,0,0:0:0:0:
416,226,70108,1,0,0:0:0:0:
470,164,70280,1,0,0:0:0:0:
470,164,70452,6,0,P|486:129|479:77,1,75,8|0,0:0|0:0,0:0:0:0:
410,114,70797,2,0,P|387:82|339:62,1,75,0|0,0:0|0:0,0:0:0:0:
335,140,71142,2,0,P|296:143|255:175,1,75,0|0,0:0|0:0,0:0:0:0:
323,218,71487,1,0,0:0:0:0:
250,245,71659,2,0,P|211:229|190:186,1,75,0|8,0:0|0:0,0:0:0:0:
167,123,72004,1,0,0:0:0:0:
167,123,72177,6,0,B|154:68|154:68|180:29,1,75,0|0,0:0|0:0,0:0:0:0:
252,100,72521,2,0,B|265:155|265:155|239:194,1,75,0|0,0:0|0:0,0:0:0:0:
183,212,72866,2,0,P|223:252|263:253,1,75,0|0,0:0|0:0,0:0:0:0:
320,239,73211,2,0,B|361:202|361:202|363:144|415:125,1,150,8|0,0:0|0:0,0:0:0:0:
442,202,73728,1,0,0:0:0:0:
493,136,73901,2,0,P|496:128|387:53,1,150,0|0,0:0|0:0,0:0:0:0:
341,70,74418,1,0,0:0:0:0:
263,98,74590,6,0,L|133:148,2,112.5,8|0|0,0:0|0:0|0:0,0:0:0:0:
327,149,75280,2,0,L|414:219,2,112.5,0|0|0,0:0|0:0|0:0,0:0:0:0:
262,96,75970,2,0,B|199:42|106:80|106:80,1,150,8|0,0:0|0:0,0:0:0:0:
88,164,76487,1,0,0:0:0:0:
162,198,76659,6,8,L|212:219,3,37.5,8|8|8|8,0:3|0:3|0:3|0:3,0:3:0:0:
211,251,77004,2,8,L|261:272,3,37.5,8|8|8|8,0:3|0:3|0:3|0:3,0:3:0:0:
265,301,77349,6,0,P|312:319|363:321,1,75,12|0,0:0|0:0,0:0:0:0:
418,316,77694,2,0,P|454:311|485:291,1,75,0|0,0:0|0:0,0:0:0:0:
423,236,78039,2,0,P|437:201|435:164,1,75,0|0,0:0|0:0,0:0:0:0:
382,101,78383,1,0,0:0:0:0:
299,95,78556,2,0,P|303:131|323:162,2,75,0|8|0,0:0|0:0|0:0,0:0:0:0:
345,26,79073,1,0,0:0:0:0:
406,80,79245,2,0,B|407:133|407:133|442:167|442:167|443:238,1,150,0|0,0:0|0:0,0:0:0:0:
440,298,79763,1,0,0:0:0:0:
369,255,79935,6,0,B|369:205|369:205|336:172,1,75,0|8,0:0|0:0,0:0:0:0:
286,136,80280,1,0,0:0:0:0:
203,123,80452,2,0,P|211:176|246:203,1,75,0|0,0:0|0:0,0:0:0:0:
316,214,80797,2,0,P|357:180|363:136,1,75,0|0,0:0|0:0,0:0:0:0:
338,70,81142,2,0,P|288:50|247:67,1,75,0|0,0:0|0:0,0:0:0:0:
195,92,81487,1,8,0:0:0:0:
124,133,81659,2,0,L|43:182,2,75,0|0|0,0:0|0:0|0:0,0:0:0:0:
199,167,82177,6,0,B|265:150|268:96|268:96|327:50,1,150,0|0,0:0|0:0,0:0:0:0:
370,23,82694,1,0,0:0:0:0:
449,43,82866,2,0,B|436:103|358:99|324:160,1,150,8|0,0:0|0:0,0:0:0:0:
325,220,83383,1,0,0:0:0:0:
352,298,83556,2,0,P|397:253|403:212,1,75,0|0,0:0|0:0,0:0:0:0:
388,161,83901,1,0,0:0:0:0:
326,106,84073,6,0,L|260:50,2,75,0|8|0,0:0|0:0|0:0,0:0:0:0:
407,81,84590,2,0,P|466:131|469:155,1,75,0|0,0:0|0:0,0:0:0:0:
468,200,84935,1,0,0:0:0:0:
390,228,85108,2,0,P|416:269|465:284,2,75,0|0|0,0:0|0:0|0:0,0:0:0:0:
395,154,85625,6,0,B|316:133|360:80|266:67,1,150,8|0,0:0|0:0,0:0:0:0:
267,143,86142,1,0,0:0:0:0:
283,215,86314,2,0,P|308:261|355:291,1,75,0|0,0:0|0:0,0:0:0:0:
392,308,86659,1,0,0:0:0:0:
333,152,87004,6,0,P|359:62|405:182,1,300,8|0,0:0|0:0,0:0:0:0:
360,230,87866,1,8,0:0:0:0:
284,264,88039,1,8,0:0:0:0:
284,264,88125,1,8,0:0:0:0:
284,264,88211,1,8,0:0:0:0:
256,192,88383,12,8,91142,0:0:0:0:
256,98,93901,6,0,P|305:102|347:142,1,75,8|0,0:0|0:0,0:0:0:0:
280,192,94245,2,0,P|313:208|350:209,1,75,0|0,0:0|0:0,0:0:0:0:
423,156,94590,2,0,P|444:200|430:256,1,75,0|0,0:0|0:0,0:0:0:0:
372,277,94935,2,0,P|350:232|364:176,1,75,0|0,0:0|0:0,0:0:0:0:
379,122,95280,6,0,L|410:46,1,75,8|0,0:0|0:0,0:0:0:0:
296,81,95625,2,0,L|265:5,1,75,0|0,0:0|0:0,0:0:0:0:
200,71,95970,2,0,L|231:147,1,75,0|0,0:0|0:0,0:0:0:0:
311,175,96314,2,0,L|282:244,1,75,0|0,0:0|0:0,0:0:0:0:
198,285,96659,5,8,0:0:0:0:
146,144,97004,1,0,0:0:0:0:
287,92,97349,1,0,0:0:0:0:
338,233,97694,2,0,P|366:273|410:291,1,75,0|0,0:0|0:0,0:0:0:0:
438,144,98211,2,0,P|418:112|387:91,1,75,0|0,0:0|0:0,0:0:0:0:
241,122,98728,2,0,L|169:143,1,75,0|0,0:0|0:0,0:0:0:0:
119,200,99073,2,0,P|116:264|144:291,1,75,0|8,0:0|0:0,0:0:0:0:
120,270,99332,1,8,0:0:0:0:
120,270,99418,6,0,B|193:292|227:295|254:294|278:288|293:279|307:271|312:258|322:246|329:227|340:199|363:187|419:210|432:250|425:289|400:310|380:320|353:326|325:320|312:302|304:284,1,450,12|0,0:0|0:0,0:0:0:0:
256,215,100625,1,0,0:0:0:0:
207,145,100797,6,0,P|176:108|138:77,1,75,8|0,0:0|0:0,0:0:0:0:
86,62,101142,1,0,0:0:0:0:
86,62,101314,1,0,0:0:0:0:
46,126,101487,2,0,P|29:171|21:219,1,75,0|0,0:0|0:0,0:0:0:0:
34,272,101832,1,2,0:0:0:0:
34,272,102004,1,2,0:0:0:0:
108,278,102177,6,0,P|155:269|201:252,1,75,8|0,0:0|0:0,0:0:0:0:
240,215,102522,1,0,0:0:0:0:
240,215,102694,1,0,0:0:0:0:
278,150,102866,2,0,P|321:90|346:76,1,75,0|0,0:0|0:0,0:0:0:0:
386,52,103211,1,0,0:0:0:0:
386,52,103383,1,0,0:0:0:0:
401,125,103556,6,0,L|420:231,1,75,8|0,0:0|0:0,0:0:0:0:
307,163,103901,2,0,L|320:89,1,75,0|0,0:0|0:0,0:0:0:0:
397,42,104245,2,0,L|470:55,2,75,0|0|2,0:0|0:0|0:0,0:0:0:0:
321,45,104763,1,2,0:0:0:0:
246,55,104935,6,0,P|195:81|175:99,1,75,8|0,0:0|0:0,0:0:0:0:
146,158,105280,2,0,P|171:209|189:229,1,75,0|0,0:0|0:0,0:0:0:0:
258,220,105625,2,0,P|232:169|214:149,1,75,0|0,0:0|0:0,0:0:0:0:
181,92,105970,2,0,P|123:89|97:94,1,75,0|0,0:0|0:0,0:0:0:0:
48,160,106314,6,0,L|32:255,1,75,8|0,0:0|0:0,0:0:0:0:
115,267,106659,2,0,L|127:193,1,75,0|0,0:0|0:0,0:0:0:0:
156,107,107004,2,0,B|228:69|228:109|302:77,1,150,0|2,0:0|0:0,0:0:0:0:
382,39,107521,1,2,0:0:0:0:
364,126,107694,6,0,L|417:143,3,37.5,8|0|8|0,0:0|0:0|0:0|0:0,0:0:0:0:
357,183,108039,2,0,L|321:171,3,37.5,8|0|8|0,0:0|0:0|0:0|0:0,0:0:0:0:
354,241,108383,2,0,L|407:258,3,37.5,8|0|8|0,0:0|0:0|0:0|0:0,0:0:0:0:
347,298,108728,2,0,L|311:286,3,37.5,8|0|8|0,0:0|0:0|0:0|0:0,0:0:0:0:
275,299,109073,6,0,L|181:316,1,75,12|0,0:0|0:0,0:0:0:0:
127,350,109418,2,0,P|91:329|67:288,2,75,0|0|12,0:0|0:0|0:0,0:0:0:0:
148,272,110452,6,0,P|125:204|168:125,1,150,12|0,0:0|0:0,0:0:0:0:
214,88,110970,1,0,0:0:0:0:
366,96,111487,6,0,L|463:109,1,75,0|0,0:0|0:0,0:0:0:0:
389,273,112004,6,0,L|314:282,1,75,0|0,0:0|0:0,0:0:0:0:
240,292,112349,1,0,0:0:0:0:
106,225,112866,6,0,B|62:138|134:138|86:48,1,150,0|8,0:0|0:0,0:0:0:0:
170,56,113383,2,0,P|183:108|168:157,1,75,0|0,0:0|0:0,0:0:0:0:
189,203,113728,2,0,P|243:181|262:140,1,75,0|0,0:0|0:0,0:0:0:0:
354,109,114245,6,0,B|400:145|400:145|373:188|373:188|411:216,1,150,0|0,0:0|0:0,0:0:0:0:
470,172,114763,2,0,B|498:128|498:128|455:94,1,75,0|0,0:0|0:0,0:0:0:0:
423,64,115108,2,0,B|374:31|374:31|339:34,1,75,0|0,0:0|0:0,0:0:0:0:
290,63,115452,2,2,L|194:53,2,75
359,93,115970,6,0,P|408:144|422:176,1,75,8|0,0:0|0:0,0:0:0:0:
425,296,116487,1,0,0:0:0:0:
248,156,117004,6,0,B|235:217|248:274|290:308,1,150,0|8,0:0|0:0,0:0:0:0:
351,315,117521,2,0,L|460:338,1,75,0|0,0:0|0:0,0:0:0:0:
461,264,117866,2,0,L|387:248,1,75,0|0,0:0|0:0,0:0:0:0:
280,143,118383,6,0,P|334:90|428:83,1,150,0|8,0:0|0:0,0:0:0:0:
466,121,118901,2,0,P|489:186|489:217,1,75,0|0,0:0|0:0,0:0:0:0:
439,247,119245,2,0,P|416:182|416:151,1,75,0|0,0:0|0:0,0:0:0:0:
346,64,119763,6,0,P|288:67|232:142,1,150,0|8,0:0|0:0,0:0:0:0:
234,209,120280,2,0,P|232:217|276:220,1,75,0|0,0:0|0:0,0:0:0:0:
310,155,120625,2,0,P|342:144|384:149,1,75,0|0,0:0|0:0,0:0:0:0:
443,192,120970,2,0,P|425:220|390:244,1,75,0|0,0:0|0:0,0:0:0:0:
332,287,121314,5,8,0:0:0:0:
332,287,121401,1,8,0:0:0:0:
332,287,121487,2,0,P|286:316|235:318,1,75,8|0,0:0|0:0,0:0:0:0:
132,278,122004,2,0,B|0:162|140:202|13:79,1,225,0|0,0:0|0:0,0:0:0:0:
173,64,122866,1,8,0:0:0:0:
173,64,123039,2,0,P|230:77|262:69,1,75,0|0,0:0|0:0,0:0:0:0:
318,57,123384,2,0,P|355:55|390:67,1,75,0|0,0:0|0:0,0:0:0:0:
429,130,123728,1,0,0:0:0:0:
460,200,123901,1,0,0:0:0:0:
337,304,124245,6,0,B|329:219|250:221|250:221|178:127,1,225,8|0,0:0|0:0,0:0:0:0:
102,160,125280,2,0,L|159:232,1,75,0|0,0:0|0:0,0:0:0:0:
263,292,125797,2,0,P|229:331|181:335,1,75,0|0,0:0|0:0,0:0:0:0:
135,317,126142,2,0,P|118:268|138:224,1,75,0|0,0:0|0:0,0:0:0:0:
156,179,126487,2,2,L|195:103,2,75
199,240,127004,5,8,0:0:0:0:
335,301,127349,1,8,0:0:0:0:
306,153,127694,1,8,0:0:0:0:
442,214,128039,1,8,0:0:0:0:
306,277,128383,6,0,L|255:306,3,37.5,8|0|8|0,0:0|0:0|0:0|0:0,0:0:0:0:
260,259,128728,2,0,L|201:258,3,37.5,8|0|8|0,0:0|0:0|0:0|0:0,0:0:0:0:
229,220,129073,2,0,L|178:190,3,37.5,8|0|8|0,0:0|0:0|0:0|0:0,0:0:0:0:
221,170,129418,2,0,L|192:119,3,37.5,8|0|8|0,0:0|0:0|0:0|0:0,0:0:0:0:
256,192,129763,12,12,132521,0:0:0:0:
