osu file format v14

[General]
AudioFilename: audio.mp3
AudioLeadIn: 0
PreviewTime: 45138
Countdown: 0
SampleSet: Soft
StackLeniency: 0.7
Mode: 0
LetterboxInBreaks: 0
WidescreenStoryboard: 1

[Editor]
Bookmarks: 14104,47207,135483,157552,234794,267897
DistanceSpacing: 1
BeatDivisor: 2
GridSize: 16
TimelineZoom: 1.1

[Metadata]
Title:We Love
TitleUnicode:We Love
Artist:Rameses B
ArtistUnicode:Rameses B
Creator:Plaudible
Version:Vanillas' Normal
Source:
Tags:drum n bass, chill, dnb, monstercat, Vanillas, TeeJoe, -Liddell, Hobbes2
BeatmapID:991992
BeatmapSetID:461656

[Difficulty]
HPDrainRate:4
CircleSize:3.5
OverallDifficulty:4
ApproachRate:4
SliderMultiplier:1
SliderTickRate:1

[Events]
//Background and Video events
0,0,"image.jpg",0,0
//Break Periods
2,4449,7207
2,9966,12725
2,15483,18242
2,20311,22380
2,40311,45828
2,92035,101001
2,136173,156173
//Storyboard Layer 0 (Background)
//Storyboard Layer 1 (Fail)
//Storyboard Layer 2 (Pass)
//Storyboard Layer 3 (Foreground)
//Storyboard Sound Samples

[TimingPoints]
3070,344.827586206897,4,2,1,20,1,0
8242,-100,4,2,1,40,0,0
13759,-100,4,2,1,60,0,0
19276,-100,4,2,1,80,0,0
23414,-100,4,2,1,90,0,0
24966,-100,4,2,1,30,0,0
25311,-100,4,2,1,10,0,0
27897,-100,4,2,1,30,0,0
28070,-100,4,2,1,50,0,0
36001,-100,4,2,1,40,0,0
36345,-100,4,2,1,10,0,0
38932,-100,4,2,1,40,0,0
69276,-100,4,2,1,90,0,1
91345,-100,4,2,1,90,0,0
179621,-100,4,2,1,90,0,1
201690,-100,4,2,1,90,0,0
265138,-100,4,2,1,70,0,0
265225,-100,4,2,1,10,0,0
267897,-100,4,2,1,40,0,0

[Colours]
Combo1 : 215,160,222
Combo2 : 119,253,213
Combo3 : 234,204,32
Combo4 : 254,251,180

[HitObjects]
256,192,3070,5,4,0:0:0:0:
256,192,8587,5,4,0:0:0:0:
256,192,14104,5,4,0:0:0:0:
256,192,19621,5,4,0:0:0:0:
256,192,23759,5,4,0:0:0:0:
256,192,25138,12,4,27897,0:0:0:0:
96,136,29276,6,0,B|154:117|192:88|192:88|224:88|266:109|345:96|345:96|252:155|248:200,1,400,0|4,0:0|0:0,0:0:0:0:
344,96,32035,6,0,B|363:154|392:192|392:192|392:224|371:266|384:345|384:345|325:252|280:248,2,400,4|0|4,0:0|0:0|0:0,0:0:0:0:
256,192,36173,12,4,38932,0:0:0:0:
145,104,47207,6,0,B|207:98|207:98|248:101,1,100,12|0,0:0|0:0,0:0:0:0:
294,108,47725,1,0,0:0:0:0:
338,85,47897,2,0,L|340:35,2,50,2|8|0,0:0|0:0|0:0,0:0:0:0:
394,168,48587,6,0,B|356:184|356:184|305:231,1,100,8|0,0:0|0:0,0:0:0:0:
278,260,49104,1,0,0:0:0:0:
233,282,49276,2,0,L|273:310,2,50,2|8|0,0:0|0:0|0:0,0:0:0:0:
136,308,49966,6,0,L|115:206,1,100,8|0,0:0|0:0,0:0:0:0:
213,185,50656,2,0,L|214:82,1,100,2|0,0:0|0:0,0:0:0:0:
283,12,51345,1,8,0:0:0:0:
361,74,51690,1,0,0:0:0:0:
444,18,52035,2,0,L|506:16,2,50,2|0|2,0:0|0:0|0:0,0:0:0:0:
457,117,52725,6,0,B|448:176|448:176|452:216,1,100,12|0,0:0|0:0,0:0:0:0:
465,264,53242,1,0,0:0:0:0:
506,291,53414,2,0,B|470:285|470:285|393:298|396:298,1,100,2|0,0:0|0:0,0:0:0:0:
307,288,54104,6,0,L|306:340,1,50,8|0,0:0|0:0,0:0:0:0:
263,311,54449,2,0,B|227:313|227:313|147:298,1,100,0|2,0:0|0:0,0:0:0:0:
121,275,54966,1,8,0:0:0:0:
71,282,55138,2,0,L|70:214,1,50
27,205,55483,6,0,B|26:162|26:162|36:97,1,100,8|0,0:0|0:0,0:0:0:0:
112,42,56173,2,0,B|188:52|188:52|235:49,1,100,2|0,0:0|0:0,0:0:0:0:
267,133,56863,1,8,0:0:0:0:
229,225,57207,1,0,0:0:0:0:
321,263,57552,2,0,L|377:265,2,50,2|8|4,0:0|0:0|0:0,0:0:0:0:
234,313,58242,6,0,L|169:322,1,50,12|0,0:0|0:0,0:0:0:0:
159,276,58587,2,0,L|88:277,1,50
66,302,58932,2,0,L|70:173,1,100,2|0,0:0|0:0,0:0:0:0:
23,112,59621,5,8,0:0:0:0:
84,33,59966,1,0,0:0:0:0:
167,88,60311,2,0,L|223:83,2,50,2|8|0,0:0|0:0|0:0,0:0:0:0:
224,170,61001,6,0,L|212:272,1,100,12|0,0:0|0:0,0:0:0:0:
254,296,61518,2,0,P|315:274|372:289,1,100,0|8,0:0|0:0,0:0:0:0:
396,293,62035,1,0,0:0:0:0:
456,213,62380,2,0,L|462:142,1,50,8|0,0:0|0:0,0:0:0:0:
414,142,62725,2,0,L|415:86,1,50,2|0,0:0|0:0,0:0:0:0:
437,47,63070,2,0,P|385:55|319:49,1,100,8|0,0:0|0:0,0:0:0:0:
243,20,63759,6,0,L|233:124,1,100,4|0,0:0|0:0,0:0:0:0:
139,84,64449,2,0,L|146:183,1,100,2|0,0:0|0:0,0:0:0:0:
151,233,64966,1,0,0:0:0:0:
118,270,65138,2,0,B|157:277|157:277|229:267,1,100,8|0,0:0|0:0,0:0:0:0:
309,229,65828,2,0,B|317:288|317:288|310:327,1,100,2|0,0:0|0:0,0:0:0:0:
212,351,66518,6,0,B|102:364,1,100,12|0,0:0|0:0,0:0:0:0:
19,326,67207,2,0,L|21:375,2,50,2|8|0,0:0|0:0|0:0,0:0:0:0:
94,259,67897,2,0,P|129:208|182:190,1,100,4|0,0:0|0:0,0:0:0:0:
239,256,68587,2,0,P|296:293|347:284,1,100,8|0,0:0|0:0,0:0:0:0:
418,253,69276,6,0,L|425:188,1,50,12|0,0:0|0:0,0:0:0:0:
375,189,69621,2,0,L|376:132,1,50,2|0,0:0|0:0,0:0:0:0:
395,92,69966,2,0,P|350:88|278:97,1,100
197,70,70656,2,0,P|205:126|191:190,1,100,8|2,0:0|0:0,0:0:0:0:
204,218,71173,1,0,0:0:0:0:
173,257,71345,2,0,L|123:251,2,50,0|8|0,0:0|0:0|0:0,0:0:0:0:
240,331,72035,6,0,L|355:349,1,100,4|0,0:0|0:0,0:0:0:0:
328,246,72725,2,0,L|434:241,1,100,2|0,0:0|0:0,0:0:0:0:
413,142,73414,1,8,0:0:0:0:
457,52,73759,1,2,0:0:0:0:
367,7,74104,2,0,L|317:13,2,50,2|8|0,0:0|0:0|0:0,0:0:0:0:
319,95,74794,6,0,P|328:143|315:201,1,100,4|0,0:0|0:0,0:0:0:0:
327,242,75311,1,0,0:0:0:0:
289,274,75483,2,0,L|226:278,1,50,2|0,0:0|0:0,0:0:0:0:
217,231,75828,2,0,L|149:228,1,50
117,235,76173,6,0,B|128:182|128:182|127:136,1,100,8|0,0:0|0:0,0:0:0:0:
119,86,76690,1,0,0:0:0:0:
150,46,76863,2,0,P|192:51|264:47,1,100,2|0,0:0|0:0,0:0:0:0:
342,12,77552,6,0,L|446:6,1,100
493,92,78242,2,0,L|493:148,1,50,0|8,0:0|0:0,0:0:0:0:
442,144,78587,2,0,L|435:208,1,50
427,243,78932,5,4,0:0:0:0:
332,211,79276,2,0,L|257:214,1,50
232,222,79621,2,0,P|236:167|223:116,1,100,4|0,0:0|0:0,0:0:0:0:
140,175,80311,6,0,P|136:230|149:281,1,100,8|0,0:0|0:0,0:0:0:0:
132,321,80828,2,0,P|181:309|235:312,1,100,0|8,0:0|0:0,0:0:0:0:
280,316,81345,1,0,0:0:0:0:
365,367,81690,2,0,L|373:315,1,50
422,319,82035,2,0,L|432:265,1,50,2|0,0:0|0:0,0:0:0:0:
478,254,82380,2,0,B|490:211|490:211|493:137,1,100
419,86,83070,6,0,P|371:96|310:94,1,100,8|0,0:0|0:0,0:0:0:0:
227,57,83759,2,0,L|232:7,2,50
138,105,84449,2,0,L|133:160,1,50
83,158,84794,2,0,L|86:221,1,50,2|0,0:0|0:0,0:0:0:0:
47,239,85138,2,0,L|55:298,1,50,0|8,0:0|0:0,0:0:0:0:
64,337,85483,1,0,0:0:0:0:
161,358,85828,6,0,P|217:352|268:360,1,100,4|0,0:0|0:0,0:0:0:0:
309,367,86345,1,0,0:0:0:0:
355,347,86518,2,0,L|357:294,1,50,0|8,0:0|0:0,0:0:0:0:
357,246,86863,1,0,0:0:0:0:
455,258,87207,6,0,P|450:200|447:141,1,100,8|0,0:0|0:0,0:0:0:0:
466,111,87725,2,0,P|419:106|346:126,1,100,0|8,0:0|0:0,0:0:0:0:
320,134,88242,1,2,0:0:0:0:
227,95,88587,5,8,0:0:0:0:
136,52,88932,2,0,P|103:91|90:158,1,100
74,184,89449,1,8,0:0:0:0:
113,214,89621,2,0,L|172:212,1,50
213,211,89966,1,8,0:3:0:0:
293,270,90311,1,0,0:0:0:0:
369,205,90656,1,2,0:0:0:0:
462,240,91001,1,2,0:0:0:0:
464,140,91345,5,4,0:0:0:0:
91,205,102380,6,0,L|91:311,1,100,8|0,0:0|0:0,0:0:0:0:
177,356,103070,2,0,L|193:251,1,100,2|0,0:0|0:0,0:0:0:0:
255,179,103759,1,8,0:0:0:0:
336,236,104104,1,0,0:0:0:0:
411,170,104449,2,0,L|465:163,2,50,2|8|0,0:0|0:0|0:0,0:0:0:0:
323,121,105138,6,0,P|302:66|299:22,1,100,8|0,0:0|0:0,0:0:0:0:
208,69,105828,2,0,P|229:124|232:168,1,100,2|0,0:0|0:0,0:0:0:0:
292,244,106518,1,8,0:0:0:0:
224,317,106863,1,0,0:0:0:0:
142,258,107207,2,0,L|80:264,2,50,2|8|0,0:0|0:0|0:0,0:0:0:0:
224,317,107897,6,0,L|328:317,1,100,12|0,0:0|0:0,0:0:0:0:
302,219,108587,2,0,L|406:211,1,100,2|0,0:0|0:0,0:0:0:0:
490,165,109276,2,0,L|492:93,1,50,8|0,0:0|0:0,0:0:0:0:
442,103,109621,2,0,L|439:48,1,50
402,19,109966,2,0,P|351:29|287:29,1,100,2|0,0:0|0:0,0:0:0:0:
205,53,110656,6,0,P|186:97|132:130,1,100,8|0,0:0|0:0,0:0:0:0:
71,195,111345,2,0,P|123:220|164:268,1,100,2|0,0:0|0:0,0:0:0:0:
218,325,112035,1,4,3:0:0:0:
313,294,112380,1,0,0:0:0:0:
410,315,112725,2,0,L|407:364,2,50,2|8|0,0:0|0:0|0:0,0:0:0:0:
468,233,113414,6,0,L|470:114,1,100,4|0,0:0|0:0,0:0:0:0:
438,93,113932,1,0,0:0:0:0:
390,106,114104,2,0,L|332:103,2,50,2|8|0,0:0|0:0|0:0,0:0:0:0:
378,205,114794,2,0,P|344:241|285:258,1,100,8|0,0:0|0:0,0:0:0:0:
248,267,115311,1,0,0:0:0:0:
209,299,115483,2,0,P|216:252|201:180,1,100,2|0,0:0|0:0,0:0:0:0:
108,210,116173,5,8,0:0:0:0:
148,118,116518,2,0,P|144:63|153:8,1,100
191,46,117035,2,0,B|256:47,1,50,8|0,0:0|0:0,0:0:0:0:
340,50,117552,2,0,L|359:99,1,50,8|0,0:0|0:0,0:0:0:0:
403,118,117897,2,0,L|398:192,1,50,2|0,0:0|0:0,0:0:0:0:
373,210,118242,2,0,L|375:266,2,50,2|8|0,0:0|0:0|0:0,0:0:0:0:
280,249,118932,6,0,L|168:260,1,100,12|0,0:0|0:0,0:0:0:0:
127,174,119621,2,0,L|117:117,2,50,0|8|0,0:0|0:0|0:0,0:0:0:0:
90,267,120311,2,0,P|114:323|164:346,1,100,0|2,0:0|0:0,0:0:0:0:
196,342,120828,2,0,P|242:323|311:333,1,100
339,341,121345,1,2,0:0:0:0:
434,310,121690,6,0,P|423:256|429:198,1,100,8|0,0:0|0:0,0:0:0:0:
436,162,122207,1,0,0:0:0:0:
396,131,122380,2,0,L|393:63,2,50,0|8|0,0:0|0:0|0:0,0:0:0:0:
300,100,123070,6,0,L|236:105,1,50,8|2,0:0|0:0,0:0:0:0:
214,69,123414,2,0,L|159:64,1,50
114,57,123759,1,0,0:0:0:0:
69,80,123932,2,0,L|57:20,2,50,0|2|2,0:0|0:0|0:0,0:0:0:0:
44,123,124449,6,0,P|50:173|39:233,1,100,4|0,0:0|0:0,0:0:0:0:
22,267,124966,2,0,L|136:258,1,100,0|8,0:0|0:0,0:0:0:0:
171,252,125483,1,0,0:0:0:0:
252,310,125828,2,0,L|251:246,1,50,8|0,0:0|0:0,0:0:0:0:
299,245,126173,2,0,P|306:195|296:133,1,100,2|0,0:0|0:0,0:0:0:0:
300,95,126690,2,0,L|349:89,1,50,8|0,0:0|0:0,0:0:0:0:
441,129,127207,5,8,0:0:0:0:
493,214,127552,2,0,L|493:272,1,50
501,313,127897,2,0,P|448:307|385:310,1,100
314,358,128587,2,0,L|255:333,1,50,8|2,0:0|0:0,0:0:0:0:
265,288,128932,2,0,L|207:279,1,50
168,260,129276,1,2,0:0:0:0:
123,236,129449,2,0,L|123:286,2,50
77,215,129966,6,0,P|87:159|81:94,1,100
57,74,130483,2,0,P|106:85|179:84,1,100,0|8,0:0|0:0,0:0:0:0:
204,74,131001,1,0,0:0:0:0:
297,38,131345,2,0,L|353:41,1,50,8|0,0:0|0:0,0:0:0:0:
390,16,131690,2,0,B|399:60|399:60|394:126,1,100
386,164,132207,1,8,0:0:0:0:
386,164,132380,1,0,0:0:0:0:
415,259,132725,6,0,B|367:257|367:257|313:268|313:268|259:264,1,150,8|0,0:0|0:0,0:0:0:0:
216,261,133414,1,8,0:0:0:0:
117,285,133759,1,2,0:0:0:0:
30,234,134104,1,8,0:0:0:0:
30,133,134449,1,8,0:0:0:0:
113,77,134794,2,0,L|184:74,1,50,8|0,0:0|0:0,0:0:0:0:
176,122,135138,2,0,L|245:121,1,50,8|0,0:0|0:0,0:0:0:0:
276,125,135483,1,4,0:0:0:0:
55,295,157552,6,0,L|165:297,1,100
250,327,158242,1,0,0:0:0:0:
335,275,158587,1,0,0:0:0:0:
415,334,158932,2,0,P|432:283|422:228,1,100,2|0,0:0|0:0,0:0:0:0:
389,145,159621,1,0,0:0:0:0:
428,53,159966,1,0,0:0:0:0:
327,50,160311,6,0,L|224:56,1,100,4|0,0:0|0:0,0:0:0:0:
249,153,161001,2,0,L|147:165,1,100
50,149,161690,1,2,0:0:0:0:
3,237,162035,1,0,0:0:0:0:
84,294,162380,2,0,L|80:354,2,50
183,312,163070,6,0,L|303:315,1,100,4|0,0:0|0:0,0:0:0:0:
379,341,163759,1,0,0:0:0:0:
471,303,164104,1,0,0:0:0:0:
408,224,164449,2,0,P|383:172|343:139,1,100,2|0,0:0|0:0,0:0:0:0:
283,217,165138,2,0,P|247:182|226:137,1,100
140,85,165828,5,4,0:0:0:0:
52,132,166173,1,0,0:0:0:0:
104,216,166518,2,0,P|104:274|93:331,1,100
188,355,167207,1,4,0:0:0:0:
444,47,168587,6,0,L|337:56,1,100,4|0,0:0|0:0,0:0:0:0:
305,23,169104,2,0,P|311:75|298:137,1,100
289,169,169621,1,0,0:0:0:0:
194,202,169966,1,0,0:0:0:0:
97,227,170311,2,0,P|130:122|209:103,1,200
274,28,171345,6,0,P|314:83|285:160,2,150,4|0|0,0:0|0:0|0:0,0:0:0:0:
179,62,172725,2,0,L|113:69,2,50
136,152,173414,2,0,L|68:165,2,50
145,251,174104,6,0,P|170:306|219:340,1,100,4|0,0:0|0:0,0:0:0:0:
249,333,174621,2,0,P|294:302|361:312,1,100
385,316,175138,1,0,0:0:0:0:
445,236,175483,2,0,L|452:173,2,50
366,173,176173,2,0,L|365:116,2,50
317,260,176863,5,12,0:0:0:0:
244,191,177207,1,8,0:0:0:0:
155,238,177552,1,8,0:0:0:0:
58,212,177897,1,8,0:0:0:0:
35,114,178242,1,4,0:0:0:0:
433,80,179621,5,12,0:0:0:0:
457,176,179966,2,0,P|435:200|407:216,1,50
367,209,180311,2,0,P|337:204|304:206,1,50,0|8,0:0|0:0,0:0:0:0:
267,209,180656,1,0,0:0:0:0:
211,292,181001,2,0,P|174:253|171:198,1,100,8|0,0:0|0:0,0:0:0:0:
174,159,181518,1,0,0:0:0:0:
136,126,181690,2,0,L|138:59,2,50
68,205,182380,6,0,L|190:209,1,100,12|0,0:0|0:0,0:0:0:0:
133,302,183070,2,0,L|239:297,1,100
324,337,183759,2,0,L|324:271,1,50,8|0,0:0|0:0,0:0:0:0:
373,280,184104,2,0,L|375:220,1,50
375,179,184449,1,0,0:0:0:0:
401,82,184794,1,0,0:0:0:0:
302,96,185138,6,0,L|191:103,1,100,12|0,0:0|0:0,0:0:0:0:
152,107,185656,1,0,0:0:0:0:
55,81,186001,2,0,L|59:146,1,50,8|0,0:0|0:0,0:0:0:0:
62,180,186345,1,0,0:0:0:0:
36,222,186518,2,0,B|72:228|72:228|140:219,1,100,2|0,0:0|0:0,0:0:0:0:
160,262,187035,2,0,B|222:253|222:253|258:259,1,100
307,271,187552,1,0,0:0:0:0:
402,239,187897,5,0,0:0:0:0:
418,191,188070,2,0,L|418:142,2,50
322,159,188759,2,0,L|320:94,2,50,8|0|0,0:0|0:0|0:0,0:0:0:0:
325,209,189276,1,8,0:0:0:0:
229,238,189621,1,2,0:0:0:0:
131,215,189966,2,0,L|122:163,2,50,0|8|0,0:0|0:0|0:0,0:0:0:0:
94,308,190656,6,0,L|143:311,1,50,12|0,0:0|0:0,0:0:0:0:
158,359,191001,2,0,L|214:355,1,50
257,355,191345,2,0,P|307:344|370:355,1,100
437,292,192035,2,0,P|466:246|461:193,1,100
451,153,192552,1,0,0:0:0:0:
464,104,192725,2,0,L|473:54,2,50,0|8|0,0:0|0:0|0:0,0:0:0:0:
367,76,193414,6,0,L|259:81,1,100,8|0,0:0|0:0,0:0:0:0:
216,77,193932,1,0,0:0:0:0:
177,108,194104,2,0,L|113:113,1,50
112,159,194449,2,0,L|53:154,1,50
20,127,194794,2,0,P|26:173|22:247,1,100
99,293,195483,2,0,L|155:297,2,50
150,207,196173,6,0,P|199:175|226:128,1,100,12|0,0:0|0:0,0:0:0:0:
236,92,196690,1,0,0:0:0:0:
278,65,196863,2,0,L|348:70,1,50,0|8,0:0|0:0,0:0:0:0:
338,117,197207,2,0,L|401:126,1,50
436,135,197552,2,0,P|452:193|442:247,1,100
469,277,198070,2,0,P|423:308|365:315,1,100,0|8,0:0|0:0,0:0:0:0:
329,318,198587,1,0,0:0:0:0:
231,340,198932,6,0,P|203:295|160:268,1,100,8|0,0:0|0:0,0:0:0:0:
64,277,199621,2,0,L|48:337,2,50,0|8|0,0:0|0:0|0:0,0:0:0:0:
64,176,200311,2,0,L|56:119,1,50,0|0,3:0|0:0,0:0:0:0:
107,124,200656,2,0,L|114:60,1,50
154,46,201001,2,0,P|206:57|263:48,1,100
301,41,201518,1,0,0:0:0:0:
350,44,201690,6,0,P|401:67|445:120,1,100,12|0,0:0|0:0,0:0:0:0:
458,140,202207,1,2,0:0:0:0:
395,218,202552,2,0,L|392:280,1,50
431,299,202897,2,0,B|383:308|383:308|326:294|326:294|281:295,1,150
240,304,203587,2,0,L|225:238,1,50,0|8,0:0|0:0,0:0:0:0:
176,256,203932,2,0,L|157:195,1,50,0|0,3:0|0:0,0:0:0:0:
62,191,204449,6,0,P|48:111|66:37,1,150,12|0,0:0|0:0,0:0:0:0:
112,47,205138,2,0,P|182:62|274:56,1,150
309,48,205828,1,8,0:0:0:0:
399,90,206173,1,2,0:0:0:0:
498,82,206518,2,0,L|499:32,2,50,0|8|0,0:0|0:0|0:0,0:0:0:0:
447,168,207207,6,0,P|395:196|372:238,1,100,8|0,0:0|0:0,0:0:0:0:
295,292,207897,2,0,P|244:282|192:241,1,100
140,178,208587,1,8,0:0:0:0:
160,80,208932,1,2,0:0:0:0:
241,22,209276,2,0,L|306:24,2,50,0|8|0,0:0|0:0|0:0,0:0:0:0:
160,80,209966,6,0,P|121:119|69:139,1,100,12|0,0:0|0:0,0:0:0:0:
37,227,210656,2,0,P|85:261|107:306,1,100
184,355,211345,1,2,0:0:0:0:
276,316,211690,1,0,0:0:0:0:
360,368,212035,2,0,L|419:374,2,50,0|8|0,0:0|0:0|0:0,0:0:0:0:
395,274,212725,5,8,0:0:0:0:
387,174,213070,2,0,L|380:121,1,50
415,88,213414,2,0,B|357:102|310:84|255:97,1,150
232,132,214104,2,0,L|164:143,1,50
158,95,214449,2,0,L|91:92,1,50
60,109,214794,2,0,P|65:155|55:208,1,100
129,275,215483,6,0,P|174:296|211:343,1,100,8|0,0:0|0:0,0:0:0:0:
302,305,216173,2,0,P|352:279|373:224,1,100
407,147,216863,1,0,0:1:0:0:
439,109,217035,2,0,L|435:53,2,50
407,147,217552,2,0,P|358:154|301:143,1,100
264,55,218242,6,0,P|214:65|156:65,1,100,8|0,0:0|0:0,0:0:0:0:
67,43,218932,2,0,P|77:92|75:161,1,100
54,239,219621,1,8,0:0:0:0:
91,331,219966,1,0,0:0:0:0:
134,305,220138,2,0,P|186:300|257:318,1,100,0|8,0:0|0:0,0:0:0:0:
280,325,220656,1,0,0:0:0:0:
380,327,221001,6,0,L|393:225,1,100,8|0,0:0|0:0,0:0:0:0:
490,208,221690,2,0,L|479:95,1,100,8|0,0:0|0:0,0:0:0:0:
457,10,222380,1,8,0:0:0:0:
373,65,222725,1,8,0:0:0:0:
279,30,223070,1,8,0:0:0:0:
182,56,223414,1,8,0:0:0:0:
112,127,223759,6,0,P|103:190|152:260,1,150,4|8,0:0|0:0,0:0:0:0:
387,181,225138,2,0,P|324:144|253:167,1,150,8|8,0:0|0:0,0:0:0:0:
51,312,226518,6,0,B|100:298|100:298|161:316|216:310,1,150,8|8,0:0|0:0,0:0:0:0:
372,132,227897,2,0,B|324:141|265:131|265:131|214:146,1,150,8|8,0:0|0:0,0:0:0:0:
74,137,228932,1,2,3:0:0:0:
118,226,229276,5,8,0:0:0:0:
189,296,229621,2,0,L|252:296,1,50
387,318,230311,1,2,3:0:0:0:
442,234,230656,1,8,0:0:0:0:
406,140,231001,2,0,L|410:80,1,50,0|8,0:0|0:0,0:0:0:0:
261,66,231690,1,2,3:0:0:0:
164,93,232035,5,0,0:0:0:0:
125,185,232380,2,0,L|194:195,1,50,0|8,0:0|0:0,0:0:0:0:
213,223,232725,2,0,L|276:220,2,50
133,283,233414,1,4,0:0:0:0:
465,64,234794,6,0,P|466:115|455:166,1,100,12|0,0:0|0:0,0:0:0:0:
360,133,235483,2,0,P|349:181|351:231,1,100
372,329,236173,1,0,0:0:0:0:
339,366,236345,2,0,P|290:358|223:362,1,100
141,339,237035,2,0,L|138:279,1,50,8|0,0:0|0:0,0:0:0:0:
89,201,237552,5,8,0:0:0:0:
120,106,237897,2,0,L|179:102,1,50
259,57,238414,2,0,L|315:57,2,50
256,107,238932,2,0,P|271:142|268:210,1,100,8|0,0:0|0:0,0:0:0:0:
257,251,239449,1,8,0:0:0:0:
165,210,239794,2,0,L|106:208,2,50
177,161,240311,6,0,L|305:174,1,100,12|0,0:0|0:0,0:0:0:0:
326,176,240828,1,8,0:0:0:0:
446,265,241345,2,0,L|451:215,1,50
411,185,241690,2,0,P|425:137|413:67,1,100,8|0,0:0|0:0,0:0:0:0:
398,42,242207,1,8,0:0:0:0:
248,27,242725,2,0,L|192:30,1,50,0|8,0:0|0:0,0:0:0:0:
158,59,243070,6,0,P|108:69|32:74,1,100
81,119,243587,2,0,P|88:177|75:222,1,100
60,263,244104,1,2,0:0:0:0:
158,282,244449,2,0,L|223:284,1,50,0|8,0:0|0:0,0:0:0:0:
215,233,244794,2,0,L|275:224,1,50,0|8,0:0|0:0,0:0:0:0:
313,215,245138,1,0,0:0:0:0:
363,219,245311,2,0,L|362:168,2,50,0|8|0,0:0|0:0|0:0,0:0:0:0:
365,269,245828,5,4,0:0:0:0:
42,32,247207,5,4,0:0:0:0:
426,144,248587,5,4,0:0:0:0:
74,333,249966,2,0,L|183:331,1,100,2|0,0:0|0:0,0:0:0:0:
245,260,250656,2,0,L|310:261,2,50,0|2|0,0:0|0:0|0:0,0:0:0:0:
147,238,251345,6,0,P|107:200|90:143,1,100,4|0,0:0|0:0,0:0:0:0:
133,67,252035,2,0,P|190:62|239:30,1,100
326,32,252725,2,0,P|324:77|346:137,1,100,2|0,0:0|0:0,0:0:0:0:
439,110,253414,2,0,P|455:156|453:206,1,100
418,300,254104,5,4,0:0:0:0:
219,328,254794,1,0,0:0:0:0:
85,179,255483,2,0,P|80:238|91:284,1,100
169,329,256173,2,0,L|232:327,2,50
69,338,256863,5,4,0:0:0:0:
386,94,258242,5,4,0:0:0:0:
192,41,258932,1,2,0:0:0:0:
212,239,259621,6,0,P|286:334|426:261,1,300,4|0,0:0|0:0,0:0:0:0:
368,181,261001,2,0,L|371:76,1,100
271,70,261690,2,0,L|206:75,2,50
252,168,262380,6,0,P|178:281|60:204,1,300,4|0,0:0|0:0,0:0:0:0:
153,170,263759,2,0,P|227:57|345:134,1,300,4|0,0:0|0:0,0:0:0:0:
256,192,265138,12,0,267897,0:0:0:0:
