osu file format v14

[General]
AudioFilename: audio.mp3
AudioLeadIn: 0
PreviewTime: 45138
Countdown: 0
SampleSet: Soft
StackLeniency: 0.7
Mode: 0
LetterboxInBreaks: 0
WidescreenStoryboard: 1

[Editor]
Bookmarks: 14085,25138,41671,58242,69276,91345,102361,113395,135464,157533,179621,201690,223759,245828,267897
DistanceSpacing: 1.2
BeatDivisor: 4
GridSize: 4
TimelineZoom: 2.799999

[Metadata]
Title:We Love
TitleUnicode:We Love
Artist:Rameses B
ArtistUnicode:Rameses B
Creator:Plaudible
Version:TeeJoe's Insane
Source:
Tags:drum n bass, chill, dnb, monstercat, Vanillas, TeeJoe, -Liddell, Hobbes2
BeatmapID:1006212
BeatmapSetID:461656

[Difficulty]
HPDrainRate:6
CircleSize:4
OverallDifficulty:8
ApproachRate:9
SliderMultiplier:1.2
SliderTickRate:1

[Events]
//Background and Video events
0,0,"image.jpg",0,0
//Break Periods
2,25483,41090
2,91545,100401
2,135683,151435
//Storyboard Layer 0 (Background)
//Storyboard Layer 1 (Fail)
//Storyboard Layer 2 (Pass)
//Storyboard Layer 3 (Foreground)
//Storyboard Sound Samples

[TimingPoints]
3070,344.827586206897,4,2,0,80,1,0
25138,-100,4,2,1,80,0,0
45828,-100,4,2,1,70,0,0
46001,-100,4,2,1,60,0,0
46173,-100,4,2,1,50,0,0
46345,-100,4,2,1,40,0,0
46518,-100,4,2,1,30,0,0
46690,-100,4,2,1,20,0,0
46863,-100,4,2,1,10,0,0
47035,-100,4,2,1,5,0,0
47207,-86.9565217391304,4,2,0,80,0,0
51345,-86.9565217391304,4,2,1,80,0,0
51518,-86.9565217391304,4,2,0,80,0,0
62380,-86.9565217391304,4,2,1,80,0,0
62552,-86.9565217391304,4,2,0,80,0,0
69276,-86.9565217391304,4,2,1,80,0,1
69449,-86.9565217391304,4,2,0,80,0,1
70656,-86.9565217391304,4,2,1,80,0,1
70828,-86.9565217391304,4,2,0,80,0,1
72035,-86.9565217391304,4,2,1,80,0,1
72207,-86.9565217391304,4,2,0,80,0,1
73414,-86.9565217391304,4,2,1,80,0,1
73587,-86.9565217391304,4,2,0,80,0,1
74449,-86.9565217391304,4,2,1,80,0,1
74621,-86.9565217391304,4,2,0,80,0,1
74794,-86.9565217391304,4,2,1,80,0,1
74966,-86.9565217391304,4,2,0,80,0,1
76173,-86.9565217391304,4,2,1,80,0,1
76345,-86.9565217391304,4,2,0,80,0,1
77552,-86.9565217391304,4,2,1,80,0,1
77725,-86.9565217391304,4,2,0,80,0,1
78932,-86.9565217391304,4,2,1,80,0,1
79104,-86.9565217391304,4,2,0,80,0,1
79449,-86.9565217391304,4,2,1,80,0,1
79535,-86.9565217391304,4,2,0,80,0,1
80311,-86.9565217391304,4,2,1,80,0,1
80483,-86.9565217391304,4,2,0,80,0,1
81690,-86.9565217391304,4,2,1,80,0,1
81863,-86.9565217391304,4,2,0,80,0,1
83070,-86.9565217391304,4,2,1,80,0,1
83242,-86.9565217391304,4,2,0,80,0,1
84449,-86.9565217391304,4,2,1,80,0,1
84621,-86.9565217391304,4,2,0,80,0,1
85483,-86.9565217391304,4,2,1,80,0,1
85570,-86.9565217391304,4,2,0,80,0,1
85828,-86.9565217391304,4,2,1,80,0,1
86001,-86.9565217391304,4,2,0,80,0,1
87207,-86.9565217391304,4,2,1,80,0,1
87380,-86.9565217391304,4,2,0,80,0,1
88587,-86.9565217391304,4,2,1,80,0,1
88759,-86.9565217391304,4,2,0,80,0,1
89621,-86.9565217391304,4,2,1,80,0,1
89707,-86.9565217391304,4,2,0,80,0,1
91345,-86.9565217391304,4,2,1,80,0,0
101001,-86.9565217391304,4,2,0,80,0,0
156863,-133.333333333333,4,2,0,80,0,0
178242,-200,4,2,0,80,0,0
179621,-86.9565217391304,4,2,0,80,0,1
201690,-86.9565217391304,4,2,0,80,0,0
245828,-133.333333333333,4,2,0,80,0,0

[Colours]
Combo1 : 215,160,222
Combo2 : 119,253,213
Combo3 : 234,204,32
Combo4 : 254,251,180

[HitObjects]
107,219,14104,6,0,P|136:210|158:190,1,60,2|0,0:0|0:0,0:0:0:0:
172,156,14363,2,0,L|240:216,1,90
296,260,14794,1,2,0:0:0:0:
304,96,14966,2,0,L|299:66,2,30
316,168,15311,1,0,0:0:0:0:
368,119,15483,6,0,P|409:103|453:107,2,90,2|2|0,0:0|0:0|0:0,0:0:0:0:
316,168,16173,1,2,0:0:0:0:
344,236,16345,2,0,L|354:264,2,30,0|0|2,0:0|0:0|0:0,0:0:0:0:
292,100,16690,1,0,0:0:0:0:
228,183,16863,6,0,P|198:189|168:192,1,60,2|0,0:0|0:0,0:0:0:0:
168,48,17207,2,0,P|197:50|227:56,1,60
56,191,17552,2,0,P|65:251|87:306,1,120,2|0,0:0|0:0,0:0:0:0:
152,336,18070,1,0,0:0:0:0:
219,312,18242,6,0,P|243:293|259:268,2,60,2|0|0,0:0|0:0|0:0,0:0:0:0:
192,244,18759,1,2,0:0:0:0:
328,287,18932,2,0,P|352:271|369:246,1,60
384,212,19190,2,0,L|437:284,1,90
444,140,19621,5,2,0:0:0:0:
444,140,19966,1,2,0:0:0:0:
444,140,20311,1,2,0:0:0:0:
444,140,20483,2,0,L|437:110,2,30,0|0|2,0:0|0:0|0:0,0:0:0:0:
456,212,20828,1,0,0:0:0:0:
336,132,21001,6,0,L|361:186,1,60,0|2,0:0|0:0,0:0:0:0:
342,314,21345,2,0,P|357:288|368:259,1,60,0|2,0:0|0:0,0:0:0:0:
364,188,21690,1,0,0:0:0:0:
304,228,21863,1,0,0:0:0:0:
368,260,22035,1,2,0:0:0:0:
364,116,22207,1,0,0:0:0:0:
240,192,22380,6,0,P|226:165|224:135,1,60
279,252,22725,2,0,P|271:280|257:307,2,60,0|2|0,0:0|0:0|0:0,0:0:0:0:
255,108,23242,2,0,P|269:101|284:97,2,30,2|0|0,0:0|0:0|0:0,0:0:0:0:
196,148,23587,1,0,0:0:0:0:
255,15,23759,6,0,P|214:32|177:58,1,90,2|0,0:0|0:0,0:0:0:0:
156,88,24104,1,2,0:0:0:0:
124,152,24276,2,0,L|117:211,3,60,0|2|0|2,0:0|0:0|0:0|0:0,0:0:0:0:
116,211,25138,5,4,0:0:0:0:
92,88,41690,5,2,0:0:0:0:
124,152,41863,1,0,0:0:0:0:
172,56,42035,2,0,L|231:65,1,60,0|2,0:0|0:0,0:0:0:0:
260,88,42294,1,0,0:0:0:0:
276,120,42380,1,2,0:0:0:0:
280,156,42466,1,0,0:0:0:0:
268,188,42552,1,2,0:0:0:0:
376,92,42725,2,0,L|357:148,1,60,2|0,0:0|0:0,0:0:0:0:
420,280,43070,5,2,0:0:0:0:
352,260,43242,1,0,0:0:0:0:
296,352,43414,2,0,L|243:323,1,60,0|2,0:0|0:0,0:0:0:0:
220,296,43673,1,0,0:0:0:0:
208,264,43759,1,2,0:0:0:0:
204,228,43845,1,0,0:0:0:0:
216,192,43932,1,2,0:0:0:0:
308,80,44104,1,2,0:0:0:0:
172,128,44276,1,0,0:0:0:0:
284,220,44449,6,0,L|262:276,2,60,2|0|2,0:0|0:0|0:0,0:0:0:0:
216,92,44966,1,2,0:0:0:0:
204,124,45052,1,0,0:0:0:0:
192,156,45138,1,2,0:0:0:0:
180,188,45225,1,0,0:0:0:0:
168,220,45311,1,2,0:0:0:0:
68,323,45483,2,0,P|110:309|155:308,1,90,2|0,0:0|0:0,0:0:0:0:
184,328,45828,6,2,L|238:302,7,60,4|2|2|2|2|2|2|2,0:0|0:0|0:0|0:0|0:0|0:0|0:0|0:0,0:0:0:0:
283,244,47207,6,0,P|299:213|305:179,1,69.0000013160706,4|2,0:3|0:0,0:0:0:0:
168,84,47552,1,8,0:0:0:0:
280,32,47725,1,4,0:3:0:0:
288,72,47811,1,0,0:0:0:0:
284,112,47897,1,2,0:0:0:0:
268,152,47983,2,0,L|242:174,1,34.5000006580353,0|4,0:0|0:3,0:0:0:0:
344,244,48242,1,0,0:0:0:0:
361,232,48328,1,0,0:0:0:0:
376,220,48414,1,2,0:0:0:0:
392,208,48501,1,0,0:0:0:0:
408,196,48587,6,0,L|461:152,1,69.0000013160706,4|2,0:3|0:0,0:0:0:0:
300,120,48932,1,8,0:0:0:0:
348,184,49104,1,4,0:3:0:0:
408,31,49276,2,0,P|374:38|343:53,1,69.0000013160706,2|4,0:0|0:3,0:0:0:0:
196,128,49621,2,0,L|220:103,1,34.5000006580353,4|0,0:3|0:0,0:0:0:0:
140,88,49794,2,0,L|151:55,1,34.5000006580353,10|0,0:0|0:0,0:0:0:0:
72,80,49966,6,0,L|44:16,1,69.0000013160706,4|2,0:3|0:0,0:0:0:0:
108,152,50311,1,10,0:0:0:0:
36,300,50483,2,0,P|37:317|41:334,2,34.5000006580353,4|0|2,0:3|0:0|0:0,0:0:0:0:
32,216,50828,1,4,0:3:0:0:
220,304,51001,2,0,P|254:300|287:292,1,69.0000013160706,4|2,0:3|0:3,0:0:0:0:
216,96,51345,6,0,P|181:99|148:107,1,69.0000013160706,4|2,0:0|0:0,0:0:0:0:
256,332,51690,1,4,0:3:0:0:
232,168,51863,2,0,P|214:168|197:171,1,34.5000006580353,4|0,0:3|0:0,0:0:0:0:
304,235,52035,2,0,P|310:218|316:202,1,34.5000006580353,10|0,0:0|0:0,0:0:0:0:
360,296,52207,2,0,L|372:328,1,34.5000006580353,4|0,0:3|0:0,0:0:0:0:
420,236,52380,2,0,L|444:172,1,69.0000013160706,2|2,0:0|0:0,0:0:0:0:
432,156,52638,1,0,0:0:0:0:
420,140,52725,5,4,0:3:0:0:
340,116,52897,1,0,0:0:0:0:
356,36,53070,2,0,L|326:17,2,34.5000006580353
484,300,53414,2,0,L|422:267,1,69.0000013160706
404,232,53673,2,0,L|337:250,1,69.0000013160706
296,248,53932,1,0,0:0:0:0:
256,236,54018,1,0,0:0:0:0:
228,208,54104,5,0,0:0:0:0:
348,184,54276,1,0,0:0:0:0:
248,52,54449,1,0,0:0:0:0:
412,36,54621,1,0,0:0:0:0:
180,124,54794,2,0,P|180:158|170:191,1,69.0000013160706
152,227,55052,2,0,P|161:259|182:287,1,69.0000013160706
212,316,55311,2,0,P|210:333|205:349,1,34.5000006580353
48,292,55483,6,0,P|52:257|67:226,1,69.0000013160706
164,92,55828,2,0,P|160:75|154:59,2,34.5000006580353
168,112,56087,1,0,0:0:0:0:
164,132,56173,1,0,0:0:0:0:
120,204,56345,1,0,0:0:0:0:
280,168,56518,1,0,0:0:0:0:
316,192,56604,1,0,0:0:0:0:
356,200,56690,1,0,0:0:0:0:
396,192,56776,1,0,0:0:0:0:
432,172,56863,5,0,0:0:0:0:
392,292,57035,1,0,0:0:0:0:
356,88,57207,2,0,L|373:58,1,34.5000006580353
252,76,57552,1,0,0:0:0:0:
260,116,57638,1,0,0:0:0:0:
280,152,57725,1,0,0:0:0:0:
316,176,57811,1,0,0:0:0:0:
356,187,57897,2,0,P|372:184|388:177,1,34.5000006580353
223,199,58070,2,0,P|227:216|232:233,1,34.5000006580353
376,315,58242,6,0,P|342:325|312:340,1,69.0000013160706
236,304,58587,1,0,0:0:0:0:
304,151,58759,2,0,P|308:186|323:217,1,69.0000013160706
320,72,59104,1,0,0:0:0:0:
104,196,59276,2,0,L|134:179,1,34.5000006580353
148,260,59449,2,0,L|180:249,1,34.5000006580353
184,332,59621,6,0,L|252:323,1,69.0000013160706
296,320,59880,1,0,0:0:0:0:
336,312,59966,2,0,P|349:301|361:289,1,34.5000006580353
280,196,60138,2,0,P|266:206|254:218,1,34.5000006580353
136,103,60311,2,0,P|119:134|110:167,1,69.0000013160706
352,116,60656,1,0,0:0:0:0:
344,156,60742,1,0,0:0:0:0:
352,196,60828,1,0,0:0:0:0:
344,236,60914,1,0,0:0:0:0:
352,276,61001,6,0,L|352:345,2,69.0000013160706
280,124,61518,2,0,L|280:89,2,34.5000006580353
280,208,61863,1,0,0:0:0:0:
139,119,62035,2,0,P|161:147|189:165,1,69.0000013160706
392,128,62380,6,0,L|370:193,1,69.0000013160706,4|0,0:0|0:0,0:0:0:0:
348,227,62638,2,0,P|322:250|292:267,1,69.0000013160706
252,272,62897,1,0,0:0:0:0:
416,299,63070,2,0,P|401:308|385:316,2,34.5000006580353
476,211,63414,2,0,P|475:194|472:177,1,34.5000006580353
360,123,63587,2,0,P|360:141|363:158,1,34.5000006580353
460,80,63759,6,0,P|432:36|386:16,1,103.500001974106
344,16,64104,1,0,0:0:0:0:
415,164,64276,2,0,P|410:198|400:230,1,69.0000013160706
256,147,64621,2,0,P|261:131|266:115,2,34.5000006580353
248,168,64880,1,0,0:0:0:0:
236,184,64966,1,0,0:0:0:0:
220,196,65052,1,0,0:0:0:0:
200,204,65138,6,0,L|132:219,1,69.0000013160706
284,284,65483,1,0,0:0:0:0:
176,108,65656,1,0,0:0:0:0:
300,128,65828,1,0,0:0:0:0:
183,247,66001,2,0,P|188:264|196:280,1,34.5000006580353
228,308,66173,2,0,L|290:337,1,69.0000013160706
184,111,66518,6,0,P|176:145|175:180,1,69.0000013160706
380,140,66863,1,0,0:0:0:0:
276,208,67035,1,0,0:0:0:0:
276,208,67121,1,0,0:0:0:0:
276,208,67207,2,0,L|232:176,2,34.5000006580353
276,208,67552,1,0,0:0:0:0:
308,232,67638,1,0,0:0:0:0:
340,256,67725,1,0,0:0:0:0:
376,280,67811,1,0,0:0:0:0:
408,304,67897,6,0,L|464:343,1,69.0000013160706
432,224,68242,1,0,0:0:0:0:
280,291,68414,2,0,P|247:303|213:302,2,69.0000013160706
215,135,68932,2,0,P|217:153|221:169,1,34.5000006580353
347,268,69104,2,0,P|364:265|380:261,1,34.5000006580353
396,96,69276,6,0,P|373:69|344:52,1,69.0000013160706,4|0,0:0|0:0,0:0:0:0:
200,256,69621,1,10,0:0:0:0:
356,208,69794,1,2,0:0:0:0:
332,244,69880,1,0,0:0:0:0:
308,280,69966,1,0,0:0:0:0:
284,312,70052,1,0,0:0:0:0:
260,344,70138,1,4,0:3:0:0:
211,183,70311,2,0,P|217:200|225:215,1,34.5000006580353,8|0,0:0|0:0,0:0:0:0:
288,164,70483,2,0,P|295:179|305:193,1,34.5000006580353,2|0,0:0|0:0,0:0:0:0:
395,95,70656,6,0,L|377:162,1,69.0000013160706,4|2,0:0|0:0,0:0:0:0:
228,88,71001,1,10,0:0:0:0:
452,196,71173,1,4,0:3:0:0:
428,228,71259,1,0,0:0:0:0:
388,244,71345,1,0,0:0:0:0:
224,268,71518,1,4,0:3:0:0:
388,244,71690,1,10,0:0:0:0:
224,268,71863,1,2,0:0:0:0:
287,115,72035,6,0,P|293:149|306:182,1,69.0000013160706,4|0,0:0|0:0,0:0:0:0:
88,64,72380,1,10,0:0:0:0:
212,76,72552,2,0,L|205:144,1,69.0000013160706,2|0,0:0|0:0,0:0:0:0:
295,284,72897,2,0,P|296:266|294:249,1,34.5000006580353,4|0,0:3|0:0,0:0:0:0:
140,188,73070,1,10,0:0:0:0:
140,228,73156,1,0,0:0:0:0:
152,268,73242,2,0,L|172:296,1,34.5000006580353,2|0,0:0|0:0,0:0:0:0:
248,196,73414,5,4,0:0:0:0:
48,280,73587,2,0,L|17:295,2,34.5000006580353,2|0|10,0:0|0:0|0:0,0:0:0:0:
92,120,73932,1,4,0:3:0:0:
164,164,74104,2,0,P|178:173|194:179,1,34.5000006580353,2|0,0:0|0:0,0:0:0:0:
216,104,74276,2,0,P|232:108|249:111,1,34.5000006580353,4|0,0:3|0:0,0:0:0:0:
332,104,74449,1,4,0:0:0:0:
140,44,74621,1,0,0:0:0:0:
164,163,74794,6,0,P|152:196|134:226,1,69.0000013160706,4|0,0:0|0:0,0:0:0:0:
256,28,75138,1,0,0:0:0:0:
204,176,75311,1,0,0:0:0:0:
212,216,75397,1,0,0:0:0:0:
228,252,75483,1,0,0:0:0:0:
256,280,75570,1,0,0:0:0:0:
296,296,75656,1,0,0:0:0:0:
132,272,75828,1,0,0:0:0:0:
376,224,76001,2,0,L|409:214,1,34.5000006580353
367,144,76173,6,0,P|377:93|354:48,1,103.500001974106,4|0,0:0|0:0,0:0:0:0:
316,28,76518,1,0,0:0:0:0:
176,124,76690,1,0,0:0:0:0:
176,124,76776,1,0,0:0:0:0:
175,123,76863,2,0,P|188:156|209:183,1,69.0000013160706
355,259,77207,2,0,P|387:274|421:275,1,69.0000013160706
300,200,77552,5,4,0:0:0:0:
276,320,77725,1,0,0:0:0:0:
124,180,77897,2,0,L|140:246,1,69.0000013160706
336,95,78242,1,0,0:0:0:0:
204,196,78414,1,0,0:0:0:0:
444,128,78587,1,0,0:0:0:0:
436,148,78673,1,0,0:0:0:0:
428,168,78759,1,0,0:0:0:0:
420,188,78845,1,0,0:0:0:0:
412,208,78932,6,0,L|386:272,1,69.0000013160706,4|0,0:0|0:0,0:0:0:0:
252,60,79276,1,0,0:0:0:0:
356,128,79449,1,4,0:0:0:0:
328,156,79535,1,0,0:0:0:0:
291,175,79621,2,0,P|310:204|337:225,1,69.0000013160706
248,104,79966,1,0,0:0:0:0:
220,136,80052,1,0,0:0:0:0:
208,176,80138,1,0,0:0:0:0:
220,216,80225,1,0,0:0:0:0:
247,248,80311,6,0,P|255:281|252:315,1,69.0000013160706,4|0,0:0|0:0,0:0:0:0:
20,224,80656,1,0,0:0:0:0:
172,288,80828,2,0,L|148:352,1,69.0000013160706
112,192,81173,1,0,0:0:0:0:
256,44,81345,1,0,0:0:0:0:
248,84,81432,1,0,0:0:0:0:
240,124,81518,1,0,0:0:0:0:
232,164,81604,1,0,0:0:0:0:
224,204,81690,6,0,L|283:168,1,69.0000013160706,4|0,0:0|0:0,0:0:0:0:
124,116,82035,1,0,0:0:0:0:
284,248,82207,2,0,L|274:281,2,34.5000006580353
316,128,82552,1,0,0:0:0:0:
464,328,82725,2,0,L|474:295,1,34.5000006580353
396,316,82897,2,0,L|396:281,1,34.5000006580353
328,324,83070,6,0,L|297:262,1,69.0000013160706,4|0,0:0|0:0,0:0:0:0:
220,116,83414,1,0,0:0:0:0:
344,112,83587,1,0,0:0:0:0:
344,112,83673,1,0,0:0:0:0:
344,112,83759,1,0,0:0:0:0:
288,176,83932,1,0,0:0:0:0:
452,164,84104,2,0,P|452:181|449:198,1,34.5000006580353
312,288,84276,2,0,P|309:270|309:253,1,34.5000006580353
432,276,84449,6,0,L|392:332,1,69.0000013160706,4|0,0:0|0:0,0:0:0:0:
336,92,84794,1,0,0:0:0:0:
380,208,84966,1,0,0:0:0:0:
340,192,85052,1,0,0:0:0:0:
300,176,85138,2,0,L|268:162,2,34.5000006580353
112,103,85483,2,0,P|101:117|94:133,1,34.5000006580353,4|0,0:0|0:0,0:0:0:0:
212,252,85656,2,0,P|222:238|229:222,1,34.5000006580353
256,60,85828,6,0,L|262:128,1,69.0000013160706,4|0,0:0|0:0,0:0:0:0:
484,240,86173,1,0,0:0:0:0:
324,191,86345,2,0,P|290:198|258:212,1,69.0000013160706
328,112,86690,1,0,0:0:0:0:
268,312,86863,2,0,L|279:279,1,34.5000006580353
200,296,87035,2,0,L|194:261,1,34.5000006580353
132,316,87207,6,0,L|97:256,2,69.0000013160706,4|0|0,0:0|0:0|0:0,0:0:0:0:
148,68,87725,1,0,0:0:0:0:
164,108,87811,1,0,0:0:0:0:
180,144,87897,1,0,0:0:0:0:
196,180,87983,1,0,0:0:0:0:
211,215,88070,2,0,P|223:228|236:240,1,34.5000006580353
360,128,88242,1,0,0:0:0:0:
172,292,88414,2,0,L|197:315,1,34.5000006580353
180,68,88587,6,0,L|151:130,1,69.0000013160706,4|0,0:0|0:0,0:0:0:0:
308,192,88932,1,0,0:0:0:0:
60,192,89104,1,0,0:0:0:0:
92,220,89190,1,0,0:0:0:0:
132,236,89276,1,0,0:0:0:0:
172,236,89363,1,0,0:0:0:0:
212,224,89449,2,0,L|239:203,1,34.5000006580353
340,72,89621,2,0,L|319:99,2,34.5000006580353,4|0|0,0:0|0:0|0:0,0:0:0:0:
296,132,89966,5,0,0:0:0:0:
60,56,90138,2,0,L|68:89,1,34.5000006580353
296,132,90311,1,0,0:0:0:0:
140,188,90483,1,0,0:0:0:0:
384,232,90656,1,0,0:0:0:0:
384,232,90742,1,0,0:0:0:0:
384,232,90828,1,0,0:0:0:0:
168,108,91001,1,0,0:0:0:0:
111,109,91087,1,0,0:0:0:0:
67,146,91173,1,0,0:0:0:0:
56,198,91259,1,0,0:0:0:0:
79,247,91345,5,4,0:0:0:0:
256,192,101001,5,0,0:0:0:0:
256,192,101690,1,0,0:0:0:0:
272,180,101776,1,0,0:0:0:0:
292,176,101863,1,0,0:0:0:0:
312,180,101949,1,0,0:0:0:0:
328,192,102035,1,0,0:0:0:0:
344,224,102121,1,0,0:0:0:0:
340,260,102207,1,0,0:0:0:0:
316,284,102294,1,0,0:0:0:0:
280,292,102380,6,0,L|208:276,1,69.0000013160706
132,132,102725,1,0,0:0:0:0:
108,212,102897,1,0,0:0:0:0:
103,232,102983,1,0,0:0:0:0:
97,252,103070,1,0,0:0:0:0:
260,212,103242,1,0,0:0:0:0:
192,64,103414,2,0,L|205:95,1,34.5000006580353
280,56,103587,2,0,L|301:82,1,34.5000006580353
364,24,103759,6,0,L|424:56,1,69.0000013160706
424,224,104104,1,0,0:0:0:0:
484,163,104276,2,0,P|491:148|495:131,2,34.5000006580353
320,164,104621,1,0,0:0:0:0:
424,292,104794,1,0,0:0:0:0:
392,316,104880,1,0,0:0:0:0:
352,328,104966,1,0,0:0:0:0:
312,328,105052,1,0,0:0:0:0:
272,312,105138,6,0,L|218:268,2,69.0000013160706
280,148,105656,1,0,0:0:0:0:
140,240,105828,2,0,L|71:250,1,69.0000013160706
96,172,106173,1,0,0:0:0:0:
188,312,106345,1,0,0:0:0:0:
304,192,106518,6,0,B|336:208|336:208|403:199,1,103.500001974106
444,192,106863,1,0,0:0:0:0:
328,232,107035,1,0,0:0:0:0:
232,152,107207,1,0,0:0:0:0:
232,152,107294,1,0,0:0:0:0:
232,152,107380,1,0,0:0:0:0:
304,112,107552,1,0,0:0:0:0:
224,256,107725,1,0,0:0:0:0:
468,308,107897,6,0,P|427:276|377:266,1,103.500001974106
356,232,108242,2,0,L|390:172,1,69.0000013160706
224,192,108587,1,0,0:0:0:0:
280,80,108759,1,0,0:0:0:0:
36,132,108932,1,0,0:0:0:0:
48,148,109018,1,0,0:0:0:0:
60,164,109104,1,0,0:0:0:0:
72,180,109190,1,0,0:0:0:0:
83,195,109276,6,0,P|114:212|148:217,1,69.0000013160706
296,144,109621,1,0,0:0:0:0:
148,217,109794,1,0,0:0:0:0:
312,212,109966,1,0,0:0:0:0:
312,212,110052,1,0,0:0:0:0:
312,212,110138,1,0,0:0:0:0:
151,63,110311,2,0,P|166:72|179:84,1,34.5000006580353
124,196,110483,2,0,P|109:187|96:175,1,34.5000006580353
243,248,110656,6,0,P|231:280|210:307,1,69.0000013160706
360,236,111001,1,0,0:0:0:0:
160,88,111173,1,0,0:0:0:0:
164,128,111259,1,0,0:0:0:0:
180,168,111345,1,0,0:0:0:0:
208,200,111432,1,0,0:0:0:0:
244,220,111518,1,0,0:0:0:0:
84,172,111690,1,0,0:0:0:0:
316,80,111863,1,0,0:0:0:0:
356,64,111949,1,0,0:0:0:0:
395,47,112035,6,0,L|427:34,1,34.5000006580353
368,188,112207,2,0,L|336:201,1,34.5000006580353
96,132,112380,2,0,L|128:193,1,69.0000013160706
256,88,112725,1,0,0:0:0:0:
256,88,112811,1,0,0:0:0:0:
256,88,112897,1,0,0:0:0:0:
64,244,113070,1,0,0:0:0:0:
96,268,113156,1,0,0:0:0:0:
136,276,113242,1,0,0:0:0:0:
176,260,113328,1,0,0:0:0:0:
204,228,113414,6,0,L|260:267,1,69.0000013160706
416,216,113759,1,0,0:0:0:0:
196,96,113932,2,0,L|264:90,1,69.0000013160706
348,80,114276,1,0,0:0:0:0:
128,200,114449,2,0,L|97:216,1,34.5000006580353
172,256,114621,2,0,L|156:286,1,34.5000006580353
240,272,114794,6,0,L|246:340,2,69.0000013160706
336,136,115311,1,0,0:0:0:0:
176,172,115483,1,0,0:0:0:0:
348,56,115656,1,0,0:0:0:0:
312,300,115828,2,0,B|312:268|312:268|301:232,1,69.0000013160706
455,292,116173,6,0,P|472:262|484:229,1,69.0000013160706
276,92,116518,1,0,0:0:0:0:
407,192,116690,1,0,0:0:0:0:
236,260,116863,2,0,P|252:264|269:269,1,34.5000006580353
244,192,117035,2,0,P|261:192|278:189,1,34.5000006580353
228,123,117207,2,0,P|261:116|292:101,1,69.0000013160706
272,20,117552,5,0,0:0:0:0:
44,124,117725,2,0,L|110:106,1,69.0000013160706
256,192,118070,1,0,0:0:0:0:
52,52,118242,1,0,0:0:0:0:
88,32,118328,1,0,0:0:0:0:
128,28,118414,1,0,0:0:0:0:
180,184,118587,1,0,0:0:0:0:
188,224,118673,1,0,0:0:0:0:
216,256,118759,1,0,0:0:0:0:
256,268,118845,1,0,0:0:0:0:
296,264,118932,6,0,L|368:220,1,69.0000013160706
204,156,119276,1,0,0:0:0:0:
368,160,119449,1,0,0:0:0:0:
144,56,119621,2,0,L|175:69,1,34.5000006580353
120,132,119794,2,0,L|131:164,1,34.5000006580353
48,164,119966,2,0,L|41:232,1,69.0000013160706
40,252,120225,1,0,0:0:0:0:
40,272,120311,6,0,P|56:304|92:332,1,69.0000013160706
211,115,120656,2,0,P|222:129|231:144,1,34.5000006580353
184,260,120828,2,0,P|193:274|203:288,1,34.5000006580353
340,192,121001,2,0,L|329:260,1,69.0000013160706
368,275,121259,2,0,P|380:308|405:331,1,69.0000013160706
444,340,121518,1,0,0:0:0:0:
320,123,121690,6,0,P|290:141|271:170,2,69.0000013160706
256,276,122207,1,0,0:0:0:0:
159,47,122380,2,0,P|193:53|225:67,1,69.0000013160706
36,228,122725,1,0,0:0:0:0:
76,212,122811,1,0,0:0:0:0:
116,216,122897,1,0,0:0:0:0:
152,240,122983,1,0,0:0:0:0:
171,275,123070,6,0,P|195:301|226:314,1,69.0000013160706
380,256,123414,1,0,0:0:0:0:
488,192,123587,1,0,0:0:0:0:
336,124,123759,2,0,L|305:108,2,34.5000006580353
412,88,124104,1,0,0:0:0:0:
184,188,124276,1,0,0:0:0:0:
255,288,124449,6,0,P|289:278|319:262,1,69.0000013160706
92,156,124794,1,0,0:0:0:0:
144,220,124966,1,0,0:0:0:0:
215,68,125138,2,0,P|228:55|242:46,1,34.5000006580353
284,208,125311,1,0,0:0:0:0:
365,62,125483,1,0,0:0:0:0:
368,84,125570,1,0,0:0:0:0:
372,104,125656,1,0,0:0:0:0:
376,124,125742,1,0,0:0:0:0:
380,144,125828,6,0,P|401:118|431:101,1,69.0000013160706
188,148,126173,2,0,L|154:154,1,34.5000006580353
212,216,126345,2,0,L|178:222,1,34.5000006580353
184,76,126518,2,0,L|115:86,1,69.0000013160706
115,86,126863,2,0,L|94:113,1,34.5000006580353
132,276,127035,2,0,L|110:303,1,34.5000006580353
255,223,127207,6,0,P|284:243|305:270,1,69.0000013160706
188,52,127552,1,0,0:0:0:0:
216,80,127638,1,0,0:0:0:0:
256,96,127725,1,0,0:0:0:0:
296,100,127811,1,0,0:0:0:0:
336,92,127897,2,0,L|395:57,1,69.0000013160706
200,212,128242,1,0,0:0:0:0:
220,216,128328,1,0,0:0:0:0:
240,220,128414,1,0,0:0:0:0:
260,224,128501,1,0,0:0:0:0:
280,228,128587,6,0,L|348:239,1,69.0000013160706
136,112,128932,1,0,0:0:0:0:
300,108,129105,1,0,0:0:0:0:
140,296,129276,2,0,L|161:269,1,34.5000006580353
56,144,129449,1,0,0:0:0:0:
312,172,129621,1,0,0:0:0:0:
312,172,129707,1,0,0:0:0:0:
312,172,129794,1,0,0:0:0:0:
164,100,129966,6,0,L|178:167,2,69.0000013160706
128,260,130483,1,0,0:0:0:0:
371,216,130656,2,0,P|339:227|305:231,1,69.0000013160706
264,220,130914,2,0,L|283:286,1,69.0000013160706
264,323,131173,2,0,P|251:335|236:345,1,34.5000006580353
196,100,131345,6,0,P|216:127|232:158,1,69.0000013160706
72,204,131690,1,0,0:0:0:0:
275,60,131863,2,0,P|293:59|310:61,2,34.5000006580353
192,68,132207,1,0,0:0:0:0:
332,272,132380,1,0,0:0:0:0:
348,232,132466,1,0,0:0:0:0:
364,192,132552,1,0,0:0:0:0:
380,152,132638,1,0,0:0:0:0:
396,112,132725,5,0,0:0:0:0:
312,108,132897,1,0,0:0:0:0:
444,204,133070,2,0,L|417:267,1,69.0000013160706
256,296,133414,2,0,L|268:328,2,34.5000006580353
151,71,133759,2,0,P|162:85|174:98,1,34.5000006580353
404,192,133932,2,0,P|416:204|426:218,1,34.5000006580353
180,224,134104,6,0,L|209:161,2,69.0000013160706
136,296,134621,1,0,0:0:0:0:
288,236,134794,2,0,L|308:192,2,34.5000006580353
356,280,135138,1,0,0:0:0:0:
368,260,135311,1,0,0:0:0:0:
380,240,135483,5,0,0:0:0:0:
256,192,152035,12,0,156173,0:0:0:0:
164,139,156863,6,0,P|184:130|202:117,3,45.0000017166138
236,76,157552,5,0,0:0:0:0:
276,176,157725,1,0,0:0:0:0:
352,100,157898,1,0,0:0:0:0:
336,208,158070,2,0,B|332:236|332:236|340:274,1,67.5000025749207
348,300,158414,1,0,0:0:0:0:
244,264,158587,1,0,0:0:0:0:
304,356,158759,2,0,B|276:348|276:348|237:351,1,67.5000025749207
212,356,159104,5,0,0:0:0:0:
136,280,159276,2,0,L|128:324,1,45.0000017166138
63,175,159621,2,0,P|83:187|104:194,3,45.0000017166138
156,208,160311,5,0,0:0:0:0:
256,172,160483,1,0,0:0:0:0:
152,136,160655,1,0,0:0:0:0:
252,99,160827,2,0,P|275:61|283:17,1,90.0000034332277
328,172,161345,1,0,0:0:0:0:
372,76,161518,2,0,P|384:107|391:140,1,67.5000025749207
396,168,161863,5,0,0:0:0:0:
300,216,162035,2,0,L|308:260,1,45.0000017166138
152,224,162380,2,0,L|143:179,1,45.0000017166138
236,124,162725,2,0,L|227:168,1,45.0000017166138
324,120,163070,6,0,L|343:79,2,45.0000017166138
260,268,163587,2,0,B|288:260|288:260|347:272,1,90.0000034332277
400,288,164104,1,0,0:0:0:0:
276,180,164276,2,0,B|256:200|256:200|196:214,1,90.0000034332277
144,228,164794,5,0,0:0:0:0:
188,132,164966,1,0,0:0:0:0:
263,275,165139,2,0,P|280:291|298:304,3,45.0000017166138
348,328,165828,5,0,0:0:0:0:
324,224,166001,1,0,0:0:0:0:
476,276,166173,1,0,0:0:0:0:
388,212,166346,2,0,B|376:180|376:180|379:146,1,67.5000025749207
384,120,166690,1,0,0:0:0:0:
292,180,166863,1,0,0:0:0:0:
140,128,167035,2,0,P|159:167|158:212,1,90.0000034332277
103,56,167552,6,0,P|116:37|134:23,1,45.0000017166138
44,156,167897,1,0,0:0:0:0:
124,148,168070,1,0,0:0:0:0:
92,224,168242,1,0,0:0:0:0:
12,228,168414,1,0,0:0:0:0:
55,295,168587,6,0,P|56:318|53:340,1,45.0000017166138
148,288,168932,2,0,P|153:309|156:331,1,45.0000017166138
256,140,169449,1,0,0:0:0:0:
308,204,169621,2,0,P|319:223|327:244,1,45.0000017166138
440,128,170138,5,0,0:0:0:0:
363,103,170311,2,0,P|342:96|322:87,1,45.0000017166138
168,143,170656,2,0,P|167:166|172:188,1,45.0000017166138
247,163,171001,2,0,P|251:186|257:207,1,45.0000017166138
335,184,171345,6,0,P|358:180|380:181,2,45.0000017166138
227,289,171863,2,0,P|251:251|257:207,1,90.0000034332277
148,212,172380,1,0,0:0:0:0:
288,128,172553,1,0,0:0:0:0:
288,128,172725,6,0,L|288:83,1,45.0000017166138
300,208,173070,1,0,0:0:0:0:
364,260,173242,1,0,0:0:0:0:
444,280,173415,2,0,L|488:288,1,45.0000017166138
328,287,173759,2,0,P|314:306|305:326,1,45.0000017166138
243,175,174104,6,0,P|257:193|274:208,2,45.0000017166138
344,131,174621,2,0,P|366:107|375:74,1,67.5000025749207
376,48,174966,1,0,0:0:0:0:
432,140,175138,1,0,0:0:0:0:
332,268,175310,2,0,B|364:256|364:256|396:263,1,67.5000025749207
424,272,175656,5,0,0:0:0:0:
284,192,175828,2,0,P|275:171|274:148,1,45.0000017166138
116,116,176173,2,0,L|147:147,1,45.0000017166138
164,172,176432,1,0,0:0:0:0:
172,196,176518,1,0,0:0:0:0:
176,224,176604,1,0,0:0:0:0:
172,252,176690,1,0,0:0:0:0:
96,224,176863,6,0,L|74:288,1,67.5000025749207
68,312,177207,1,0,0:0:0:0:
272,240,177380,1,0,0:0:0:0:
168,212,177552,1,0,0:0:0:0:
156,188,177639,1,0,0:0:0:0:
144,164,177725,1,0,0:0:0:0:
273,67,177897,2,0,L|292:108,1,45.0000017166138
140,303,178242,6,0,P|175:293|208:274,1,75
216,260,178759,2,0,L|225:231,3,30
225,231,179621,5,0,0:0:0:0:
372,304,179794,1,0,0:0:0:0:
291,159,179966,2,0,P|321:176|355:181,1,69.0000013160706
216,96,180311,2,0,L|182:102,2,34.5000006580353
454,170,180656,2,0,L|420:176,1,34.5000006580353
346,78,180828,2,0,L|380:72,1,34.5000006580353
432,292,181001,6,0,L|364:307,1,69.0000013160706
240,196,181345,1,0,0:0:0:0:
276,316,181517,1,0,0:0:0:0:
276,316,181604,1,0,0:0:0:0:
276,316,181690,1,0,0:0:0:0:
204,272,181862,1,0,0:0:0:0:
348,191,182035,2,0,P|357:177|364:161,1,34.5000006580353
200,144,182207,1,0,0:0:0:0:
324,32,182380,6,0,L|300:96,2,69.0000013160706
92,120,182897,2,0,L|76:150,2,34.5000006580353
128,44,183242,1,0,0:0:0:0:
156,208,183414,1,0,0:0:0:0:
380,96,183587,1,0,0:0:0:0:
216,59,183759,6,0,P|217:94|229:126,1,69.0000013160706
388,168,184104,1,0,0:0:0:0:
144,204,184276,1,0,0:0:0:0:
144,204,184363,1,0,0:0:0:0:
144,204,184449,2,0,P|126:174|119:140,1,69.0000013160706
260,232,184793,1,0,0:0:0:0:
228,257,184880,1,0,0:0:0:0:
189,274,184966,1,0,0:0:0:0:
149,280,185052,1,0,0:0:0:0:
110,274,185138,5,0,0:0:0:0:
348,348,185311,1,0,0:0:0:0:
344,190,185483,2,0,P|332:223|332:257,1,69.0000013160706
456,140,185828,1,0,0:0:0:0:
324,68,186001,2,0,P|348:92|368:119,1,69.0000013160706
384,160,186259,1,0,0:0:0:0:
380,200,186345,1,0,0:0:0:0:
356,236,186432,1,0,0:0:0:0:
320,252,186518,5,0,0:0:0:0:
480,216,186690,1,0,0:0:0:0:
480,216,186776,1,0,0:0:0:0:
480,216,186863,1,0,0:0:0:0:
252,96,187034,2,0,L|280:115,1,34.5000006580353
440,159,187207,2,0,P|450:146|459:131,1,34.5000006580353
360,140,187380,1,0,0:0:0:0:
327,284,187552,2,0,P|350:258|364:226,1,69.0000013160706
186,111,187897,6,0,B|200:172|148:192|152:256,1,138.000002632141
404,236,188415,1,0,0:0:0:0:
392,276,188501,1,0,0:0:0:0:
364,308,188588,2,0,L|301:337,1,69.0000013160706
280,172,188932,2,0,L|296:202,1,34.5000006580353
212,200,189104,2,0,L|212:234,1,34.5000006580353
140,196,189276,6,0,L|107:257,1,69.0000013160706
76,92,189621,1,0,0:0:0:0:
316,148,189794,1,0,0:0:0:0:
316,148,189880,1,0,0:0:0:0:
316,148,189966,1,0,0:0:0:0:
256,40,190138,1,0,0:0:0:0:
428,156,190311,1,0,0:0:0:0:
417,196,190397,1,0,0:0:0:0:
392,229,190483,1,0,0:0:0:0:
358,253,190570,1,0,0:0:0:0:
317,261,190656,6,0,L|375:297,1,69.0000013160706
336,136,191001,1,0,0:0:0:0:
236,267,191173,2,0,P|222:278|207:286,2,34.5000006580353
184,156,191518,1,0,0:0:0:0:
392,292,191690,1,0,0:0:0:0:
408,280,191776,1,0,0:0:0:0:
420,264,191862,1,0,0:0:0:0:
428,244,191949,1,0,0:0:0:0:
428,224,192035,6,0,L|412:156,1,69.0000013160706
356,312,192380,1,0,0:0:0:0:
284,140,192552,1,0,0:0:0:0:
284,140,192639,1,0,0:0:0:0:
284,140,192725,1,0,0:0:0:0:
256,60,192897,1,0,0:0:0:0:
204,228,193070,2,0,P|220:225|237:220,1,34.5000006580353
136,92,193242,2,0,P|121:83|107:73,1,34.5000006580353
284,140,193414,6,0,P|300:171|311:204,1,69.0000013160706
88,248,193759,1,0,0:0:0:0:
252,256,193932,1,0,0:0:0:0:
252,256,194018,1,0,0:0:0:0:
252,256,194104,1,0,0:0:0:0:
160,172,194276,1,0,0:0:0:0:
396,95,194449,2,0,P|420:71|436:41,1,69.0000013160706
400,204,194794,6,0,P|408:237|422:268,1,69.0000013160706
484,324,195138,1,0,0:0:0:0:
248,251,195311,2,0,P|237:265|230:281,1,34.5000006580353
396,292,195483,2,0,P|391:275|384:259,1,34.5000006580353
280,188,195656,1,0,0:0:0:0:
237,54,195828,2,0,P|264:75|284:104,1,69.0000013160706
428,155,196173,6,0,P|457:138|479:112,1,69.0000013160706
316,108,196518,1,0,0:0:0:0:
496,280,196690,1,0,0:0:0:0:
332,248,196863,2,0,L|299:258,2,34.5000006580353
332,248,197207,1,0,0:0:0:0:
324,268,197294,1,0,0:0:0:0:
316,288,197380,1,0,0:0:0:0:
308,308,197466,1,0,0:0:0:0:
300,328,197552,5,0,0:0:0:0:
383,319,197725,2,0,P|417:326|447:343,1,69.0000013160706
360,204,198070,1,0,0:0:0:0:
439,227,198242,2,0,P|456:232|473:232,2,34.5000006580353
316,116,198587,1,0,0:0:0:0:
328,156,198673,1,0,0:0:0:0:
340,196,198759,1,0,0:0:0:0:
352,236,198845,1,0,0:0:0:0:
364,275,198932,6,0,P|388:300|419:316,1,69.0000013160706
200,272,199276,1,0,0:0:0:0:
412,148,199448,1,0,0:0:0:0:
448,128,199534,1,0,0:0:0:0:
472,96,199620,2,0,L|480:62,1,34.5000006580353
316,88,199794,1,0,0:0:0:0:
416,220,199966,1,0,0:0:0:0:
418,262,200052,1,0,0:0:0:0:
404,299,200139,1,0,0:0:0:0:
376,327,200225,1,0,0:0:0:0:
339,341,200311,5,0,0:0:0:0:
260,248,200483,2,0,P|248:236|239:222,1,34.5000006580353
388,148,200656,2,0,P|396:132|401:116,1,34.5000006580353
156,152,200828,2,0,P|176:179|192:192,1,34.5000006580353
256,32,201001,2,0,P|252:84|237:133,1,103.500001974106
128,76,201518,1,0,0:0:0:0:
384,56,201690,5,0,0:0:0:0:
288,188,201863,1,0,0:0:0:0:
288,188,201949,1,0,0:0:0:0:
287,188,202035,2,0,P|318:171|352:166,1,69.0000013160706
428,200,202380,2,0,L|487:165,1,69.0000013160706
256,72,202725,2,0,L|276:99,1,34.5000006580353
212,152,202897,2,0,L|245:160,1,34.5000006580353
220,240,203070,6,0,L|286:219,1,69.0000013160706
44,164,203414,1,0,0:0:0:0:
200,108,203587,1,0,0:0:0:0:
220,72,203673,1,0,0:0:0:0:
216,32,203760,1,0,0:0:0:0:
124,172,203932,2,0,L|157:181,1,34.5000006580353
168,304,204104,2,0,L|201:313,1,34.5000006580353
320,344,204276,1,0,0:0:0:0:
236,156,204449,6,0,B|272:132|272:132|365:148,1,138.000002632141
167,114,204966,2,0,P|155:147|157:181,1,69.0000013160706
296,272,205311,2,0,L|313:301,2,34.5000006580353
252,200,205656,1,0,0:0:0:0:
103,275,205828,6,0,P|72:262|46:239,1,69.0000013160706
292,288,206173,1,0,0:0:0:0:
352,232,206345,1,0,0:0:0:0:
372,196,206432,1,0,0:0:0:0:
380,156,206518,2,0,L|374:121,1,34.5000006580353
224,192,206690,2,0,L|229:226,1,34.5000006580353
316,83,206863,2,0,P|284:96|250:103,1,69.0000013160706
484,24,207207,6,0,L|438:154,1,138.000002632141
276,192,207724,1,0,0:0:0:0:
312,208,207810,1,0,0:0:0:0:
344,236,207897,2,0,L|366:301,1,69.0000013160706
364,52,208242,1,0,0:0:0:0:
376,92,208328,1,0,0:0:0:0:
388,132,208414,1,0,0:0:0:0:
400,172,208500,1,0,0:0:0:0:
412,212,208587,5,0,0:0:0:0:
276,116,208759,1,0,0:0:0:0:
236,100,208845,1,0,0:0:0:0:
196,100,208931,2,0,L|132:127,1,69.0000013160706
376,172,209276,2,0,P|357:201|332:224,1,69.0000013160706
315,264,209535,2,0,P|327:296|349:322,1,69.0000013160706
336,360,209794,1,0,0:0:0:0:
460,252,209966,6,0,L|422:309,1,69.0000013160706
216,168,210311,1,0,0:0:0:0:
196,176,210397,1,0,0:0:0:0:
176,184,210483,1,0,0:0:0:0:
279,116,210656,2,0,P|287:82|284:48,1,69.0000013160706
80,192,211001,2,0,L|88:225,1,34.5000006580353
172,220,211173,2,0,L|180:253,1,34.5000006580353
259,235,211345,6,0,P|326:246|389:218,1,138.000002632141
348,292,211863,1,0,0:0:0:0:
300,128,212035,2,0,L|310:95,2,34.5000006580353
60,192,212380,1,0,0:0:0:0:
96,172,212466,1,0,0:0:0:0:
136,168,212552,1,0,0:0:0:0:
176,176,212638,1,0,0:0:0:0:
207,199,212725,6,0,P|234:221|267:231,1,69.0000013160706
180,92,213070,1,0,0:0:0:0:
423,140,213242,2,0,P|449:117|466:87,1,69.0000013160706
224,40,213587,2,0,L|249:104,2,69.0000013160706
336,160,214104,5,0,0:0:0:0:
336,160,214276,2,0,P|326:193|312:224,1,69.0000013160706
152,188,214621,1,0,0:0:0:0:
280,292,214793,1,0,0:0:0:0:
296,332,214880,1,0,0:0:0:0:
312,372,214966,1,0,0:0:0:0:
363,308,215138,2,0,P|377:296|392:289,1,34.5000006580353
256,192,215311,2,0,P|242:180|227:173,1,34.5000006580353
352,63,215483,6,0,P|380:44|414:38,1,69.0000013160706
412,124,215828,1,0,0:0:0:0:
172,52,216001,1,0,0:0:0:0:
304,260,216173,1,0,0:0:0:0:
256,100,216345,1,0,0:0:0:0:
384,260,216518,1,0,0:0:0:0:
376,300,216605,1,0,0:0:0:0:
348,328,216691,1,0,0:0:0:0:
308,340,216777,1,0,0:0:0:0:
268,332,216863,5,0,0:0:0:0:
208,180,217035,1,0,0:0:0:0:
208,180,217122,1,0,0:0:0:0:
207,179,217208,2,0,P|234:201|266:213,1,69.0000013160706
348,204,217552,2,0,L|379:189,1,34.5000006580353
288,52,217725,2,0,L|256:66,1,34.5000006580353
180,100,217897,1,0,0:0:0:0:
360,272,218070,1,0,0:0:0:0:
216,192,218242,6,0,B|232:236|232:236|212:344,1,138.000002632141
296,180,218759,1,0,0:0:0:0:
140,112,218932,2,0,P|111:92|90:65,1,69.0000013160706
340,60,219276,2,0,L|324:90,1,34.5000006580353
408,104,219449,2,0,L|402:138,1,34.5000006580353
484,132,219621,6,0,L|490:200,1,69.0000013160706
488,244,219880,1,0,0:0:0:0:
472,284,219966,1,0,0:0:0:0:
408,336,220138,1,0,0:0:0:0:
332,192,220311,2,0,L|275:230,1,69.0000013160706
96,60,220656,1,0,0:0:0:0:
92,100,220742,1,0,0:0:0:0:
104,140,220828,1,0,0:0:0:0:
128,176,220914,1,0,0:0:0:0:
164,200,221000,5,0,0:0:0:0:
212,84,221173,1,0,0:0:0:0:
16,236,221346,2,0,P|37:263|64:284,1,69.0000013160706
284,172,221690,1,0,0:0:0:0:
284,172,221776,1,0,0:0:0:0:
284,172,221863,2,0,L|248:240,1,69.0000013160706
332,252,222207,2,0,L|348:221,1,34.5000006580353
208,317,222380,6,0,L|192:348,1,34.5000006580353
164,156,222552,2,0,L|133:217,2,69.0000013160706
228,48,223070,1,0,0:0:0:0:
264,68,223156,1,0,0:0:0:0:
304,72,223242,1,0,0:0:0:0:
420,192,223414,1,0,0:0:0:0:
379,227,223500,1,0,0:0:0:0:
325,242,223587,1,0,0:0:0:0:
269,232,223673,1,0,0:0:0:0:
228,192,223760,5,0,0:0:0:0:
236,112,223932,1,0,0:0:0:0:
304,160,224104,1,0,0:0:0:0:
183,267,224276,2,0,P|140:216|146:150,1,138.000002632141
240,35,224794,2,0,P|230:67|209:94,1,69.0000013160706
320,220,225138,1,0,0:0:0:0:
400,200,225310,1,0,0:0:0:0:
280,164,225483,1,0,0:0:0:0:
296,288,225655,2,0,B|336:292|336:292|410:355,1,138.000002632141
376,280,226173,1,0,0:0:0:0:
224,348,226345,1,0,0:0:0:0:
224,348,226518,6,0,L|184:291,1,69.0000013160706
320,196,226863,1,0,0:0:0:0:
96,304,227035,2,0,L|132:171,1,138.000002632141
120,88,227552,2,0,P|104:57|78:35,1,69.0000013160706
304,140,227897,6,0,L|369:117,2,69.0000013160706
432,32,228414,2,0,P|468:89|465:156,1,138.000002632141
304,192,228932,1,0,0:0:0:0:
464,228,229104,1,0,0:0:0:0:
396,180,229276,5,0,0:0:0:0:
388,264,229449,1,0,0:0:0:0:
276,208,229621,1,0,0:0:0:0:
359,116,229794,2,0,P|292:127|229:103,1,138.000002632141
172,44,230311,1,0,0:0:0:0:
296,48,230483,1,0,0:0:0:0:
168,152,230655,5,0,0:0:0:0:
168,152,230828,1,0,0:0:0:0:
332,152,231001,1,0,0:0:0:0:
332,152,231173,2,0,L|332:290,1,138.000002632141
276,228,231690,2,0,P|246:210|213:200,1,69.0000013160706
332,84,232035,6,0,P|359:62|378:34,1,69.0000013160706
220,80,232380,1,0,0:0:0:0:
367,152,232553,2,0,P|401:143|430:125,1,69.0000013160706
444,112,232811,1,0,0:0:0:0:
456,96,232897,1,0,0:0:0:0:
387,232,233070,2,0,P|420:242|455:243,1,69.0000013160706
344,300,233414,5,0,0:0:0:0:
344,300,234104,1,0,0:0:0:0:
344,300,234190,1,0,0:0:0:0:
344,300,234276,2,0,P|313:284|280:274,1,69.0000013160706
196,284,234621,1,0,0:0:0:0:
428,191,234794,6,0,P|456:172|478:146,1,69.0000013160706
328,72,235138,1,0,0:0:0:0:
407,87,235310,2,0,P|425:90|442:88,2,34.5000006580353
248,44,235656,1,0,0:0:0:0:
404,236,235828,1,0,0:0:0:0:
392,252,235914,1,0,0:0:0:0:
376,264,236001,1,0,0:0:0:0:
356,272,236087,1,0,0:0:0:0:
336,276,236173,5,0,0:0:0:0:
336,192,236345,1,0,0:0:0:0:
192,276,236518,1,0,0:0:0:0:
264,128,236690,2,0,P|260:93|249:61,1,69.0000013160706
249,61,237035,1,0,0:0:0:0:
432,228,237207,2,0,L|406:204,1,34.5000006580353
336,252,237380,2,0,L|304:238,1,34.5000006580353
264,308,237552,6,0,L|195:316,2,69.0000013160706
152,188,238070,1,0,0:0:0:0:
148,148,238156,1,0,0:0:0:0:
160,108,238242,2,0,L|199:51,1,69.0000013160706
40,92,238587,1,0,0:0:0:0:
268,192,238759,1,0,0:0:0:0:
116,256,238932,6,0,B|160:224|160:224|207:155,1,138.000002632141
200,72,239449,1,0,0:0:0:0:
268,312,239621,1,0,0:0:0:0:
268,312,239707,1,0,0:0:0:0:
268,312,239793,1,0,0:0:0:0:
348,163,239966,2,0,P|302:188|251:191,1,103.500001974106
212,180,240311,5,0,0:0:0:0:
360,256,240483,1,0,0:0:0:0:
211,55,240655,2,0,P|241:73|275:80,1,69.0000013160706
436,48,241001,2,0,L|410:112,1,69.0000013160706
408,152,241259,2,0,P|418:184|443:207,1,69.0000013160706
460,224,241518,1,0,0:0:0:0:
468,244,241604,1,0,0:0:0:0:
471,263,241690,6,0,P|475:298|466:331,1,69.0000013160706
244,216,242035,1,0,0:0:0:0:
396,148,242207,1,0,0:0:0:0:
376,184,242293,1,0,0:0:0:0:
367,224,242379,2,0,P|374:257|394:285,1,69.0000013160706
227,99,242725,2,0,P|214:89|198:83,1,34.5000006580353
148,240,242897,2,0,P|161:250|177:256,1,34.5000006580353
364,92,243070,6,0,P|395:105|429:113,1,69.0000013160706
184,152,243414,1,0,0:0:0:0:
344,192,243587,1,0,0:0:0:0:
344,192,243673,1,0,0:0:0:0:
344,192,243760,1,0,0:0:0:0:
356,232,243845,1,0,0:0:0:0:
348,272,243932,1,0,0:0:0:0:
320,304,244018,1,0,0:0:0:0:
280,316,244104,2,0,L|245:316,1,34.5000006580353
292,72,244276,2,0,L|326:72,1,34.5000006580353
256,220,244449,5,0,0:0:0:0:
220,244,244535,1,0,0:0:0:0:
180,248,244621,1,0,0:0:0:0:
140,240,244707,1,0,0:0:0:0:
108,212,244794,2,0,L|90:182,1,34.5000006580353
152,72,244966,2,0,L|169:101,1,34.5000006580353
316,142,245138,2,0,P|300:148|283:152,1,34.5000006580353
171,281,245311,2,0,P|173:263|179:247,1,34.5000006580353
424,292,245483,1,0,0:0:0:0:
372,316,245570,1,0,0:0:0:0:
320,304,245656,1,0,0:0:0:0:
284,260,245742,1,0,0:0:0:0:
288,204,245828,6,0,L|306:163,2,45.0000017166138
136,151,246345,2,0,P|168:143|201:150,1,67.5000025749207
224,164,246690,1,0,0:0:0:0:
168,72,246863,1,0,0:0:0:0:
324,116,247035,2,0,B|352:124|352:124|412:114,1,90.0000034332277
288,215,247552,6,0,P|282:237|284:260,1,45.0000017166138
284,260,248070,1,0,0:0:0:0:
432,192,248242,1,0,0:0:0:0:
360,112,248414,2,0,B|332:84|332:84|316:100|286:105,1,90.0000034332277
180,116,248932,5,0,0:0:0:0:
324,187,249104,2,0,P|292:199|258:203,1,67.5000025749207
232,204,249449,1,0,0:0:0:0:
127,171,249621,2,0,P|113:154|104:134,1,45.0000017166138
232,32,249966,5,0,0:0:0:0:
280,96,250138,1,0,0:0:0:0:
356,120,250311,2,0,L|400:126,1,45.0000017166138
256,204,250656,2,0,L|211:210,2,45.0000017166138
336,196,251173,1,0,0:0:0:0:
244,328,251345,5,0,0:0:0:0:
324,308,251518,1,0,0:0:0:0:
388,256,251690,2,0,L|418:222,1,45.0000017166138
260,192,252207,1,0,0:0:0:0:
304,124,252380,2,0,L|326:84,1,45.0000017166138
112,120,252897,5,0,0:0:0:0:
187,88,253070,2,0,P|205:74|221:57,1,45.0000017166138
221,57,253587,1,0,0:0:0:0:
368,128,253759,2,0,P|346:121|324:119,1,45.0000017166138
324,119,254276,5,0,0:0:0:0:
287,276,254449,2,0,P|304:260|322:247,1,45.0000017166138
400,220,254794,2,0,L|444:216,3,45.0000017166138
292,156,255483,6,0,P|277:139|267:118,1,45.0000017166138
344,96,255828,1,0,0:0:0:0:
244,223,256001,2,2,P|234:230|224:235,2,22.5000008583069,0|0|0,0:0|0:0|0:0,0:0:0:0:
324,244,256345,1,0,0:0:0:0:
404,260,256518,2,0,P|426:260|448:255,1,45.0000017166138
384,340,256863,5,0,0:0:0:0:
332,324,257035,1,0,0:0:0:0:
280,324,257207,2,0,L|236:334,1,45.0000017166138
240,308,257897,2,0,L|196:318,1,45.0000017166138
200,292,258587,6,0,L|156:302,1,45.0000017166138
160,276,259276,2,0,L|116:286,1,45.0000017166138
64,280,259621,5,0,0:0:0:0:
128,192,259966,1,0,0:0:0:0:
120,84,260311,2,0,L|102:42,1,45.0000017166138
167,111,260656,2,0,P|190:112|212:107,1,45.0000017166138
260,84,261001,5,0,0:0:0:0:
248,136,261173,1,0,0:0:0:0:
268,188,261345,1,0,0:0:0:0:
320,208,261518,2,0,L|340:198,2,22.5000008583069
284,248,261863,1,0,0:0:0:0:
288,300,262035,1,0,0:0:0:0:
328,336,262208,1,0,0:0:0:0:
380,344,262380,5,0,0:0:0:0:
436,252,262725,1,0,0:0:0:0:
436,252,262897,2,0,L|411:165,1,90.0000034332277
312,120,263414,1,0,0:0:0:0:
312,120,263587,2,0,L|276:202,1,90.0000034332277
172,172,264104,5,0,0:0:0:0:
172,172,264276,2,0,L|135:89,1,90.0000034332277
52,160,264794,1,0,0:0:0:0:
51,159,264966,2,0,B|96:240|104:316|104:316|128:272|156:260|156:260|192:320|192:320|208:276|268:248,1,405.000015449524
256,192,266863,12,0,267897,0:0:0:0:
