osu file format v14

[General]
AudioFilename: audio.mp3
AudioLeadIn: 0
PreviewTime: 45138
Countdown: 0
SampleSet: Soft
StackLeniency: 0.7
Mode: 0
LetterboxInBreaks: 0
WidescreenStoryboard: 1

[Editor]
DistanceSpacing: 1.1
BeatDivisor: 4
GridSize: 4
TimelineZoom: 1

[Metadata]
Title:We Love
TitleUnicode:We Love
Artist:Rameses B
ArtistUnicode:Rameses B
Creator:Plaudible
Version:Hobbes2's Hard
Source:
Tags:drum n bass, chill, dnb, monstercat, Vanillas, TeeJoe, -Liddell, Hobbes2
BeatmapID:995649
BeatmapSetID:461656

[Difficulty]
HPDrainRate:5
CircleSize:4
OverallDifficulty:6
ApproachRate:8
SliderMultiplier:1.5
SliderTickRate:1

[Events]
//Background and Video events
0,0,"image.jpg",0,0
//Break Periods
2,91201,98871
2,135683,151285
2,223959,234044
//Storyboard Layer 0 (Background)
//Storyboard Layer 1 (Fail)
//Storyboard Layer 2 (Pass)
//Storyboard Layer 3 (Foreground)
//Storyboard Sound Samples

[TimingPoints]
3070.01143691811,344.827586206897,4,2,1,69,1,0
25138,-200,4,2,1,69,0,0
47207,-100,4,2,1,69,0,0
69276,-100,4,2,1,69,0,1
91001,-200,4,2,1,69,0,0
102380,-200,4,2,1,69,0,0
113414,-100,4,2,1,69,0,0
157552,-200,4,2,1,69,0,0
168932,-133.333333333333,4,2,1,69,0,0
171690,-200,4,2,1,69,0,0
174104,-100,4,2,1,69,0,0
179621,-100,4,2,1,69,0,1
201690,-100,4,2,1,69,0,0
248932,-200,4,2,1,69,0,0
251690,-100,4,2,1,69,0,0
251863,-200,4,2,1,69,0,0
252380,-111.111111111111,4,2,1,69,0,0
253070,-133.333333333333,4,2,1,69,0,0
253759,-166.666666666667,4,2,1,69,0,0
254449,-200,4,2,1,69,0,0

[Colours]
Combo1 : 215,160,222
Combo2 : 119,253,213
Combo3 : 234,204,32
Combo4 : 254,251,180

[HitObjects]
64,136,25138,6,0,B|104:80|192:88|184:176|184:176|263:217,1,262.5,4|0,0:0|0:0,0:0:0:0:
288,240,26518,2,0,B|272:272|272:328|320:352|360:352|408:328|424:304|432:256|416:224|408:208|376:192|376:192|440:64|440:64|256:128|256:128|240:96|240:64|192:32|136:24,1,825
64,40,30656,6,0,B|88:112|160:88|176:128|176:128|208:248,1,271.875
208,320,32035,2,0,P|280:320|320:224,1,187.5
312,176,33070,2,0,L|296:136,1,37.5
288,96,33414,6,0,P|272:48|104:88,1,262.5
104,120,34794,2,0,P|111:170|289:128,1,300,0|4,0:0|0:0,0:0:0:0:
280,32,36345,5,0,0:0:0:0:
216,64,36518,2,0,P|192:88|176:96,1,37.5,2|0,0:0|0:0,0:0:0:0:
280,32,37035,1,0,0:0:0:0:
216,64,37207,2,0,P|192:88|176:96,1,37.5,2|0,0:0|0:0,0:0:0:0:
296,120,37725,5,0,0:0:0:0:
352,176,37897,2,0,P|376:200|392:208,1,37.5,2|0,0:0|0:0,0:0:0:0:
432,128,38414,1,0,0:0:0:0:
352,176,38587,2,0,P|337:164|325:150,1,37.5,2|0,0:0|0:0,0:0:0:0:
272,96,38932,5,0,0:0:0:0:
208,56,39104,1,0,0:0:0:0:
136,72,39276,2,0,P|112:88|96:104,1,37.5,2|0,0:0|0:0,0:0:0:0:
64,152,39621,2,0,L|32:168,2,18.75
136,176,39966,2,0,P|160:176|176:176,1,37.5,2|0,0:0|0:0,0:0:0:0:
248,176,40311,5,0,0:0:0:0:
320,184,40483,1,0,0:0:0:0:
384,224,40656,1,2,0:0:0:0:
432,280,40828,1,0,0:0:0:0:
392,344,41001,2,0,L|416:368,2,18.75
320,320,41345,2,0,L|272:296,1,37.5,2|0,0:0|0:0,0:0:0:0:
216,272,41690,6,0,P|184:256|176:240,1,37.5
120,208,42035,1,2,0:0:0:0:
120,208,42207,1,0,0:0:0:0:
88,136,42380,2,0,L|64:136,2,18.75
144,88,42725,1,2,0:0:0:0:
144,88,42897,1,0,0:0:0:0:
256,192,43070,12,2,46863,0:0:0:0:
120,112,47207,5,4,0:0:0:0:
200,132,47380,1,0,0:0:0:0:
272,168,47552,2,0,P|312:192|336:224,1,75,2|0,0:0|0:0,0:0:0:0:
384,284,47897,1,0,0:0:0:0:
384,284,47983,1,0,0:0:0:0:
384,284,48070,1,0,0:0:0:0:
308,316,48242,2,0,P|268:292|244:260,1,75,2|0,0:0|0:0,0:0:0:0:
204,206,48587,6,0,P|204:158|196:118,1,75
276,104,48932,2,0,P|276:152|284:192,1,75,2|0,0:0|0:0,0:0:0:0:
268,260,49276,2,0,L|300:284,2,37.5
204,206,49621,1,2,0:0:0:0:
280,178,49794,1,0,0:0:0:0:
360,156,49966,5,0,0:0:0:0:
360,156,50311,2,0,P|376:212|360:308,1,150,2|0,0:0|0:0,0:0:0:0:
288,336,50828,1,0,0:0:0:0:
216,296,51001,2,0,P|200:240|216:144,1,150,2|0,0:0|0:0,0:0:0:0:
284,112,51518,5,0,0:0:0:0:
364,92,51690,2,0,P|356:52|332:28,1,75,2|0,0:0|0:0,0:0:0:0:
256,12,52035,1,0,0:0:0:0:
256,12,52121,1,0,0:0:0:0:
256,12,52207,1,0,0:0:0:0:
168,20,52380,2,0,P|120:36|80:60,1,75,2|0,0:0|0:0,0:0:0:0:
111,127,52725,6,0,P|135:167|159:207,1,75,4|0,0:0|0:0,0:0:0:0:
176,272,53070,2,0,P|128:272|88:240,1,75
150,192,53414,2,0,P|200:192|244:224,1,75
105,259,53759,2,0,P|73:235|60:200,1,75,2|0,0:0|0:0,0:0:0:0:
68,124,54104,5,0,0:0:0:0:
120,36,54276,1,0,0:0:0:0:
200,100,54449,1,2,0:0:0:0:
150,192,54621,1,0,0:0:0:0:
48,232,54794,1,0,0:0:0:0:
48,232,54880,1,0,0:0:0:0:
48,232,54966,1,0,0:0:0:0:
60,320,55138,2,0,P|96:324|144:332,1,75,2|0,0:0|0:0,0:0:0:0:
216,320,55483,5,0,0:0:0:0:
220,324,55828,2,0,P|316:324|340:260,1,150,2|0,0:0|0:0,0:0:0:0:
344,204,56345,1,0,0:0:0:0:
348,120,56518,2,0,P|324:64|228:56,1,150,2|0,0:0|0:0,0:0:0:0:
160,52,57035,5,0,0:0:0:0:
92,96,57207,2,0,P|84:152|92:176,1,75,2|0,0:0|0:0,0:0:0:0:
112,248,57552,1,0,0:0:0:0:
112,248,57638,1,0,0:0:0:0:
112,248,57725,1,0,0:0:0:0:
160,316,57897,2,0,P|208:284|224:236,1,75,2|0,0:0|0:0,0:0:0:0:
256,196,58242,5,4,0:0:0:0:
256,196,58414,1,0,0:0:0:0:
292,120,58587,2,0,P|260:80|220:56,1,75
160,52,58932,1,0,0:0:0:0:
160,52,59104,1,0,0:0:0:0:
88,92,59276,2,0,P|66:121|63:158,1,75,2|0,0:0|0:0,0:0:0:0:
96,236,59621,6,0,P|95:273|109:307,1,75
176,260,59966,2,0,P|186:224|211:196,1,75,2|0,0:0|0:0,0:0:0:0:
260,264,60311,2,0,P|273:298|298:326,1,75
344,260,60656,2,0,P|347:223|369:193,1,75,2|0,0:0|0:0,0:0:0:0:
312,132,61001,6,0,B|256:124|256:124|352:68,1,150,0|2,0:0|0:0,0:0:0:0:
408,36,61518,1,0,0:0:0:0:
460,100,61690,2,0,P|452:148|436:172,1,75
372,220,62035,1,2,0:0:0:0:
367,145,62207,1,0,0:0:0:0:
438,169,62380,6,0,P|470:209|502:225,1,75
476,304,62725,2,0,P|438:303|404:289,1,75,2|0,0:0|0:0,0:0:0:0:
336,340,63070,2,0,P|276:302|263:267,1,75
240,224,63414,2,0,P|188:228|160:252,1,75,2|0,0:0|0:0,0:0:0:0:
108,284,63759,5,10,0:0:0:0:
24,280,63932,1,0,0:0:0:0:
24,364,64104,1,10,0:0:0:0:
108,364,64276,1,0,0:0:0:0:
188,352,64449,2,0,P|224:356|248:348,2,37.5,10|0|0,0:0|0:0|0:0,0:0:0:0:
188,268,64794,2,0,P|196:220|228:196,1,75,10|0,0:0|0:0,0:0:0:0:
276,148,65138,5,10,0:0:0:0:
336,92,65311,1,2,0:0:0:0:
408,48,65483,2,2,P|419:83|424:120,1,75,10|2,0:0|0:0,0:0:0:0:
440,204,65828,1,10,0:0:0:0:
404,280,66001,1,2,0:0:0:0:
328,308,66173,2,2,P|292:297|260:276,1,75,10|2,0:0|0:0,0:0:0:0:
180,288,66518,6,10,P|152:262|134:230,1,75,10|10,0:0|0:0,0:0:0:0:
188,168,66863,2,10,P|175:133|175:95,1,75
256,84,67207,2,10,P|266:48|288:17,1,75
356,64,67552,2,10,P|384:40|419:27,1,75
472,92,67897,6,0,P|472:156|456:196,1,75,2|4,0:0|0:0,0:0:0:0:
400,344,68414,1,2,0:0:0:0:
347,275,68587,2,0,P|329:203|353:133,1,150,2|4,0:0|0:0,0:0:0:0:
440,24,69276,6,0,P|480:8|512:0,2,75,8|0|6,0:0|0:0|0:0,0:0:0:0:
360,44,69794,1,0,0:0:0:0:
360,44,69966,1,0,0:0:0:0:
288,80,70138,1,8,0:0:0:0:
288,80,70311,2,0,P|248:104|208:120,1,75,6|0,0:0|0:0,0:0:0:0:
148,148,70656,5,8,0:0:0:0:
148,232,70828,1,0,0:0:0:0:
88,80,71001,2,0,P|136:40|152:40,1,75,6|0,0:0|0:0,0:0:0:0:
228,36,71345,1,0,0:0:0:0:
312,36,71518,1,8,0:0:0:0:
145,39,71690,2,0,P|161:87|185:119,1,75,6|0,0:0|0:0,0:0:0:0:
224,176,72035,5,8,0:0:0:0:
335,183,72207,1,0,0:0:0:0:
335,295,72380,2,0,B|375:263|375:263|279:239,1,150,6|0,0:0|0:0,0:0:0:0:
184,216,72897,1,8,0:0:0:0:
335,183,73070,2,0,B|303:143|303:143|279:239,1,150,6|8,0:0|0:0,0:0:0:0:
256,336,73587,1,0,0:0:0:0:
223,182,73759,2,0,B|183:214|183:214|279:238,1,150,6|0,0:0|0:0,0:0:0:0:
376,264,74276,1,8,0:0:0:0:
223,294,74449,2,0,B|255:334|255:334|279:238,1,150,6|8,0:0|0:0,0:0:0:0:
280,72,75138,6,0,P|320:64|360:72,1,75,6|0,0:0|0:0,0:0:0:0:
436,88,75483,1,0,0:0:0:0:
436,88,75570,1,0,0:0:0:0:
436,88,75656,1,8,0:0:0:0:
452,168,75828,1,6,0:0:0:0:
396,228,76001,1,0,0:0:0:0:
328,272,76173,6,0,P|288:288|232:288,2,75,8|0|6,0:0|0:0|0:0,0:0:0:0:
396,228,76690,1,0,0:0:0:0:
464,180,76863,1,0,0:0:0:0:
464,180,76949,1,0,0:0:0:0:
464,180,77035,1,8,0:0:0:0:
440,100,77207,2,0,P|400:52|368:44,1,75,6|0,0:0|0:0,0:0:0:0:
308,44,77552,5,8,0:0:0:0:
224,48,77725,1,0,0:0:0:0:
148,80,77897,2,0,P|124:144|188:200,1,150,6|0,0:0|0:0,0:0:0:0:
248,236,78414,1,8,0:0:0:0:
332,244,78587,2,0,P|380:220|396:188,1,75,6|0,0:0|0:0,0:0:0:0:
424,128,78932,5,2,0:0:0:0:
184,60,79449,1,2,0:0:0:0:
256,296,79966,1,4,0:0:0:0:
112,216,80311,5,8,0:0:0:0:
112,216,80656,2,0,P|160:192|200:184,1,75,6|0,0:0|0:0,0:0:0:0:
260,168,81001,1,0,0:0:0:0:
344,172,81173,1,8,0:0:0:0:
260,168,81345,2,0,P|236:112|204:96,1,75,6|0,0:0|0:0,0:0:0:0:
152,68,81690,6,0,P|128:116|152:228,1,150,8|6,0:0|0:0,0:0:0:0:
192,272,82207,1,0,0:0:0:0:
272,292,82380,1,0,0:0:0:0:
248,212,82552,1,8,0:0:0:0:
192,272,82725,2,0,P|136:288|104:280,1,75,6|0,0:0|0:0,0:0:0:0:
96,208,83070,6,0,P|96:152|104:136,1,75,8|0,0:0|0:0,0:0:0:0:
240,144,83414,2,0,P|200:112|168:96,1,75,6|0,0:0|0:0,0:0:0:0:
156,251,83759,2,0,P|124:232|96:208,1,75,0|8,0:0|0:0,0:0:0:0:
232,216,84104,2,0,P|244:181|240:145,1,75,6|0,0:0|0:0,0:0:0:0:
228,60,84449,5,8,0:0:0:0:
164,112,84621,1,0,0:0:0:0:
239,143,84794,2,0,P|288:129|320:129,1,75,6|0,0:0|0:0,0:0:0:0:
392,124,85138,1,0,0:0:0:0:
364,200,85311,1,8,0:0:0:0:
311,128,85483,2,0,P|297:79|297:47,1,75,6|0,0:0|0:0,0:0:0:0:
212,48,85828,6,0,P|220:128|252:220,1,150,8|6,0:0|0:0,0:0:0:0:
292,260,86345,1,0,0:0:0:0:
292,260,86690,1,8,0:0:0:0:
232,316,86863,2,0,P|192:340|152:356,1,75,6|0,0:0|0:0,0:0:0:0:
84,352,87207,5,8,0:0:0:0:
84,352,87552,2,0,P|81:301|88:276,1,75,6|0,0:0|0:0,0:0:0:0:
128,208,87897,1,0,0:0:0:0:
128,208,87983,1,0,0:0:0:0:
128,208,88070,1,8,0:0:0:0:
156,132,88242,2,0,P|178:86|201:66,1,75,6|0,0:0|0:0,0:0:0:0:
280,48,88587,6,0,P|328:72|360:88,1,75,8|0,0:0|0:0,0:0:0:0:
392,144,88932,2,0,P|344:168|312:192,1,75,6|0,0:0|0:0,0:0:0:0:
315,197,89190,1,0,0:0:0:0:
307,209,89276,1,0,0:0:0:0:
232,256,89449,2,0,P|184:272|152:296,2,75,8|6|0,0:0|0:0|0:0,0:0:0:0:
336,288,89966,5,2,0:0:0:0:
476,72,90483,1,2,0:0:0:0:
228,64,91001,1,4,0:0:0:0:
256,192,99621,12,0,102035,0:0:0:0:
72,96,102380,6,0,B|120:80|184:104|184:104|160:160|160:184,1,187.5,4|0,0:0|0:0,0:0:0:0:
160,224,103414,2,0,L|168:272,1,37.5
176,312,103759,2,0,B|248:336|280:312|320:272|320:232|304:200|280:176|240:160|232:160|232:160|264:80|264:80|344:112|368:144|400:216|392:280|352:344|352:344|440:344|440:344|464:288|464:256,1,862.5
464,228,107897,2,0,P|444:144|324:20,1,262.5,2|0,0:0|0:0,0:0:0:0:
284,24,109276,2,0,B|268:72|228:96|228:96|256:152,1,150,2|0,0:0|0:0,0:0:0:0:
140,104,110656,5,2,0:0:0:0:
180,128,111345,1,2,0:0:0:0:
224,136,112035,2,2,P|248:144|264:152,1,37.5,10|2,0:0|0:0,0:0:0:0:
280,224,112380,2,2,P|288:256|288:272,1,37.5,10|2,0:0|0:0,0:0:0:0:
200,248,112725,6,10,L|192:264,3,18.75
128,216,113070,2,10,L|112:224,3,18.75
160,152,113414,6,0,P|192:120|304:88,1,150,8|6,0:0|0:0,0:0:0:0:
332,160,113932,2,0,P|300:192|188:224,1,150,0|8,0:0|0:0,0:0:0:0:
124,256,114449,1,6,0:0:0:0:
180,316,114621,2,0,P|220:324|268:332,1,75,0|8,0:0|0:0,0:0:0:0:
336,312,114966,1,0,0:0:0:0:
412,284,115138,2,0,P|444:308|468:340,2,75,6|0|0,0:0|0:0|0:0,0:0:0:0:
396,204,115656,1,8,0:0:0:0:
356,128,115828,2,0,P|312:96|272:96,1,75,6|0,0:0|0:0,0:0:0:0:
212,96,116173,6,0,P|164:160|316:196,1,300,8|0,0:0|0:0,0:0:0:0:
242,169,117035,1,8,0:0:0:0:
174,215,117207,2,0,P|150:255|142:295,1,75,6|0,0:0|0:0,0:0:0:0:
206,336,117552,2,0,P|270:328|302:336,1,75,8|0,0:0|0:0,0:0:0:0:
327,261,117897,2,0,P|263:253|231:261,1,75,6|0,0:0|0:0,0:0:0:0:
242,169,118242,2,0,P|306:161|338:169,1,75,0|8,0:0|0:0,0:0:0:0:
392,120,118587,1,6,0:0:0:0:
314,73,118759,1,0,0:0:0:0:
232,58,118932,6,0,P|144:110|120:190,1,150,8|6,0:0|0:0,0:0:0:0:
112,232,119449,1,0,0:0:0:0:
143,307,119621,2,0,P|199:319|231:315,1,75,0|8,0:0|0:0,0:0:0:0:
262,248,119966,2,0,P|206:236|174:240,1,75,6|0,0:0|0:0,0:0:0:0:
112,232,120311,1,8,0:0:0:0:
112,232,120483,1,0,0:0:0:0:
112,149,120656,1,6,0:0:0:0:
112,149,120828,2,0,P|176:149|196:153,1,75
268,141,121173,1,8,0:0:0:0:
349,149,121345,2,0,P|349:205|361:249,1,75,6|0,0:0|0:0,0:0:0:0:
361,305,121690,6,0,B|281:289|281:289|193:313,1,150,8|6,0:0|0:0,0:0:0:0:
140,342,122207,1,0,0:0:0:0:
57,335,122380,2,0,P|9:283|1:267,1,75,0|8,0:0|0:0,0:0:0:0:
15,205,122725,1,6,0:0:0:0:
43,118,122897,1,0,0:0:0:0:
111,71,123070,2,0,P|159:43|195:27,1,75,8|0,0:0|0:0,0:0:0:0:
206,103,123414,2,0,P|234:151|250:187,1,75,6|0,0:0|0:0,0:0:0:0:
174,196,123759,2,0,P|126:224|90:240,1,75,0|8,0:0|0:0,0:0:0:0:
81,162,124104,2,0,P|53:114|37:78,1,75,6|0,0:0|0:0,0:0:0:0:
96,35,124449,6,0,B|180:27|180:27|272:87,1,150,8|6,0:0|0:0,0:0:0:0:
266,139,124966,2,0,B|182:147|182:147|90:87,1,150,0|8,0:0|0:0,0:0:0:0:
96,35,125483,1,6,0:0:0:0:
34,91,125656,1,0,0:0:0:0:
33,173,125828,2,0,P|49:237|81:257,1,75,8|0,0:0|0:0,0:0:0:0:
118,293,126173,1,6,0:0:0:0:
200,298,126345,1,0,0:0:0:0:
281,283,126518,2,0,P|265:219|233:199,1,75,0|8,0:0|0:0,0:0:0:0:
208,148,126863,1,6,0:0:0:0:
128,140,127035,1,0,0:0:0:0:
48,120,127207,6,0,B|38:27|134:15,1,150,8|6,0:0|0:0,0:0:0:0:
212,20,127725,1,0,0:0:0:0:
306,33,127897,1,0,0:0:0:0:
306,33,127983,1,0,0:0:0:0:
306,33,128070,1,8,0:0:0:0:
385,55,128242,2,0,P|413:107|425:135,1,75,6|0,0:0|0:0,0:0:0:0:
451,198,128587,5,8,0:0:0:0:
433,278,128759,1,0,0:0:0:0:
357,311,128932,2,0,L|277:311,1,75,6|0,0:0|0:0,0:0:0:0:
199,309,129276,1,0,0:0:0:0:
199,309,129363,1,0,0:0:0:0:
199,309,129449,1,8,0:0:0:0:
118,291,129621,2,0,B|94:255|94:255|94:187,1,75,6|0,0:0|0:0,0:0:0:0:
93,139,129966,6,0,P|157:103|205:167,1,150,10|8,0:0|0:0,0:0:0:0:
224,240,130483,1,0,0:0:0:0:
304,240,130656,2,0,P|351:188|291:142,1,150,10|12,0:0|0:0,0:0:0:0:
205,150,131173,1,0,0:0:0:0:
128,184,131345,2,10,L|92:280,1,75
184,248,131690,2,10,L|200:340,1,75
264,272,132035,2,10,L|312:352,1,75
352,264,132380,2,10,L|424:296,1,75
480,240,132725,6,10,P|486:204|475:169,3,75
400,136,133414,2,10,P|408:84|424:52,1,75
336,64,133759,2,10,P|308:38|277:17,1,75
232,88,134104,6,10,P|195:83|160:94,3,75
80,120,134794,1,10,0:0:0:0:
64,200,134966,1,10,0:0:0:0:
83,279,135138,1,10,0:0:0:0:
146,332,135311,1,10,0:0:0:0:
235,251,135483,5,6,0:0:0:0:
256,192,152035,12,0,156173,0:0:0:0:
116,76,156863,5,0,0:0:0:0:
107,112,157035,1,0,0:0:0:0:
103,149,157207,1,0,0:0:0:0:
104,187,157380,1,0,0:0:0:0:
111,223,157552,1,0,0:0:0:0:
148,292,157897,6,0,P|184:304|192:312,1,37.5,2|0,0:0|0:0,0:0:0:0:
264,224,158587,2,0,P|288:212|312:208,1,37.5,2|0,0:0|0:0,0:0:0:0:
312,320,159276,2,0,P|336:336|356:344,1,37.5,2|0,0:0|0:0,0:0:0:0:
416,312,159621,5,0,0:0:0:0:
424,275,159793,1,0,0:0:0:0:
428,238,159965,1,0,0:0:0:0:
427,200,160138,1,0,0:0:0:0:
420,164,160310,1,0,0:0:0:0:
392,92,160656,6,0,P|368:80|348:72,1,37.5,2|0,0:0|0:0,0:0:0:0:
244,72,161345,2,0,P|208:76|196:80,1,37.5,2|0,0:0|0:0,0:0:0:0:
96,76,162035,2,0,L|88:120,1,37.5,2|0,0:0|0:0,0:0:0:0:
72,216,162380,5,0,0:0:0:0:
109,224,162552,1,0,0:0:0:0:
146,228,162724,1,0,0:0:0:0:
184,227,162897,1,0,0:0:0:0:
220,220,163069,1,0,0:0:0:0:
268,276,163414,6,0,P|304:288|312:296,1,37.5,2|0,0:0|0:0,0:0:0:0:
380,208,164104,2,0,P|404:196|428:192,1,37.5,2|0,0:0|0:0,0:0:0:0:
432,84,164794,2,0,P|408:68|388:60,1,37.5,2|0,0:0|0:0,0:0:0:0:
332,48,165138,5,0,0:0:0:0:
296,39,165310,1,0,0:0:0:0:
259,35,165482,1,0,0:0:0:0:
221,36,165655,1,0,0:0:0:0:
185,43,165827,1,0,0:0:0:0:
116,80,166172,6,0,P|104:116|96:124,1,37.5,2|0,0:0|0:0,0:0:0:0:
184,196,166862,2,0,P|196:220|200:244,1,37.5,2|0,0:0|0:0,0:0:0:0:
88,244,167552,2,0,P|72:268|64:288,1,37.5,2|0,0:0|0:0,0:0:0:0:
136,328,167897,5,0,0:0:0:0:
172,337,168069,1,0,0:0:0:0:
209,341,168241,1,0,0:0:0:0:
247,340,168414,1,0,0:0:0:0:
283,333,168586,1,0,0:0:0:0:
368,260,168932,6,0,P|384:216|392:192,1,56.2500021457673,2|0,0:0|0:0,0:0:0:0:
224,156,169621,2,0,P|208:116|192:96,1,56.2500021457673,2|0,0:0|0:0,0:0:0:0:
108,248,170311,2,0,P|56:216|40:208,1,56.2500021457673,2|0,0:0|0:0,0:0:0:0:
224,268,171001,2,0,P|260:304|272:320,1,56.2500021457673,2|0,0:0|0:0,0:0:0:0:
332,220,171690,6,0,P|344:192|360:180,1,37.5,2|0,0:0|0:0,0:0:0:0:
452,144,172380,2,0,P|440:172|424:184,1,37.5,2|0,0:0|0:0,0:0:0:0:
412,288,173070,2,0,P|384:276|372:260,1,37.5,2|0,0:0|0:0,0:0:0:0:
336,168,173760,2,0,P|364:180|376:196,1,37.5,2|0,0:0|0:0,0:0:0:0:
240,296,174104,5,10,0:0:0:0:
331,365,174449,1,8,0:0:0:0:
419,297,174794,1,10,0:0:0:0:
331,241,175139,1,8,0:0:0:0:
120,228,175483,1,10,0:0:0:0:
108,59,175828,1,8,0:0:0:0:
276,47,176173,1,10,0:0:0:0:
288,216,176518,1,8,0:0:0:0:
104,284,176863,6,8,L|76:252,3,37.5,10|8|10|8,0:0|0:0|0:0|0:0,0:0:0:0:
80,208,177207,2,8,L|112:180,3,37.5,10|8|10|8,0:0|0:0|0:0|0:0,0:0:0:0:
124,136,177552,2,8,L|99:107,3,37.5,10|8|10|8,0:0|0:0|0:0|0:0,0:0:0:0:
108,60,177897,2,8,L|136:35,3,37.5,10|8|10|8,0:0|0:0|0:0|0:0,0:0:0:0:
180,12,178242,5,6,0:0:0:0:
180,12,178759,1,2,0:0:0:0:
296,80,178932,1,4,0:0:0:0:
56,312,179621,6,0,P|40:224|72:160,1,150,8|6,0:0|0:0,0:0:0:0:
144,112,180138,1,0,0:0:0:0:
224,168,180311,2,0,P|240:224|232:256,1,75,0|8,0:0|0:0,0:0:0:0:
229,314,180656,2,0,P|149:312|132:307,1,75,6|0,0:0|0:0,0:0:0:0:
72,264,181001,5,8,0:0:0:0:
48,184,181173,1,0,0:0:0:0:
128,208,181345,1,6,0:0:0:0:
168,136,181518,1,0,0:0:0:0:
232,88,181690,2,0,P|288:64|328:56,1,75,0|8,0:0|0:0,0:0:0:0:
360,120,182035,2,0,P|304:144|264:152,1,75,6|0,0:0|0:0,0:0:0:0:
208,168,182380,5,8,0:0:0:0:
80,272,182725,2,0,B|56:232|56:232|176:264,1,150,6|0,0:0|0:0,0:0:0:0:
240,280,183242,1,8,0:0:0:0:
320,296,183414,2,0,B|419:322|419:322|395:282,1,150,6|8,0:0|0:0,0:0:0:0:
360,208,183932,5,0,0:0:0:0:
360,128,184104,2,0,P|352:64|344:40,1,75,6|0,0:0|0:0,0:0:0:0:
264,40,184449,2,0,P|200:48|176:56,1,75,0|8,0:0|0:0,0:0:0:0:
120,96,184794,2,0,P|128:160|136:184,1,75,6|0,0:0|0:0,0:0:0:0:
168,240,185138,5,8,0:0:0:0:
240,272,185311,1,0,0:0:0:0:
168,320,185483,2,0,L|88:344,1,75,6|0,0:0|0:0,0:0:0:0:
16,368,185828,1,0,0:0:0:0:
16,288,186001,1,8,0:0:0:0:
96,341,186173,2,0,L|168:320,1,75,6|0,0:0|0:0,0:0:0:0:
224,256,186518,6,0,P|208:200|212:176,1,75,8|0,0:0|0:0,0:0:0:0:
288,204,186863,2,0,P|328:184|368:188,1,75,6|0,0:0|0:0,0:0:0:0:
344,260,187207,2,0,P|364:312|360:340,1,75,0|8,0:0|0:0,0:0:0:0:
288,316,187552,2,0,P|232:332|208:332,1,75,6|0,0:0|0:0,0:0:0:0:
120,320,187897,6,0,B|72:256|72:256|72:168,1,150,8|6,0:0|0:0,0:0:0:0:
72,104,188414,1,0,0:0:0:0:
144,64,188587,2,0,B|214:64|214:64|278:112,1,150,0|6,0:0|0:0,0:0:0:0:
392,232,189276,6,0,P|408:280|360:224,2,225,8|0|6,0:0|0:0|0:0,0:0:0:0:
280,104,190656,5,8,0:0:0:0:
200,104,190828,1,0,0:0:0:0:
120,104,191001,2,0,L|120:184,1,75,6|0,0:0|0:0,0:0:0:0:
120,264,191345,1,0,0:0:0:0:
200,264,191517,1,8,0:0:0:0:
280,264,191690,2,0,L|280:184,1,75,6|0,0:0|0:0,0:0:0:0:
280,104,192035,5,8,0:0:0:0:
200,104,192207,1,0,0:0:0:0:
120,104,192380,2,0,L|120:184,1,75,6|0,0:0|0:0,0:0:0:0:
120,264,192724,1,0,0:0:0:0:
200,264,192896,1,8,0:0:0:0:
280,264,193069,2,0,L|280:184,1,75,6|0,0:0|0:0,0:0:0:0:
256,112,193414,6,0,P|208:64|176:56,1,75,8|0,0:0|0:0,0:0:0:0:
336,112,193759,2,0,P|384:64|416:56,1,75,6|0,0:0|0:0,0:0:0:0:
456,112,194104,1,0,0:0:0:0:
456,112,194190,1,0,0:0:0:0:
456,112,194276,1,8,0:0:0:0:
456,192,194449,2,0,P|432:248|424:288,1,75,6|0,0:0|0:0,0:0:0:0:
352,296,194794,5,8,0:0:0:0:
352,296,194966,1,0,0:0:0:0:
272,296,195138,1,6,0:0:0:0:
272,296,195311,1,0,0:0:0:0:
192,288,195483,2,0,L|184:328,2,37.5,0|0|8,0:0|0:0|0:0,0:0:0:0:
208,208,195828,2,0,B|224:168|224:168|216:128,1,75,6|0,0:0|0:0,0:0:0:0:
168,72,196173,6,0,L|96:96,1,75,10|0,0:0|0:0,0:0:0:0:
24,136,196518,1,10,0:0:0:0:
8,216,196690,1,0,0:0:0:0:
88,232,196863,1,10,0:0:0:0:
104,152,197035,1,0,0:0:0:0:
93,80,197207,2,0,P|141:72|173:72,1,75,10|0,0:0|0:0,0:0:0:0:
248,80,197552,6,10,P|312:104|328:112,1,75
320,192,197897,2,10,P|256:168|240:160,1,75
248,80,198242,6,10,P|314:66|332:64,1,75
320,192,198587,2,10,P|253:205|235:207,1,75
160,208,198932,6,2,P|96:232|136:312,1,150,10|6,0:0|0:0,0:0:0:0:
272,328,199621,1,0,0:0:0:0:
272,328,199707,1,0,0:0:0:0:
272,328,199794,1,8,0:0:0:0:
352,320,199966,1,6,0:0:0:0:
368,152,200311,6,0,P|336:112|344:80,1,75,8|0,0:0|0:0,0:0:0:0:
408,56,200656,2,0,B|448:80|448:80|464:136,1,75,6|0,0:0|0:0,0:0:0:0:
464,192,201001,1,0,0:0:0:0:
456,224,201087,1,0,0:0:0:0:
432,248,201173,1,8,0:0:0:0:
352,272,201345,1,6,0:0:0:0:
272,288,201518,1,0,0:0:0:0:
192,272,201690,6,0,B|144:208|144:208|144:128,1,150,8|6,0:0|0:0,0:0:0:0:
176,48,202207,2,0,B|224:112|224:112|224:192,1,150,0|8,0:0|0:0,0:0:0:0:
192,272,202725,1,6,0:0:0:0:
192,272,202897,2,0,P|120:264|104:272,1,75,0|8,0:0|0:0,0:0:0:0:
40,288,203242,6,0,P|16:192|40:128,1,150
64,72,203759,2,0,P|120:88|152:80,1,75,0|8,0:0|0:0,0:0:0:0:
216,80,204104,1,6,0:0:0:0:
296,72,204276,1,0,0:0:0:0:
376,72,204449,2,0,L|416:240,1,150,8|6,0:0|0:0,0:0:0:0:
432,296,204966,1,0,0:0:0:0:
352,304,205138,2,0,L|184:344,1,150,0|6,0:0|0:0,0:0:0:0:
120,344,205656,1,0,0:0:0:0:
56,296,205828,6,0,P|40:224|48:208,1,75,8|0,0:0|0:0,0:0:0:0:
112,192,206173,2,0,P|128:128|120:104,1,75,6|0,0:0|0:0,0:0:0:0:
72,56,206518,1,0,0:0:0:0:
72,56,206604,1,0,0:0:0:0:
72,56,206690,1,8,0:0:0:0:
152,40,206863,2,0,P|200:40|240:56,1,75,6|0,0:0|0:0,0:0:0:0:
304,64,207207,6,0,P|344:96|304:80,1,150,8|6,0:0|0:0,0:0:0:0:
232,128,207725,1,0,0:0:0:0:
168,184,207897,2,0,P|144:224|112:256,1,75,0|8,0:0|0:0,0:0:0:0:
184,304,208242,2,0,P|208:264|240:232,1,75,6|0,0:0|0:0,0:0:0:0:
288,296,208587,2,0,P|360:304|376:312,1,75,8|0,0:0|0:0,0:0:0:0:
368,224,208932,2,0,P|296:216|280:208,1,75,6|0,0:0|0:0,0:0:0:0:
256,144,209276,2,0,P|264:96|184:112,1,150,0|6,0:0|0:0,0:0:0:0:
152,176,209794,1,0,0:0:0:0:
96,240,209966,6,0,B|128:304|152:304|152:304|184:288|232:296,1,150,8|6,0:0|0:0,0:0:0:0:
296,296,210483,1,0,0:0:0:0:
352,232,210656,2,0,B|357:203|341:171|341:171|341:147|405:115,1,150,0|6,0:0|0:0,0:0:0:0:
472,64,211173,1,0,0:0:0:0:
400,24,211345,5,2,0:0:0:0:
160,88,211863,1,2,0:0:0:0:
328,272,212380,1,4,0:0:0:0:
168,288,212725,6,0,B|128:248|128:248|88:232|88:232|40:176,1,150,8|6,0:0|0:0,0:0:0:0:
32,112,213242,1,0,0:0:0:0:
48,32,213414,2,0,P|112:88|88:168,1,150,0|6,0:0|0:0,0:0:0:0:
72,224,213932,2,0,P|56:296|64:312,1,75,0|8,0:0|0:0,0:0:0:0:
136,304,214276,6,0,L|232:280,1,75,0|6,0:0|0:0,0:0:0:0:
288,256,214621,2,0,L|224:184,1,75
152,56,215138,1,6,0:0:0:0:
232,40,215311,1,0,0:0:0:0:
312,40,215483,6,0,P|352:96|352:200,1,150,8|6,0:0|0:0,0:0:0:0:
312,248,216001,1,0,0:0:0:0:
232,280,216173,2,0,B|152:272|152:272|80:328,1,150,0|6,0:0|0:0,0:0:0:0:
32,360,216690,1,0,0:0:0:0:
24,280,216863,6,0,P|24:216|32:200,1,75,8|0,0:0|0:0,0:0:0:0:
80,144,217207,2,0,L|160:96,1,75,6|0,0:0|0:0,0:0:0:0:
216,72,217552,1,0,0:0:0:0:
248,64,217638,1,0,0:0:0:0:
280,64,217725,1,8,0:0:0:0:
360,80,217897,1,6,0:0:0:0:
408,144,218070,1,0,0:0:0:0:
376,224,218242,6,0,P|368:280|368:320,1,75,10|0,0:0|0:0,0:0:0:0:
296,256,218587,2,0,P|272:320|256:336,1,75,10|0,0:0|0:0,0:0:0:0:
200,272,218932,1,10,0:0:0:0:
168,304,219018,1,0,0:0:0:0:
136,328,219104,1,0,0:0:0:0:
104,248,219276,2,0,L|16:272,1,75,10|0,0:0|0:0,0:0:0:0:
40,184,219621,6,2,P|48:128|48:88,1,75,10|2,0:0|0:0,0:0:0:0:
120,152,219966,2,2,P|144:88|160:72,1,75,14|2,0:0|0:0,0:0:0:0:
216,136,220311,1,10,0:0:0:0:
248,104,220397,1,0,0:0:0:0:
280,80,220483,1,2,0:0:0:0:
312,160,220655,2,2,L|400:136,1,75,14|2,0:0|0:0,0:0:0:0:
464,160,221001,6,10,P|456:224|448:264,3,75
408,296,221690,1,10,0:0:0:0:
328,304,221863,1,10,0:0:0:0:
248,312,222035,1,10,0:0:0:0:
168,312,222207,1,10,0:0:0:0:
88,304,222380,6,10,L|88:224,3,75
92,148,223070,1,10,0:0:0:0:
104,133,223156,1,10,0:0:0:0:
116,119,223242,1,10,0:0:0:0:
128,105,223328,1,10,0:0:0:0:
144,88,223414,2,10,L|172:56,3,37.5
184,40,223759,5,12,0:0:0:0:
264,192,234794,5,8,0:0:0:0:
192,232,234966,1,0,0:0:0:0:
120,272,235138,2,0,P|64:304|40:320,1,75,6|0,0:0|0:0,0:0:0:0:
192,232,235483,1,0,0:0:0:0:
152,160,235656,1,8,0:0:0:0:
104,96,235828,2,0,P|72:48|56:24,1,75,6|0,0:0|0:0,0:0:0:0:
144,24,236173,6,0,B|192:16|192:16|240:24,1,75,8|0,0:0|0:0,0:0:0:0:
264,88,236518,2,0,B|216:96|216:96|168:88,1,75,6|0,0:0|0:0,0:0:0:0:
224,168,236863,2,0,B|272:160|272:160|320:168,1,75,0|8,0:0|0:0,0:0:0:0:
344,232,237208,2,0,B|296:240|296:240|248:232,1,75,6|0,0:0|0:0,0:0:0:0:
184,240,237552,6,0,L|96:104,1,150,8|6,0:0|0:0,0:0:0:0:
56,40,238070,1,0,0:0:0:0:
136,40,238242,2,0,L|296:40,1,150,0|6,0:0|0:0,0:0:0:0:
368,40,238759,1,0,0:0:0:0:
432,96,238932,6,0,P|432:152|440:176,1,75,8|0,0:0|0:0,0:0:0:0:
360,184,239276,2,0,P|368:256|352:280,1,75,6|0,0:0|0:0,0:0:0:0:
312,312,239621,1,0,0:0:0:0:
276,308,239707,1,0,0:0:0:0:
240,312,239794,1,8,0:0:0:0:
160,320,239966,2,0,P|112:320|80:304,1,75,6|0,0:0|0:0,0:0:0:0:
64,232,240311,6,0,B|24:216|24:216|128:192,1,150,10|10,0:0|0:0,0:0:0:0:
208,176,240828,1,0,0:0:0:0:
304,168,241001,2,0,B|320:128|320:128|344:232,1,150,10|10,0:0|0:0,0:0:0:0:
352,328,241518,1,0,0:0:0:0:
256,320,241690,2,10,B|240:360|240:360|216:256,1,150,10|14,0:0|0:0,0:0:0:0:
200,160,242207,1,0,0:0:0:0:
280,215,242380,2,10,B|320:231|320:231|216:255,1,150,10|14,0:0|0:0,0:0:0:0:
128,208,242897,1,0,0:0:0:0:
112,104,243070,5,10,0:0:0:0:
112,104,243242,1,10,0:0:0:0:
192,72,243414,1,10,0:0:0:0:
192,72,243587,1,10,0:0:0:0:
272,48,243759,2,0,L|280:96,2,37.5,10|0|10,0:0|0:0|0:0,0:0:0:0:
352,48,244104,1,10,0:0:0:0:
352,48,244276,1,10,0:0:0:0:
432,72,244449,5,10,0:0:0:0:
432,72,244535,1,10,0:0:0:0:
432,72,244621,1,10,0:0:0:0:
432,72,244707,1,10,0:0:0:0:
456,120,244794,2,10,L|456:168,3,37.5
440,200,245138,2,10,L|440:272,3,37.5
416,280,245483,2,10,L|392:336,3,37.5
368,344,245828,5,10,0:0:0:0:
256,136,246173,5,2,0:0:0:0:
160,104,246345,1,0,0:0:0:0:
248,216,246863,1,2,0:0:0:0:
160,248,247035,1,0,0:0:0:0:
312,272,247552,5,2,0:0:0:0:
352,352,247725,1,0,0:0:0:0:
400,208,248242,1,2,0:0:0:0:
480,272,248414,1,0,0:0:0:0:
304,128,248932,6,0,L|272:96,1,37.5,2|0,0:0|0:0,0:0:0:0:
200,176,249621,2,0,L|168:216,1,37.5,2|0,0:0|0:0,0:0:0:0:
280,248,250311,2,0,L|320:264,1,37.5,2|0,0:0|0:0,0:0:0:0:
304,152,251001,2,0,L|296:104,1,37.5,2|0,0:0|0:0,0:0:0:0:
184,104,251690,6,0,L|96:96,1,75,2|0,0:0|0:0,0:0:0:0:
160,216,252380,2,0,L|192:288,1,67.4999979400635,2|0,0:0|0:0,0:0:0:0:
288,240,253070,2,0,L|344:232,1,56.2500021457673,2|0,0:0|0:0,0:0:0:0:
304,120,253759,2,0,L|264:88,1,44.999998626709,2|0,0:0|0:0,0:0:0:0:
160,112,254449,6,0,L|160:160,1,37.5,2|0,0:0|0:0,0:0:0:0:
224,240,255138,2,0,P|256:264|256:272,1,37.5,2|0,0:0|0:0,0:0:0:0:
352,208,255828,2,0,L|392:184,1,37.5,2|0,0:0|0:0,0:0:0:0:
288,136,256518,2,0,L|256:112,1,37.5,2|0,0:0|0:0,0:0:0:0:
152,88,257207,5,2,0:0:0:0:
80,168,257380,1,0,0:0:0:0:
197,185,257897,1,2,0:0:0:0:
154,281,258070,1,0,0:0:0:0:
286,219,258587,5,2,0:0:0:0:
342,307,258759,1,0,0:0:0:0:
385,202,259276,1,2,0:0:0:0:
473,242,259449,1,0,0:0:0:0:
336,128,259966,5,2,0:0:0:0:
304,56,260138,1,0,0:0:0:0:
232,136,260656,1,2,0:0:0:0:
184,128,260828,1,0,0:0:0:0:
168,240,261345,5,2,0:0:0:0:
152,272,261518,1,0,0:0:0:0:
280,256,262035,1,2,0:0:0:0:
280,256,262207,1,0,0:0:0:0:
256,192,262380,12,0,267897,0:0:0:0:
