osu file format v14

[General]
AudioFilename: audio.mp3
AudioLeadIn: 0
PreviewTime: 45138
Countdown: 0
SampleSet: Soft
StackLeniency: 0.6
Mode: 0
LetterboxInBreaks: 0
WidescreenStoryboard: 1

[Editor]
Bookmarks: 30138,35656,41345,67188,245828,267897
DistanceSpacing: 0.5
BeatDivisor: 4
GridSize: 32
TimelineZoom: 1

[Metadata]
Title:We Love
TitleUnicode:We Love
Artist:Rameses B
ArtistUnicode:Rameses B
Creator:Plaudible
Version:-Liddell's Insane
Source:
Tags:drum n bass, chill, dnb, monstercat, Vanillas, TeeJoe, -Liddell, Hobbes2
BeatmapID:1015313
BeatmapSetID:461656

[Difficulty]
HPDrainRate:6
CircleSize:4
OverallDifficulty:7.5
ApproachRate:9
SliderMultiplier:1.6
SliderTickRate:1

[Events]
//Background and Video events
0,0,"image.jpg",0,0
//Break Periods
2,91201,101780
2,135682,156952
//Storyboard Layer 0 (Background)
//Storyboard Layer 1 (Fail)
//Storyboard Layer 2 (Pass)
//Storyboard Layer 3 (Foreground)
//Storyboard Sound Samples

[TimingPoints]
3070,344.827586206897,4,2,1,50,1,0
25138,-200,4,2,1,15,0,0
25238,-200,4,2,1,15,0,0
36173,-200,4,2,1,30,0,0
47207,-100,4,2,1,50,0,0
69276,-100,4,2,2,50,0,1
91345,-100,4,2,1,50,0,0
102380,-100,4,2,2,50,0,0
176863,-100,4,2,1,50,0,0
179621,-100,4,2,2,50,0,1
201690,-100,4,2,2,50,0,0
222380,-100,4,2,1,50,0,0
234794,-100,4,2,2,50,0,0
244449,-100,4,2,1,50,0,0

[Colours]
Combo1 : 215,160,222
Combo2 : 119,253,213
Combo3 : 234,204,32
Combo4 : 254,251,180

[HitObjects]
444,183,25138,6,0,B|371:125|337:215|341:165|341:165|230:219|154:137|154:137|76:166|51:199|45:251|60:302|142:303|177:229|166:194|33:115|33:115|178:-16|220:95|259:98|259:98|307:100|310:67|361:86|361:86|414:70|465:100,1,1200
207,185,30656,6,0,P|175:313|39:321,1,280
101,214,32035,6,0,P|133:86|269:78,1,280
351,42,33414,6,0,B|369:140|369:140|293:122|321:201|289:198|289:198|250:156|151:106|198:273|198:273|145:289|132:321|132:321|49:286,1,600
145,99,36173,6,0,P|44:89|108:199,1,280
246,214,37552,6,0,P|340:177|308:300,1,280
62,276,38932,6,0,B|94:244|158:212|158:212|158:148|140:13|-17:49|-29:129|21:212|94:180|173:137|222:116|222:116|229:114,1,560
256,192,41690,12,4,45828,0:0:0:0:
96,136,47207,6,4,P|104:236|128:296,1,160
220,280,47724,2,0,L|304:256,1,80
224,172,48069,2,0,L|328:148,1,80,0|2,0:0|0:0,0:0:0:0:
388,64,48414,2,0,P|360:32|316:12,2,80
292,92,48931,1,2,0:0:0:0:
292,92,49017,1,0,0:0:0:0:
292,92,49104,1,0,0:0:0:0:
196,40,49276,1,0,0:0:0:0:
96,32,49449,2,0,L|16:72,2,80,0|2|0,0:0|0:0|0:0,0:0:0:0:
116,120,49966,6,0,L|36:160,1,80
72,252,50311,2,0,P|68:292|76:332,2,80,2|0|0,0:0|0:0|0:0,0:0:0:0:
164,304,50828,1,0,0:0:0:0:
268,320,51000,2,0,P|360:322|436:314,1,160,2|0,0:0|0:0,0:0:0:0:
456,204,51517,1,0,0:0:0:0:
448,96,51690,2,0,P|388:60|356:52,1,80,2|0,0:0|0:0,0:0:0:0:
324,140,52035,2,0,L|372:159,2,40
208,80,52380,2,0,L|208:168,1,80,2|0,0:0|0:0,0:0:0:0:
444,288,52724,6,0,P|400:320|352:340,1,80,4|0,0:0|0:0,0:0:0:0:
264,328,53069,1,0,0:0:0:0:
144,320,53242,1,0,0:0:0:0:
56,236,53414,1,0,0:0:0:0:
56,236,53500,1,0,0:0:0:0:
56,236,53586,1,0,0:0:0:0:
148,172,53759,2,0,P|124:136|88:104,2,80,2|0|0,0:0|0:0|0:0,0:0:0:0:
120,32,54276,5,0,0:0:0:0:
139,188,54448,1,2,0:0:0:0:
244,75,54621,1,0,0:0:0:0:
104,129,54794,1,0,0:0:0:0:
222,243,54966,1,0,0:0:0:0:
254,89,55138,1,0,0:0:0:0:
130,207,55311,1,0,0:0:0:0:
112,48,55483,6,0,P|56:92|44:124,1,80
48,208,55828,1,2,0:0:0:0:
60,316,56000,2,0,P|144:332|240:332,1,160
320,256,56517,1,2,0:0:0:0:
320,256,56604,1,0,0:0:0:0:
320,256,56690,1,0,0:0:0:0:
364,116,56862,6,0,P|276:104|200:112,1,160,0|2,0:0|0:0,0:0:0:0:
60,136,57380,2,0,L|88:184,1,40
180,204,57552,2,0,L|152:252,2,40
60,304,57897,1,2,0:0:0:0:
60,304,58069,1,0,0:0:0:0:
56,152,58242,6,0,P|60:95|82:55,1,80,4|0,0:0|0:0,0:0:0:0:
176,56,58587,1,2,0:0:0:0:
308,72,58759,1,0,0:0:0:0:
200,168,58931,1,0,0:0:0:0:
116,248,59104,2,0,P|108:304|116:328,2,80,0|2|0,0:0|0:0|0:0,0:0:0:0:
204,128,59621,6,0,P|252:100|304:92,1,80
392,128,59966,1,2,0:0:0:0:
392,128,60052,1,0,0:0:0:0:
392,128,60138,1,0,0:0:0:0:
424,252,60311,1,0,0:0:0:0:
312,320,60483,2,0,L|216:368,2,80,0|2|0,0:0|0:0|0:0,0:0:0:0:
216,240,61000,6,0,L|120:288,1,80
48,184,61345,2,0,L|216:104,1,160,2|0,0:0|0:0,0:0:0:0:
300,68,61862,1,0,0:0:0:0:
408,76,62035,2,0,P|452:124|464:148,1,80,2|0,0:0|0:0,0:0:0:0:
312,140,62380,6,0,P|280:96|248:68,1,80
140,44,62724,1,2,0:0:0:0:
32,88,62897,2,0,L|-8:132,2,40
96,184,63242,1,0,0:0:0:0:
168,268,63414,2,0,L|112:328,1,80,2|0,0:0|0:0,0:0:0:0:
36,184,63759,5,4,0:0:0:0:
80,72,63931,2,0,P|108:44|152:32,1,80
180,176,64276,1,0,0:0:0:0:
180,176,64362,1,0,0:0:0:0:
180,176,64449,1,0,0:0:0:0:
252,288,64621,2,0,P|204:308|144:296,2,80,0|2|0,0:0|0:0|0:0,0:0:0:0:
380,232,65138,5,0,0:0:0:0:
380,232,65311,1,0,0:0:0:0:
432,116,65483,1,2,0:0:0:0:
376,8,65655,2,0,L|448:8,2,40
316,100,66000,1,0,0:0:0:0:
196,64,66173,2,0,P|103:42|33:44,1,160,2|0,0:0|0:0,0:0:0:0:
56,168,66690,5,0,0:0:0:0:
84,280,66862,2,0,P|101:331|134:376,1,80,2|0,0:0|0:0,0:0:0:0:
252,260,67207,2,0,P|227:167|193:106,1,160,0|2,0:0|0:0,0:0:0:0:
96,48,67724,1,0,0:0:0:0:
44,176,67897,1,4,0:0:0:0:
257,52,68759,5,0,0:0:0:0:
403,97,68932,1,0,0:0:0:0:
432,116,69276,6,0,P|436:172|428:208,1,80,4|0,0:0|0:0,0:0:0:0:
356,296,69621,1,8,0:0:0:0:
232,328,69793,2,0,P|132:304|72:264,1,160
180,184,70311,1,8,0:0:0:0:
72,112,70483,5,0,0:0:0:0:
72,112,70569,1,0,0:0:0:0:
72,112,70655,1,0,0:0:0:0:
180,48,70828,2,0,P|224:36|264:40,1,80,0|8,0:0|0:0,0:0:0:0:
392,96,71173,2,0,P|384:204|352:276,1,160,0|0,0:0|0:0,0:0:0:0:
248,312,71690,1,8,0:0:0:0:
120,276,71862,6,0,L|108:332,2,40,0|0|0,0:0|0:0|0:0,0:0:0:0:
236,192,72207,1,0,0:0:0:0:
364,164,72380,1,8,0:0:0:0:
392,32,72552,2,0,P|282:61|221:100,1,160,0|0,0:0|0:0,0:0:0:0:
144,184,73069,1,8,0:0:0:0:
232,308,73242,1,0,0:0:0:0:
308,176,73414,5,0,0:0:0:0:
240,64,73586,2,0,P|268:52|280:52,2,40,0|0|8,0:0|0:0|0:0,0:0:0:0:
160,176,73931,1,0,0:0:0:0:
264,296,74104,1,0,0:0:0:0:
232,132,74276,1,0,0:0:0:0:
336,252,74449,2,0,P|352:300|344:332,1,80,8|0,0:0|0:0,0:0:0:0:
108,264,74793,5,4,0:0:0:0:
60,144,74966,2,0,P|72:96|92:68,1,80,0|8,0:0|0:0,0:0:0:0:
208,40,75311,2,0,P|316:40|380:56,1,160,0|0,0:0|0:0,0:0:0:0:
444,172,75828,1,8,0:0:0:0:
296,176,76000,1,0,0:0:0:0:
188,84,76173,6,0,L|148:112,2,40,0|0|0,0:0|0:0|0:0,0:0:0:0:
312,40,76517,1,8,0:0:0:0:
424,80,76690,2,0,P|448:188|448:256,1,160,0|0,0:0|0:0,0:0:0:0:
356,316,77207,1,8,0:0:0:0:
240,312,77380,1,0,0:0:0:0:
128,288,77552,6,0,P|112:324|108:340,2,40
216,188,77897,1,8,0:0:0:0:
328,120,78069,2,0,P|212:40|176:32,1,160,0|0,0:0|0:0,0:0:0:0:
68,40,78587,2,0,P|40:92|36:124,1,80,8|0,0:0|0:0,0:0:0:0:
60,220,78932,5,0,0:0:0:0:
140,308,79104,1,0,0:0:0:0:
140,308,79190,1,0,0:0:0:0:
140,308,79276,1,8,0:0:0:0:
144,164,79449,1,0,0:0:0:0:
224,252,79622,1,0,0:0:0:0:
224,252,79708,1,0,0:0:0:0:
224,252,79794,1,0,0:0:0:0:
244,112,79966,2,0,P|282:149|302:189,1,80,8|0,0:0|0:0,0:0:0:0:
224,252,80311,5,4,0:0:0:0:
111,207,80483,2,0,P|82:153|75:113,1,80,0|8,0:0|0:0,0:0:0:0:
152,44,80828,2,0,P|264:24|320:28,1,160,0|0,0:0|0:0,0:0:0:0:
396,112,81345,1,8,0:0:0:0:
272,144,81517,1,0,0:0:0:0:
136,160,81690,6,0,L|88:128,2,40,0|0|0,0:0|0:0|0:0,0:0:0:0:
216,252,82035,1,8,0:0:0:0:
320,312,82207,2,0,P|408:288|488:236,1,160,0|0,0:0|0:0,0:0:0:0:
480,128,82724,2,0,P|476:76|460:44,1,80,8|0,0:0|0:0,0:0:0:0:
359,43,83070,2,0,L|359:140,1,80
356,216,83414,1,8,0:0:0:0:
340,320,83587,2,0,P|225:322|151:303,1,160,0|0,0:0|0:0,0:0:0:0:
104,228,84104,1,8,0:0:0:0:
48,112,84276,1,0,0:0:0:0:
156,32,84449,6,0,L|188:112,1,80,0|0,0:0|0:0,0:0:0:0:
284,40,84793,1,8,0:0:0:0:
404,60,84966,2,0,P|424:164|416:252,1,160,0|0,0:0|0:0,0:0:0:0:
352,312,85483,2,0,L|388:360,2,40,8|0|0,0:0|0:0|0:0,0:0:0:0:
192,204,85828,5,0,0:0:0:0:
332,216,86000,1,0,0:0:0:0:
248,128,86173,1,8,0:0:0:0:
232,288,86345,2,0,P|288:304|340:308,1,80,0|0,0:0|0:0,0:0:0:0:
392,228,86690,1,0,0:0:0:0:
404,120,86862,1,8,0:0:0:0:
352,32,87035,1,0,0:0:0:0:
200,32,87207,6,0,P|185:82|193:125,1,80,0|0,0:0|0:0,0:0:0:0:
96,172,87552,2,0,P|109:222|138:255,1,80,8|0,0:0|0:0,0:0:0:0:
256,280,87897,1,0,0:0:0:0:
184,144,88069,1,0,0:0:0:0:
160,264,88242,1,8,0:0:0:0:
312,204,88414,1,0,0:0:0:0:
272,36,88587,6,0,P|170:61|112:90,1,160,0|8,0:0|0:0,0:0:0:0:
68,212,89104,1,0,0:0:0:0:
68,212,89190,1,0,0:0:0:0:
68,212,89276,1,0,0:0:0:0:
228,276,89449,1,0,0:0:0:0:
212,140,89621,1,8,0:0:0:0:
136,304,89793,1,0,0:0:0:0:
116,128,89966,5,2,0:0:0:0:
300,16,90483,5,2,0:0:0:0:
512,98,91001,5,6,0:0:0:0:
396,316,102380,6,0,P|420:224|416:156,1,160,0|8,0:0|0:0,0:0:0:0:
344,56,102897,2,0,L|388:32,2,40
244,112,103242,1,0,0:0:0:0:
192,204,103414,2,0,P|184:268|184:304,1,80,8|0,0:0|0:0,0:0:0:0:
72,304,103759,5,0,0:0:0:0:
48,172,103931,1,0,0:0:0:0:
180,248,104104,2,0,L|172:136,1,80,8|0,0:0|0:0,0:0:0:0:
112,68,104449,2,0,P|160:36|196:32,1,80,0|0,0:0|0:0,0:0:0:0:
300,76,104793,1,8,0:0:0:0:
288,104,104880,1,0,0:0:0:0:
280,128,104966,1,0,0:0:0:0:
124,216,105138,6,0,L|144:304,1,80,0|0,0:0|0:0,0:0:0:0:
268,264,105483,6,0,L|248:352,1,80,8|0,0:0|0:0,0:0:0:0:
188,220,105828,5,0,0:0:0:0:
144,120,106000,1,0,0:0:0:0:
192,24,106173,2,0,P|232:4|272:0,1,80,8|0,0:0|0:0,0:0:0:0:
392,112,106518,6,0,P|365:203|302:277,1,160,0|8,0:0|0:0,0:0:0:0:
204,232,107035,1,0,0:0:0:0:
112,152,107207,1,0,0:0:0:0:
112,152,107293,1,0,0:0:0:0:
112,152,107380,2,0,P|84:108|80:80,1,80,0|8,0:0|0:0,0:0:0:0:
312,52,107897,6,0,P|400:112|440:164,1,160,0|8,0:0|0:0,0:0:0:0:
320,224,108414,1,0,0:0:0:0:
320,224,108586,1,0,0:0:0:0:
216,140,108759,2,0,P|160:156|120:184,2,80,0|8|0,0:0|0:0|0:0,0:0:0:0:
376,48,109276,6,0,P|284:28|208:28,1,160,0|8,0:0|0:0,0:0:0:0:
80,36,109793,2,0,L|56:112,1,80
55,112,110138,1,0,0:0:0:0:
176,136,110311,2,0,L|152:212,1,80,8|0,0:0|0:0,0:0:0:0:
288,304,110655,5,0,0:0:0:0:
412,264,110828,1,0,0:0:0:0:
408,120,111000,2,0,P|376:96|324:80,1,80,8|0,0:0|0:0,0:0:0:0:
208,56,111345,5,0,0:0:0:0:
84,96,111518,1,0,0:0:0:0:
88,240,111690,2,0,P|120:264|172:280,1,80,8|0,0:0|0:0,0:0:0:0:
303,292,112035,5,2,0:0:0:0:
185,100,112552,5,2,0:0:0:0:
128,204,112724,1,2,0:0:0:0:
340,86,113070,5,12,0:0:0:0:
104,52,113414,6,0,P|72:120|68:156,2,80,0|0|8,0:0|0:0|0:0,0:0:0:0:
220,48,113931,1,0,0:0:0:0:
328,92,114104,1,0,0:0:0:0:
396,188,114276,2,0,L|376:268,1,80,0|8,0:0|0:0,0:0:0:0:
272,184,114621,1,0,0:0:0:0:
364,80,114794,6,0,P|404:136|408:176,1,80,0|0,0:0|0:0,0:0:0:0:
368,260,115138,1,8,0:0:0:0:
264,304,115311,1,0,0:0:0:0:
148,280,115483,2,0,P|100:268|72:244,2,80,0|0|8,0:0|0:0|0:0,0:0:0:0:
252,188,116000,5,0,0:0:0:0:
252,188,116086,1,0,0:0:0:0:
252,188,116173,2,0,P|288:152|312:104,1,80,0|0,0:0|0:0,0:0:0:0:
200,52,116517,1,8,0:0:0:0:
92,48,116690,2,0,P|56:144|52:204,1,160,0|0,0:0|0:0,0:0:0:0:
176,172,117207,2,0,L|168:260,1,80,8|0,0:0|0:0,0:0:0:0:
68,116,117552,5,0,0:0:0:0:
184,28,117725,2,0,P|272:12|366:30,1,160
272,128,118242,1,0,0:0:0:0:
400,160,118414,2,0,L|368:244,1,80,0|8,0:0|0:0,0:0:0:0:
260,248,118759,6,0,L|292:332,2,80,0|0|0,0:0|0:0|0:0,0:0:0:0:
172,160,119276,1,8,0:0:0:0:
56,168,119449,2,0,L|40:212,2,40
112,36,119793,2,0,P|172:8|192:8,1,80,0|8,0:0|0:0,0:0:0:0:
184,140,120138,5,0,0:0:0:0:
184,140,120224,1,0,0:0:0:0:
184,140,120311,2,0,P|244:168|264:168,1,80,0|0,0:0|0:0,0:0:0:0:
248,72,120655,5,8,0:0:0:0:
124,44,120828,1,0,0:0:0:0:
88,168,121000,1,0,0:0:0:0:
144,288,121173,2,0,L|192:368,1,80,0|8,0:0|0:0,0:0:0:0:
444,56,121690,6,0,L|420:216,1,160,0|8,0:0|0:0,0:0:0:0:
296,280,122207,1,0,0:0:0:0:
302,252,122293,1,0,0:0:0:0:
307,223,122380,1,0,0:0:0:0:
208,172,122552,2,0,L|220:72,1,80,0|8,0:0|0:0,0:0:0:0:
104,28,123070,6,0,P|44:116|28:196,1,160,0|8,0:0|0:0,0:0:0:0:
108,280,123587,1,0,0:0:0:0:
240,276,123759,2,0,L|232:324,2,40,0|0|0,0:0|0:0|0:0,0:0:0:0:
208,128,124104,1,8,0:0:0:0:
136,248,124276,1,0,0:0:0:0:
72,96,124449,6,0,P|96:48|128:16,1,80,0|0,0:0|0:0,0:0:0:0:
184,124,124794,1,8,0:0:0:0:
256,228,124966,2,0,L|236:272,2,40
352,128,125311,2,0,L|380:220,1,80,0|8,0:0|0:0,0:0:0:0:
324,320,125656,1,0,0:0:0:0:
200,268,125828,6,0,P|96:220|36:164,1,160,0|8,0:0|0:0,0:0:0:0:
108,68,126345,1,0,0:0:0:0:
220,124,126518,1,0,0:0:0:0:
336,184,126690,2,0,L|308:288,1,80,0|8,0:0|0:0,0:0:0:0:
315,261,127035,1,0,0:0:0:0:
224,160,127207,6,0,L|196:56,1,80,0|0,0:0|0:0,0:0:0:0:
88,52,127552,1,8,0:0:0:0:
48,168,127725,1,0,0:0:0:0:
48,168,127811,1,0,0:0:0:0:
48,168,127897,1,0,0:0:0:0:
120,260,128070,2,0,P|168:296|208:300,1,80,0|8,0:0|0:0,0:0:0:0:
186,299,128414,1,0,0:0:0:0:
152,168,128587,6,0,P|176:60|208:-4,1,160,0|8,0:0|0:0,0:0:0:0:
296,104,129104,1,0,0:0:0:0:
296,104,129276,1,0,0:0:0:0:
296,244,129449,2,0,L|276:332,2,80,0|8|0,0:0|0:0|0:0,0:0:0:0:
296,104,129966,5,0,0:0:0:0:
192,32,130138,1,0,0:0:0:0:
76,72,130311,1,8,0:0:0:0:
116,196,130483,2,0,L|144:256,2,40
76,72,130828,1,0,0:0:0:0:
192,32,131001,2,0,L|236:116,1,80,8|0,0:0|0:0,0:0:0:0:
344,60,131345,5,0,0:0:0:0:
400,176,131518,1,0,0:0:0:0:
464,292,131690,1,8,0:0:0:0:
312,280,131863,1,0,0:0:0:0:
300,256,131949,1,0,0:0:0:0:
288,228,132035,2,0,L|248:144,2,80,0|0|8,0:0|0:0|0:0,0:0:0:0:
372,128,132552,6,0,P|364:68|328:24,2,80,0|0|0,0:0|0:0|0:0,0:0:0:0:
240,136,133070,2,0,P|248:196|284:240,1,80,8|0,0:0|0:0,0:0:0:0:
380,248,133414,1,0,0:0:0:0:
248,320,133587,1,0,0:0:0:0:
220,316,133673,1,0,0:0:0:0:
192,308,133759,2,0,P|136:280|108:248,1,80,8|0,0:0|0:0,0:0:0:0:
88,132,134104,5,0,0:0:0:0:
32,256,134276,1,2,0:0:0:0:
121,138,134449,5,10,0:0:0:0:
107,279,134621,1,2,0:0:0:0:
240,148,134794,6,2,L|260:240,1,80
364,280,135138,2,2,L|344:348,4,40,10|2|2|2|2,0:0|0:0|0:0|0:0|0:0,0:0:0:0:
156,68,157552,6,0,L|116:176,1,80,0|0,0:0|0:0,0:0:0:0:
96,240,157897,1,8,0:0:0:0:
144,328,158070,1,0,0:0:0:0:
264,120,158587,5,8,0:0:0:0:
264,248,158759,2,0,P|248:284|220:328,1,80
328,160,159104,5,0,0:0:0:0:
380,260,159276,1,8,0:0:0:0:
320,352,159449,1,0,0:0:0:0:
416,40,159966,6,0,L|440:128,1,80,8|0,0:0|0:0,0:0:0:0:
437,117,160225,1,0,0:0:0:0:
437,117,160311,1,0,0:0:0:0:
400,232,160483,5,0,0:0:0:0:
320,148,160656,1,8,0:0:0:0:
312,36,160828,1,0,0:0:0:0:
240,156,161345,5,8,0:0:0:0:
232,268,161518,1,0,0:0:0:0:
112,216,161690,2,0,L|81:320,2,80,0|0|8,0:0|0:0|0:0,0:0:0:0:
136,96,162207,1,0,0:0:0:0:
320,228,162725,5,8,0:0:0:0:
320,228,162897,1,0,0:0:0:0:
204,164,163070,5,0,0:0:0:0:
232,292,163242,2,0,L|292:364,2,80,0|8|0,0:0|0:0|0:0,0:0:0:0:
234,137,163759,1,0,0:0:0:0:
173,253,163931,2,0,L|173:346,2,80,0|8|0,0:0|0:0|0:0,0:0:0:0:
344,184,164449,5,0,0:0:0:0:
412,300,164621,2,0,P|452:256|468:208,2,80,0|8|0,0:0|0:0|0:0,0:0:0:0:
389,175,165138,1,0,0:0:0:0:
366,308,165311,2,0,P|425:300|468:273,2,80,0|8|0,0:0|0:0|0:0,0:0:0:0:
321,168,165828,5,0,0:0:0:0:
221,60,166173,1,8,0:0:0:0:
127,163,166345,1,0,0:0:0:0:
229,268,166518,1,0,0:0:0:0:
321,168,166690,1,0,0:0:0:0:
221,60,166863,2,0,P|181:96|169:128,2,80,8|0|0,0:0|0:0|0:0,0:0:0:0:
382,139,167552,5,8,0:3:0:0:
359,277,167724,1,0,0:3:0:0:
214,261,167897,1,0,0:3:0:0:
235,127,168069,1,0,0:3:0:0:
382,139,168242,2,0,P|377:192|360:221,2,80,8|0|0,0:3|0:3|0:3,0:3:0:0:
164,56,168932,5,8,0:0:0:0:
120,188,169104,2,0,P|104:243|109:299,1,80
104,128,169621,5,8,0:0:0:0:
139,262,169793,2,0,P|156:317|191:361,1,80
244,244,170138,5,0,0:0:0:0:
204,124,170311,1,8,0:0:0:0:
320,196,170483,5,0,0:0:0:0:
276,76,170656,1,0,0:0:0:0:
276,76,170742,1,0,0:0:0:0:
276,76,170828,1,0,0:0:0:0:
412,176,171001,2,0,P|412:220|396:268,1,80,8|0,0:0|0:0,0:0:0:0:
402,254,171345,1,0,0:0:0:0:
192,288,171690,5,8,0:0:0:0:
152,180,171863,1,0,0:0:0:0:
184,80,172035,1,0,0:0:0:0:
368,80,172380,1,8,0:0:0:0:
368,80,172552,1,0,0:0:0:0:
368,80,172725,2,0,B|282:118|416:134|282:171|282:171|365:216|285:160|277:274|277:274|141:224|215:103,1,480,0|8,0:0|0:0,0:0:0:0:
208,240,174104,5,0,0:0:0:0:
324,160,174276,1,0,0:0:0:0:
324,304,174449,2,0,P|280:340|240:348,1,80,8|0,0:0|0:0,0:0:0:0:
148,260,174794,5,0,0:0:0:0:
148,260,174966,1,0,0:0:0:0:
184,116,175138,1,8,0:0:0:0:
248,260,175311,1,0,0:0:0:0:
108,64,175483,6,0,L|88:144,1,80,0|0,0:0|0:0,0:0:0:0:
216,176,175828,6,0,L|236:256,1,80,8|0,0:0|0:0,0:0:0:0:
328,60,176173,6,0,L|308:140,1,80,0|0,0:0|0:0,0:0:0:0:
436,172,176518,6,0,L|456:252,1,80,8|0,0:0|0:0,0:0:0:0:
376,344,176863,5,10,0:0:0:0:
361,328,176949,1,10,0:0:0:0:
345,315,177035,1,10,0:0:0:0:
327,306,177121,1,10,0:0:0:0:
305,305,177207,1,10,0:0:0:0:
284,303,177294,1,10,0:0:0:0:
264,307,177380,1,10,0:0:0:0:
245,311,177466,1,10,0:0:0:0:
227,320,177552,5,10,0:0:0:0:
218,302,177638,1,10,0:0:0:0:
209,284,177725,1,10,0:0:0:0:
199,267,177811,1,10,0:0:0:0:
189,252,177897,1,10,0:0:0:0:
178,238,177983,1,10,0:0:0:0:
163,222,178070,1,10,0:0:0:0:
149,206,178156,1,10,0:0:0:0:
134,190,178242,5,10,0:0:0:0:
80,268,179621,6,0,P|76:212|84:176,1,80,4|0,0:0|0:0,0:0:0:0:
156,88,179966,1,8,0:0:0:0:
280,56,180138,2,0,P|380:80|440:120,1,160,0|0,0:0|0:0,0:0:0:0:
332,200,180656,1,8,0:0:0:0:
440,272,180828,5,0,0:0:0:0:
440,272,180914,1,0,0:0:0:0:
440,272,181000,1,0,0:0:0:0:
332,336,181173,2,0,P|288:348|248:344,1,80,0|8,0:0|0:0,0:0:0:0:
120,288,181518,2,0,P|128:180|160:108,1,160,0|0,0:0|0:0,0:0:0:0:
264,72,182035,1,8,0:0:0:0:
392,108,182207,6,0,L|404:52,2,40,0|0|0,0:0|0:0|0:0,0:0:0:0:
276,192,182552,1,0,0:0:0:0:
148,220,182725,1,8,0:0:0:0:
133,362,182897,2,0,P|243:333|304:294,1,160,0|0,0:0|0:0,0:0:0:0:
352,208,183414,5,8,0:0:0:0:
280,76,183587,1,0,0:0:0:0:
204,208,183759,1,0,0:0:0:0:
272,320,183931,2,0,P|244:332|232:332,2,40,0|0|8,0:0|0:0|0:0,0:0:0:0:
352,208,184276,5,0,0:0:0:0:
248,88,184449,1,0,0:0:0:0:
280,252,184621,1,0,0:0:0:0:
176,132,184794,2,0,P|160:84|168:52,1,80,8|0,0:0|0:0,0:0:0:0:
404,120,185138,5,0,0:0:0:0:
452,240,185311,2,0,P|440:288|420:316,1,80,0|8,0:0|0:0,0:0:0:0:
304,344,185656,2,0,P|196:344|132:328,1,160,0|0,0:0|0:0,0:0:0:0:
68,212,186173,1,8,0:0:0:0:
216,208,186345,1,0,0:0:0:0:
324,300,186518,6,0,L|364:272,2,40,0|0|0,0:0|0:0|0:0,0:0:0:0:
200,344,186862,1,8,0:0:0:0:
88,304,187035,2,0,P|64:196|64:128,1,160,0|0,0:0|0:0,0:0:0:0:
156,68,187552,1,8,0:0:0:0:
272,72,187725,1,0,0:0:0:0:
384,96,187897,6,0,P|400:60|404:44,2,40,0|0|0,0:0|0:0|0:0,0:0:0:0:
296,196,188242,1,8,0:0:0:0:
184,264,188414,2,0,P|300:344|336:352,1,160,0|0,0:0|0:0,0:0:0:0:
444,344,188931,2,0,P|472:292|476:260,1,80,8|0,0:0|0:0,0:0:0:0:
452,164,189276,5,0,0:0:0:0:
372,76,189449,1,0,0:0:0:0:
372,76,189535,1,0,0:0:0:0:
372,76,189621,1,8,0:0:0:0:
368,220,189794,1,0,0:0:0:0:
288,132,189967,1,0,0:0:0:0:
288,132,190053,1,0,0:0:0:0:
288,132,190138,1,0,0:0:0:0:
268,272,190311,2,0,P|230:235|210:195,1,80,8|0,0:0|0:0,0:0:0:0:
336,104,190656,5,0,0:0:0:0:
424,184,190828,2,0,P|432:244|424:284,1,80,0|8,0:0|0:0,0:0:0:0:
360,340,191173,2,0,P|248:360|192:356,1,160,0|0,0:0|0:0,0:0:0:0:
116,272,191690,1,8,0:0:0:0:
240,240,191862,1,0,0:0:0:0:
376,224,192035,6,0,L|424:256,2,40,0|0|0,0:0|0:0|0:0,0:0:0:0:
296,132,192380,1,8,0:0:0:0:
192,72,192552,2,0,P|104:96|24:148,1,160,0|0,0:0|0:0,0:0:0:0:
32,256,193070,2,0,P|36:308|52:340,1,80,8|0,0:0|0:0,0:0:0:0:
160,340,193414,5,0,0:0:0:0:
160,312,193500,1,0,0:0:0:0:
160,284,193587,1,0,0:0:0:0:
156,168,193759,1,8,0:0:0:0:
172,64,193932,2,0,P|287:62|361:81,1,160,0|0,0:0|0:0,0:0:0:0:
408,156,194449,1,8,0:0:0:0:
464,272,194621,1,0,0:0:0:0:
356,352,194794,6,0,L|324:272,1,80,0|0,0:0|0:0,0:0:0:0:
228,344,195138,1,8,0:0:0:0:
108,324,195311,2,0,P|88:220|96:132,1,160,0|0,0:0|0:0,0:0:0:0:
160,72,195828,2,0,L|124:24,2,40,8|0|0,0:0|0:0|0:0,0:0:0:0:
320,180,196173,5,0,0:0:0:0:
180,168,196345,1,0,0:0:0:0:
280,233,196518,5,8,0:0:0:0:
292,94,196690,2,0,P|251:71|211:64,1,80
120,156,197035,1,0,0:0:0:0:
108,264,197207,1,8,0:0:0:0:
160,352,197380,1,0,0:0:0:0:
312,352,197552,6,0,P|327:302|319:259,1,80,0|0,0:0|0:0,0:0:0:0:
416,212,197897,2,0,P|403:162|374:129,1,80,8|0,0:0|0:0,0:0:0:0:
256,104,198242,1,0,0:0:0:0:
328,240,198414,1,0,0:0:0:0:
352,120,198587,5,8,0:0:0:0:
200,180,198759,1,0,0:0:0:0:
240,348,198932,2,0,P|342:323|400:294,1,160,0|8,0:0|0:0,0:0:0:0:
444,172,199449,1,0,0:0:0:0:
444,172,199535,1,0,0:0:0:0:
444,172,199621,1,0,0:0:0:0:
284,108,199794,1,0,0:0:0:0:
300,244,199966,1,8,0:0:0:0:
376,80,200138,1,0,0:0:0:0:
396,256,200311,5,0,0:0:0:0:
284,340,200483,2,0,P|224:340|176:328,1,80,0|8,0:0|0:0,0:0:0:0:
132,224,200828,5,0,0:0:0:0:
244,308,201001,2,0,P|304:308|352:296,1,80,0|0,0:0|0:0,0:0:0:0:
232,184,201345,5,0,0:0:0:0:
128,312,201518,1,0,0:0:0:0:
408,52,201690,6,0,P|440:120|444:156,2,80,0|0|8,0:0|0:0|0:0,0:0:0:0:
292,48,202207,1,0,0:0:0:0:
184,92,202380,1,0,0:0:0:0:
116,188,202552,2,0,L|136:268,1,80,0|8,0:0|0:0,0:0:0:0:
240,184,202897,5,0,0:0:0:0:
148,80,203069,2,0,P|108:136|104:176,1,80,0|0,0:0|0:0,0:0:0:0:
144,260,203414,1,8,0:0:0:0:
248,304,203587,1,0,0:0:0:0:
364,280,203759,2,0,P|412:268|440:244,2,80,0|0|8,0:0|0:0|0:0,0:0:0:0:
260,188,204276,5,0,0:0:0:0:
260,188,204362,1,0,0:0:0:0:
260,188,204449,2,0,P|224:152|200:104,1,80
312,52,204794,1,8,0:0:0:0:
420,48,204966,2,0,P|456:144|460:204,1,160,0|0,0:0|0:0,0:0:0:0:
336,172,205483,2,0,L|344:260,1,80,8|0,0:0|0:0,0:0:0:0:
444,116,205828,5,0,0:0:0:0:
328,28,206001,2,0,P|240:12|146:30,1,160
240,128,206518,1,0,0:0:0:0:
112,160,206690,2,0,L|144:244,1,80,0|8,0:0|0:0,0:0:0:0:
252,248,207035,6,0,L|220:332,2,80,0|0|0,0:0|0:0|0:0,0:0:0:0:
340,160,207552,1,8,0:0:0:0:
456,168,207725,2,0,L|472:212,2,40
400,36,208069,2,0,P|340:8|320:8,1,80,0|8,0:0|0:0,0:0:0:0:
328,140,208414,5,0,0:0:0:0:
328,140,208500,1,0,0:0:0:0:
328,140,208587,2,0,P|268:168|248:168,1,80,0|0,0:0|0:0,0:0:0:0:
264,72,208931,5,8,0:0:0:0:
388,44,209104,1,0,0:0:0:0:
424,168,209276,1,0,0:0:0:0:
368,288,209449,2,8,L|320:368,1,80,0|8,0:0|0:0,0:0:0:0:
68,56,209966,6,0,L|92:216,1,160,0|8,0:0|0:0,0:0:0:0:
216,280,210483,1,0,0:0:0:0:
210,252,210569,1,0,0:0:0:0:
205,223,210656,1,0,0:0:0:0:
304,172,210828,2,0,L|292:72,1,80,0|8,0:0|0:0,0:0:0:0:
408,28,211346,6,0,P|468:116|484:196,1,160,0|8,0:0|0:0,0:0:0:0:
404,280,211863,1,0,0:0:0:0:
272,276,212035,2,0,L|280:324,2,40,0|0|0,0:0|0:0|0:0,0:0:0:0:
328,124,212380,1,8,0:0:0:0:
376,248,212552,1,0,0:0:0:0:
440,96,212725,6,0,P|416:48|384:16,1,80,0|0,0:0|0:0,0:0:0:0:
328,124,213070,1,8,0:0:0:0:
256,228,213242,2,0,L|276:272,2,40
160,128,213587,2,0,L|132:220,1,80,0|8,0:0|0:0,0:0:0:0:
188,320,213932,5,0,0:0:0:0:
312,268,214104,2,0,P|416:220|476:164,1,160,0|8,0:0|0:0,0:0:0:0:
404,68,214621,1,0,0:0:0:0:
292,124,214794,1,0,0:0:0:0:
176,184,214966,2,0,L|204:288,1,80,0|8,0:0|0:0,0:0:0:0:
197,261,215225,1,0,0:0:0:0:
197,261,215311,1,0,0:0:0:0:
288,160,215483,6,0,L|316:56,1,80,0|0,0:0|0:0,0:0:0:0:
424,52,215828,1,8,0:0:0:0:
464,168,216001,1,0,0:0:0:0:
464,168,216087,1,0,0:0:0:0:
464,168,216173,1,0,0:0:0:0:
392,260,216346,2,0,P|344:296|304:300,1,80,0|8,0:0|0:0,0:0:0:0:
326,299,216690,1,0,0:0:0:0:
360,168,216863,6,0,P|336:60|304:-4,1,160,0|8,0:0|0:0,0:0:0:0:
216,104,217380,1,0,0:0:0:0:
216,244,217725,2,0,L|236:332,2,80,0|8|0,0:0|0:0|0:0,0:0:0:0:
216,104,218242,5,0,0:0:0:0:
320,32,218414,1,0,0:0:0:0:
436,72,218587,1,8,0:0:0:0:
507,187,218759,2,0,L|479:247,2,40
436,72,219104,1,0,0:0:0:0:
320,32,219277,2,0,L|276:116,1,80,8|0,0:0|0:0,0:0:0:0:
168,60,219621,5,0,0:0:0:0:
112,176,219794,1,0,0:0:0:0:
48,292,219966,1,8,0:0:0:0:
200,280,220139,1,0,0:0:0:0:
212,256,220225,1,0,0:0:0:0:
224,228,220311,2,0,L|264:144,2,80,0|0|8,0:0|0:0|0:0,0:0:0:0:
140,128,220828,6,0,P|148:68|184:24,2,80,0|0|0,0:0|0:0|0:0,0:0:0:0:
272,136,221346,2,0,P|264:196|228:240,1,80,8|0,0:0|0:0,0:0:0:0:
132,248,221690,1,0,0:0:0:0:
264,320,221863,1,0,0:0:0:0:
292,316,221949,1,0,0:0:0:0:
320,308,222035,2,0,P|376:280|404:248,1,80,8|0,0:0|0:0,0:0:0:0:
424,132,222380,5,10,0:0:0:0:
480,256,222552,1,10,0:0:0:0:
391,138,222725,5,10,0:0:0:0:
405,279,222897,1,10,0:0:0:0:
272,148,223070,6,10,L|252:240,1,80
148,280,223414,2,10,L|168:348,3,40,10|10|10|10,0:0|0:0|0:0|0:0,0:0:0:0:
65,202,223759,5,10,0:0:0:0:
192,100,224276,5,0,0:0:0:0:
267,243,225138,5,0,0:0:0:0:
424,283,225655,5,0,0:0:0:0:
394,40,226518,5,0,0:0:0:0:
339,192,227035,5,0,0:0:0:0:
169,80,227897,5,0,0:0:0:0:
114,232,228414,5,0,0:0:0:0:
226,315,229276,5,2,0:0:0:0:
226,315,229363,1,2,0:0:0:0:
226,315,229449,2,2,P|256:249|272:237,1,80,2|2,0:0|0:0,0:0:0:0:
371,311,229794,2,2,P|371:217|289:101,1,240,2|2,0:0|0:0,0:0:0:0:
119,62,230656,5,2,0:0:0:0:
119,62,230742,1,2,0:0:0:0:
119,62,230828,2,2,L|101:166,1,80,2|2,0:0|0:0,0:0:0:0:
1,133,231173,2,2,L|65:376,1,240,2|2,0:0|0:0,0:0:0:0:
287,286,232035,5,2,0:0:0:0:
287,286,232121,1,2,0:0:0:0:
287,286,232207,2,2,P|278:217|263:189,1,80,2|2,0:0|0:0,0:0:0:0:
194,245,232552,2,2,P|211:113|319:130,1,240,2|2,0:0|0:0,0:0:0:0:
53,85,233414,6,2,P|48:172|61:257,1,160
57,243,233932,1,2,0:0:0:0:
57,243,234104,1,2,0:0:0:0:
169,301,234276,1,2,0:0:0:0:
197,308,234363,1,2,0:0:0:0:
236,318,234449,2,2,L|316:346,1,80,2|2,0:0|0:0,0:0:0:0:
398,215,234794,6,0,P|386:116|343:37,1,160,0|8,0:0|0:0,0:0:0:0:
208,77,235311,2,0,L|168:157,1,80
274,201,235656,2,0,L|234:281,1,80,0|8,0:0|0:0,0:0:0:0:
79,268,236001,5,0,0:0:0:0:
79,268,236087,1,0,0:0:0:0:
79,268,236173,2,0,P|69:200|77:170,1,80,0|0,0:0|0:0,0:0:0:0:
87,29,236518,1,8,0:0:0:0:
87,29,236690,2,0,L|80:121,1,80
188,134,237035,2,0,L|195:226,1,80,0|8,0:0|0:0,0:0:0:0:
107,278,237380,5,0,0:0:0:0:
278,200,237552,1,0,0:0:0:0:
192,336,237725,1,0,0:0:0:0:
132,186,237897,2,0,P|161:129|185:109,1,80,8|0,0:0|0:0,0:0:0:0:
172,118,238156,1,0,0:0:0:0:
172,118,238242,1,0,0:0:0:0:
319,38,238414,2,0,L|291:133,1,80,0|8,0:0|0:0,0:0:0:0:
166,25,238759,5,0,0:0:0:0:
91,206,238932,2,0,P|175:169|253:168,1,160,0|8,0:0|0:0,0:0:0:0:
214,263,239449,1,0,0:0:0:0:
360,149,239621,1,0,0:0:0:0:
210,172,239794,1,0,0:0:0:0:
328,316,239966,1,8,0:0:0:0:
328,316,240052,1,0,0:0:0:0:
328,316,240138,2,0,P|396:304|422:292,2,80,0|0|0,0:0|0:0|0:0,0:0:0:0:
216,230,240656,5,8,0:0:0:0:
107,149,240828,2,0,P|39:137|13:125,2,80,0|0|0,0:0|0:0|0:0,0:0:0:0:
284,98,241345,1,8,0:0:0:0:
284,98,241518,1,0,0:0:0:0:
121,49,241690,5,0,0:0:0:0:
26,153,241863,2,0,L|-1:240,1,80,0|8,0:0|0:0,0:0:0:0:
152,147,242207,1,0,0:0:0:0:
247,251,242380,2,0,L|274:338,1,80,0|0,0:0|0:0,0:0:0:0:
417,315,242725,1,8,0:0:0:0:
416,284,242811,1,0,0:0:0:0:
415,248,242897,1,0,0:0:0:0:
481,148,243070,6,0,P|420:74|357:35,1,160,0|8,0:0|0:0,0:0:0:0:
251,89,243587,2,0,L|242:179,1,80
359,202,243932,2,0,L|350:292,1,80,0|8,0:0|0:0,0:0:0:0:
219,320,244276,1,0,0:0:0:0:
219,320,244363,1,0,0:0:0:0:
219,320,244449,2,10,P|178:257|174:221,1,80
262,240,244794,5,10,0:0:0:0:
124,346,244966,1,10,0:0:0:0:
141,201,245138,1,10,0:0:0:0:
260,325,245311,1,10,0:0:0:0:
98,297,245483,1,10,0:0:0:0:
246,203,245656,1,10,0:0:0:0:
174,342,245828,1,14,0:0:0:0:
114,58,246173,6,0,L|97:149,1,80,2|0,0:0|0:0,0:0:0:0:
201,162,246863,6,0,L|218:253,1,80,2|0,0:0|0:0,0:0:0:0:
65,186,247552,6,0,L|48:277,1,80,2|0,0:0|0:0,0:0:0:0:
152,290,248242,6,0,L|169:381,1,80,2|0,0:0|0:0,0:0:0:0:
371,46,248932,6,0,L|388:137,1,80
284,150,249622,6,0,L|267:241,1,80
420,174,250311,6,0,L|437:265,1,80
333,278,251001,6,0,L|316:369,1,80
52,288,251690,6,0,P|101:273|160:276,1,80,2|0,0:0|0:0,0:0:0:0:
276,201,252380,6,0,P|227:186|168:189,1,80,2|0,0:0|0:0,0:0:0:0:
260,103,253070,2,0,P|309:88|368:91,1,80,2|0,0:0|0:0,0:0:0:0:
484,16,253760,6,0,P|435:1|376:4,1,80,2|0,0:0|0:0,0:0:0:0:
460,288,254449,6,0,P|411:273|352:276,1,80
236,201,255139,6,0,P|285:186|344:189,1,80
252,103,255829,2,0,P|203:88|144:91,1,80
28,16,256519,6,0,P|77:1|136:4,1,80
74,210,257207,5,2,0:0:0:0:
74,210,257380,1,0,0:0:0:0:
214,91,257897,5,2,0:0:0:0:
214,91,258070,1,0,0:0:0:0:
198,304,258587,5,2,0:0:0:0:
198,304,258759,1,0,0:0:0:0:
428,215,259276,5,2,0:0:0:0:
428,215,259448,1,0,0:0:0:0:
152,41,259966,5,0,0:0:0:0:
152,41,260139,1,0,0:0:0:0:
151,224,260656,5,0,0:0:0:0:
151,224,260829,1,0,0:0:0:0:
304,75,261346,5,0,0:0:0:0:
304,75,261518,1,0,0:0:0:0:
384,308,262035,5,0,0:0:0:0:
384,308,262207,1,0,0:0:0:0:
219,197,262380,6,0,L|200:312,1,80,2|0,0:0|0:0,0:0:0:0:
110,197,262725,1,2,0:0:0:0:
130,82,262897,1,0,0:0:0:0:
86,187,263414,5,2,0:0:0:0:
176,71,263586,1,0,0:0:0:0:
66,163,264104,5,2,0:0:0:0:
230,81,264276,1,0,0:0:0:0:
256,192,264794,1,2,0:0:0:0:
256,192,265138,1,0,0:0:0:0:
256,192,265225,12,0,267897,0:0:0:0:
