osu file format v14

[General]
AudioFilename: Rameses B - Visionary.mp3
AudioLeadIn: 0
PreviewTime: 55073
Countdown: 0
SampleSet: Soft
StackLeniency: 0.9
Mode: 0
LetterboxInBreaks: 0
WidescreenStoryboard: 1

[Editor]
Bookmarks: 11169,12559,22141,26273,33112,55227,76998,87969,98941,110445,120884,142827,186712,204541,215512,226484,237455,248427,270369,281341
DistanceSpacing: 1
BeatDivisor: 4
GridSize: 4
TimelineZoom: 2.599999

[Metadata]
Title:Visionary
TitleUnicode:Visionary
Artist:Rameses B
ArtistUnicode:Rameses B
Creator:gorgonzoler
Version:Hard
Source:
Tags:
BeatmapID:652320
BeatmapSetID:256767

[Difficulty]
HPDrainRate:6
CircleSize:3
OverallDifficulty:5
ApproachRate:8
SliderMultiplier:1.4
SliderTickRate:1

[Events]
//Background and Video events
0,0,"e2e9ea8af8773dfedd37dbb1c1d3f7b4.jpg",0,0
//Break Periods
2,162245,164037
2,186930,191466
//Storyboard Layer 0 (Background)
//Storyboard Layer 1 (Fail)
//Storyboard Layer 2 (Pass)
//Storyboard Layer 3 (Foreground)
//Storyboard Sound Samples

[TimingPoints]
216.435460407657,342.857142857143,4,2,0,50,1,0
55073,-66.6666666666667,4,2,0,50,0,0
146959,-100,4,2,0,50,0,0
153816,-133.333333333333,4,2,0,50,0,0
197702,-100,4,2,0,50,0,0
204559,-66.6666666666667,4,2,0,50,0,0
281359,-100,4,2,0,50,0,0

[HitObjects]
134,72,216,6,0,P|127:125|155:230,1,140,4|0,0:0|0:0,0:0:0:0:
426,184,902,2,0,P|396:228|304:287,1,140
227,142,1587,2,0,P|160:150|74:118,1,140
309,174,2273,2,0,P|354:225|440:258,1,140
244,221,2959,5,8,0:0:0:0:
233,251,3645,1,8,0:0:0:0:
224,274,4330,1,8,0:0:0:0:
212,304,5016,1,8,0:0:0:0:
239,125,5702,6,0,B|216:108|177:101|144:129|144:129|106:93,1,140,2|0,0:0|0:0,0:0:0:0:
200,216,6387,2,0,B|183:238|176:277|204:310|204:310|168:348,1,140
287,247,7073,2,0,B|309:263|348:270|381:242|381:242|419:278,1,140
310,167,7759,2,0,B|326:144|333:105|305:72|305:72|341:34,1,140
212,120,8445,2,0,P|152:128|192:296,1,280,8|8,0:0|0:0,0:0:0:0:
137,119,9816,2,0,P|68:224|174:293,1,280,8|8,0:0|0:0,0:0:0:0:
320,240,10845,2,0,P|364:236|396:208,1,70,2|2,0:0|0:0,0:0:0:0:
312,148,11187,6,0,B|272:148|224:176|220:248|220:248|88:248,1,280,6|8,0:0|0:0,0:0:0:0:
148,152,12559,2,0,B|157:118|182:62|272:52|272:52|408:40,1,280,2|8,0:0|0:0,0:0:0:0:
164,300,13930,5,8,0:0:0:0:
394,136,14616,1,8,0:0:0:0:
120,64,15302,1,8,0:0:0:0:
392,136,15988,1,8,0:0:0:0:
32,192,16673,6,0,B|120:192|120:192|120:120|188:64|256:88,1,280,2|0,0:0|0:0,0:0:0:0:
196,300,18045,2,0,B|256:321|324:265|324:193|324:193|412:193,1,280,2|0,0:0|0:0,0:0:0:0:
256,192,19416,12,0,21816,0:0:0:0:
208,72,22159,6,0,B|208:110|208:110|241:114|247:150,1,70,2|2,0:0|0:0,0:0:0:0:
196,196,22502,1,0,0:0:0:0:
112,224,22673,2,0,P|196:284|280:212,1,210,2|8,0:0|0:0,0:0:0:0:
128,144,23530,2,0,B|200:104|200:104|200:40,1,140,2|0,0:0|0:0,0:0:0:0:
312,46,24045,2,0,B|312:104|312:104|384:144,1,140,2|0,0:0|0:0,0:0:0:0:
340,208,24559,2,0,P|288:232|272:256,1,70,2|2,0:0|0:0,0:0:0:0:
164,292,24902,6,0,P|116:272|96:180,1,140,2|0,0:0|0:0,0:0:0:0:
84,108,25416,2,0,P|160:144|176:200,1,140,2|0,0:0|0:0,0:0:0:0:
276,244,25930,2,0,P|220:264|196:244,1,70,2|0,0:0|0:0,0:0:0:0:
348,292,26273,6,0,P|396:272|416:180,1,140,2|0,0:0|0:0,0:0:0:0:
428,108,26787,2,0,P|352:144|336:200,1,140,2|0,0:0|0:0,0:0:0:0:
235,243,27302,2,0,P|263:264|297:261,1,70,2|0,0:0|0:0,0:0:0:0:
284,180,27645,6,0,P|336:148|360:156,2,70,2|0|0,0:0|0:0|0:0,0:0:0:0:
200,168,28159,2,0,P|136:152|60:192,1,140,2|0,0:0|0:0,0:0:0:0:
132,240,28673,2,0,P|168:264|148:296,1,70,2|0,0:0|0:0,0:0:0:0:
84,308,29016,2,0,L|28:256,1,70,2|0,0:0|0:0,0:0:0:0:
56,180,29359,1,0,0:0:0:0:
88,104,29530,2,0,L|24:76,2,70,2|0|0,0:0|0:0|0:0,0:0:0:0:
164,140,30045,2,0,L|216:208,1,70,2|0,0:0|0:0,0:0:0:0:
268,140,30387,6,0,P|292:104|392:96,1,140,2|0,0:0|0:0,0:0:0:0:
348,168,30902,2,0,P|380:204|352:296,1,140,2|0,0:0|0:0,0:0:0:0:
298,230,31416,1,0,0:0:0:0:
176,188,31587,1,0,0:0:0:0:
268,140,31759,6,0,B|316:196|316:196|382:198,1,140,2|0,0:0|0:0,0:0:0:0:
356,280,32274,2,0,B|283:293|283:293|234:371,1,140,2|0,0:0|0:0,0:0:0:0:
168,324,32787,2,0,L|212:240,1,70,2|0,0:0|0:0,0:0:0:0:
100,212,33130,5,2,0:0:0:0:
152,148,33302,2,0,P|112:120|88:88,2,70,0|2|2,0:0|0:0|0:0,0:0:0:0:
212,88,33816,2,0,L|264:28,1,70,0|2,0:0|0:0,0:0:0:0:
304,104,34159,2,0,P|332:156|336:188,1,70,2|0,0:0|0:0,0:0:0:0:
268,216,34502,5,2,0:0:0:0:
268,216,34673,2,0,P|224:236|212:260,2,70,0|2|2,0:0|0:0|0:0,0:0:0:0:
292,296,35187,2,0,P|328:292|352:248,1,70,0|2,0:0|0:0,0:0:0:0:
352,184,35530,2,0,L|432:220,1,70,2|0,0:0|0:0,0:0:0:0:
420,72,35873,6,0,L|488:112,1,70,2|0,0:0|0:0,0:0:0:0:
340,68,36216,1,2,0:0:0:0:
260,76,36387,2,0,L|184:132,1,70,2|0,0:0|0:0,0:0:0:0:
132,160,36730,1,2,0:0:0:0:
199,212,36902,2,0,P|219:165|216:140,1,70,2|2,0:0|0:0,0:0:0:0:
172,80,37245,5,8,0:0:0:0:
172,80,37587,1,8,0:0:0:0:
172,80,37930,1,8,0:0:0:0:
172,80,38102,1,8,0:0:0:0:
172,80,38273,1,8,0:0:0:0:
290,170,38616,6,0,B|259:188|248:192|249:235,2,70,2|0|0,0:0|0:0|0:0,0:0:0:0:
340,236,39130,2,0,B|376:212|380:202|376:178,2,70,2|0|0,0:0|0:0|0:0,0:0:0:0:
352,68,39645,2,0,P|292:68|264:92,1,70,2|2,0:0|0:0,0:0:0:0:
204,96,39987,6,0,P|168:76|68:92,1,140,2|0,0:0|0:0,0:0:0:0:
128,156,40502,2,0,P|104:216|132:300,1,140,2|0,0:0|0:0,0:0:0:0:
188,232,41016,2,0,P|224:232|276:212,1,70,2|2,0:0|0:0,0:0:0:0:
212,152,41359,6,0,P|256:136|340:172,1,140,2|0,0:0|0:0,0:0:0:0:
330,164,41873,2,0,P|296:212|336:296,1,140,2|0,0:0|0:0,0:0:0:0:
380,228,42387,2,0,P|416:184|404:144,1,70,2|2,0:0|0:0,0:0:0:0:
388,96,42730,6,0,P|344:68|256:96,1,140,2|0,0:0|0:0,0:0:0:0:
263,88,43245,2,0,P|219:60|131:88,1,140,2|0,0:0|0:0,0:0:0:0:
196,144,43759,1,8,0:0:0:0:
216,224,43930,1,8,0:0:0:0:
256,300,44102,5,4,0:0:0:0:
340,300,44273,2,0,L|428:300,1,70
172,300,44616,2,0,L|84:300,1,70
340,300,44959,2,0,L|428:300,1,70,0|8,0:0|0:0,0:0:0:0:
132,220,45302,2,0,L|56:172,1,70,8|0,0:0|0:0,0:0:0:0:
120,121,45645,6,0,L|120:23,1,70
218,168,45987,2,0,L|218:266,1,70
120,121,46330,2,0,L|120:23,1,70,0|8,0:0|0:0,0:0:0:0:
120,206,46673,2,0,L|120:299,1,70,8|0,0:0|0:0,0:0:0:0:
279,238,47016,6,0,L|279:327,1,70
424,238,47359,2,0,L|424:327,1,70
424,154,47702,2,0,L|424:65,1,70,0|8,0:0|0:0,0:0:0:0:
279,154,48045,2,0,L|279:65,1,70,8|0,0:0|0:0,0:0:0:0:
115,89,48387,6,0,L|115:-13,1,70
195,149,48730,2,0,L|195:252,1,70
196,64,49073,2,0,L|298:64,1,70
112,172,49416,1,8,0:0:0:0:
256,192,49587,12,4,53702,0:0:0:0:
144,96,54387,6,0,L|112:140,3,35
238,140,54730,2,0,L|282:176,4,35,0|0|0|0|4,0:0|0:0|0:0|0:0|0:0,0:0:0:0:
304,252,55245,6,0,P|360:184|356:156,1,105.000004005432,0|8,0:0|0:0,0:0:0:0:
208,252,55587,2,0,P|152:184|156:156,1,105.000004005432,0|2,0:0|0:0,0:0:0:0:
320,84,55930,2,0,P|276:132|208:136,2,105.000004005432,2|8|0,0:0|0:0|0:0,0:0:0:0:
192,68,56445,5,0,0:0:0:0:
88,136,56616,2,0,L|12:252,1,105.000004005432,0|8,0:0|0:0,0:0:0:0:
156,204,56959,2,0,L|288:156,1,105.000004005432,0|2,0:0|0:0,0:0:0:0:
200,284,57302,1,2,0:0:0:0:
324,264,57473,2,0,P|344:192|328:132,2,105.000004005432,8|0|0,0:0|0:0|0:0,0:0:0:0:
260,180,57987,6,0,P|224:112|160:68,1,105.000004005432,0|8,0:0|0:0,0:0:0:0:
128,168,58330,2,0,L|164:292,1,105.000004005432,0|2,0:0|0:0,0:0:0:0:
256,236,58673,2,0,P|270:285|250:333,2,105.000004005432,2|8|0,0:0|0:0|0:0,0:0:0:0:
256,128,59187,5,0,0:0:0:0:
160,44,59359,2,0,P|168:128|124:172,1,105.000004005432,0|8,0:0|0:0,0:0:0:0:
260,220,59702,2,0,P|328:192|384:216,1,105.000004005432,0|2,0:0|0:0,0:0:0:0:
332,76,60045,2,0,P|396:76|444:124,2,105.000004005432,2|8|0,0:0|0:0|0:0,0:0:0:0:
220,136,60559,6,0,P|152:132|112:172,2,105.000004005432,4|0|8,0:0|0:0|0:0,0:0:0:0:
176,256,61073,2,0,P|115:286|100:341,1,105.000004005432,0|2,0:3|0:0,0:3:0:0:
108,192,61416,2,0,P|47:161|32:106,2,105.000004005432,2|8|0,0:0|0:0|0:3,0:3:0:0:
144,68,61930,5,0,0:0:0:0:
144,68,62102,2,0,P|208:44|280:64,1,105.000004005432,0|8,0:0|0:0,0:0:0:0:
328,144,62445,2,0,P|276:132|224:148,1,105.000004005432,0|2,0:0|0:0,0:0:0:0:
168,256,62788,2,0,P|232:280|304:260,1,105.000004005432,2|8,0:0|0:0,0:0:0:0:
328,144,63131,2,0,P|353:96|351:42,1,105.000004005432
232,84,63473,6,0,L|116:132,1,105.000004005432,0|8,0:0|0:0,0:0:0:0:
168,256,63816,2,0,L|265:215,1,105.000004005432,0|2,0:0|0:0,0:0:0:0:
232,92,64159,2,0,L|116:140,2,105.000004005432,2|8|0,0:0|0:0|0:0,0:0:0:0:
316,184,64673,6,0,P|376:224|368:296,1,105.000004005432
264,292,65016,2,0,P|220:332|168:324,1,105.000004005432,8|0,0:0|0:0,0:0:0:0:
192,204,65359,2,0,P|212:144|256:112,1,105.000004005432,2|2,0:0|0:0,0:0:0:0:
120,48,65702,2,0,P|196:92|160:232,1,210.000008010865,8|4,0:0|0:0,0:0:0:0:
92,280,66216,6,0,B|31:310|31:310|20:376,1,105.000004005432
32,220,66559,2,0,B|92:189|92:189|104:124,1,105.000004005432
98,152,66902,1,2,0:0:0:0:
136,188,66987,1,2,0:0:0:0:
174,220,67073,1,8,0:0:0:0:
286,220,67245,1,0,0:0:0:0:
252,64,67416,5,0,0:0:0:0:
376,64,67587,2,0,L|376:180,1,105.000004005432
248,168,67930,2,0,L|112:168,1,105.000004005432
236,252,68273,2,0,L|236:364,1,105.000004005432
144,272,68616,2,0,L|144:124,1,105.000004005432
276,192,68959,6,0,L|392:192,1,105.000004005432
280,112,69302,2,0,L|160:112,1,105.000004005432
175,238,69645,2,0,L|172:356,2,105.000004005432
175,111,70159,1,0,0:0:0:0:
272,192,70330,2,0,B|320:209|320:209|297:273,1,105.000004005432
178,238,70673,2,0,B|138:271|138:271|94:219,1,105.000004005432
186,135,71016,2,0,B|176:83|176:83|243:71,2,105.000004005432
240,216,71530,5,0,0:0:0:0:
240,216,71702,2,0,P|304:252|368:228,1,105.000004005432
316,124,72045,2,0,P|315:50|262:7,1,105.000004005432
200,104,72387,2,0,P|136:141|125:208,2,105.000004005432
240,216,72902,5,0,0:0:0:0:
76,176,73073,2,0,L|196:176,1,105.000004005432
328,96,73416,2,0,L|192:96,1,105.000004005432
328,228,73759,2,0,P|376:260|392:336,1,105.000004005432
408,136,74102,2,0,P|432:72|500:68,1,105.000004005432
304,112,74445,6,0,L|204:176,1,105.000004005432
116,128,74787,2,0,L|16:192,1,105.000004005432
104,284,75130,2,0,L|0:380,2,105.000004005432
212,220,75645,6,0,P|264:176|328:160,1,105.000004005432
155,304,75987,2,0,P|192:268|212:220,1,105.000004005432
212,220,76330,2,0,P|164:160|160:96,1,105.000004005432
284,120,76673,2,0,P|312:176|472:168,1,210.000008010865
396,76,77187,5,0,0:0:0:0:
280,124,77359,1,0,0:0:0:0:
160,160,77530,2,0,P|176:88|212:48,1,105.000004005432
160,160,77873,2,0,P|112:192|88:248,2,105.000004005432
228,240,78387,5,0,0:0:0:0:
142,293,78559,2,0,P|187:333|253:333,1,105.000004005432,0|0,0:0|0:0,0:3:0:0:
228,128,78902,2,0,P|170:147|136:204,1,105.000004005432,0|0,0:0|0:0,0:3:0:0:
228,240,79245,2,0,P|292:212|324:148,1,105.000004005432
228,128,79587,1,0,0:0:0:0:
228,128,79759,1,0,0:0:0:0:
180,40,79930,6,0,P|136:88|136:156,1,105.000004005432
328,128,80273,2,0,P|308:65|249:31,1,105.000004005432
176,216,80616,2,0,P|240:228|304:192,2,105.000004005432
279,41,81130,2,0,P|316:77|328:128,1,105.000004005432
129,125,81473,6,0,P|142:75|180:40,1,105.000004005432
228,132,81816,1,0,0:0:0:0:
332,132,81987,1,0,0:0:0:0:
280,40,82159,1,0,0:0:0:0:
256,248,82502,5,0,0:0:0:0:
152,244,82673,2,0,B|152:192|152:192|124:192|108:164,2,105.000004005432
256,248,83187,1,0,0:0:0:0:
360,248,83359,2,0,B|360:192|360:192|384:192|416:164,2,105.000004005432
256,248,83873,5,0,0:0:0:0:
256,248,84045,2,0,L|256:142,1,105.000004005432
164,92,84387,2,0,P|160:168|192:216,1,105.000004005432
348,92,84730,2,0,P|352:168|320:216,1,105.000004005432
256,128,85073,2,0,L|256:22,1,105.000004005432
164,96,85416,6,0,B|136:144|136:144|160:208,1,105.000004005432
348,96,85759,2,0,B|376:144|376:144|358:190,1,105.000004005432
256,208,86102,2,0,L|256:336,2,105.000004005432
150,208,86616,1,0,0:0:0:0:
64,264,86787,2,0,B|60:380,2,105.000004005432
64,160,87302,2,0,P|116:108|268:88,1,210.000008010865
246,292,87987,5,0,0:0:0:0:
246,186,88159,2,0,L|344:236,1,105.000004005432
112,116,89016,2,0,L|52:216,1,105.000004005432
56,312,89359,5,0,0:0:0:0:
60,208,89530,2,0,L|60:96,1,105.000004005432
480,104,90387,2,0,L|480:220,1,105.000004005432
480,316,90730,5,0,0:0:0:0:
401,277,90902,2,0,L|484:212,1,105.000004005432
312,92,91416,2,0,L|272:148,4,52.5000020027161
100,108,92102,6,0,P|152:176|112:288,1,210.000008010865
316,340,92787,2,0,P|353:246|452:225,1,210.000008010865
244,204,93473,5,0,0:0:0:0:
256,100,93645,2,0,P|332:132|384:100,1,105.000004005432
120,160,94502,2,0,P|148:216|128:280,1,105.000004005432
40,228,94845,5,0,0:0:0:0:
120,160,95016,2,0,P|176:128|240:160,1,105.000004005432
392,160,95873,2,0,P|364:216|384:280,1,105.000004005432
472,228,96216,5,0,0:0:0:0:
392,160,96387,2,0,P|336:128|272:160,1,105.000004005432
256,344,96902,5,0,0:0:0:0:
256,239,97073,1,0,0:0:0:0:
256,192,97159,1,0,0:0:0:0:
256,133,97245,1,0,0:0:0:0:
256,192,97587,12,0,98616,0:0:0:0:
196,208,98959,6,0,P|132:164|144:120,1,105.000004005432
260,136,99302,1,0,0:0:0:0:
260,136,99473,2,0,P|308:150|323:198,1,105.000004005432
256,304,99816,1,0,0:0:0:0:
328,200,99987,2,0,P|392:188|420:116,1,105.000004005432
436,284,100330,6,0,P|480:200|480:172,1,105.000004005432
432,76,100673,1,0,0:0:0:0:
432,76,100845,2,0,P|384:128|388:176,1,105.000004005432
382,159,101187,1,0,0:0:0:0:
304,260,101359,2,0,P|240:268|140:140,1,210.000008010865
112,52,101873,5,0,0:0:0:0:
172,296,102216,1,0,0:0:0:0:
240,52,102559,1,0,0:0:0:0:
296,300,102902,1,0,0:0:0:0:
396,48,103245,5,0,0:0:0:0:
152,108,103588,1,0,0:0:0:0:
396,176,103931,1,0,0:0:0:0:
148,232,104274,1,0,0:0:0:0:
74,158,104445,5,0,0:0:0:0:
148,232,104616,2,0,L|24:312,2,105.000004005432
222,157,105130,1,0,0:0:0:0:
147,82,105302,2,0,L|33:83,2,105.000004005432
218,158,105816,6,0,B|298:214|234:298|342:330,1,210.000008010865
122,290,106502,2,0,L|26:410,1,105.000004005432
66,214,106845,1,0,0:0:0:0:
196,336,107187,5,0,0:0:0:0:
196,125,107530,1,0,0:0:0:0:
404,160,107873,2,0,L|320:236,1,105.000004005432
304,144,108216,1,0,0:0:0:0:
256,192,108559,12,0,109587,0:0:0:0:
224,208,109930,6,0,L|128:272,1,105.000004005432
200,320,110273,1,0,0:0:0:0:
296,272,110445,2,0,L|392:208,1,105.000004005432
320,160,110788,1,0,0:0:0:0:
260,76,110959,2,0,L|168:136,1,105.000004005432
84,72,111302,6,0,P|20:44|-24:52,2,105.000004005432
144,160,111816,2,0,P|208:188|252:180,2,105.000004005432
232,100,112330,2,0,P|292:112|328:184,1,105.000004005432
236,208,112673,6,0,P|200:272|300:352,2,210.000008010865
336,180,113530,1,0,0:0:0:0:
336,180,113702,2,0,P|288:120|152:68,1,210.000008010865
112,136,114216,5,0,0:0:0:0:
112,136,114387,2,0,P|168:184|104:296,2,210.000008010865
312,52,115416,6,0,P|256:124|320:240,1,210.000008010865
356,144,115930,2,0,P|276:128|172:196,1,210.000008010865
56,244,116445,2,0,P|12:288|4:348,1,105.000004005432
128,344,116787,5,0,0:0:0:0:
160,268,116959,2,0,L|224:176,1,105.000004005432
294,256,117302,2,0,L|358:164,1,105.000004005432
428,244,117645,2,0,L|492:152,1,105.000004005432
388,120,117988,2,0,L|324:28,1,105.000004005432
224,52,118330,6,0,P|284:100|312:152,1,105.000004005432
193,122,118673,2,0,P|220:193|219:252,1,105.000004005432
117,220,119016,2,0,P|105:295|74:346,2,105.000004005432
256,192,119530,12,0,120902,0:0:0:0:
312,96,121930,6,0,P|368:156|360:212,1,105.000004005432
268,192,122273,5,0,0:0:0:0:
216,280,122445,2,0,P|176:232|224:100,2,210.000008010865
312,100,123473,6,0,P|364:160|288:292,2,210.000008010865
216,280,124502,2,0,P|188:247|221:157,2,105.000004005432
268,192,125016,5,0,0:0:0:0:
312,100,125187,2,0,P|364:160|288:292,2,210.000008010865
268,192,126045,2,0,P|231:170|231:75,2,105.000004005432
316,288,126559,6,0,L|188:328,1,105.000004005432
171,143,126902,2,0,L|141:244,1,105.000004005432
236,228,127245,1,0,0:0:0:0:
334,209,127416,2,0,L|268:128,1,105.000004005432
192,56,127759,5,0,0:0:0:0:
92,88,127930,2,0,L|8:200,1,105.000004005432
124,216,128273,2,0,L|61:132,1,105.000004005432
124,216,128616,2,0,L|40:328,1,105.000004005432
135,374,128959,2,0,L|198:290,1,105.000004005432
312,284,129302,6,0,P|372:224|364:164,1,105.000004005432
268,212,129645,2,0,P|216:256|196:328,1,105.000004005432
200,288,129987,2,0,P|248:304|273:349,2,105.000004005432
200,182,130502,5,0,0:0:0:0:
200,77,130673,2,0,L|304:76,1,105.000004005432
304,181,131016,2,0,L|304:292,1,105.000004005432
198,286,131359,1,0,0:0:0:0:
200,182,131530,2,0,L|440:180,1,210.000008010865
332,252,132045,6,0,B|336:300|296:312|296:312|296:360,1,105.000004005432
216,340,132387,2,0,B|216:312|216:312|176:300|180:252,1,105.000004005432
256,136,132730,2,0,L|256:252,2,105.000004005432
256,40,133245,5,0,0:0:0:0:
176,144,133416,2,0,L|176:252,1,105.000004005432
336,240,133759,2,0,L|336:132,1,105.000004005432
176,144,134102,2,0,L|264:68,1,105.000004005432
336,240,134445,2,0,L|248:316,1,105.000004005432
256,192,134787,6,0,L|344:120,1,105.000004005432
256,192,135130,2,0,L|168:264,1,105.000004005432
256,192,135473,2,0,L|172:92,2,105.000004005432
340,128,135987,5,0,0:0:0:0:
256,192,136159,2,0,L|176:264,1,105.000004005432
256,192,136502,2,0,L|344:120,1,105.000004005432
256,192,136845,2,0,L|352:292,2,105.000004005432
181,117,137359,5,0,0:0:0:0:
106,191,137530,2,0,P|48:224|12:392,2,210.000008010865
181,117,138387,2,0,P|236:88|308:64,1,105.000004005432
260,176,138730,1,0,0:0:0:0:
236,280,138902,2,0,P|296:304|440:376,2,210.000008010865
308,204,139930,2,0,P|320:132|264:80,1,105.000004005432
220,168,140273,6,0,P|144:188|76:312,2,210.000008010865
196,272,141130,2,0,L|120:192,1,105.000004005432
256,192,141473,12,0,142845,0:0:0:0:
216,256,146959,6,0,P|156:224|260:96,2,280
228,172,148673,2,0,P|280:196|304:296,1,140
140,268,149359,2,0,P|161:332|221:365,1,140
416,72,151073,6,0,L|436:148,1,70
356,168,151416,2,0,L|376:252,1,70
316,80,151930,2,0,L|264:156,2,70
108,88,153130,5,0,0:0:0:0:
256,292,153816,6,0,P|264:232|456:88,1,315.000012016297
404,204,155187,1,0,0:0:0:0:
152,192,155873,1,0,0:0:0:0:
388,280,156559,6,0,P|200:280|180:80,2,420.000016021729
260,80,160673,1,0,0:0:0:0:
256,296,162045,1,0,0:0:0:0:
160,120,164787,6,0,P|112:228|132:280,2,157.500006008148
228,224,166159,1,0,0:0:0:0:
260,100,167187,5,0,0:0:0:0:
352,120,167530,2,0,P|400:228|380:280,2,157.500006008148
284,224,168902,1,0,0:0:0:0:
256,8,169587,1,0,0:0:0:0:
80,172,170273,6,0,B|144:172|144:172|148:128|184:96|212:84,1,157.500006008148
256,192,171302,1,0,0:0:0:0:
432,212,171645,6,0,B|368:212|368:212|364:256|328:288|300:300,1,157.500006008148
256,192,172673,1,0,0:0:0:0:
248,56,173016,6,0,B|248:96|248:96|168:104|160:184,1,157.500006008148
256,192,174045,1,0,0:0:0:0:
256,320,174387,6,0,B|256:280|256:280|336:272|345:203|352:176|320:140,1,210.000008010865
256,56,175416,1,0,0:0:0:0:
148,120,175759,6,0,L|188:160,3,52.5000020027161
204,216,176445,1,0,0:0:0:0:
280,140,176787,1,0,0:0:0:0:
296,264,177130,2,0,B|324:208|400:204|384:72,1,210.000008010865
280,140,178159,1,0,0:0:0:0:
168,196,178502,6,0,P|172:152|104:48,2,157.500006008148
48,152,179873,2,0,P|44:196|112:300,2,157.500006008148
160,92,181245,6,0,P|248:56|112:168,2,840.000032043458
160,92,192216,6,0,P|132:156|156:200,1,105.000004005432
228,144,192730,2,0,P|264:172|328:140,1,105.000004005432
360,204,193245,2,0,L|408:260,1,52.5000020027161
348,284,193587,6,0,P|308:280|240:312,1,105.000004005432
185,303,194102,2,0,P|137:280|85:283,1,105.000004005432
84,220,194616,2,0,L|140:176,1,52.5000020027161
160,132,194959,6,0,P|196:168|248:184,1,105.000004005432
308,196,195473,2,0,P|368:208|412:248,1,105.000004005432
372,288,195987,2,0,P|336:312|324:336,1,52.5000020027161
268,320,196330,2,0,P|216:304|188:244,1,105.000004005432
208,136,197016,2,0,L|232:172,3,26.2500010013581
212,188,197359,2,0,L|184:228,3,26.2500010013581
216,248,197702,5,0,0:0:0:0:
288,208,197873,2,0,L|372:160,1,70
288,116,198216,2,0,L|372:68,1,70
288,208,198559,2,0,L|288:296,1,70
347,337,198902,2,0,L|420:280,1,70
165,337,199245,6,0,L|92:280,1,70
104,212,199587,2,0,L|104:136,1,70
164,80,199930,2,0,L|236:28,1,70
291,39,200273,2,0,L|348:80,1,70
376,160,200616,6,0,L|344:224,1,70
285,163,200959,2,0,L|253:227,1,70
194,166,201302,2,0,L|162:230,2,70
253,225,201987,6,0,L|285:163,1,70
344,222,202330,2,0,L|376:160,1,70
435,219,202673,2,0,L|466:156,2,70
256,192,203187,12,0,204559,0:0:0:0:
256,68,205245,5,4,0:0:0:0:
104,268,205587,2,0,P|136:196|124:128,1,105.000004005432
256,164,205930,1,4,0:0:0:0:
375,171,206102,2,0,P|381:222|408:268,1,105.000004005432
256,268,206445,1,0,0:0:0:0:
256,164,206616,2,0,L|256:56,1,105.000004005432
256,164,207302,5,0,0:0:0:0:
168,108,207473,2,0,L|80:168,1,105.000004005432
81,61,207816,2,0,L|167:1,1,105.000004005432
256,48,208159,2,0,L|168:108,2,105.000004005432
256,164,208673,2,0,L|156:240,1,105.000004005432
416,292,209187,1,0,0:0:0:0:
416,292,209273,1,0,0:0:0:0:
416,292,209359,1,0,0:0:0:0:
320,288,209530,1,0,0:0:0:0:
216,288,209702,2,0,L|156:340,4,52.5000020027161
152,200,210216,6,0,P|132:152|164:84,1,105.000004005432
264,144,210559,1,0,0:0:0:0:
389,144,210730,1,0,0:0:0:0:
136,144,211416,5,0,0:0:0:0:
260,280,211930,1,0,0:0:0:0:
292,228,212016,1,0,0:0:0:0:
308,168,212102,1,0,0:0:0:0:
120,72,212616,6,0,P|140:152|200:180,1,105.000004005432
28,168,212959,2,0,P|85:227|151:221,1,105.000004005432
0,300,213302,2,0,P|79:322|133:284,1,105.000004005432
212,260,213645,2,0,P|316:220|396:248,2,105.000004005432
300,332,214159,1,0,0:0:0:0:
357,164,214330,6,0,P|389:123|392:72,1,105.000004005432
407,230,214673,2,0,P|455:211|484:168,1,105.000004005432
414,316,215016,2,0,P|465:323|512:300,2,105.000004005432
256,192,215530,5,0,0:0:0:0:
188,112,215702,2,0,B|132:128|132:128|100:200,1,105.000004005432
256,192,216216,5,0,0:0:0:0:
324,272,216388,2,0,B|380:256|380:256|412:184,2,105.000004005432
256,352,216902,5,0,0:0:0:0:
188,272,217073,2,0,B|132:256|132:256|100:184,1,105.000004005432
256,60,217587,5,0,0:0:0:0:
324,112,217759,2,0,B|380:128|380:128|398:170,2,105.000004005432
256,192,218273,5,0,0:0:0:0:
152,192,218445,2,0,L|36:192,1,105.000004005432
256,192,218959,1,0,0:0:0:0:
360,192,219130,2,0,B|416:192|416:192|456:232,2,105.000004005432
256,308,219645,6,0,B|192:296|192:296|156:248,1,105.000004005432
256,204,219987,2,0,B|320:216|320:216|356:264,1,105.000004005432
256,308,220330,6,0,L|136:308,1,105.000004005432
256,99,220673,2,0,L|256:204,1,105.000004005432
168,144,221016,6,0,P|164:220|200:280,1,105.000004005432
344,240,221359,2,0,P|348:164|312:104,1,105.000004005432
432,184,221702,1,0,0:0:0:0:
338,138,221873,2,0,B|292:148|292:148|240:240,2,105.000004005432
340,244,222387,5,0,0:0:0:0:
244,292,222559,2,0,B|192:292|192:292|156:248,1,105.000004005432
256,208,222902,2,0,B|308:208|308:208|344:164,1,105.000004005432
444,184,223245,2,0,B|480:147|480:147|475:90,1,105.000004005432
396,28,223587,2,0,B|362:69|362:69|310:69,1,105.000004005432
116,28,223930,6,0,B|149:69|149:69|201:69,1,105.000004005432
300,108,224273,2,0,B|266:149|266:149|214:149,1,105.000004005432
139,223,224616,2,0,B|105:264|105:264|53:264,2,105.000004005432
240,256,225130,6,0,B|284:312|284:312|368:312,1,105.000004005432
320,208,225473,2,0,B|376:164|376:164|376:80,1,105.000004005432,0|0,0:1|0:1,0:1:0:0:
272,128,225816,2,0,B|228:72|228:72|144:72,1,105.000004005432,0|0,0:1|0:1,0:1:0:0:
192,176,226159,2,0,B|136:220|136:220|136:304,1,105.000004005432,0|0,0:1|0:1,0:1:0:0:
136,359,226502,5,0,0:0:0:0:
358,136,227016,1,0,0:0:0:0:
436,204,227187,2,0,P|276:164|352:324,1,420.000016021729
144,256,228216,1,0,0:0:0:0:
136,48,228559,2,0,B|176:128|232:84|328:212|260:268|140:312|408:312,1,420.000016021729
404,104,229587,5,0,0:0:0:0:
336,184,229759,1,0,0:0:0:0:
388,276,229930,2,0,B|176:276|176:276|292:56,1,420.000016021729
128,72,231130,5,0,0:0:0:0:
96,116,231216,1,0,0:0:0:0:
76,164,231302,2,0,B|304:160|304:160|220:332,1,420.000016021729
172,240,232159,6,0,L|256:136,1,105.000004005432
312,232,232502,1,0,0:0:0:0:
408,188,232673,2,0,B|456:104|352:88|272:40|144:296,1,420.000016021729
124,76,233702,6,0,L|228:172,1,105.000004005432
228,248,234045,1,0,0:0:0:0:
336,312,234216,2,0,P|216:148|104:180,1,315.000012016297
336,128,235073,5,0,0:0:0:0:
139,202,235416,1,0,0:0:0:0:
388,232,235759,5,0,0:0:0:0:
191,306,236102,1,0,0:0:0:0:
260,96,236445,2,0,L|148:196,1,105.000004005432
132,260,236787,2,0,B|248:228|320:148|440:140|464:248|392:316,1,420.000016021729
292,300,237645,5,0,0:0:0:0:
208,236,237816,2,0,P|208:152|168:112,1,105.000004005432
112,200,238159,5,0,0:0:0:0:
204,148,238330,2,0,P|284:112|340:120,2,105.000004005432
288,212,238845,5,0,0:0:0:0:
292,108,239016,2,0,P|360:112|424:64,1,105.000004005432
388,204,239359,2,0,L|428:324,1,105.000004005432
316,320,239702,2,0,P|264:288|180:304,1,105.000004005432
204,184,240045,2,0,P|228:248|212:304,1,105.000004005432
120,260,240387,6,0,P|48:224|40:180,1,105.000004005432
140,168,240730,2,0,P|95:100|110:58,1,105.000004005432
236,196,241073,2,0,P|198:253|207:306,2,105.000004005432
392,260,241587,6,0,P|464:224|472:180,1,105.000004005432
372,168,241930,2,0,P|416:100|401:58,1,105.000004005432
276,196,242273,2,0,P|313:253|304:306,2,105.000004005432
152,28,242959,6,0,B|188:76|188:76|160:168,1,105.000004005432
88,92,243302,2,0,B|40:140|40:140|40:200,1,105.000004005432
144,176,243645,2,0,B|168:208|168:208|256:208,1,105.000004005432
233,103,243987,2,0,B|300:124|300:124|300:192,1,105.000004005432
308,264,244330,6,0,B|256:264|256:264|224:208,1,105.000004005432
328,176,244673,2,0,P|416:112|328:72,1,210.000008010865
264,40,245187,1,0,0:0:0:0:
146,64,245359,2,0,P|97:143|184:176,1,210.000008010865
78,175,245873,2,0,B|50:223|50:223|74:271,1,105.000004005432
177,267,246216,2,0,B|179:322|179:322|225:349,1,105.000004005432
296,273,246559,2,0,B|328:318|328:318|382:315,2,105.000004005432
221,198,247073,2,0,B|188:152|188:152|134:155,1,105.000004005432
256,128,247416,2,0,B|256:72|256:72|211:42,1,105.000004005432
340,132,247759,2,0,B|370:85|370:85|349:36,1,105.000004005432
408,244,248102,2,0,P|304:224|292:328,1,210.000008010865
176,296,248616,6,0,B|116:296|116:296|152:232,1,105.000004005432
184,164,248959,2,0,B|214:112|214:112|251:175,1,105.000004005432
284,244,249302,2,0,B|314:295|314:295|240:296,2,105.000004005432
228,140,249816,6,0,B|198:88|198:88|271:87,1,105.000004005432
334,87,250159,2,0,L|444:88,1,105.000004005432
372,168,250502,2,0,L|300:252,1,105.000004005432
264,152,250845,2,0,L|212:16,1,105.000004005432
152,127,251187,6,0,L|72:208,1,105.000004005432
78,307,251530,2,0,L|76:184,1,105.000004005432
76,202,251873,2,0,L|192:268,1,105.000004005432
272,254,252216,2,0,L|412:256,1,105.000004005432
360,96,252559,6,0,P|272:160|256:160,2,105.000004005432
224,176,253073,1,0,0:0:0:0:
224,16,253245,1,0,0:0:0:0:
120,136,253416,1,0,0:0:0:0:
272,88,253587,1,0,0:0:0:0:
88,328,253930,5,0,0:0:0:0:
192,304,254102,1,0,0:0:0:0:
288,272,254273,2,0,L|400:216,2,105.000004005432
200,216,254787,1,0,0:0:0:0:
128,136,254959,2,0,P|112:64|168:32,1,105.000004005432
216,96,255302,5,0,0:0:0:0:
304,152,255473,2,0,B|352:192|352:192|400:192,1,105.000004005432
392,88,255816,2,0,B|392:32|392:32|432:0,1,105.000004005432
392,192,256159,2,0,L|392:320,1,105.000004005432
392,88,256502,2,0,B|392:32|392:32|352:0,1,105.000004005432
304,96,256845,6,0,B|304:152|304:152|248:224,1,105.000004005432
200,120,257187,2,0,B|160:168|160:168|88:168,1,105.000004005432
128,72,257530,2,0,B|72:72|72:72|16:120,2,105.000004005432
120,176,258045,6,0,B|96:280|96:280|208:344,1,210.000008010865
208,232,258559,1,0,0:0:0:0:
288,152,258730,2,0,B|320:224|488:200,1,210.000008010865
296,296,259416,5,0,0:0:0:0:
192,320,259587,2,0,P|112:304|88:272,2,105.000004005432
176,216,260102,1,0,0:0:0:0:
144,112,260273,2,0,P|192:48|256:40,2,105.000004005432
248,144,260787,5,0,0:0:0:0:
344,192,260959,2,0,P|376:136|344:88,1,105.000004005432
344,192,261302,2,0,P|376:247|434:244,1,105.000004005432
344,192,261645,2,0,P|279:192|253:244,1,105.000004005432
257,220,261987,2,0,P|208:192|208:120,1,105.000004005432
105,163,262330,6,0,P|154:134|216:170,1,105.000004005432
230,59,262673,2,0,P|229:116|167:152,1,105.000004005432
257,220,263016,2,0,P|207:191|207:119,2,105.000004005432
288,136,263530,5,0,0:0:0:0:
288,136,263702,2,0,P|337:107|399:143,1,105.000004005432
288,247,264045,2,0,P|288:304|225:340,1,105.000004005432
191,192,264387,2,0,P|142:163|142:91,2,105.000004005432
256,40,264902,5,0,0:0:0:0:
344,64,265073,2,0,B|320:112|320:112|360:160,1,105.000004005432
168,64,265416,2,0,B|192:112|192:112|152:160,1,105.000004005432
112,248,265759,2,0,B|72:304|72:304|128:352,2,105.000004005432
256,248,266273,1,0,0:0:0:0:
400,248,266445,2,0,B|440:304|440:304|384:352,2,105.000004005432
336,168,266959,1,0,0:0:0:0:
336,168,267130,2,0,L|336:56,1,105.000004005432
176,168,267473,2,0,L|176:56,1,105.000004005432
256,128,267816,2,0,L|256:256,1,105.000004005432
152,248,268159,2,0,L|152:360,1,105.000004005432
72,288,268502,2,0,L|72:160,2,105.000004005432
256,192,269016,12,0,270045,0:0:0:0:
192,80,270387,6,0,B|112:152|112:152|192:256,1,210.000008010865
324,189,270902,2,0,B|384:271|384:271|488:224,1,210.000008010865
352,344,271416,2,0,L|464:344,1,105.000004005432
496,112,271759,6,0,B|384:112|384:112|304:216,1,210.000008010865
288,88,272273,2,0,B|228:165|228:165|116:165,1,210.000008010865
116,165,272787,1,0,0:0:0:0:
287,216,273130,6,0,B|395:219|395:219|411:147|467:115,1,210.000008010865
442,302,273645,2,0,B|409:286|393:214|393:214|286:216,1,210.000008010865
144,264,274159,1,0,0:0:0:0:
192,176,274330,1,0,0:0:0:0:
248,80,274502,6,0,B|288:32|336:72|288:216,1,210.000008010865
356,241,275016,2,0,B|378:299|319:321|219:207,1,210.000008010865
163,254,275530,2,0,B|101:244|112:182|260:152,1,210.000008010865
368,152,276045,5,0,0:0:0:0:
256,256,276216,1,0,0:0:0:0:
208,104,276387,1,0,0:0:0:0:
304,56,276559,1,0,0:0:0:0:
280,160,276730,1,0,0:0:0:0:
208,104,276902,2,0,P|144:80|112:104,1,105.000004005432
144,200,277245,5,0,0:0:0:0:
336,272,277587,1,0,0:0:0:0:
336,272,277759,5,0,0:0:0:0:
128,312,278102,1,0,0:0:0:0:
128,312,278273,5,0,0:0:0:0:
336,272,278616,6,0,B|264:264|264:264|192:136,1,210.000008010865
144,200,279130,2,0,B|186:141|186:141|333:143,1,210.000008010865
296,80,279645,2,0,B|325:146|325:146|250:272,1,210.000008010865
256,192,280073,12,0,281016,0:0:0:0:
208,40,281359,6,0,B|276:68|276:68|368:40,1,140
352,152,281873,2,0,L|352:296,1,140
264,240,282387,2,0,L|192:192,1,70
240,104,282730,6,0,B|168:128|168:128|168:208,1,140
96,112,283245,6,0,B|168:136|168:136|168:216,1,140
168,304,283759,1,0,0:0:0:0:
336,184,284102,2,0,L|464:112,1,140
448,224,284616,2,0,L|320:296,1,140
224,296,285130,2,0,L|156:348,1,70
176,200,285473,6,0,L|48:272,1,140
64,160,285987,2,0,L|192:88,1,140
288,88,286501,2,0,L|368:88,1,70
352,192,286845,5,0,0:0:0:0:
144,192,287359,1,0,0:0:0:0:
256,40,287873,2,0,L|256:128,1,70
256,216,288216,2,0,P|208:280|136:296,1,140
256,216,288730,2,0,P|304:280|376:296,1,140
360,192,289245,1,0,0:0:0:0:
152,192,289587,5,0,0:0:0:0:
344,104,289930,2,0,L|440:64,1,70
168,104,290445,2,0,L|72:64,1,70
256,192,290959,12,0,295073,0:0:0:0:
