osu file format v14

[General]
AudioFilename: audio.mp3
AudioLeadIn: 0
PreviewTime: 65757
Countdown: 0
SampleSet: Soft
StackLeniency: 0.2
Mode: 0
LetterboxInBreaks: 0
WidescreenStoryboard: 0

[Editor]
Bookmarks: -27,57,143,229,315,400,486,572,657,743,829,915,999,1086,1172,1257,1343,23286,45229,67172,89115,111057,133000,143972,154943,176886,198829,220772,242715,264657,275629,286600,297572,308543,310772
DistanceSpacing: 0.9
BeatDivisor: 8
GridSize: 32
TimelineZoom: 4.799998

[Metadata]
Title:Virtuality
TitleUnicode:Virtuality
Artist:Rameses B
ArtistUnicode:Rameses B
Creator:Opsi
Version:Balance
Source:
Tags:DnB Drum and Bass Marathon
BeatmapID:1243383
BeatmapSetID:585631

[Difficulty]
HPDrainRate:6
CircleSize:4
OverallDifficulty:8.4
ApproachRate:9.3
SliderMultiplier:2.09
SliderTickRate:1

[Events]
//Background and Video events
0,0,"photo_0170762135tfujhz.jpg",0,0
//Break Periods
//Storyboard Layer 0 (Background)
//Storyboard Layer 1 (Fail)
//Storyboard Layer 2 (Pass)
//Storyboard Layer 3 (Foreground)
//Storyboard Sound Samples

[TimingPoints]
1343,342.857142857143,4,2,6,25,1,0
1343,-200,4,2,6,25,0,0
1428,-200,4,2,6,5,0,0
1857,-200,4,2,6,15,0,0
1943,-200,4,2,6,5,0,0
2372,-200,4,2,6,15,0,0
4086,-200,4,2,4,15,0,0
4172,-200,4,2,4,5,0,0
6829,-200,4,2,7,15,0,0
6915,-200,4,2,7,5,0,0
7857,-200,4,2,6,15,0,0
7943,-200,4,2,6,5,0,0
9572,-200,4,2,7,15,0,0
9657,-200,4,2,7,5,0,0
10600,-200,4,2,5,15,0,0
10686,-200,4,2,5,5,0,0
10943,-200,4,2,11,15,0,0
11114,-200,4,2,11,15,0,0
12315,-200,4,2,4,15,0,0
12357,-200,4,2,4,5,0,0
15057,-200,4,2,8,15,0,0
15134,-200,4,2,8,15,0,0
17800,-200,4,2,7,15,0,0
17843,-200,4,2,7,5,0,0
18829,-200,4,2,6,15,0,0
18915,-200,4,2,6,5,0,0
20543,-200,4,2,10,15,0,0
20629,-200,4,2,0,5,0,0
21915,-200,4,2,0,20,0,0
23286,-200,4,2,0,25,0,0
24657,-200,4,2,0,25,0,0
32886,-200,4,2,0,30,0,0
42485,-200,4,2,11,5,0,0
42543,-200,4,2,11,6,0,0
42600,-200,4,2,11,7,0,0
42657,-200,4,2,11,8,0,0
42715,-200,4,2,11,9,0,0
42772,-200,4,2,11,10,0,0
42829,-200,4,2,11,11,0,0
42886,-200,4,2,11,12,0,0
42943,-200,4,2,11,13,0,0
43000,-200,4,2,11,15,0,0
43057,-200,4,2,11,16,0,0
43115,-200,4,2,11,17,0,0
43172,-200,4,2,11,18,0,0
43229,-200,4,2,11,19,0,0
43286,-200,4,2,11,20,0,0
43343,-200,4,2,11,21,0,0
43515,-200,4,2,1,23,0,0
43857,-200,4,2,0,30,0,0
45229,-111.111111111111,4,2,8,35,0,0
45272,-111.111111111111,4,2,8,35,0,0
45571,-166.666666666667,4,2,0,25,0,0
45657,-166.666666666667,4,2,0,10,0,0
45743,-142.857142857143,4,2,0,27,0,0
45829,-166.666666666667,4,2,0,10,0,0
45915,-100,4,2,0,35,0,0
46000,-166.666666666667,4,2,0,10,0,0
46086,-111.111111111111,4,2,0,31,0,0
46172,-166.666666666667,4,2,0,10,0,0
46257,-125,4,2,0,29,0,0
46343,-166.666666666667,4,2,0,10,0,0
46429,-142.857142857143,4,2,0,27,0,0
46515,-166.666666666667,4,2,0,10,0,0
46600,-142.857142857143,4,2,0,35,0,0
46943,-166.666666666667,4,2,0,25,0,0
47029,-166.666666666667,4,2,0,10,0,0
47115,-142.857142857143,4,2,0,10,0,0
47200,-166.666666666667,4,2,0,10,0,0
47285,-100,4,2,0,35,0,0
47372,-166.666666666667,4,2,0,10,0,0
47457,-111.111111111111,4,2,0,31,0,0
47543,-166.666666666667,4,2,0,10,0,0
47628,-125,4,2,0,29,0,0
47715,-166.666666666667,4,2,0,10,0,0
47800,-142.857142857143,4,2,0,27,0,0
47886,-166.666666666667,4,2,0,10,0,0
47971,-111.111111111111,4,2,7,35,0,0
48314,-166.666666666667,4,2,0,25,0,0
48401,-166.666666666667,4,2,0,10,0,0
48486,-142.857142857143,4,2,0,27,0,0
48572,-166.666666666667,4,2,0,10,0,0
48657,-100,4,2,0,35,0,0
48743,-166.666666666667,4,2,0,10,0,0
48828,-111.111111111111,4,2,0,31,0,0
48915,-166.666666666667,4,2,0,10,0,0
49000,-125,4,2,0,29,0,0
49087,-166.666666666667,4,2,0,10,0,0
49171,-142.857142857143,4,2,0,27,0,0
49258,-166.666666666667,4,2,0,10,0,0
49343,-111.111111111111,4,2,0,35,0,0
49685,-166.666666666667,4,2,0,25,0,0
49772,-166.666666666667,4,2,0,10,0,0
49857,-142.857142857143,4,2,0,27,0,0
49943,-166.666666666667,4,2,0,10,0,0
50028,-100,4,2,0,35,0,0
50114,-166.666666666667,4,2,0,10,0,0
50200,-111.111111111111,4,2,0,31,0,0
50286,-166.666666666667,4,2,0,10,0,0
50371,-125,4,2,0,29,0,0
50458,-166.666666666667,4,2,0,10,0,0
50543,-142.857142857143,4,2,0,27,0,0
50629,-166.666666666667,4,2,0,10,0,0
50715,-111.111111111111,4,2,10,35,0,0
51057,-166.666666666667,4,2,0,25,0,0
51143,-166.666666666667,4,2,0,10,0,0
51228,-142.857142857143,4,2,0,27,0,0
51314,-166.666666666667,4,2,0,10,0,0
51399,-100,4,2,0,35,0,0
51485,-166.666666666667,4,2,0,10,0,0
51571,-111.111111111111,4,2,0,31,0,0
51657,-166.666666666667,4,2,0,10,0,0
51742,-125,4,2,0,29,0,0
51829,-166.666666666667,4,2,0,10,0,0
51914,-142.857142857143,4,2,0,27,0,0
52000,-166.666666666667,4,2,0,10,0,0
52086,-111.111111111111,4,2,0,35,0,0
52429,-166.666666666667,4,2,0,25,0,0
52515,-166.666666666667,4,2,0,10,0,0
52600,-142.857142857143,4,2,0,27,0,0
52686,-166.666666666667,4,2,0,10,0,0
52771,-100,4,2,0,35,0,0
52857,-166.666666666667,4,2,0,10,0,0
52943,-111.111111111111,4,2,0,31,0,0
53029,-166.666666666667,4,2,0,10,0,0
53114,-125,4,2,0,29,0,0
53201,-166.666666666667,4,2,0,10,0,0
53286,-142.857142857143,4,2,0,27,0,0
53457,-111.111111111111,4,2,9,35,0,0
53800,-166.666666666667,4,2,0,25,0,0
53886,-166.666666666667,4,2,0,10,0,0
53971,-142.857142857143,4,2,0,27,0,0
54057,-166.666666666667,4,2,0,10,0,0
54142,-100,4,2,0,35,0,0
54829,-142.857142857143,4,2,0,35,0,0
55429,-142.857142857143,4,2,0,10,0,0
55515,-100,4,2,0,35,0,0
56200,-100,4,2,1,35,0,0
56285,-100,4,2,1,35,0,0
57572,-100,4,2,1,35,0,0
58600,-200,4,2,1,35,0,0
58943,-111.111111111111,4,2,1,35,0,0
59285,-200,4,2,1,35,0,0
59628,-125,4,2,1,31,0,0
59971,-200,4,2,1,31,0,0
60314,-142.857142857143,4,2,1,27,0,0
60657,-200,4,2,1,27,0,0
61000,-166.666666666667,4,2,1,23,0,0
61343,-200,4,2,1,23,0,0
61686,-142.857142857143,4,1,0,50,0,0
64429,-100,4,1,1,55,0,0
65115,-100,4,1,1,60,0,0
65800,-200,4,2,0,25,0,0
66143,-200,4,2,0,45,0,0
66485,-83.3333333333333,4,1,0,50,0,0
66828,-50,4,2,8,50,0,0
67000,-50,4,2,1,50,0,0
67171,-83.3333333333333,4,2,1,65,0,1
67257,-83.3333333333333,4,2,1,65,0,1
68372,-66.6666666666667,4,2,1,65,0,1
68886,-83.3333333333333,4,2,1,65,0,1
69400,-100,4,2,1,50,0,1
69915,-83.3333333333333,4,2,1,65,0,1
70943,-125,4,2,1,65,0,1
71286,-83.3333333333333,4,2,1,65,0,1
72314,-74.0740740740741,4,2,8,70,0,1
72485,-74.0740740740741,4,2,1,70,0,1
72657,-83.3333333333333,4,2,1,65,0,1
76085,-71.4285714285714,4,2,1,65,0,1
76771,-100,4,2,1,50,0,1
77114,-71.4285714285714,4,2,1,65,0,1
77457,-50,4,2,1,80,0,1
77800,-62.5,4,2,5,80,0,1
77972,-62.5,4,2,2,80,0,1
78143,-83.3333333333333,4,2,1,65,0,0
78657,-66.6666666666667,4,2,1,65,0,0
79386,-83.3333333333333,4,2,1,10,0,0
79515,-83.3333333333333,4,2,1,65,0,0
80371,-100,4,2,1,50,0,0
80885,-83.3333333333334,4,2,1,65,0,0
81914,-111.111111111111,4,2,1,65,0,0
82257,-83.3333333333334,4,2,1,65,0,0
83285,-71.4285714285714,4,2,8,65,0,0
83457,-71.4285714285714,4,2,1,65,0,0
83628,-83.3333333333333,4,2,1,65,0,1
86457,-83.3333333333333,4,2,1,25,0,1
86543,-74.0740740740741,4,2,1,65,0,1
87057,-66.6666666666667,4,2,1,65,0,1
87743,-62.5,4,2,1,80,0,1
89114,-83.3333333333333,4,2,1,65,0,0
90143,-100,4,2,1,50,0,0
90486,-83.3333333333333,4,2,1,65,0,0
90657,-100,4,2,1,50,0,0
90829,-83.3333333333333,4,2,1,65,0,0
92972,-83.3333333333333,4,2,1,15,0,0
93057,-83.3333333333333,4,2,1,65,0,0
94257,-74.0740740740741,4,2,8,65,0,0
94600,-83.3333333333333,4,2,1,65,0,1
94772,-55.5555555555556,4,2,1,65,0,1
97514,-71.4285714285714,4,2,1,65,0,1
98372,-71.4285714285714,4,2,1,80,0,1
98715,-76.9230769230769,4,2,1,70,0,1
99743,-66.6666666666667,4,2,5,75,0,1
99914,-58.8235294117647,4,2,1,85,0,1
100085,-83.3333333333333,4,2,1,65,0,0
102314,-100,4,2,1,50,0,0
102829,-83.3333333333333,4,2,1,65,0,0
105228,-62.5,4,2,8,65,0,0
105400,-76.9230769230769,4,2,1,65,0,0
105571,-83.3333333333333,4,2,1,65,0,1
105743,-100,4,2,1,65,0,1
105914,-76.9230769230769,4,2,1,65,0,1
106085,-62.5,4,2,1,65,0,1
106257,-76.9230769230769,4,2,1,65,0,1
107972,-74.0740740740741,4,2,1,70,0,1
108315,-74.0740740740741,4,1,1,55,0,1
109000,-74.0740740740741,4,1,1,65,0,1
109685,-74.0740740740741,4,1,1,75,0,1
110372,-74.0740740740741,4,1,1,85,0,1
110715,-74.0740740740741,4,1,5,85,0,1
110885,-74.0740740740741,4,1,2,85,0,1
111057,-83.3333333333333,4,2,1,55,0,0
111315,-83.3333333333333,4,2,1,35,0,0
111400,-83.3333333333333,4,2,1,55,0,0
113157,-83.3333333333333,4,2,1,10,0,0
113286,-83.3333333333333,4,2,1,55,0,0
113329,-83.3333333333333,4,2,1,10,0,0
113457,-83.3333333333333,4,2,1,55,0,0
116200,-74.0740740740741,4,2,1,55,0,0
116543,-76.9230769230769,4,2,1,55,0,0
117571,-83.3333333333333,4,2,1,55,0,0
118643,-83.3333333333333,4,2,1,10,0,0
118772,-83.3333333333333,4,2,1,55,0,0
118815,-83.3333333333333,4,2,1,10,0,0
118943,-83.3333333333333,4,2,1,55,0,0
120315,-74.0740740740741,4,2,1,55,0,0
120486,-83.3333333333333,4,2,1,55,0,0
120872,-83.3333333333333,4,2,1,10,0,0
121000,-83.3333333333333,4,2,1,55,0,0
121043,-83.3333333333333,4,2,1,10,0,0
121172,-83.3333333333333,4,2,1,55,0,0
121685,-83.3333333333333,4,2,5,55,0,0
121857,-58.8235294117647,4,2,1,55,0,0
122029,-83.3333333333333,4,2,1,55,0,0
122885,-50,4,2,1,55,0,0
123057,-83.3333333333333,4,2,1,55,0,0
124129,-83.3333333333333,4,2,1,10,0,0
124257,-83.3333333333333,4,2,1,55,0,0
124300,-83.3333333333333,4,2,1,10,0,0
124429,-83.3333333333333,4,2,1,55,0,0
127171,-74.0740740740741,4,2,8,55,0,0
127343,-74.0740740740741,4,2,1,55,0,0
127515,-83.3333333333333,4,2,1,60,0,0
127686,-66.6666666666667,4,2,1,55,0,0
127857,-83.3333333333333,4,2,1,60,0,0
129615,-83.3333333333333,4,2,1,10,0,0
129743,-83.3333333333333,4,2,1,60,0,0
129786,-83.3333333333333,4,2,1,10,0,0
129915,-83.3333333333333,4,2,1,60,0,0
130943,-66.6666666666667,4,2,1,60,0,0
131629,-83.3333333333333,4,2,1,65,0,0
131972,-76.9230769230769,4,2,1,70,0,0
132315,-76.9230769230769,4,2,1,75,0,0
132657,-58.8235294117647,4,2,0,50,0,0
133000,-83.3333333333333,4,2,1,65,0,0
134028,-100,4,2,1,50,0,0
134372,-100,4,2,1,65,0,0
134543,-100,4,2,1,50,0,0
134715,-83.3333333333333,4,2,1,65,0,0
136429,-100,4,2,1,65,0,0
136515,-100,4,2,1,15,0,0
136600,-100,4,2,1,65,0,0
136857,-100,4,2,1,15,0,0
136943,-100,4,2,1,65,0,0
137115,-100,4,2,1,65,0,0
137200,-100,4,2,1,15,0,0
137286,-100,4,2,1,65,0,0
137543,-100,4,2,1,15,0,0
137800,-83.3333333333333,4,2,1,65,0,0
137843,-83.3333333333333,4,2,1,10,0,0
137972,-83.3333333333333,4,2,1,65,0,0
138015,-83.3333333333333,4,2,1,10,0,0
138143,-58.8235294117647,4,2,8,65,0,0
138485,-55.5555555555556,4,2,1,65,0,1
141229,-76.9230769230769,4,2,1,65,0,1
141400,-66.6666666666667,4,2,1,65,0,1
142600,-66.6666666666667,4,2,1,65,0,1
142943,-62.5,4,2,1,65,0,1
143286,-45.4545454545455,4,2,1,65,0,1
143628,-58.8235294117647,4,2,2,65,0,1
143971,-142.857142857143,4,2,1,45,0,0
144572,-142.857142857143,4,2,0,45,0,0
144657,-142.857142857143,4,2,1,40,0,0
145000,-62.5,4,2,8,80,0,1
145343,-76.9230769230769,4,1,1,70,0,1
146372,-76.9230769230769,4,1,1,70,0,1
148643,-76.9230769230769,4,1,1,15,0,1
148771,-76.9230769230769,4,1,1,70,0,1
148814,-76.9230769230769,4,1,1,15,0,1
148943,-76.9230769230769,4,1,1,70,0,1
149114,-62.5,4,1,8,70,0,1
149285,-62.5,4,1,1,70,0,1
149457,-76.9230769230769,4,1,1,75,0,1
153572,-83.3333333333333,4,1,1,80,0,1
154257,-76.9230769230769,4,1,1,85,0,1
154943,-200,4,2,6,15,0,0
155029,-200,4,2,6,5,0,0
157686,-200,4,2,4,15,0,0
157772,-200,4,2,4,5,0,0
160429,-200,4,2,7,15,0,0
160515,-200,4,2,7,5,0,0
161457,-200,4,2,6,15,0,0
161500,-200,4,2,6,5,0,0
163172,-200,4,2,7,15,0,0
163257,-200,4,2,7,5,0,0
163686,-200,4,2,5,15,0,0
164457,-200,4,2,5,5,0,0
164543,-200,4,2,4,15,0,0
166086,-200,4,2,0,10,0,0
168657,-200,4,2,8,15,0,0
168743,-200,4,2,8,5,0,0
170029,-200,4,2,0,10,0,0
171400,-200,4,2,7,15,0,0
171443,-200,4,2,7,5,0,0
172429,-200,4,2,6,15,0,0
172685,-200,4,2,6,5,0,0
172772,-200,4,2,0,10,0,0
174143,-142.857142857143,4,2,0,20,0,0
174229,-142.857142857143,4,2,0,5,0,0
175515,-142.857142857143,4,2,0,25,0,0
176886,-142.857142857143,4,2,8,35,0,0
177572,-100,4,2,1,35,0,0
177915,-142.857142857143,4,2,1,35,0,0
178172,-142.857142857143,4,2,1,10,0,0
178257,-142.857142857143,4,2,1,35,0,0
178943,-100,4,2,1,35,0,0
179286,-142.857142857143,4,2,1,35,0,0
179543,-142.857142857143,4,2,1,10,0,0
179628,-142.857142857143,4,2,7,35,0,0
179971,-142.857142857143,4,2,1,35,0,0
180315,-100,4,2,1,35,0,0
180657,-142.857142857143,4,2,1,35,0,0
180915,-142.857142857143,4,2,1,10,0,0
181000,-142.857142857143,4,2,1,35,0,0
181686,-100,4,2,1,35,0,0
182029,-142.857142857143,4,2,1,35,0,0
182286,-142.857142857143,4,2,1,10,0,0
182371,-142.857142857143,4,2,10,35,0,0
182543,-142.857142857143,4,2,1,35,0,0
183743,-142.857142857143,4,2,1,40,0,0
183786,-142.857142857143,4,2,1,10,0,0
183915,-142.857142857143,4,2,1,40,0,0
183958,-142.857142857143,4,2,1,10,0,0
184086,-142.857142857143,4,2,1,40,0,0
184129,-142.857142857143,4,2,1,10,0,0
184257,-142.857142857143,4,2,1,40,0,0
184300,-142.857142857143,4,2,1,10,0,0
184429,-142.857142857143,4,2,1,25,0,0
185115,-142.857142857143,4,2,9,40,0,0
185158,-142.857142857143,4,2,1,10,0,0
185287,-142.857142857143,4,2,1,40,0,0
185330,-142.857142857143,4,2,1,10,0,0
185458,-142.857142857143,4,2,1,40,0,0
185501,-142.857142857143,4,2,1,10,0,0
185629,-142.857142857143,4,2,1,40,0,0
185672,-142.857142857143,4,2,1,10,0,0
185801,-142.857142857143,4,2,1,25,0,0
186486,-142.857142857143,4,2,1,40,0,0
186529,-142.857142857143,4,2,1,10,0,0
186658,-142.857142857143,4,2,1,40,0,0
186701,-142.857142857143,4,2,1,10,0,0
186829,-142.857142857143,4,2,1,40,0,0
186872,-142.857142857143,4,2,1,10,0,0
187000,-142.857142857143,4,2,1,40,0,0
187043,-142.857142857143,4,2,1,10,0,0
187172,-142.857142857143,4,2,1,25,0,0
187685,-100,4,2,1,35,0,0
187857,-100,4,2,1,45,0,0
189229,-100,4,2,1,45,0,0
189914,-83.3333333333333,4,2,1,45,0,0
190257,-200,4,2,1,45,0,0
190600,-111.111111111111,4,2,1,45,0,0
190943,-76.9230769230769,4,2,1,45,0,0
191285,-58.8235294117647,4,2,1,45,0,0
191628,-333.333333333333,4,2,1,45,0,0
191971,-111.111111111111,4,2,1,45,0,0
192314,-76.9230769230769,4,2,1,45,0,0
192657,-58.8235294117647,4,2,1,45,0,0
193000,-333.333333333333,4,2,1,45,0,0
193343,-100,4,2,1,45,0,0
193686,-100,4,2,1,45,0,0
195743,-333.333333333333,4,2,1,45,0,0
196085,-100,4,2,1,50,0,0
197114,-71.4285714285714,4,2,1,50,0,0
197457,-111.111111111111,4,2,0,45,0,0
198485,-38.4615384615385,4,2,8,45,0,0
198828,-83.3333333333333,4,2,1,65,0,1
200029,-66.6666666666667,4,2,1,65,0,1
200200,-83.3333333333333,4,2,1,65,0,1
202600,-111.111111111111,4,2,1,65,0,1
202943,-83.3333333333333,4,2,1,65,0,1
203972,-74.0740740740741,4,2,1,65,0,1
204143,-62.5,4,2,1,65,0,1
204315,-83.3333333333333,4,2,1,65,0,1
204529,-83.3333333333333,4,2,1,10,0,1
204657,-83.3333333333333,4,2,1,65,0,1
204700,-83.3333333333333,4,2,1,10,0,1
204828,-83.3333333333333,4,2,1,65,0,1
204872,-83.3333333333333,4,2,1,10,0,1
205000,-83.3333333333333,4,2,1,65,0,1
205043,-83.3333333333333,4,2,1,10,0,1
205171,-83.3333333333333,4,2,1,65,0,1
205900,-83.3333333333333,4,2,1,10,0,1
206028,-83.3333333333333,4,2,1,65,0,1
206072,-83.3333333333333,4,2,1,10,0,1
206200,-83.3333333333333,4,2,1,65,0,1
206243,-83.3333333333333,4,2,1,10,0,1
206371,-83.3333333333333,4,2,1,65,0,1
206415,-83.3333333333333,4,2,1,10,0,1
206543,-83.3333333333333,4,2,1,65,0,1
207272,-83.3333333333333,4,2,1,10,0,1
207400,-83.3333333333333,4,2,1,65,0,1
207443,-83.3333333333333,4,2,1,10,0,1
207571,-83.3333333333333,4,2,1,65,0,1
207615,-83.3333333333333,4,2,1,10,0,1
207743,-83.3333333333333,4,2,1,65,0,1
207786,-83.3333333333333,4,2,1,10,0,1
207914,-83.3333333333333,4,2,1,65,0,1
208643,-83.3333333333333,4,2,1,10,0,1
208771,-83.3333333333333,4,2,1,65,0,1
208814,-83.3333333333333,4,2,1,10,0,1
208942,-83.3333333333333,4,2,1,65,0,1
208986,-83.3333333333333,4,2,1,10,0,1
209115,-83.3333333333333,4,2,1,65,0,1
209457,-58.8235294117647,4,2,5,75,0,1
209800,-100,4,2,1,65,0,0
214943,-80,4,2,1,65,0,0
215114,-66.6666666666667,4,2,1,65,0,0
215285,-66.6666666666667,4,2,1,65,0,1
215457,-133.333333333333,4,2,1,65,0,1
216915,-133.333333333333,4,2,1,65,0,1
218200,-100,4,2,1,65,0,1
219572,-66.6666666666667,4,2,1,65,0,1
220771,-83.3333333333333,4,2,1,65,0,0
221800,-100,4,2,1,50,0,0
222143,-100,4,2,1,65,0,0
222315,-100,4,2,1,50,0,0
222486,-83.3333333333333,4,2,1,65,0,0
225915,-74.0740740740741,4,2,8,65,0,0
226086,-74.0740740740741,4,2,1,65,0,0
226257,-74.0740740740741,4,2,1,65,0,1
226429,-55.5555555555556,4,2,1,65,0,1
228829,-83.3333333333333,4,2,1,65,0,1
229171,-71.4285714285714,4,2,1,65,0,1
229685,-66.6666666666667,4,2,1,65,0,1
230543,-76.9230769230769,4,2,1,65,0,1
230714,-71.4285714285714,4,2,1,65,0,1
230886,-66.6666666666667,4,2,1,65,0,1
231400,-76.9230769230769,4,2,1,65,0,1
231571,-55.5555555555556,4,2,1,65,0,1
231743,-142.857142857143,4,2,1,65,0,0
232771,-55.5555555555556,4,2,8,65,0,0
233115,-83.3333333333333,4,2,1,65,0,0
235343,-100,4,2,1,50,0,0
235857,-83.3333333333333,4,2,1,65,0,0
236586,-83.3333333333333,4,2,1,10,0,0
236715,-83.3333333333333,4,2,1,65,0,0
236885,-74.0740740740741,4,2,8,65,0,0
237228,-83.3333333333333,4,2,1,65,0,1
238257,-71.4285714285714,4,2,1,65,0,1
238600,-83.3333333333333,4,2,1,65,0,1
239629,-100,4,2,1,55,0,1
239972,-100,4,2,1,65,0,1
240657,-66.6666666666667,4,2,1,65,0,1
242372,-66.6666666666667,4,2,2,65,0,1
242714,-83.3333333333333,4,2,1,65,0,0
243100,-83.3333333333333,4,2,1,10,0,0
243229,-83.3333333333333,4,2,1,65,0,0
243915,-66.6666666666667,4,2,1,65,0,0
244086,-83.3333333333333,4,2,1,65,0,0
244300,-83.3333333333333,4,2,1,10,0,0
244429,-83.3333333333333,4,2,1,65,0,0
244472,-83.3333333333333,4,2,1,10,0,0
244601,-83.3333333333333,4,2,1,65,0,0
244643,-83.3333333333333,4,2,1,10,0,0
244772,-83.3333333333333,4,2,1,65,0,0
244815,-83.3333333333333,4,2,1,10,0,0
244944,-83.3333333333333,4,2,1,65,0,0
244986,-83.3333333333333,4,2,1,10,0,0
245115,-83.3333333333333,4,2,1,65,0,0
245285,-66.6666666666667,4,2,1,55,0,0
245457,-83.3333333333333,4,2,1,65,0,0
245672,-83.3333333333333,4,2,1,10,0,0
245801,-83.3333333333333,4,2,1,65,0,0
245843,-83.3333333333333,4,2,1,10,0,0
245972,-83.3333333333333,4,2,1,65,0,0
246015,-83.3333333333333,4,2,1,10,0,0
246144,-83.3333333333333,4,2,1,65,0,0
246186,-83.3333333333333,4,2,1,10,0,0
246315,-83.3333333333333,4,2,1,65,0,0
246657,-66.6666666666667,4,2,1,65,0,0
246829,-83.3333333333333,4,2,1,65,0,0
247043,-83.3333333333333,4,2,1,10,0,0
247172,-83.3333333333333,4,2,1,65,0,0
247215,-83.3333333333333,4,2,1,10,0,0
247344,-83.3333333333333,4,2,1,65,0,0
247386,-83.3333333333333,4,2,1,10,0,0
247515,-83.3333333333333,4,2,1,65,0,0
248415,-83.3333333333333,4,2,1,10,0,0
248543,-83.3333333333333,4,2,1,65,0,0
248586,-83.3333333333333,4,2,1,10,0,0
248715,-83.3333333333333,4,2,1,65,0,0
248757,-83.3333333333333,4,2,1,10,0,0
248886,-83.3333333333333,4,2,1,65,0,0
248929,-83.3333333333333,4,2,1,10,0,0
249058,-83.3333333333333,4,2,1,65,0,0
249786,-83.3333333333333,4,2,1,10,0,0
249915,-83.3333333333333,4,2,1,65,0,0
249957,-83.3333333333333,4,2,1,10,0,0
250086,-83.3333333333333,4,2,1,65,0,0
250129,-83.3333333333333,4,2,1,10,0,0
250258,-83.3333333333333,4,2,1,65,0,0
250300,-83.3333333333333,4,2,1,10,0,0
250429,-83.3333333333333,4,2,1,65,0,0
250772,-66.6666666666667,4,2,1,65,0,0
251115,-83.3333333333333,4,2,1,65,0,0
251157,-83.3333333333333,4,2,1,10,0,0
251286,-83.3333333333333,4,2,1,65,0,0
251329,-83.3333333333333,4,2,1,10,0,0
251458,-83.3333333333333,4,2,1,65,0,0
251500,-83.3333333333333,4,2,1,10,0,0
251629,-83.3333333333333,4,2,1,65,0,0
251672,-83.3333333333333,4,2,1,10,0,0
251801,-83.3333333333333,4,2,1,65,0,0
252529,-83.3333333333333,4,2,1,10,0,0
252658,-83.3333333333333,4,2,1,65,0,0
252700,-83.3333333333333,4,2,1,10,0,0
252829,-83.3333333333333,4,2,1,65,0,0
253515,-66.6666666666667,4,2,1,65,0,0
253857,-83.3333333333333,4,2,1,65,0,0
254543,-76.9230769230769,4,2,1,65,0,0
254715,-83.3333333333333,4,2,1,65,0,0
254886,-66.6666666666667,4,2,1,65,0,0
255057,-83.3333333333333,4,2,1,65,0,0
255272,-83.3333333333333,4,2,1,10,0,0
255401,-83.3333333333333,4,2,1,65,0,0
255443,-83.3333333333333,4,2,1,10,0,0
255572,-83.3333333333333,4,2,1,65,0,0
255615,-83.3333333333333,4,2,1,10,0,0
255743,-166.666666666667,4,2,1,65,0,0
255829,-166.666666666667,4,2,1,35,0,0
256086,-83.3333333333333,4,2,1,65,0,0
256257,-66.6666666666667,4,2,1,65,0,0
256429,-83.3333333333333,4,2,1,65,0,0
258828,-74.0740740740741,4,2,1,65,0,0
259172,-83.3333333333333,4,2,1,65,0,0
259686,-66.6666666666667,4,2,1,65,0,0
259857,-83.3333333333333,4,2,1,65,0,0
260372,-66.6666666666667,4,2,1,65,0,0
260543,-83.3333333333333,4,2,1,65,0,0
260757,-83.3333333333333,4,2,1,10,0,0
260886,-83.3333333333333,4,2,1,65,0,0
260929,-83.3333333333333,4,2,1,10,0,0
261058,-83.3333333333333,4,2,1,65,0,0
261100,-83.3333333333333,4,2,1,10,0,0
261229,-83.3333333333333,4,2,1,65,0,0
261272,-83.3333333333333,4,2,1,10,0,0
261401,-83.3333333333333,4,2,1,65,0,0
261743,-66.6666666666667,4,2,1,65,0,0
261914,-83.3333333333333,4,2,1,65,0,0
262600,-66.6666666666667,4,2,1,65,0,0
263285,-83.3333333333333,4,2,1,65,0,0
263500,-83.3333333333333,4,2,1,10,0,0
263629,-83.3333333333333,4,2,1,65,0,0
263672,-83.3333333333333,4,2,1,10,0,0
263801,-83.3333333333333,4,2,1,65,0,0
263843,-83.3333333333333,4,2,1,10,0,0
263972,-83.3333333333333,4,2,1,65,0,0
264015,-83.3333333333333,4,2,1,10,0,0
264144,-83.3333333333333,4,2,1,65,0,0
264314,-66.6666666666667,4,2,1,70,0,0
264657,-83.3333333333333,4,2,1,65,0,0
265686,-100,4,2,1,50,0,0
266029,-83.3333333333333,4,2,1,65,0,0
266200,-83.3333333333333,4,2,1,50,0,0
266371,-83.3333333333333,4,2,1,65,0,0
266929,-83.3333333333333,4,2,1,10,0,0
267057,-83.3333333333333,4,2,1,65,0,0
269800,-74.0740740740741,4,2,8,65,0,0
270143,-83.3333333333333,4,2,1,65,0,1
271172,-74.0740740740741,4,2,1,65,0,1
271857,-83.3333333333333,4,2,1,65,0,1
272543,-74.0740740740741,4,2,1,65,0,1
273057,-66.6666666666667,4,2,1,65,0,1
273229,-66.6666666666667,4,2,1,65,0,1
273400,-66.6666666666667,4,2,1,65,0,1
273657,-66.6666666666667,4,2,1,65,0,1
273914,-62.5,4,2,1,65,0,1
274257,-66.6666666666667,4,2,1,80,0,1
274600,-62.5,4,2,1,80,0,1
274943,-40,4,2,1,80,0,1
275285,-55.5555555555556,4,2,2,85,0,1
275629,-74.0740740740741,4,2,1,70,0,1
276486,-66.6666666666667,4,2,1,70,0,1
276829,-74.0740740740741,4,2,1,70,0,1
277686,-74.0740740740741,4,2,1,50,0,1
278028,-74.0740740740741,4,2,1,70,0,1
279057,-74.0740740740741,4,2,1,60,0,1
281115,-111.111111111111,4,2,1,50,0,1
282486,-90.9090909090909,4,2,1,60,0,1
283857,-76.9230769230769,4,2,1,60,0,1
284543,-71.4285714285714,4,2,1,60,0,1
285229,-71.4285714285714,4,2,1,85,0,1
286257,-71.4285714285714,4,2,2,90,0,1
286300,-71.4285714285714,4,2,2,35,0,1
286343,-71.4285714285714,4,2,2,90,0,1
286386,-71.4285714285714,4,2,2,35,0,1
286428,-71.4285714285714,4,2,2,90,0,1
286429,-71.4285714285714,4,2,2,90,0,1
286515,-71.4285714285714,4,2,2,90,0,1
286557,-71.4285714285714,4,2,2,35,0,1
286600,-192.307692307692,4,2,1,35,0,0
286686,-200,4,2,1,5,0,0
292429,-166.666666666667,4,2,11,9,0,0
292600,-166.666666666667,4,2,11,12,0,0
292772,-100,4,2,11,15,0,0
292857,-100,4,2,11,5,0,0
292943,-111.111111111111,4,2,11,13,0,0
293026,-111.111111111111,4,2,11,5,0,0
293115,-125,4,2,11,11,0,0
293200,-125,4,2,11,5,0,0
293286,-142.857142857143,4,2,11,9,0,0
293372,-142.857142857143,4,2,11,5,0,0
293457,-200,4,2,11,7,0,0
293800,-166.666666666667,4,2,11,9,0,0
293886,-142.857142857143,4,2,11,5,0,0
293971,-142.857142857143,4,2,11,12,0,0
294057,-100,4,2,11,5,0,0
294143,-100,4,2,11,15,0,0
294228,-111.111111111111,4,2,11,5,0,0
294314,-111.111111111111,4,2,11,13,0,0
294400,-125,4,2,11,5,0,0
294486,-125,4,2,11,11,0,0
294571,-142.857142857143,4,2,11,5,0,0
294657,-142.857142857143,4,2,11,9,0,0
294743,-200,4,2,11,5,0,0
295171,-142.857142857143,4,2,11,9,0,0
295257,-142.857142857143,4,2,11,9,0,0
295343,-125,4,2,11,12,0,0
295429,-142.857142857143,4,2,11,9,0,0
295514,-100,4,2,11,15,0,0
295600,-142.857142857143,4,2,11,9,0,0
295685,-111.111111111111,4,2,11,13,0,0
295772,-142.857142857143,4,2,11,9,0,0
295857,-125,4,2,11,11,0,0
295943,-142.857142857143,4,2,11,9,0,0
296029,-142.857142857143,4,2,11,9,0,0
296115,-142.857142857143,4,2,11,9,0,0
296200,-142.857142857143,4,2,11,25,0,0
296500,-111.111111111111,4,2,11,25,0,0
296629,-142.857142857143,4,2,11,5,0,0
296714,-100,4,2,11,45,0,0
296800,-142.857142857143,4,2,11,5,0,0
296885,-71.4285714285714,4,2,11,55,0,0
296972,-142.857142857143,4,2,11,5,0,0
297057,-83.3333333333333,4,2,11,45,0,0
297143,-142.857142857143,4,2,11,5,0,0
297228,-100,4,2,11,35,0,0
297315,-142.857142857143,4,2,11,5,0,0
297400,-111.111111111111,4,2,11,25,0,0
297486,-142.857142857143,4,2,11,5,0,0
297571,-200,4,2,11,7,0,0
297915,-166.666666666667,4,2,11,9,0,0
298000,-166.666666666667,4,2,11,5,0,0
298086,-142.857142857143,4,2,11,12,0,0
298172,-166.666666666667,4,2,11,5,0,0
298257,-100,4,2,11,15,0,0
298343,-166.666666666667,4,2,11,5,0,0
298429,-111.111111111111,4,2,11,13,0,0
298515,-166.666666666667,4,2,11,5,0,0
298600,-125,4,2,11,11,0,0
298686,-166.666666666667,4,2,11,5,0,0
298772,-142.857142857143,4,2,11,9,0,0
298857,-166.666666666667,4,2,11,5,0,0
298943,-200,4,2,11,7,0,0
299286,-166.666666666667,4,2,11,9,0,0
299371,-166.666666666667,4,2,11,5,0,0
299457,-142.857142857143,4,2,11,12,0,0
299543,-166.666666666667,4,2,11,5,0,0
299628,-100,4,2,11,15,0,0
299714,-166.666666666667,4,2,11,5,0,0
299800,-111.111111111111,4,2,11,13,0,0
299886,-166.666666666667,4,2,11,5,0,0
299971,-125,4,2,11,11,0,0
300057,-166.666666666667,4,2,11,5,0,0
300143,-142.857142857143,4,2,11,9,0,0
300228,-166.666666666667,4,2,11,5,0,0
300314,-200,4,2,11,7,0,0
300657,-166.666666666667,4,2,11,9,0,0
300742,-166.666666666667,4,2,11,5,0,0
300828,-142.857142857143,4,2,11,12,0,0
300914,-166.666666666667,4,2,11,5,0,0
300999,-100,4,2,11,15,0,0
301085,-166.666666666667,4,2,11,5,0,0
301171,-111.111111111111,4,2,11,13,0,0
301257,-166.666666666667,4,2,11,5,0,0
301342,-125,4,2,11,11,0,0
301428,-166.666666666667,4,2,11,5,0,0
301514,-142.857142857143,4,2,11,9,0,0
301599,-166.666666666667,4,2,11,5,0,0
301685,-200,4,2,11,7,0,0
302029,-166.666666666667,4,2,11,9,0,0
302114,-166.666666666667,4,2,11,5,0,0
302200,-142.857142857143,4,2,11,12,0,0
302286,-166.666666666667,4,2,11,5,0,0
302371,-100,4,2,11,15,0,0
302457,-166.666666666667,4,2,11,5,0,0
302543,-111.111111111111,4,2,11,13,0,0
302629,-166.666666666667,4,2,11,5,0,0
302714,-125,4,2,11,11,0,0
302800,-166.666666666667,4,2,11,5,0,0
302885,-142.857142857143,4,2,11,9,0,0
302971,-166.666666666667,4,2,11,5,0,0
303057,-200,4,2,11,7,0,0
303400,-166.666666666667,4,2,11,8,0,0
303486,-166.666666666667,4,2,11,5,0,0
303571,-142.857142857143,4,2,11,9,0,0
303657,-166.666666666667,4,2,11,5,0,0
303743,-111.111111111111,4,2,11,10,0,0
303829,-166.666666666667,4,2,11,5,0,0
303914,-125,4,2,11,9,0,0
304000,-166.666666666667,4,2,11,5,0,0
304086,-142.857142857143,4,2,11,8,0,0
304172,-166.666666666667,4,2,11,5,0,0
304257,-166.666666666667,4,2,11,7,0,0
304343,-166.666666666667,4,2,11,5,0,0
304429,-200,4,2,11,7,0,0
304772,-166.666666666667,4,2,11,8,0,0
304858,-166.666666666667,4,2,11,5,0,0
304943,-142.857142857143,4,2,11,9,0,0
305029,-166.666666666667,4,2,11,5,0,0
305115,-125,4,2,11,10,0,0
305200,-125,4,2,11,5,0,0
305285,-142.857142857143,4,2,11,9,0,0
305372,-125,4,2,11,5,0,0
305458,-166.666666666667,4,2,11,8,0,0
305543,-125,4,2,11,5,0,0
305628,-200,4,2,11,7,0,0
305715,-200,4,2,11,5,0,0
305800,-200,4,2,11,7,0,0
306486,-142.857142857143,4,2,11,10,0,0
306657,-166.666666666667,4,2,11,5,0,0
306828,-200,4,2,11,5,0,0
307515,-200,4,2,11,10,0,0
308372,-666.666666666667,4,2,11,10,0,0
308457,-666.666666666667,4,2,11,5,0,0

[Colours]
Combo1 : 124,124,124
Combo2 : 241,228,75
Combo3 : 255,100,255
Combo4 : 0,234,58
Combo5 : 171,130,5
Combo6 : 212,212,212

[HitObjects]
132,305,1343,70,0,P|206:308|269:371,2,156.75,2|0|0,0:0|0:0|0:0,0:0:0:0:
329,39,4085,70,0,B|354:33|387:33|438:59|447:111|447:167|400:212|345:223|303:177|317:133|342:117|342:117|309:131|291:166|301:200|319:228|361:237|360:225|400:212|457:221|474:294|462:344|433:376|380:387|326:365|307:323|318:280,1,783.75,2|0,0:0|0:0,0:0:0:0:
183,39,6829,6,0,B|150:94|185:149|185:149|199:121|193:88,1,156.75,2|0,0:0|0:0,0:0:0:0:
472,179,7857,70,0,B|419:178|352:222|404:231|365:313|271:299|271:299|307:214|404:231|430:289|434:331,1,470.25,2|0,0:0|0:0,0:0:0:0:
145,244,9572,6,0,B|120:312|179:351|179:351|166:322|167:295,1,156.75,2|0,0:0|0:0,0:0:0:0:
386,167,10600,70,0,P|336:183|286:171,1,104.5,2|2,0:0|0:2,0:0:0:0:
236,111,11114,1,2,0:2:0:0:
73,122,12315,6,0,B|36:103|21:63|21:63|13:159|87:212|162:194|208:122|186:54|136:27|136:27|224:39|232:132|232:132|240:59|286:12|362:8,1,783.75,6|0,0:0|0:0,0:0:0:0:
473,233,15057,70,0,B|447:166|385:175|385:175|355:179|324:173|304:143|301:115|330:62|379:47|436:98|438:128|429:169|374:199|364:174|356:219|353:282|404:331|472:334|472:334|430:359|359:332|392:305|316:288|254:333,1,783.75,2|0,0:0|0:0,0:0:0:0:
11,290,17800,6,0,B|57:325|126:298|126:298|103:291|83:274,1,156.75,2|0,0:0|0:3,0:3:0:0:
279,23,18828,70,0,B|235:56|170:31|170:31|247:62|254:120|206:152|216:202|216:202|206:152|141:145|139:87|162:55,1,470.25,2|0,0:0|0:0,0:0:0:0:
40,295,20543,6,0,B|42:246|124:236|124:236|125:314|84:328|84:328|118:338|161:325|161:297|220:291|261:326,1,391.875,2|0,0:0|0:0,0:0:0:0:
323,362,21915,37,2,0:1:0:0:
377,306,22085,1,0,0:0:0:0:
375,228,22257,1,0,0:0:0:0:
252,68,22428,5,0,0:0:0:0:
304,133,22600,1,0,0:0:0:0:
387,145,22771,1,0,0:0:0:0:
249,317,22943,53,0,0:0:0:0:
292,216,23114,1,0,0:0:0:0:
104,204,23286,22,0,P|45:208|-7:252,1,104.5,2|0,0:0|0:0,0:0:0:0:
181,343,23800,2,0,B|229:306|231:237|203:207|203:207|201:245|175:271,1,209,2|0,0:0|0:0,0:0:0:0:
408,204,24657,70,0,P|445:202|479:213,2,52.25,2|2|0,0:0|2:1|0:0,0:0:0:0:
331,343,25172,2,0,B|283:306|288:240|312:215|312:215|334:250|320:295,1,209
105,108,26029,6,0,P|46:104|-6:60,1,104.5,2|0,0:0|0:0,0:0:0:0:
194,59,26543,2,0,B|213:85|213:135|189:168|189:168|233:143|239:78,1,209,2|0,0:0|0:0,0:0:0:0:
407,108,27400,70,0,P|466:104|518:60,1,104.5,2|0,0:0|0:0,0:0:0:0:
318,59,27915,2,0,B|333:93|327:147|297:172|297:172|261:140|275:91,1,209,2|0,0:0|0:0,0:0:0:0:
72,254,28772,6,0,P|78:208|46:149,1,104.5,2|0,0:0|0:0,0:0:0:0:
23,342,29286,2,0,B|78:369|147:342|120:323|173:302|222:324,1,209,2|2,0:0|0:1,0:0:0:0:
440,254,30143,70,0,B|433:200|433:200|461:152,1,104.5,2|0,0:0|0:0,0:0:0:0:
489,342,30657,2,0,B|410:346|410:346|371:317|371:317|277:325,1,209,2|0,0:0|0:0,0:0:0:0:
162,181,31515,6,0,P|171:242|216:278,1,104.5,2|0,0:0|0:0,0:0:0:0:
350,203,32028,70,0,B|347:146|347:146|304:105,1,104.5,2|0,0:0|0:0,0:0:0:0:
311,87,32457,70,0,L|312:113,1,26.125,2|0,0:1|0:0,0:0:0:0:
255,192,32714,1,0,0:0:0:0:
31,102,32886,5,2,0:1:0:0:
112,97,33057,1,0,0:0:0:0:
193,92,33228,1,0,0:0:0:0:
130,329,33400,5,0,0:0:0:0:
78,257,33572,1,0,0:0:0:0:
117,178,33743,1,0,0:0:0:0:
254,242,33915,53,0,0:1:0:0:
380,227,34086,1,2,0:1:0:0:
130,329,34257,22,0,L|233:318,1,104.5,6|0,0:0|0:0,0:0:0:0:
464,179,34772,2,0,B|321:194|321:194|388:231,1,209,2|0,0:0|0:0,0:0:0:0:
118,178,35628,70,0,L|14:188,1,104.5,2|0,0:0|0:0,0:0:0:0:
252,27,36143,2,0,B|203:69|203:69|347:55,1,209,2|0,0:0|0:0,0:0:0:0:
461,282,37000,6,0,L|452:178,1,104.5,2|0,0:0|0:0,0:0:0:0:
321,172,37515,2,0,B|361:210|361:210|348:56,1,209,2|0,0:0|0:0,0:0:0:0:
60,178,38372,70,0,L|49:302,1,104.5,2|0,0:0|0:0,0:0:0:0:
195,102,38886,2,0,B|164:56|164:56|151:210,1,209,2|0,0:0|0:0,0:0:0:0:
360,328,39743,6,0,L|240:369,1,104.5,2|0,0:0|0:0,0:0:0:0:
372,304,40257,2,0,B|232:351|232:351|172:331,1,209,2|0,0:0|0:0,0:0:0:0:
301,38,41115,70,0,L|289:142,1,104.5,2|0,2:0|0:0,0:0:0:0:
383,73,41629,2,0,B|367:201|367:201|276:242,1,209,2|0,0:0|0:0,0:0:0:0:
62,190,42485,6,2,L|85:197,8,17.4166666666667,2|2|2|2|2|2|2|2|2,0:2|0:2|0:2|0:2|0:2|0:2|0:2|0:2|0:2,0:2:0:0:
172,210,43000,2,2,L|149:217,6,17.4166666666667,2|2|2|2|2|2|2,0:2|0:2|0:2|0:2|0:2|0:2|0:2,0:2:0:0:
195,194,43428,54,0,L|206:242,1,26.125,2|0,0:1|0:0,0:0:0:0:
133,94,43686,1,0,0:0:0:0:
267,103,43857,5,2,0:1:0:0:
152,89,44028,1,0,0:0:0:0:
225,0,44200,1,0,0:0:0:0:
243,286,44372,5,0,2:0:0:0:
365,245,44543,1,0,2:0:0:0:
383,119,44715,1,0,2:0:0:0:
285,375,44886,53,0,0:0:0:0:
117,324,45057,1,2,0:1:0:0:
72,133,45229,6,0,P|115:97|178:86,1,94.0499971298219,6|0,0:0|0:0,0:0:0:0:
164,199,45571,6,0,L|172:242,1,31.349999043274,2|0,0:0|0:0,0:0:0:0:
182,210,45743,2,0,L|192:259,1,36.5749988838196,2|0,0:0|0:0,0:0:0:0:
334,50,45915,54,0,L|324:115,1,52.25,2|0,0:0|0:0,0:0:0:0:
345,79,46086,2,0,L|342:139,1,47.0249985649109,2|0,0:0|0:3,0:3:0:0:
363,99,46257,2,0,L|366:151,1,41.8,2|0,0:0|0:3,0:3:0:0:
383,108,46429,2,0,L|391:154,1,36.5749988838196,2|0,0:0|0:3,0:3:0:0:
482,100,46600,5,2,0:0:0:0:
482,100,46771,1,0,0:0:0:0:
404,223,46943,6,0,L|444:234,1,31.349999043274,2|0,0:0|0:0,0:0:0:0:
380,230,47115,2,0,L|416:240,1,36.5749988838196,2|0,0:0|0:0,0:0:0:0:
243,317,47285,54,0,L|227:257,1,52.25,2|0,0:0|0:0,0:0:0:0:
218,334,47457,2,0,L|197:277,1,47.0249985649109,2|0,0:0|0:3,0:3:0:0:
206,358,47628,2,0,L|181:309,1,41.8,2|0,0:0|0:3,0:3:0:0:
204,380,47800,2,0,L|178:340,1,36.5749988838196,2|0,0:0|0:3,0:3:0:0:
167,201,47971,6,0,P|217:180|276:188,1,94.0499971298219,6|2,0:2|0:0,0:0:0:0:
459,165,48314,6,0,L|441:215,1,31.349999043274,2|0,0:0|0:0,0:0:0:0:
468,184,48486,2,0,L|450:233,1,36.5749988838196,2|0,0:0|0:0,0:0:0:0:
300,60,48657,54,0,L|361:53,1,52.25,2|0,0:0|0:0,0:0:0:0:
279,85,48828,2,0,L|335:79,1,47.0249985649109,2|0,0:0|0:0,0:0:0:0:
260,106,49000,2,0,L|311:101,1,41.8,2|0,0:0|0:0,0:0:0:0:
244,124,49171,2,0,L|290:120,1,36.5749988838196,2|0,0:0|0:0,0:0:0:0:
188,196,49343,5,2,0:0:0:0:
188,196,49515,1,0,0:0:0:0:
126,65,49685,6,0,L|99:19,1,31.349999043274,2|0,0:0|0:0,0:0:0:0:
104,58,49857,2,0,L|81:15,1,36.5749988838196,2|0,0:0|0:0,0:0:0:0:
316,130,50029,54,0,L|254:136,1,52.25,2|0,0:0|0:0,0:0:0:0:
342,149,50200,2,0,L|286:155,1,47.0249985649109
365,165,50372,2,0,L|314:171,1,41.8
388,180,50543,2,0,L|342:186,1,36.5749988838196
271,278,50715,6,0,P|241:318|238:376,1,94.0499971298219,6|0,0:0|0:0,0:0:0:0:
198,130,51057,6,0,L|217:168,1,31.349999043274,2|0,0:0|0:0,0:0:0:0:
236,163,51228,2,0,L|218:130,1,36.5749988838196,2|0,0:0|0:0,0:0:0:0:
64,227,51400,54,0,L|54:292,1,52.25,2|0,0:0|0:0,0:0:0:0:
87,347,51572,2,0,L|94:299,1,47.0249985649109,2|0,0:0|0:0,0:0:0:0:
71,236,51743,2,0,L|64:284,1,41.8,2|0,0:0|0:3,0:3:0:0:
80,338,51915,2,0,L|85:301,1,36.5749988838196,2|0,0:1|0:3,0:3:0:0:
152,200,52086,5,2,0:0:0:0:
152,200,52257,1,0,0:0:0:0:
275,179,52429,6,0,L|262:219,1,31.349999043274,2|0,0:0|0:0,0:0:0:0:
278,229,52600,2,0,L|287:192,1,36.5749988838196,2|0,0:0|0:0,0:0:0:0:
462,77,52772,54,0,L|397:87,1,52.25,2|0,0:0|0:0,0:0:0:0:
342,54,52943,2,0,L|392:48,1,47.0249985649109,2|0,0:0|0:0,0:0:0:0:
453,70,53115,2,0,L|405:77,1,41.8,2|0,0:0|0:3,0:3:0:0:
351,61,53286,2,0,L|388:56,1,36.5749988838196,2|0,0:0|0:3,0:3:0:0:
436,201,53457,6,0,P|491:208|537:184,1,94.0499971298219,6|0,0:0|0:0,0:0:0:0:
293,266,53800,6,0,L|300:297,1,31.349999043274,2|0,0:0|0:0,0:0:0:0:
371,271,53971,2,0,L|364:236,1,36.5749988838196,2|0,0:0|0:0,0:0:0:0:
263,139,54143,54,0,L|135:177,1,104.5
126,271,54400,5,2,0:1:0:0:
145,266,54485,1,0,0:0:0:0:
94,100,54657,1,2,0:2:0:0:
36,293,54828,5,2,0:0:0:0:
162,168,55000,1,2,0:1:0:0:
145,266,55171,1,0,0:0:0:0:
145,266,55343,2,0,L|194:253,1,36.5749988838196,2|0,0:0|0:0,0:0:0:0:
283,224,55514,53,2,0:0:0:0:
287,220,55600,1,2,0:0:0:0:
291,224,55685,1,2,0:0:0:0:
289,229,55771,1,2,0:0:0:0:
284,229,55857,1,2,0:0:0:0:
276,86,56028,2,0,P|266:116|271:157,1,52.25,2|0,0:1|0:0,0:0:0:0:
378,288,56200,6,0,P|397:241|383:180,1,104.5,6|0,1:2|0:0,0:0:0:0:
381,374,56543,1,8,2:1:0:0:
381,374,56715,1,0,2:0:0:0:
211,300,56885,2,0,P|253:327|316:323,1,104.5,2|0,2:2|0:0,0:0:0:0:
280,153,57228,6,0,B|254:189|280:226|280:226|315:204|308:159,1,156.75,8|0,0:1|0:0,0:0:0:0:
251,77,57571,70,0,P|290:111|308:159,1,104.5,2|0,0:0|0:0,0:0:0:0:
94,115,57914,1,8,0:1:0:0:
94,115,58085,1,0,0:0:0:0:
139,311,58257,6,0,P|165:251|159:184,1,104.5,0|0,2:0|2:0,2:0:0:0:
111,320,58600,54,0,P|116:288|139:314,1,78.375,8|0,0:1|0:0,0:0:0:0:
271,297,58943,6,0,P|307:331|383:337,1,94.0499971298219,2|0,1:2|0:0,0:0:0:0:
242,307,59285,70,0,P|265:329|271:297,1,78.375,8|0,0:1|0:0,0:0:0:0:
318,211,59628,22,0,P|275:198|214:215,1,83.6,2|0,0:0|0:0,0:0:0:0:
349,204,59971,54,0,P|326:180|319:212,1,78.375,8|0,0:1|0:0,0:0:0:0:
413,248,60314,6,0,P|426:214|422:177,1,73.1499977676392,2|0,0:0|0:0,0:0:0:0:
443,257,60657,70,0,P|419:279|412:247,1,78.375,8|0,0:1|0:0,0:0:0:0:
316,192,61000,6,0,P|339:177|348:203,1,62.6999980865479,2|0,0:0|0:0,0:0:0:0:
330,276,61343,70,0,P|330:236|350:201,1,78.375,8|0,0:1|0:0,0:0:0:0:
316,192,61685,21,2,2:3:0:0:
412,262,61857,1,2,2:3:0:0:
246,288,62028,1,2,2:3:0:0:
342,358,62200,1,2,2:3:0:0:
220,122,62371,69,2,2:3:0:0:
290,26,62543,1,2,2:3:0:0:
386,96,62714,1,2,2:3:0:0:
316,192,62886,1,2,2:3:0:0:
496,346,63057,5,2,1:3:0:0:
426,232,63228,1,2,1:3:0:0:
312,348,63400,1,2,1:3:0:0:
310,216,63571,1,2,1:3:0:0:
63,102,63743,69,2,1:3:0:0:
216,145,63914,1,2,1:3:0:0:
154,257,64085,1,2,1:3:0:0:
173,36,64257,1,2,1:3:0:0:
310,216,64428,37,2,0:2:0:0:
296,204,64514,1,0,0:0:0:0:
292,186,64600,1,0,0:0:0:0:
304,171,64685,1,0,0:0:0:0:
322,169,64771,1,2,0:2:0:0:
337,180,64857,1,0,0:0:0:0:
339,199,64943,1,0,0:0:0:0:
327,212,65028,1,0,0:0:0:0:
316,192,65114,37,2,1:0:0:0:
279,164,65200,1,0,1:0:0:0:
273,120,65285,1,0,1:0:0:0:
300,85,65371,5,2,1:0:0:0:
334,111,65457,1,0,1:0:0:0:
341,155,65542,1,0,1:0:0:0:
316,192,65628,53,2,1:1:0:0:
306,138,65714,1,0,1:0:0:0:
300,85,65800,54,0,L|199:98,1,78.375,8|0,0:1|0:0,0:0:0:0:
147,108,66143,2,0,L|150:136,2,26.125,2|0|8,0:0|0:0|0:1,0:0:0:0:
386,102,66485,54,0,P|388:70|377:41,1,62.6999980865479,8|0,0:3|2:0,0:0:0:0:
477,199,66657,2,0,P|494:173|504:138,1,62.6999980865479,2|0,0:2|2:0,0:0:0:0:
284,293,66828,54,0,B|285:325|285:325|300:349|300:349|301:321|301:321|285:293,1,104.5,12|0,1:2|2:0,0:0:0:0:
350,231,67000,1,2,0:2:0:0:
12,250,67171,6,0,L|80:254,1,62.6999980865479,4|0,1:0|0:0,0:0:0:0:
174,311,67343,1,0,0:0:0:0:
128,32,67514,2,0,L|124:157,1,125.399996173096,8|0,0:0|0:0,0:0:0:0:
210,208,67771,1,0,0:0:0:0:
211,191,67857,1,2,0:3:0:0:
174,311,68029,1,2,2:2:0:0:
387,271,68200,1,8,1:2:0:0:
387,271,68372,70,0,B|348:307|288:291|288:291|314:270|342:271,1,156.750005979538,0|2,0:0|1:2,0:0:0:0:
508,292,68715,21,0,0:0:0:0:
443,22,68886,2,0,P|398:56|376:142,1,125.399996173096,8|2,1:2|2:2,0:0:0:0:
420,191,69143,1,0,0:0:0:0:
429,203,69229,1,2,0:3:0:0:
433,384,69400,54,0,L|436:332,1,52.25,2|0,0:2|0:0,0:0:0:0:
356,240,69571,2,0,L|353:292,1,52.25,8|0,1:2|0:0,0:0:0:0:
283,203,69743,1,2,2:2:0:0:
285,177,69829,1,0,0:0:0:0:
287,150,69914,1,2,1:2:0:0:
130,0,70085,6,0,L|255:31,1,125.399996173096,2|8,2:1|2:2,0:0:0:0:
6,50,70428,2,0,L|95:71,1,62.6999980865479,2|0,1:2|0:0,0:0:0:0:
130,0,70600,1,2,2:1:0:0:
82,176,70771,1,0,0:0:0:0:
167,343,70943,70,0,L|160:253,1,83.6,8|0,1:2|0:0,0:0:0:0:
159,243,71200,1,0,0:0:0:0:
87,237,71286,22,0,P|78:206|81:175,1,62.6999980865479,2|0,1:2|0:0,0:0:0:0:
223,162,71457,2,0,P|231:192|228:223,1,62.6999980865479,2|0,1:2|0:0,0:0:0:0:
29,90,71628,2,0,P|89:76|146:101,2,125.399996173096,8|2|2,1:2|0:0|0:3,0:0:0:0:
235,213,72143,53,2,0:0:0:0:
231,218,72229,1,0,0:0:0:0:
227,223,72314,2,0,P|187:225|132:220,1,70.5375002690792,4|0,1:2|0:0,0:0:0:0:
39,330,72485,2,0,P|74:335|109:336,1,70.5375002690792,2|0,1:2|0:0,0:0:0:0:
283,380,72657,21,2,1:2:0:0:
356,257,72828,1,2,0:1:0:0:
299,107,73000,1,8,1:2:0:0:
327,244,73171,1,0,0:0:0:0:
508,112,73343,70,0,B|472:138|472:138|373:123,1,125.399996173096,2|0,0:1|0:0,0:0:0:0:
490,24,73686,1,8,1:2:0:0:
432,259,73857,2,0,L|447:398,1,125.399996173096,2|2,0:1|1:2,0:0:0:0:
215,307,74200,5,2,0:1:0:0:
357,327,74372,1,8,1:2:0:0:
130,369,74543,1,2,0:0:0:0:
132,361,74628,1,0,0:0:0:0:
134,353,74714,70,0,B|114:294|114:294|146:239,1,125.399996173096,2|2,0:1|0:0,0:0:0:0:
357,327,75057,1,8,1:2:0:0:
250,373,75228,2,0,L|263:249,1,125.399996173096,2|2,0:1|1:2,0:0:0:0:
352,177,75571,5,2,0:1:0:0:
235,24,75743,1,8,1:2:0:0:
263,152,75914,1,2,0:2:0:0:
422,74,76085,54,0,L|487:41,1,73.1499977676392,2|0,1:1|0:0,0:0:0:0:
357,105,76257,1,2,0:0:0:0:
295,65,76343,2,0,L|234:23,1,73.1499977676392,2|8,2:1|2:2,0:0:0:0:
487,40,76600,1,2,1:1:0:0:
352,177,76771,6,0,L|345:246,1,52.25,2|0,1:2|0:0,0:0:0:0:
288,282,76943,2,0,L|282:333,1,52.25,2|0,1:2|0:0,0:0:0:0:
47,272,77114,6,0,P|92:274|145:248,1,73.1499977676392,8|0,1:2|0:0,0:0:0:0:
87,34,77285,2,0,P|42:32|-11:58,1,73.1499977676392,2|0,1:2|0:0,0:0:0:0:
73,182,77457,54,0,B|56:153|56:153|64:124|64:124|81:150|81:150|72:177,1,104.5,2|0,0:2|0:0,0:0:0:0:
227,59,77628,1,0,0:0:0:0:
214,75,77714,1,0,1:0:0:0:
201,91,77800,2,0,L|212:174,1,83.6,12|0,1:2|0:0,0:0:0:0:
411,284,77971,2,0,L|421:367,1,83.6,8|0,1:3|0:0,0:0:0:0:
512,144,78143,6,0,P|477:194|417:201,1,125.399996173096,6|0,1:2|0:0,0:0:0:0:
405,26,78486,1,8,1:2:0:0:
405,26,78657,70,0,B|400:80|436:121|436:121|447:83|418:47,1,156.750005979538,2|0,0:0|0:0,0:0:0:0:
289,41,79000,5,2,0:0:0:0:
115,114,79172,1,8,1:2:0:0:
283,74,79343,1,2,0:0:0:0:
225,208,79515,5,2,1:2:0:0:
341,242,79686,1,0,0:0:0:0:
131,376,79857,2,0,L|114:229,1,125.399996173096,8|0,1:2|0:0,0:0:0:0:
31,188,80114,1,0,0:0:0:0:
32,175,80200,1,2,0:3:0:0:
168,165,80371,54,0,P|207:164|234:146,1,52.25,2|0,0:2|0:0,0:0:0:0:
110,31,80543,2,0,P|91:65|93:97,1,52.25,10|0,0:2|0:0,0:0:0:0:
256,48,80714,1,2,0:0:0:0:
244,24,80799,1,0,0:0:0:0:
225,7,80885,1,2,1:2:0:0:
376,49,81057,5,0,0:0:0:0:
181,82,81229,2,0,L|202:205,1,125.399996173096,8|0,1:2|0:0,0:0:0:0:
460,84,81571,2,0,L|438:207,1,125.399996173096,2|2,2:3|0:0,0:0:0:0:
278,268,81828,1,0,0:0:0:0:
278,268,81914,70,0,B|318:322|403:289|378:245|344:263,1,141.074995694733,8|0,0:0|0:0,0:0:0:0:
202,205,82257,22,0,P|179:284|214:338,1,125.399996173096,2|0,1:2|0:0,0:0:0:0:
444,322,82600,2,0,P|462:263|437:207,1,125.399996173096,8|0,1:2|0:0,0:0:0:0:
317,107,82943,1,2,0:3:0:0:
278,268,83114,53,2,0:0:0:0:
278,268,83200,1,0,0:0:0:0:
278,268,83285,2,0,P|319:272|362:267,1,73.1499977676392,4|0,1:2|0:0,0:0:0:0:
125,161,83457,2,0,P|84:157|41:162,1,73.1499977676392,2|0,1:2|0:0,0:0:0:0:
3,356,83629,5,2,1:2:0:0:
193,217,83800,2,0,L|185:352,1,125.399996173096,2|8,1:0|0:0,0:0:0:0:
203,28,84143,2,0,L|199:94,1,62.6999980865479,2|0,0:0|0:0,0:0:0:0:
186,343,84314,5,2,0:1:0:0:
91,274,84486,1,2,0:0:0:0:
290,283,84657,1,8,1:2:0:0:
399,140,84828,70,0,P|340:144|284:90,1,125.399996173096,2|2,0:1|1:2,0:0:0:0:
483,203,85171,1,2,0:1:0:0:
469,306,85342,1,8,1:2:0:0:
505,37,85514,2,0,L|496:99,1,62.6999980865479,2|0,0:0|0:0,0:0:0:0:
469,306,85685,5,2,0:1:0:0:
395,243,85857,1,2,0:0:0:0:
340,379,86028,1,8,1:2:0:0:
386,114,86200,70,0,B|346:136|277:121|304:104|245:89|192:113,1,188.099994259644,2|0,1:1|0:2,0:2:0:0:
81,121,86543,2,0,P|83:152|102:183,1,70.5375002690792,2|0,1:1|0:2,0:2:0:0:
101,361,86714,2,0,P|129:339|144:306,1,70.5375002690792,8|0,1:2|0:2,0:2:0:0:
295,222,86885,2,0,P|263:207|227:210,1,70.5375002690792,2|0,1:1|0:2,0:2:0:0:
20,354,87057,6,0,P|94:365|143:308,1,156.750005979538,2|0,1:1|0:2,0:2:0:0:
173,164,87314,53,2,2:1:0:0:
159,236,87400,1,8,1:2:0:0:
341,52,87571,6,0,B|265:34|265:34|217:98,1,156.750005979538,10|2,1:1|1:2,0:0:0:0:
481,48,87914,70,0,L|461:130,1,83.6,2|0,1:2|0:0,0:0:0:0:
338,227,88085,2,0,L|309:149,1,83.6,2|0,1:0|0:0,0:0:0:0:
512,246,88257,2,0,L|492:328,1,83.6,2|0,1:2|0:0,0:0:0:0:
274,327,88428,5,2,1:2:0:0:
278,342,88513,1,2,0:0:0:0:
348,337,88600,1,2,1:2:0:0:
350,352,88685,1,2,0:0:0:0:
422,361,88771,69,8,1:2:0:0:
426,236,88943,1,8,0:3:0:0:
309,66,89114,22,0,B|280:21|337:-10|396:77|316:165,1,188.099994259644,6|0,1:2|0:3,0:3:0:0:
257,177,89457,1,8,1:2:0:0:
59,121,89629,1,0,0:0:0:0:
58,127,89715,1,0,0:0:0:0:
58,133,89800,2,0,P|64:163|79:190,1,62.6999980865479,2|0,0:0|0:0,0:0:0:0:
188,225,89972,1,2,0:0:0:0:
226,372,90143,54,0,P|230:346|242:323,1,52.25,8|0,1:2|0:2,0:2:0:0:
144,350,90314,2,0,P|136:324|137:298,1,52.25,2|0,2:2|0:2,0:2:0:0:
188,225,90485,5,2,1:2:0:0:
60,364,90657,2,0,P|42:344|40:241,1,104.5,2|8,2:2|1:2,0:2:0:0:
8,12,91000,1,2,0:0:0:0:
9,27,91085,1,2,0:0:0:0:
10,39,91171,1,0,0:0:0:0:
105,79,91343,1,2,0:0:0:0:
249,12,91514,2,0,L|373:26,1,125.399996173096,8|0,1:2|0:0,0:0:0:0:
451,206,91857,5,2,1:2:0:0:
477,78,92028,2,0,P|439:124|462:225,1,125.399996173096,2|8,2:2|1:2,0:0:0:0:
451,206,92285,1,0,0:0:0:0:
459,234,92372,1,0,0:0:0:0:
451,272,92457,1,0,0:0:0:0:
417,300,92543,1,2,0:2:0:0:
293,237,92715,1,0,0:0:0:0:
115,354,92886,54,0,L|198:362,1,62.6999980865479,8|0,1:2|0:0,0:0:0:0:
274,328,93057,1,0,0:0:0:0:
154,128,93229,6,0,L|161:276,1,125.399996173096,2|0,1:2|0:0,0:0:0:0:
44,47,93572,1,8,1:2:0:0:
70,170,93743,1,0,0:0:0:0:
256,192,93915,1,2,0:2:0:0:
99,101,94085,69,2,0:0:0:0:
106,102,94171,1,0,0:0:0:0:
113,104,94257,2,0,B|143:101|143:101|152:107|152:107|181:104,1,70.5375002690792,4|0,1:2|0:0,0:0:0:0:
401,88,94428,2,0,B|371:91|371:91|362:85|362:85|332:87,1,70.5375002690792,0|0,1:2|0:0,0:0:0:0:
256,100,94600,53,2,1:2:0:0:
174,345,94772,54,0,B|104:365|54:357|54:357|87:332|121:336,1,188.099994259644,2|8,0:1|1:2,0:0:0:0:
126,192,95115,1,0,0:0:0:0:
256,100,95286,21,2,0:2:0:0:
338,345,95457,38,0,B|397:359|397:359|459:356|459:356|424:337|424:337|379:333,1,188.099994259644,2|8,0:1|1:2,0:0:0:0:
386,192,95800,1,0,0:0:0:0:
256,284,95972,37,2,1:2:0:0:
174,39,96143,54,0,B|104:19|54:27|54:27|87:30|116:47,1,188.099994259644,2|8,0:1|1:2,0:0:0:0:
126,192,96486,1,0,0:0:0:0:
256,284,96657,21,2,1:2:0:0:
338,39,96829,38,0,B|401:24|401:24|458:27|458:27|421:35|421:35|390:49,1,188.099994259644,2|8,0:1|1:2,0:0:0:0:
386,192,97172,1,0,0:0:0:0:
227,153,97343,37,2,1:2:0:0:
27,362,97514,38,0,L|45:236,1,73.1499977676392,2|0,1:1|0:0,0:0:0:0:
246,256,97685,2,0,L|148:248,1,73.1499977676392,8|0,1:2|0:0,0:0:0:0:
21,177,97857,2,0,L|119:169,1,73.1499977676392,2|0,1:1|0:0,0:0:0:0:
243,21,98029,70,0,B|204:83|204:83|226:152,1,146.299995535278,2|0,1:1|0:0,0:0:0:0:
401,66,98285,1,2,0:1:0:0:
383,90,98371,2,0,B|347:82|347:82|312:91,1,73.1499977676392,8|0,1:2|0:0,0:0:0:0:
390,284,98543,2,0,B|354:293|354:293|319:285,1,73.1499977676392,2|0,1:0|0:0,0:0:0:0:
350,181,98714,5,0,1:2:0:0:
352,191,98885,1,2,1:1:0:0:
438,154,99057,6,0,P|445:192|424:247,1,67.9249968906404,8|0,1:2|0:3,0:0:0:0:
263,226,99228,2,0,P|255:187|276:132,1,67.9249968906404,2|0,1:2|0:3,0:0:0:0:
453,330,99400,69,2,1:2:0:0:
403,331,99485,1,0,0:0:0:0:
354,332,99571,1,2,1:2:0:0:
304,333,99657,1,2,1:2:0:0:
254,334,99743,2,0,L|141:338,1,78.3750029897691,4|0,1:2|0:0,0:0:0:0:
3,258,99914,70,0,B|48:272|48:272|90:255,1,88.8250016942025,2|0,1:1|0:0,0:0:0:0:
190,118,100085,5,6,1:2:0:0:
171,256,100257,1,4,0:3:0:0:
33,92,100428,1,0,0:0:0:0:
52,102,100514,2,0,L|46:171,1,62.6999980865479,4|0,0:3|0:0,0:0:0:0:
203,45,100685,1,0,0:0:0:0:
184,55,100771,2,0,L|190:124,1,62.6999980865479,4|0,0:3|0:0,0:0:0:0:
86,26,100943,1,2,0:0:0:0:
318,74,101115,1,8,1:2:0:0:
265,260,101285,6,0,L|280:392,1,125.399996173096,2|2,2:0|1:2,2:0:0:0:
131,350,101628,1,2,0:0:0:0:
140,351,101714,1,4,0:3:0:0:
149,352,101800,1,8,1:2:0:0:
331,254,101971,1,4,0:3:0:0:
298,258,102057,1,2,0:2:0:0:
265,260,102142,1,2,0:0:0:0:
223,144,102315,54,0,L|226:88,1,52.25,2|0,1:2|0:0,0:0:0:0:
150,182,102485,2,0,L|153:238,1,52.25,8|0,1:2|0:0,0:0:0:0:
296,106,102657,1,2,0:0:0:0:
297,79,102742,1,0,0:0:0:0:
298,53,102828,1,2,1:2:0:0:
77,220,103000,6,0,L|83:346,1,125.399996173096,4|8,0:3|1:2,0:0:0:0:
0,365,103257,1,4,0:3:0:0:
13,371,103343,1,2,0:0:0:0:
178,384,103514,2,0,L|176:314,1,62.6999980865479
172,233,103685,1,2,0:0:0:0:
0,169,103857,1,8,1:2:0:0:
142,34,104028,6,0,P|92:68|19:49,1,125.399996173096,2|2,2:2|1:2,0:0:0:0:
252,3,104371,1,2,0:0:0:0:
252,12,104457,1,0,0:0:0:0:
253,21,104543,1,8,1:2:0:0:
159,202,104714,70,0,L|148:110,1,62.6999980865479,4|0,0:3|0:0,0:0:0:0:
344,42,104885,1,2,0:0:0:0:
349,70,104971,2,0,L|338:162,1,62.6999980865479,4|0,0:3|0:0,0:0:0:0:
247,301,105228,70,0,P|285:285|327:285,1,83.6,4|0,1:2|0:0,0:0:0:0:
185,368,105400,1,8,1:3:0:0:
432,329,105571,21,4,1:2:0:0:
432,329,105743,2,0,P|424:304|426:279,1,52.25,2|0,1:2|0:0,0:0:0:0:
326,284,105914,2,0,P|329:251|345:221,1,67.9249968906404,8|0,1:1|0:0,0:0:0:0:
254,177,106085,2,0,P|279:144|316:126,1,83.6,2|0,1:2|0:0,0:0:0:0:
390,46,106257,54,0,B|439:95|439:95|421:178,1,135.849993781281,2|0,0:1|0:0,0:0:0:0:
512,8,106600,1,8,1:1:0:0:
290,29,106771,5,2,2:2:0:0:
291,18,106857,1,0,0:0:0:0:
292,7,106943,1,2,1:2:0:0:
197,19,107114,2,0,L|194:90,1,67.9249968906404,2|0,1:2|0:0,0:0:0:0:
100,34,107285,2,0,L|97:101,1,67.9249968906404,8|0,1:1|0:0,0:0:0:0:
20,267,107457,69,2,1:2:0:0:
22,253,107543,1,0,0:0:0:0:
23,238,107628,2,0,P|77:199|182:210,1,135.849993781281,2|2,2:1|0:0,0:0:0:0:
272,249,107885,1,0,0:0:0:0:
246,219,107971,2,0,L|242:157,5,45.2833312604269,8|0|0|0|0|0,1:0|2:0|2:0|2:2|0:0|0:0,0:0:0:0:
330,174,108314,53,2,1:2:0:0:
340,141,108400,1,0,0:0:0:0:
365,116,108485,1,0,0:0:0:0:
397,104,108571,1,0,0:0:0:0:
433,109,108657,1,8,1:0:0:0:
466,101,108743,1,0,0:0:0:0:
493,81,108828,1,0,0:0:0:0:
511,53,108914,1,0,0:0:0:0:
512,18,109000,37,2,0:1:0:0:
470,32,109086,1,0,0:0:0:0:
443,66,109171,1,0,0:0:0:0:
433,109,109257,5,2,0:0:0:0:
399,80,109343,1,8,1:1:0:0:
356,72,109428,1,0,0:3:0:0:
314,85,109514,53,2,0:1:0:0:
348,113,109600,1,0,0:0:0:0:
391,121,109685,5,2,1:2:0:0:
355,161,109771,1,0,0:0:0:0:
306,180,109857,1,2,1:2:0:0:
254,173,109943,1,0,0:0:0:0:
203,190,110028,1,8,1:1:0:0:
171,232,110114,1,0,0:0:0:0:
160,283,110200,1,2,1:2:0:0:
182,330,110285,1,0,0:0:0:0:
226,359,110371,5,2,1:2:0:0:
221,285,110457,1,0,0:0:0:0:
171,232,110543,1,2,1:2:0:0:
100,212,110629,1,0,0:0:0:0:
26,232,110714,54,0,L|13:343,1,70.5375002690792,12|0,1:2|0:0,0:0:0:0:
137,70,110885,2,0,L|128:0,1,70.5375002690792,8|0,1:2|0:0,0:0:0:0:
243,213,111057,6,0,P|324:200|366:149,1,125.399996173096,6|2,1:2|0:0,0:0:0:0:
126,384,111400,2,0,B|155:351|155:351|141:261,2,125.399996173096,8|0|0,1:2|0:0|0:0,0:0:0:0:
71,321,111914,1,2,0:0:0:0:
230,298,112086,1,8,1:2:0:0:
52,345,112257,1,8,0:3:0:0:
55,129,112429,6,0,P|33:186|56:243,1,125.399996173096,2|0,1:2|0:0,0:0:0:0:
11,12,112772,1,8,1:2:0:0:
14,27,112943,1,2,0:0:0:0:
165,36,113115,54,0,L|209:40,1,31.349999043274,2|2,0:0|0:2,0:0:0:0:
153,48,113286,2,0,L|199:55,1,31.349999043274,2|0,0:0|0:0,0:0:0:0:
270,151,113457,2,0,L|128:183,1,125.399996173096,8|0,1:2|0:0,0:0:0:0:
390,284,113800,5,2,1:2:0:0:
432,71,113971,2,0,L|455:226,1,125.399996173096,2|8,0:0|1:2,0:0:0:0:
325,24,114314,1,2,0:0:0:0:
345,197,114485,2,2,L|368:352,1,125.399996173096,2|2,0:3|2:2,0:0:0:0:
103,101,114829,2,0,B|152:79|152:79|246:104,1,125.399996173096,8|0,1:2|0:2,0:2:0:0:
245,106,115086,1,0,0:0:0:0:
268,174,115171,6,0,P|264:205|240:243,1,62.6999980865479,2|0,1:2|0:0,0:0:0:0:
145,267,115343,2,0,P|140:235|147:205,1,62.6999980865479,2|0,1:2|0:0,0:0:0:0:
342,286,115514,2,0,P|296:327|235:334,2,125.399996173096,8|2|0,1:2|0:0|0:3,0:0:0:0:
421,51,116028,53,2,0:0:0:0:
420,57,116114,1,0,0:0:0:0:
420,63,116200,2,0,P|419:107|425:155,1,70.5375002690792,8|0,1:2|0:0,0:0:0:0:
510,163,116371,2,0,P|511:207|505:255,1,70.5375002690792,2|0,1:2|0:0,0:0:0:0:
444,300,116543,5,2,1:2:0:0:
235,334,116714,2,0,B|275:278|275:278|343:285,2,135.849993781281,2|8|0,0:0|1:2|0:0,0:0:0:0:
203,110,117228,1,0,0:0:0:0:
238,200,117400,1,2,0:0:0:0:
89,351,117572,2,0,P|54:299|73:226,1,125.399996173096,8|0,1:2|0:0,0:0:0:0:
132,44,117915,6,0,L|-5:69,1,125.399996173096,2|0,1:2|0:0,0:0:0:0:
160,276,118257,2,0,B|189:249|189:249|273:234,1,125.399996173096,8|0,1:2|0:0,0:0:0:0:
398,134,118600,70,0,L|390:164,1,31.349999043274,2|0,0:0|0:0,0:0:0:0:
388,117,118772,2,0,L|380:147,1,31.349999043274,2|0,0:0|0:0,0:0:0:0:
125,180,118943,2,0,B|154:153|154:153|238:138,1,125.399996173096,8|8,1:2|1:3,0:0:0:0:
409,305,119285,5,2,1:2:0:0:
478,37,119457,2,0,P|510:90|488:184,1,125.399996173096,2|8,0:0|1:2,0:0:0:0:
396,200,119800,1,2,0:0:0:0:
453,371,119971,2,0,P|450:309|483:256,1,125.399996173096,2|0,1:2|2:2,0:0:0:0:
402,179,120228,53,2,2:1:0:0:
396,200,120314,2,0,L|315:185,1,62.6999980865479,8|0,1:2|0:0,0:0:0:0:
269,335,120485,2,0,L|353:318,1,70.5375002690792,2|0,1:2|0:0,0:0:0:0:
153,220,120657,21,2,1:2:0:0:
153,220,120828,2,0,L|152:259,1,31.349999043274,2|0,0:1|0:0,0:0:0:0:
118,138,121000,2,0,L|84:117,1,31.349999043274,8|0,1:2|0:0,0:0:0:0:
206,148,121171,2,0,L|240:129,1,31.349999043274,2|0,1:2|0:0,0:0:0:0:
61,301,121343,69,2,1:2:0:0:
101,323,121428,1,2,0:0:0:0:
141,345,121514,1,0,1:0:0:0:
185,329,121600,1,0,1:0:0:0:
228,312,121685,2,0,L|232:233,1,62.6999980865479,4|0,1:2|0:0,0:0:0:0:
125,42,121857,6,0,B|118:85|162:119|162:119|216:89|215:41|215:41|216:54|224:58|231:54|233:39|231:54|239:54|243:51|245:37|243:51|244:45|250:43|257:44,1,177.650003388405,2|4,0:1|1:2,0:0:0:0:
25,93,122200,1,0,0:0:0:0:
301,111,122372,1,8,1:2:0:0:
202,224,122543,70,0,B|191:225|167:203|167:203|211:192|251:215|251:215|254:202|264:202|269:209|265:217|269:209|276:208|282:213|280:220|288:213|296:218|291:225|284:227|280:220|288:213|301:221|297:231|301:221|307:224|303:233|307:224|315:227|308:237,1,125.399996173096,2|2,0:0|0:3,0:0:0:0:
451,194,122885,70,0,B|490:196|502:234|502:234|451:260|400:228|381:186|381:186|390:170|380:140|363:132|351:148|366:163|393:140|407:141|393:140|389:145|395:155|404:150|407:141|412:154|419:139|423:152|433:153|429:167|417:171|429:167|437:140,1,209,2|8,0:0|1:2,0:0:0:0:
393,47,123229,1,0,0:0:0:0:
359,303,123400,21,2,1:2:0:0:
345,296,123572,1,0,0:0:0:0:
126,367,123743,1,8,1:2:0:0:
207,213,123914,1,2,0:0:0:0:
207,223,124000,1,2,0:0:0:0:
208,232,124085,54,0,L|153:221,1,31.349999043274,2|0,0:3|0:0,0:0:0:0:
266,275,124257,2,0,L|211:264,1,31.349999043274,2|0,0:0|0:0,0:0:0:0:
168,76,124429,1,8,1:2:0:0:
292,44,124600,1,8,1:3:0:0:
56,0,124771,5,2,1:2:0:0:
107,175,124943,2,0,P|156:132|167:72,1,125.399996173096,2|8,2:2|1:2,0:0:0:0:
6,149,125285,1,2,0:0:0:0:
0,173,125372,1,0,0:0:0:0:
0,198,125457,2,0,P|13:236|39:262,1,62.6999980865479,2|0,0:3|0:0,0:0:0:0:
157,238,125629,1,2,0:0:0:0:
257,371,125800,2,0,L|431:344,1,125.399996173096,8|0,1:2|0:0,0:0:0:0:
468,269,126057,1,0,0:0:0:0:
468,269,126143,6,0,P|467:327|506:383,1,125.399996173096,2|0,1:2|0:0,0:0:0:0:
379,157,126485,2,0,P|341:201|335:269,1,125.399996173096,8|0,1:2|0:0,0:0:0:0:
382,13,126828,1,0,0:0:0:0:
462,249,127000,53,0,0:0:0:0:
465,259,127086,1,0,0:0:0:0:
468,269,127171,2,0,P|465:312|483:358,1,70.5375002690792,4|0,1:2|0:0,0:0:0:0:
379,157,127343,2,0,P|347:190|331:233,1,70.5375002690792,8|0,1:3|0:0,0:0:0:0:
382,13,127515,1,2,1:2:0:0:
187,58,127686,6,0,B|303:79|303:79|262:44,1,156.750005979538,2|8,0:1|2:2,0:0:0:0:
72,29,128029,1,2,0:0:0:0:
72,29,128115,1,0,0:0:0:0:
72,29,128200,1,0,0:0:0:0:
138,132,128372,1,2,0:0:0:0:
58,298,128543,1,8,1:2:0:0:
169,240,128715,6,0,L|202:360,1,125.399996173096,2|2,0:0|1:2,0:0:0:0:
286,236,129057,1,2,0:0:0:0:
497,179,129228,2,0,B|447:167|447:167|376:193,1,125.399996173096,8|0,1:2|0:0,0:0:0:0:
466,254,129572,54,0,L|473:284,1,31.349999043274,2|0,0:0|0:0,0:0:0:0:
451,250,129743,2,0,L|458:280,1,31.349999043274,2|0,0:0|0:0,0:0:0:0:
246,149,129914,2,0,B|275:109|275:109|346:82,1,125.399996173096,8|0,1:2|0:0,0:0:0:0:
452,45,130257,1,2,1:2:0:0:
234,228,130428,5,2,0:1:0:0:
81,202,130600,1,8,1:2:0:0:
106,45,130772,1,0,0:0:0:0:
157,214,130943,70,0,L|239:229,1,78.3750029897691,2|0,0:1|0:0,0:0:0:0:
170,136,131114,1,0,0:0:0:0:
246,149,131200,2,0,L|342:164,1,78.3750029897691,2|8,0:1|0:0,0:0:0:0:
93,123,131457,1,2,0:1:0:0:
92,316,131629,5,2,1:2:0:0:
90,331,131800,1,2,0:1:0:0:
0,316,131972,70,0,P|14:346|13:379,1,67.9249968906404,10|0,1:2|0:0,0:0:0:0:
186,348,132143,2,0,P|170:315|172:280,1,67.9249968906404,2|0,2:2|0:0,0:0:0:0:
339,134,132315,21,2,1:2:0:0:
304,171,132400,1,0,1:0:0:0:
258,193,132486,1,2,1:2:0:0:
208,198,132572,1,0,1:0:0:0:
159,186,132657,54,0,B|216:156|216:100|216:100|182:118|172:154,1,177.650003388405,2|8,0:1|0:3,0:0:0:0:
388,362,133000,6,0,P|449:354|491:309,1,125.399996173096,6|0,1:2|0:0,0:0:0:0:
294,256,133343,1,8,1:2:0:0:
383,123,133515,1,0,0:0:0:0:
378,129,133600,1,0,0:0:0:0:
374,136,133686,2,0,P|361:164|360:195,1,62.6999980865479,2|0,0:0|0:0,0:0:0:0:
408,274,133857,1,0,0:0:0:0:
206,163,134028,70,0,P|228:178|248:205,1,52.25,8|0,1:2|0:1,0:1:0:0:
127,157,134200,2,0,P|102:166|69:173,1,52.25,2|0,1:2|0:1,0:1:0:0:
150,302,134372,21,2,1:2:0:0:
173,93,134543,2,0,P|176:67|239:10,1,104.5,2|8,2:2|1:2,0:1:0:0:
11,249,134885,53,0,0:0:0:0:
33,242,134971,2,0,L|20:319,1,62.6999980865479,2|0,0:1|0:0,0:0:0:0:
3,99,135228,1,0,0:0:0:0:
162,229,135400,1,8,1:2:0:0:
46,163,135572,1,0,0:0:0:0:
228,12,135743,5,0,1:2:0:0:
141,124,135914,2,0,L|125:-35,1,125.399996173096,2|8,0:0|1:2,0:0:0:0:
318,41,136257,1,0,0:0:0:0:
334,46,136343,1,0,0:0:0:0:
348,51,136429,6,0,L|417:56,1,52.25,2|0,0:2|0:0,0:0:0:0:
492,102,136600,1,0,0:0:0:0:
441,287,136772,70,0,L|428:191,1,52.25,8|0,1:2|0:0,0:0:0:0:
391,147,136943,1,0,0:0:0:0:
261,223,137115,6,0,L|312:233,1,52.25,2|0,1:2|0:0,0:0:0:0:
247,321,137286,1,0,0:0:0:0:
41,332,137457,70,0,L|19:282,1,52.25,8|0,1:2|0:0,0:0:0:0:
138,309,137629,1,0,0:0:0:0:
167,187,137800,6,0,L|161:217,1,31.349999043274
179,203,137972,2,0,L|173:233,1,31.349999043274
19,104,138143,53,4,1:2:0:0:
19,104,138314,2,0,B|62:105|62:105|67:109|67:109|106:110,1,88.8250016942025,2|0,1:1|0:0,0:0:0:0:
73,262,138485,53,2,1:2:0:0:
319,220,138657,54,0,B|397:200|443:230|443:230|402:240|363:230,1,188.099994259644,2|8,0:1|1:2,0:0:0:0:
196,241,139000,1,2,0:3:0:0:
217,364,139172,21,0,1:0:0:0:
175,118,139343,38,0,B|159:45|159:45|119:5|119:5|126:37|126:37|147:58,1,188.099994259644,2|8,0:1|1:2,0:0:0:0:
196,241,139685,1,2,0:3:0:0:
439,262,139857,37,2,1:2:0:0:
193,220,140029,54,0,B|113:200|69:230|69:230|105:226|149:239,1,188.099994259644,2|8,0:1|1:2,0:3:0:0:
316,241,140372,1,2,0:3:0:0:
296,364,140543,21,0,1:2:0:0:
337,118,140715,38,0,B|351:49|351:49|387:4|387:4|374:37|374:37|370:79,1,188.099994259644,2|8,0:1|1:2,0:3:0:0:
316,241,141057,1,2,0:3:0:0:
186,52,141229,37,0,1:2:0:0:
5,90,141400,54,0,L|77:119,1,78.3750029897691,2|0,1:1|0:2,0:2:0:0:
212,177,141572,2,0,L|98:185,1,78.3750029897691,10|0,1:2|0:2,0:2:0:0:
14,249,141743,2,0,L|86:282,1,78.3750029897691,2|0,1:1|0:2,0:2:0:0:
237,308,141914,54,0,B|159:314|159:314|76:278,1,156.750005979538,2|0,1:1|0:1,0:1:0:0:
316,241,142171,1,2,0:1:0:0:
324,265,142257,2,0,B|340:305|340:305|328:352,1,78.3750029897691,8|0,1:2|0:1,0:1:0:0:
452,333,142428,2,0,B|436:293|436:293|448:246,1,78.3750029897691,2|0,1:1|0:1,0:1:0:0:
167,38,142600,22,0,P|126:55|96:91,1,78.3750029897691,2|0,1:2|0:0,1:0:0:0:
39,270,142772,2,0,P|33:225|49:182,1,78.3750029897691,2|0,1:2|0:0,1:0:0:0:
275,117,142943,70,0,P|233:116|193:131,1,83.6,8|0,1:2|0:0,1:0:0:0:
162,320,143115,2,0,P|141:284|133:241,1,83.6,0|0,1:2|0:0,1:0:0:0:
317,242,143286,70,0,B|319:275|288:293|288:293|290:257|319:239,1,114.950003507996,0|0,1:2|2:2,3:2:0:0:
446,355,143457,1,0,1:0:0:0:
467,367,143543,1,0,1:0:0:0:
486,379,143628,2,0,L|498:249,1,88.8250016942025,8|0,1:2|0:0,0:0:0:0:
395,126,143800,2,0,L|386:1,1,88.8250016942025,8|0,1:2|0:0,0:0:0:0:
253,195,143971,54,0,B|206:161|144:177|160:211|96:229|37:193,1,219.449993302918,2|2,0:0|0:0,0:0:0:0:
201,267,144657,2,0,L|198:358,1,73.1499977676392,2|2,0:0|0:0,0:0:0:0:
207,89,145000,22,0,L|199:339,1,250.8,12|0,1:2|0:0,0:0:0:0:
301,286,145343,22,0,P|373:278|436:329,1,135.849993781281,6|0,1:2|1:0,0:0:0:0:
501,384,145600,1,0,2:2:0:0:
506,350,145686,1,8,1:0:0:0:
465,148,145857,1,0,0:0:0:0:
428,177,145942,1,0,0:0:0:0:
407,219,146028,1,0,0:0:0:0:
406,266,146114,1,0,0:0:0:0:
424,310,146199,1,0,0:0:0:0:
216,375,146371,1,8,0:0:0:0:
326,384,146543,1,0,0:0:0:0:
168,211,146714,69,2,1:2:0:0:
36,372,146885,2,0,B|20:303|20:303|77:231,1,135.849993781281,2|8,1:2|1:0,0:0:0:0:
60,88,147228,1,0,0:0:0:0:
102,105,147314,1,0,0:0:0:0:
145,122,147400,1,0,0:0:0:0:
177,90,147485,1,0,0:0:0:0:
212,58,147571,1,0,0:0:0:0:
147,306,147743,1,8,1:0:0:0:
240,207,147914,1,0,0:0:0:0:
96,192,148086,6,0,P|143:241|147:308,1,135.849993781281,2|0,0:2|0:0,0:0:0:0:
105,58,148429,1,8,1:0:0:0:
20,284,148600,70,0,L|54:280,1,33.9624984453202,0|0,0:0|2:0,0:0:0:0:
129,187,148771,2,0,L|95:191,1,33.9624984453202,0|0,1:0|2:0,0:0:0:0:
159,376,148943,69,0,0:0:0:0:
159,376,149028,1,0,0:0:0:0:
159,376,149114,2,0,B|144:332|144:332|162:273,1,83.6,4|0,0:2|0:0,0:0:0:0:
298,136,149285,2,0,B|313:179|313:179|295:239,1,83.6,2|0,0:1|0:0,0:0:0:0:
229,254,149457,5,0,0:0:0:0:
147,151,149629,2,0,P|142:184|152:217,1,67.9249968906404,2|0,0:1|2:2,0:0:0:0:
371,253,149800,5,8,0:1:0:0:
419,244,149885,1,0,0:0:0:0:
453,212,149971,1,2,1:1:0:0:
469,168,150057,1,0,0:0:0:0:
461,123,150143,2,0,P|424:121|392:134,1,67.9249968906404,2|0,0:1|2:0,0:0:0:0:
224,179,150314,53,2,1:2:0:0:
223,146,150400,1,0,0:0:0:0:
222,113,150486,1,8,0:0:0:0:
72,324,150657,2,0,L|147:335,1,67.9249968906404,2|0,1:0|2:0,0:0:0:0:
221,372,150828,21,2,1:2:0:0:
42,232,151000,2,0,L|121:244,1,67.9249968906404,2|0,1:0|2:0,0:0:0:0:
259,100,151171,69,8,1:1:0:0:
222,68,151257,1,0,0:0:0:0:
186,37,151343,1,2,0:1:0:0:
141,53,151428,1,0,0:0:0:0:
95,69,151514,2,0,L|84:165,1,67.9249968906404,2|0,0:1|2:0,0:0:0:0:
162,225,151685,69,0,0:0:0:0:
167,185,151771,1,0,0:0:0:0:
172,146,151857,1,8,1:1:0:0:
352,325,152028,2,0,B|365:290|365:290|359:259,1,67.9249968906404,2|0,1:1|2:0,0:0:0:0:
55,334,152200,53,2,0:2:0:0:
100,313,152286,1,0,0:0:0:0:
150,307,152372,1,2,1:1:0:0:
200,316,152457,1,0,0:0:0:0:
247,300,152543,1,8,0:0:0:0:
276,259,152628,1,0,0:0:0:0:
277,209,152714,1,2,1:1:0:0:
252,164,152800,1,0,0:0:0:0:
207,137,152886,37,2,0:1:0:0:
206,189,152972,1,0,0:0:0:0:
231,234,153057,1,0,0:0:0:0:
276,259,153143,5,2,0:1:0:0:
319,233,153229,1,8,0:0:0:0:
371,232,153315,1,0,0:0:0:0:
417,258,153401,53,2,0:1:0:0:
372,285,153485,1,0,0:0:0:0:
321,286,153572,5,2,0:2:0:0:
300,343,153657,1,0,0:0:0:0:
248,377,153743,1,4,0:3:0:0:
187,373,153829,1,0,0:0:0:0:
140,333,153914,1,2,0:2:0:0:
127,273,154000,1,0,0:0:0:0:
152,217,154086,1,2,0:2:0:0:
206,188,154172,1,0,0:0:0:0:
272,190,154257,5,2,0:2:0:0:
336,161,154342,1,0,0:0:0:0:
366,99,154428,1,2,0:2:0:0:
344,33,154514,1,0,0:0:0:0:
281,0,154599,1,2,0:2:0:0:
212,10,154685,1,0,0:0:0:0:
151,47,154771,1,2,0:2:0:0:
79,46,154857,1,0,0:0:0:0:
12,19,154943,22,0,B|56:79|17:141|17:141|99:140|125:191|125:191|155:233|134:295|79:297|41:274|34:223|52:187|88:174|125:191|163:192|183:227|183:227|164:269|169:320|186:356|186:356|139:350|134:297,1,783.75,6|0,0:0|0:0,0:0:0:0:
325,194,157686,70,0,B|255:234|263:308|263:308|281:258|349:211|423:227|423:227|380:215|347:191|339:127|353:78|416:42|479:62|515:86|516:147|494:196|494:196|475:164|438:154,1,783.75,2|0,0:0|0:0,0:0:0:0:
495,384,160429,6,0,B|423:387|388:345|388:345|412:342|425:353,1,156.75,2|0,0:0|0:0,0:0:0:0:
52,195,161457,70,0,B|62:227|38:258|38:258|84:235|99:188|88:137|61:110|61:110|117:135|117:135|116:181|144:227|196:251|248:237,1,470.25,2|0,0:0|0:0,0:0:0:0:
288,27,163172,6,0,B|232:66|231:120|231:120|255:106|260:79,1,156.75,2|0,0:0|0:0,0:0:0:0:
362,296,164200,70,0,P|354:258|333:225,1,78.375,2|0,0:0|0:0,0:0:0:0:
265,192,164543,53,2,0:1:0:0:
201,236,164715,1,0,0:0:0:0:
125,226,164886,1,0,0:0:0:0:
13,135,165057,5,0,0:0:0:0:
95,148,165228,1,0,0:0:0:0:
148,84,165400,1,0,0:0:0:0:
291,96,165572,53,0,0:0:0:0:
261,0,165743,1,0,0:0:0:0:
438,79,165914,22,0,L|429:140,2,52.25,6|0|0,0:0|0:0|0:0,0:0:0:0:
364,204,166429,2,0,B|420:244|474:219|474:219|437:265|394:248,1,209,2|0,0:0|0:0,0:0:0:0:
243,365,167286,70,0,P|240:313|266:268,1,104.5,2|0,0:0|0:0,0:0:0:0:
477,340,167800,2,0,B|415:314|356:341|356:341|386:376|435:369,1,209,2|0,0:0|0:0,0:0:0:0:
224,134,168657,22,0,B|263:192|236:266|211:230|188:316|244:373|244:373|229:313|270:264,1,365.75,2|0,0:0|0:0,0:0:0:0:
127,192,170028,70,0,P|73:197|32:237,1,104.5,2|0,0:0|0:0,0:0:0:0:
224,134,170543,2,0,B|265:67|214:5|214:5|221:43|200:77,1,209,2|0,0:0|0:0,0:0:0:0:
365,73,171400,6,0,B|432:55|473:88|473:88|443:93|422:86,1,156.75,2|0,0:0|0:0,0:0:0:0:
352,162,172428,5,2,0:0:0:0:
503,259,172771,38,0,L|479:140,1,104.5,2|0,0:0|0:0,0:0:0:0:
378,65,173286,2,0,B|407:203|407:203|343:156,1,209,2|0,0:0|0:0,0:0:0:0:
64,93,174143,54,0,B|110:144|110:144|109:179|109:179|126:208|126:208|125:233|125:233|155:250|172:283|165:326|129:353|76:344|46:313|46:258|72:224|125:233|174:232|174:232|197:257|197:257|231:264,1,548.624983257294,2|0,0:0|0:0,0:0:0:0:
313,275,175515,21,2,0:1:0:0:
213,369,175686,1,0,0:0:0:0:
237,287,175857,1,0,0:0:0:0:
387,217,176029,5,0,0:0:0:0:
307,132,176200,1,0,0:0:0:0:
187,156,176372,1,0,0:0:0:0:
99,5,176543,53,0,0:0:0:0:
235,47,176715,1,0,0:0:0:0:
14,241,176886,5,6,0:0:0:0:
235,47,177229,6,0,P|279:31|315:32,1,73.1499977676392
153,99,177572,2,0,P|137:49|152:0,1,104.5
180,189,177915,54,0,P|122:190|69:148,1,109.724996651459
61,127,178257,5,0,0:0:0:0:
61,127,178429,1,0,0:0:0:0:
104,348,178600,6,0,P|135:330|170:322,1,73.1499977676392
180,189,178943,2,0,P|234:204|272:238,1,104.5
408,202,179286,54,0,P|412:261|377:331,1,109.724996651459
329,342,179629,5,6,0:0:0:0:
69,91,179972,6,0,P|61:55|63:18,1,73.1499977676392
98,189,180315,2,0,P|47:191|1:166,1,104.5
199,207,180657,54,0,P|168:267|106:293,1,109.724996651459
96,297,181000,5,2,0:0:0:0:
96,297,181172,1,0,0:0:0:0:
125,122,181343,6,0,P|102:164|99:211,1,73.1499977676392
294,130,181686,2,0,P|246:151|212:189,1,104.5
436,247,182029,54,0,P|382:236|329:249,1,109.724996651459
269,296,182371,5,6,0:2:0:0:
166,278,182543,1,0,0:2:0:0:
18,334,182715,1,0,0:2:0:0:
121,351,182886,1,0,0:2:0:0:
150,167,183057,5,0,0:0:0:0:
93,261,183229,1,0,0:0:0:0:
127,278,183400,1,0,0:0:0:0:
166,278,183572,1,0,0:0:0:0:
186,34,183743,70,0,L|180:17,1,18.2874994419098,2|0,0:0|0:0,0:0:0:0:
71,74,183915,2,0,L|55:64,1,18.2874994419098,2|0,0:0|0:0,0:0:0:0:
31,176,184086,2,0,L|14:182,1,18.2874994419098,2|0,0:0|0:3,0:3:0:0:
57,265,184257,2,0,L|53:282,1,18.2874994419098,2|0,0:0|0:3,0:3:0:0:
137,184,184429,5,0,0:0:0:0:
166,278,184600,1,0,0:0:0:0:
220,220,184772,1,0,0:0:0:0:
143,203,184943,1,0,0:0:0:0:
342,342,185114,70,0,L|335:368,1,18.2874994419098,2|0,0:0|0:0,0:0:0:0:
447,293,185286,2,0,L|458:317,1,18.2874994419098,2|0,0:0|0:0,0:0:0:0:
489,189,185457,2,0,L|515:196,1,18.2874994419098,2|0,0:0|0:0,0:0:0:0:
496,88,185629,2,0,L|515:68,1,18.2874994419098,2|0,0:0|0:0,0:0:0:0:
412,133,185800,5,0,0:0:0:0:
304,162,185972,2,0,L|357:160,2,36.5749988838196,0|2|0,0:0|0:1|0:0,0:0:0:0:
328,51,186315,1,2,0:0:0:0:
98,185,186486,70,0,L|66:199,1,18.2874994419098,2|0,0:0|0:0,0:0:0:0:
122,331,186657,2,0,L|107:363,1,18.2874994419098,2|0,0:2|0:0,0:0:0:0:
202,159,186829,2,0,L|216:126,1,18.2874994419098,2|0,0:0|0:0,0:0:0:0:
253,253,187000,2,0,L|269:245,1,18.2874994419098,2|0,0:0|0:0,0:0:0:0:
365,194,187171,5,2,0:0:0:0:
161,227,187343,1,0,0:0:0:0:
162,234,187429,1,0,0:0:0:0:
161,240,187515,1,0,0:0:0:0:
301,374,187685,2,0,L|289:323,1,52.25,2|0,0:1|0:0,0:0:0:0:
294,135,187857,70,0,B|244:127|244:127|201:158,1,104.5,6|0,0:0|0:0,0:0:0:0:
365,194,188200,1,8,0:1:0:0:
365,194,188372,1,0,0:0:0:0:
233,291,188543,2,0,B|285:299|285:299|326:268,1,104.5,2|0,0:3|0:0,0:0:0:0:
207,286,188885,70,0,B|193:322|193:322|213:358|213:358|238:328|238:328|232:287,1,156.75,8|0,0:1|0:0,0:0:0:0:
326,268,189228,22,0,P|274:298|227:288,1,104.5,2|0,1:2|0:0,0:0:0:0:
130,123,189572,1,8,0:1:0:0:
130,123,189743,1,0,0:0:0:0:
243,195,189914,70,0,P|269:131|252:70,1,125.399996173096,2|0,0:3|0:0,0:0:0:0:
262,218,190257,70,0,P|274:188|242:195,1,78.375,8|0,0:1|0:2,0:2:0:0:
156,215,190600,6,0,P|200:217|251:182,1,94.0499971298219,2|0,1:2|0:0,0:0:0:0:
143,186,190943,2,0,B|165:213|201:217|201:217|237:194|241:164,1,135.849993781281,8|0,2:1|2:0,2:0:0:0:
134,158,191285,2,0,B|202:215|202:215|237:135,1,177.650003388405,2|0,0:3|0:2,0:2:0:0:
233,337,191628,70,0,L|222:292,1,47.0249985649109,8|0,0:1|0:0,0:0:0:0:
367,355,191971,22,0,B|411:336|411:336|468:355,1,94.0499971298219,2|0,1:2|0:2,0:2:0:0:
350,334,192314,2,0,B|375:308|411:302|411:302|449:323|462:372,1,135.849993781281,8|0,0:1|0:0,0:0:0:0:
332,314,192657,2,0,P|407:281|454:349,1,177.650003388405,2|0,0:3|0:2,0:2:0:0:
457,119,193000,54,0,P|448:146|449:168,1,47.0249985649109,8|0,0:1|0:2,0:2:0:0:
427,28,193343,6,0,P|425:81|465:123,1,104.5,2|0,1:2|0:0,0:0:0:0:
279,236,193685,1,8,0:1:0:0:
302,126,193857,1,0,0:0:0:0:
142,55,194029,1,2,0:3:0:0:
182,150,194200,2,0,B|227:144|227:144|245:149|245:149|285:143,2,104.5,0|8|0,0:0|0:1|0:0,0:0:0:0:
74,164,194715,5,2,0:2:0:0:
46,257,194886,1,0,0:0:0:0:
148,358,195057,1,8,0:1:0:0:
256,304,195228,1,0,0:0:0:0:
345,346,195400,2,0,P|352:283|309:221,1,104.5,2|0,0:3|0:0,0:0:0:0:
74,164,195743,54,0,L|78:214,1,47.0249985649109,8|0,0:1|0:0,0:0:0:0:
82,244,196085,6,0,L|88:296,1,52.25,2|0,1:2|0:0,0:0:0:0:
174,303,196257,2,0,L|168:354,1,52.25,2|0,1:2|0:0,0:0:0:0:
151,122,196428,6,0,L|156:173,1,52.25,2|0,1:2|0:0,0:0:0:0:
265,258,196600,2,0,L|259:309,1,52.25,2|0,1:2|0:0,0:0:0:0:
128,37,196771,70,0,P|180:40|224:68,1,104.5,2|2,1:2|0:0,0:0:0:0:
233,139,197028,1,2,2:2:0:0:
306,128,197114,70,0,L|293:44,1,73.1499977676392,2|0,1:1|0:0,0:0:0:0:
466,332,197285,2,0,L|480:247,1,73.1499977676392,2|0,1:1|0:0,0:0:0:0:
512,50,197457,53,8,1:1:0:0:
489,191,197629,1,0,0:1:0:0:
489,191,197715,1,8,0:1:0:0:
466,332,197972,1,8,0:1:0:0:
168,288,198143,69,8,1:3:0:0:
215,283,198229,1,0,0:0:0:0:
257,261,198315,1,8,1:3:0:0:
288,225,198400,1,0,1:0:0:0:
304,180,198486,38,0,B|312:128|269:105|269:105|285:133|279:181,1,135.849993781281,4|0,0:0|0:0,0:0:0:0:
334,355,198657,1,8,0:3:0:0:
171,150,198828,6,0,L|-9:184,1,125.399996173096,4|0,1:1|0:0,0:0:0:0:
8,87,199085,1,0,0:0:0:0:
33,84,199172,1,8,1:2:0:0:
215,49,199343,2,0,P|262:90|279:149,1,125.399996173096
404,196,199685,1,0,0:0:0:0:
347,32,199857,1,8,1:2:0:0:
347,32,200029,70,0,B|405:61|457:35|457:35|430:19|397:26,1,156.750005979538,0|2,0:0|1:2,0:0:0:0:
278,148,200372,21,0,0:0:0:0:
335,312,200543,1,8,1:2:0:0:
100,210,200715,53,2,0:2:0:0:
84,213,200800,1,0,0:0:0:0:
68,216,200886,1,0,0:0:0:0:
174,144,201057,1,2,0:0:0:0:
18,18,201229,1,8,1:2:0:0:
29,30,201572,5,2,1:2:0:0:
68,216,201743,2,0,L|98:73,1,125.399996173096,0|8,0:0|1:2,0:0:0:0:
223,60,202086,1,0,0:0:0:0:
368,222,202257,1,0,0:0:0:0:
254,204,202429,1,0,0:0:0:0:
343,17,202600,70,0,P|425:37|461:22,1,94.0499971298219,8|0,1:2|0:0,0:0:0:0:
449,29,202857,1,0,0:0:0:0:
465,100,202943,22,0,L|473:170,1,62.6999980865479,2|0,1:2|0:0,0:0:0:0:
376,285,203115,2,0,L|368:215,1,62.6999980865479,0|0,0:2|0:0,0:0:0:0:
258,123,203286,1,8,1:2:0:0:
282,273,203457,1,0,0:0:0:0:
271,140,203629,1,0,0:0:0:0:
124,237,203800,53,2,0:0:0:0:
142,235,203886,1,0,0:0:0:0:
161,233,203972,2,0,P|196:216|239:212,1,70.5375002690792,8|0,1:2|0:0,0:0:0:0:
60,70,204143,54,0,B|52:42|15:36|15:36|57:85|31:153,1,167.2,2|2,0:1|1:2,0:0:0:0:
324,40,204486,38,0,P|344:30|367:21,1,31.349999043274,0|0,0:1|0:1,0:1:0:0:
421,249,204657,2,0,L|392:261,1,31.349999043274,8|0,1:2|0:0,0:0:0:0:
312,172,204829,2,0,L|283:184,1,31.349999043274
203,95,205000,2,0,L|174:107,1,31.349999043274
72,254,205172,70,0,P|70:323|108:376,1,125.399996173096,0|8,0:0|1:2,0:0:0:0:
94,18,205515,2,0,P|74:41|58:80,1,62.6999980865479,2|0,1:2|0:0,0:0:0:0:
66,162,205686,5,2,1:2:0:0:
205,277,205857,6,0,L|175:287,1,31.349999043274
203,95,206029,2,0,L|207:52,1,31.349999043274,8|0,1:2|0:0,0:0:0:0:
312,172,206200,2,0,L|316:129,1,31.349999043274
421,249,206372,2,0,L|425:206,1,31.349999043274
314,354,206543,1,2,0:0:0:0:
419,67,206715,1,8,1:2:0:0:
188,189,206886,2,0,L|65:161,1,125.399996173096,0|2,0:0|1:2,0:0:0:0:
317,27,207229,70,0,L|319:58,1,31.349999043274
461,151,207400,2,0,L|493:149,1,31.349999043274,8|0,1:2|0:0,0:0:0:0:
389,251,207572,2,0,L|421:249,1,31.349999043274
313,353,207743,2,0,L|345:351,1,31.349999043274,2|0,0:1|0:0,0:0:0:0:
161,343,207914,69,2,0:2:0:0:
180,348,208000,1,2,0:1:0:0:
199,353,208085,1,8,1:2:0:0:
51,152,208257,1,10,0:1:0:0:
256,192,208428,21,2,1:2:0:0:
255,266,208600,2,0,L|256:215,1,31.349999043274,2|0,0:0|0:0,0:0:0:0:
320,154,208771,2,0,L|275:179,1,31.349999043274,8|0,1:2|0:0,0:0:0:0:
190,153,208943,2,0,L|234:180,1,31.349999043274,2|0,0:0|0:0,0:0:0:0:
352,0,209115,69,8,0:3:0:0:
398,14,209200,1,0,0:0:0:0:
439,43,209286,1,2,0:0:0:0:
469,83,209372,1,0,0:0:0:0:
479,132,209457,70,0,B|432:91|365:90|365:90|397:112|401:158,1,177.650003388405,12|0,1:2|0:3,0:0:0:0:
128,85,209800,21,6,1:2:0:0:
66,153,209971,2,0,P|111:176|162:171,1,104.5,2|8,0:0|1:2,0:0:0:0:
216,41,210314,2,0,B|237:102|223:153|187:131|173:187|194:246,1,209,2|0,0:0|0:0,0:0:0:0:
320,113,210829,1,8,1:2:0:0:
128,85,211000,1,4,1:3:0:0:
191,239,211171,70,0,B|222:288|222:288|275:300,1,104.5,2|0,1:2|0:0,0:0:0:0:
216,41,211515,1,8,1:2:0:0:
290,202,211685,2,0,L|304:136,2,52.25,2|2|0,0:0|0:2|0:0,0:0:0:0:
416,128,212029,1,2,0:0:0:0:
414,351,212200,2,0,L|264:305,1,156.75,8|0,1:2|0:0,0:0:0:0:
161,279,212543,5,2,1:2:0:0:
290,202,212715,1,0,0:0:0:0:
40,138,212886,1,8,1:2:0:0:
175,153,213057,2,0,P|169:204|138:246,1,104.5,0|2,2:2|0:0,0:0:0:0:
30,299,213400,1,2,0:0:0:0:
132,71,213572,2,0,P|208:70|260:126,1,156.75,8|0,1:2|0:0,0:0:0:0:
240,236,213915,69,2,1:2:0:0:
322,302,214086,2,0,B|350:253|350:253|330:186,1,104.5,0|8,0:0|1:2,0:0:0:0:
261,127,214429,1,0,0:0:0:0:
432,176,214600,1,0,0:0:0:0:
231,322,214771,69,0,0:0:0:0:
232,332,214857,1,0,0:0:0:0:
233,341,214943,2,0,L|228:261,1,65.3125,8|0,1:2|0:0,0:0:0:0:
168,153,215114,2,0,L|163:233,1,78.3750029897691,2|0,0:1|0:0,0:0:0:0:
15,354,215285,22,0,B|49:381|121:371|121:371|87:362|66:342,1,156.750005979538,6|0,1:2|0:2,0:0:0:0:
163,231,215629,1,8,1:2:0:0:
321,291,215800,1,0,0:0:0:0:
310,153,215972,1,0,0:0:0:0:
379,362,216143,54,0,P|342:380|296:379,1,78.3750029897691,0|8,0:0|1:2,0:0:0:0:
234,193,216486,1,0,0:0:0:0:
30,109,216657,6,0,L|41:32,1,78.3750029897691,2|0,1:2|0:0,0:0:0:0:
44,20,216915,1,0,0:0:0:0:
46,8,217000,1,8,1:2:0:0:
100,198,217172,1,0,0:0:0:0:
123,62,217343,1,0,0:0:0:0:
311,139,217515,70,0,L|297:61,1,78.3750029897691,0|8,0:0|1:2,0:0:0:0:
432,3,217857,1,2,0:0:0:0:
328,239,218029,53,2,1:2:0:0:
413,118,218200,54,0,P|408:144|406:170,1,52.25,2|0,0:1|0:0,0:0:0:0:
184,220,218372,2,0,P|209:211|233:201,1,52.25,8|0,1:2|0:0,0:0:0:0:
388,370,218543,2,0,P|368:354|347:339,1,52.25,2|0,0:1|0:0,0:0:0:0:
328,239,218715,53,2,0:1:0:0:
226,357,218886,1,0,0:0:0:0:
210,355,218972,1,2,0:1:0:0:
194,353,219057,1,8,1:2:0:0:
449,257,219229,2,0,L|500:263,1,52.25,2|0,0:1|0:0,0:0:0:0:
223,265,219400,53,2,1:2:0:0:
268,179,219572,38,0,B|228:166|228:166|182:177,1,78.3750029897691,2|0,1:1|0:0,0:0:0:0:
182,347,219743,2,0,B|222:360|222:360|268:349,1,78.3750029897691,8|0,1:2|0:0,0:0:0:0:
333,229,219915,6,0,L|341:319,1,78.3750029897691,2|0,1:1|0:0,0:0:0:0:
110,304,220086,2,0,L|116:225,1,78.3750029897691,2|0,1:1|0:0,0:0:0:0:
375,91,220257,69,2,0:0:0:0:
390,92,220343,1,0,0:0:0:0:
405,92,220428,2,0,P|363:113|281:104,1,78.3750029897691,2|2,1:1|1:1,0:0:0:0:
43,105,220600,2,0,P|85:84|167:93,1,78.3750029897691,2|2,1:1|1:1,0:0:0:0:
208,224,220771,6,0,L|240:349,1,125.399996173096,6|0,1:2|0:3,0:3:0:0:
435,177,221115,1,8,1:2:0:0:
385,274,221286,1,0,0:0:0:0:
385,274,221372,1,0,0:0:0:0:
385,274,221457,2,0,P|394:318|421:350,1,62.6999980865479,2|0,0:0|0:0,0:0:0:0:
487,384,221629,1,0,0:0:0:0:
435,177,221800,54,0,P|414:161|390:151,1,52.25,8|0,1:2|0:0,0:0:0:0:
429,53,221972,2,0,P|403:48|377:49,1,52.25
224,112,222143,21,2,1:2:0:0:
385,274,222314,2,0,P|353:252|270:243,1,104.5,2|8,0:2|1:2,0:0:0:0:
305,372,222657,1,0,0:0:0:0:
307,356,222743,1,0,0:0:0:0:
309,341,222829,1,2,0:0:0:0:
181,377,223000,1,2,0:0:0:0:
58,218,223172,1,8,1:2:0:0:
155,241,223343,1,0,0:0:0:0:
84,58,223515,69,2,1:2:0:0:
222,32,223686,2,2,L|184:152,1,125.399996173096,0|8,0:0|1:2,0:0:0:0:
252,264,224029,1,0,0:0:0:0:
7,295,224200,2,0,L|130:326,1,125.399996173096,2|0,1:2|0:0,0:0:0:0:
284,103,224543,1,8,1:2:0:0:
374,239,224714,5,2,0:0:0:0:
374,239,224800,1,0,0:0:0:0:
374,239,224886,2,0,L|251:264,1,125.399996173096,2|0,1:2|0:0,0:0:0:0:
284,103,225229,1,8,1:2:0:0:
402,123,225400,1,0,0:0:0:0:
179,163,225572,1,0,0:2:0:0:
396,92,225743,53,0,0:0:0:0:
399,109,225829,1,0,0:0:0:0:
402,123,225915,2,0,L|474:150,1,70.5375002690792,12|0,1:2|0:0,0:0:0:0:
291,15,226086,2,0,L|367:5,1,70.5375002690792,2|0,1:2|0:0,0:0:0:0:
26,50,226257,53,2,1:2:0:0:
179,163,226429,54,0,B|209:220|180:287|180:287|177:255|159:230,1,188.099994259644,2|8,0:1|1:2,0:0:0:0:
256,94,226772,1,0,0:0:0:0:
486,50,226943,21,2,1:2:0:0:
326,163,227115,38,0,B|309:225|309:225|326:287|326:287|333:254|333:254|352:221,1,188.099994259644,2|8,0:1|1:2,0:0:0:0:
256,94,227457,1,0,0:0:0:0:
256,351,227629,37,2,1:2:0:0:
161,231,227800,54,0,B|130:174|160:106|160:106|180:129|179:165,1,188.099994259644,2|8,0:1|1:2,0:0:0:0:
26,307,228143,1,0,0:0:0:0:
256,351,228315,21,2,1:2:0:0:
345,231,228486,38,0,B|363:172|363:172|346:106|346:106|330:133|330:133|326:163,1,188.099994259644,2|8,0:1|1:2,0:0:0:0:
486,307,228829,70,0,B|396:328|396:328|361:366,1,125.399996173096,2|0,0:3|1:1,0:1:0:0:
422,15,229171,6,0,L|437:86,1,73.1499977676392,2|0,1:1|0:0,0:0:0:0:
262,187,229343,2,0,L|277:115,1,73.1499977676392,8|0,1:2|0:0,0:0:0:0:
457,160,229514,2,0,L|472:231,1,73.1499977676392,2|0,2:1|0:0,0:0:0:0:
156,126,229685,70,0,B|213:72|213:72|289:123,1,156.750005979538,2|0,1:1|0:0,0:0:0:0:
372,81,229943,1,2,0:1:0:0:
351,69,230028,2,0,L|285:25,1,78.3750029897691,8|0,1:2|0:0,0:0:0:0:
72,100,230200,2,0,L|149:27,1,78.3750029897691,2|0,0:1|0:0,0:1:0:0:
205,0,230372,5,2,1:2:0:0:
232,236,230543,6,0,L|224:165,1,67.9249968906404,2|0,1:0|0:0,0:0:0:0:
425,176,230714,2,0,L|325:194,1,73.1499977676392,8|0,1:2|0:0,0:0:0:0:
319,326,230885,2,0,L|419:344,1,73.1499977676392,2|0,1:1|0:0,0:0:0:0:
232,236,231057,69,8,1:3:0:0:
188,237,231143,1,0,1:0:0:0:
148,255,231229,1,8,1:3:0:0:
120,289,231315,1,0,1:0:0:0:
108,331,231400,2,0,L|84:218,1,67.9249968906404,8|0,1:2|0:0,0:0:0:0:
209,113,231571,70,0,B|166:96|166:96|190:249,1,188.099994259644,2|2,1:0|1:2,0:0:0:0:
429,199,231914,54,0,B|365:169|363:219|287:187,1,146.299995535278
425,345,232429,2,0,P|400:319|391:284,1,73.1499977676392
111,89,232771,22,0,B|170:139|179:237|179:237|169:130|218:82,1,282.149991389466,12|0,1:2|0:0,0:0:0:0:
251,62,233114,5,6,1:2:0:0:
391,180,233286,2,0,L|546:136,1,125.399996173096,0|8,0:0|1:2,0:0:0:0:
270,170,233629,1,0,0:0:0:0:
464,0,233800,1,0,0:0:0:0:
424,86,233972,1,2,0:0:0:0:
251,62,234143,2,0,L|371:27,1,125.399996173096,8|2,1:2|2:2,0:0:0:0:
447,5,234400,1,0,0:0:0:0:
464,0,234486,5,2,1:2:0:0:
270,170,234657,2,0,L|314:288,1,125.399996173096,0|8,0:0|1:2,0:0:0:0:
180,252,235000,1,0,0:0:0:0:
251,62,235171,1,0,0:0:0:0:
384,205,235343,54,0,L|402:156,1,52.25,2|0,0:0|0:0,0:0:0:0:
504,102,235514,2,0,L|485:150,1,52.25,8|0,1:2|0:0,0:0:0:0:
494,277,235685,1,2,0:0:0:0:
503,252,235770,1,0,0:0:0:0:
512,228,235857,1,2,1:2:0:0:
422,53,236029,6,0,P|358:48|301:86,1,125.399996173096,0|8,0:0|1:2,0:0:0:0:
220,195,236372,1,0,0:0:0:0:
223,7,236543,2,0,L|276:11,1,31.349999043274
28,127,236714,69,2,0:0:0:0:
32,146,236800,1,0,0:0:0:0:
36,165,236885,2,0,L|66:72,1,70.5375002690792,8|0,1:2|0:0,0:0:0:0:
131,300,237057,2,0,L|101:207,1,70.5375002690792,0|0,1:2|0:0,0:0:0:0:
315,330,237229,5,2,1:2:0:0:
386,105,237400,1,2,0:1:0:0:
481,240,237572,1,8,0:2:0:0:
273,98,237743,1,2,0:0:0:0:
280,106,237829,1,0,0:0:0:0:
280,106,237914,1,2,0:1:0:0:
198,244,238085,70,0,L|198:179,1,62.6999980865479,2|0,2:2|0:0,0:0:0:0:
27,189,238257,2,0,L|101:201,1,73.1499977676392,8|0,1:2|0:0,0:0:0:0:
159,334,238428,2,0,L|231:323,1,73.1499977676392,2|0,2:2|0:0,0:0:0:0:
331,185,238600,21,2,1:2:0:0:
383,348,238772,1,2,1:0:0:0:
383,348,238857,1,0,0:0:0:0:
383,348,238943,1,8,1:2:0:0:
282,253,239115,1,0,0:0:0:0:
378,87,239286,2,0,P|308:79|251:112,1,125.399996173096,2|0,0:1|0:0,0:0:0:0:
203,156,239543,1,0,0:0:0:0:
193,174,239629,54,0,L|233:182,2,26.125,8|0|0,1:2|0:0|0:0,0:0:0:0:
132,42,239800,2,0,L|169:31,2,26.125,2|0|0,1:2|0:0|0:0,0:0:0:0:
31,261,239972,5,2,1:2:0:0:
120,132,240143,1,2,0:1:0:0:
216,358,240315,1,8,1:2:0:0:
141,266,240486,1,0,0:0:0:0:
307,199,240657,70,0,L|314:95,1,78.3750029897691,2|0,0:1|0:0,0:0:0:0:
395,46,240828,1,0,0:0:0:0:
390,125,240914,2,0,L|383:229,1,78.3750029897691,2|8,0:1|1:2,0:0:0:0:
317,42,241171,1,2,0:1:0:0:
239,279,241343,5,2,1:2:0:0:
120,132,241514,1,0,0:0:0:0:
313,121,241686,1,8,1:2:0:0:
117,307,241857,5,2,0:0:0:0:
212,68,242028,1,0,0:0:0:0:
370,268,242200,1,0,0:0:0:0:
131,278,242372,54,0,L|148:412,1,78.3750029897691,8|0,1:2|0:0,0:0:0:0:
232,91,242543,2,0,L|249:-43,1,78.3750029897691,8|0,1:2|0:0,0:0:0:0:
312,353,242714,6,0,L|489:375,1,125.399996173096,6|0,1:2|0:0,0:0:0:0:
512,128,243057,2,0,L|491:169,1,31.349999043274,8|0,1:2|0:0,0:0:0:0:
391,211,243229,2,0,P|410:270|395:330,1,125.399996173096
280,270,243572,1,0,0:0:0:0:
386,49,243743,1,8,1:2:0:0:
310,150,243915,70,0,B|250:164|207:129|207:129|242:121|278:140,1,156.750005979538,0|2,0:0|1:2,0:0:0:0:
219,20,244257,22,0,L|202:65,1,31.349999043274
203,244,244429,2,0,L|199:200,1,31.349999043274,8|0,1:2|0:0,0:0:0:0:
299,303,244600,2,0,L|295:259,1,31.349999043274
395,362,244771,2,0,L|392:330,1,31.349999043274,0|0,0:3|0:0,0:0:0:0:
421,206,244943,2,0,L|424:238,1,31.349999043274,2|0,2:2|0:0,0:0:0:0:
500,346,245115,1,8,1:2:0:0:
355,101,245285,54,0,B|418:84|458:131|458:131|441:122|416:123,1,156.750005979538,0|2,0:0|1:2,0:0:0:0:
125,106,245629,6,0,L|168:101,1,31.349999043274
108,315,245800,2,0,L|104:359,1,31.349999043274,8|0,1:2|0:0,0:0:0:0:
203,244,245972,2,0,L|199:288,1,31.349999043274,0|0,0:2|0:0,0:0:0:0:
298,173,246143,2,0,L|295:205,1,31.349999043274,2|0,0:3|0:0,0:0:0:0:
272,349,246315,1,2,0:0:0:0:
229,68,246486,1,8,1:2:0:0:
91,207,246657,70,0,B|72:263|108:315|108:315|118:282|98:239,1,156.750005979538,2|2,0:0|1:2,0:0:0:0:
367,278,247000,22,0,L|356:230,1,31.349999043274
335,20,247172,2,0,L|388:22,1,31.349999043274,8|0,1:2|0:0,0:0:0:0:
493,85,247343,2,0,L|440:83,1,31.349999043274,0|0,0:2|0:0,0:0:0:0:
282,184,247514,2,0,P|335:152|408:161,1,125.399996173096,2|2,0:0|0:0,0:0:0:0:
367,278,247772,1,0,0:0:0:0:
359,247,247857,53,12,1:2:0:0:
487,303,248028,1,8,0:3:0:0:
262,347,248200,1,2,1:2:0:0:
193,242,248371,6,0,L|181:289,1,31.349999043274
229,68,248543,2,0,L|268:62,1,31.349999043274,8|0,1:2|0:0,0:0:0:0:
346,138,248715,2,0,L|385:132,1,31.349999043274,0|0,0:2|0:0,0:0:0:0:
462,207,248886,2,0,L|492:202,1,31.349999043274,2|0,0:3|0:0,0:0:0:0:
352,48,249057,1,2,0:0:0:0:
352,48,249143,1,0,0:0:0:0:
352,48,249229,2,0,L|228:67,1,125.399996173096,8|0,1:2|0:0,0:0:0:0:
461,110,249572,69,2,1:2:0:0:
340,228,249743,22,0,L|363:270,1,31.349999043274
229,68,249915,2,0,L|189:74,1,31.349999043274,8|0,1:2|0:0,0:0:0:0:
140,171,250086,2,0,L|100:177,1,31.349999043274,0|0,0:2|0:0,0:0:0:0:
53,273,250257,2,0,L|21:278,1,31.349999043274,2|0,0:3|0:0,0:0:0:0:
37,82,250429,1,2,0:0:0:0:
247,264,250600,1,8,1:2:0:0:
247,264,250772,54,0,B|188:252|143:279|143:279|174:288|206:275,1,156.750005979538,0|2,0:0|1:2,0:0:0:0:
438,191,251115,6,0,L|492:212,1,31.349999043274
360,8,251286,2,0,L|351:59,1,31.349999043274,8|0,1:2|0:0,0:0:0:0:
267,159,251457,2,0,L|276:109,1,31.349999043274
228,1,251629,2,0,L|219:52,1,31.349999043274,2|0,0:1|0:0,0:0:0:0:
93,141,251800,69,0,0:2:0:0:
99,158,251886,1,2,0:1:0:0:
106,176,251972,2,0,L|176:197,1,62.6999980865479,8|0,1:2|0:0,0:0:0:0:
247,264,252143,1,2,0:1:0:0:
56,337,252314,21,2,1:2:0:0:
172,376,252486,2,0,L|141:367,1,31.349999043274,0|0,0:1|0:0,0:0:0:0:
382,273,252657,2,0,L|412:281,1,31.349999043274,8|0,1:2|0:0,0:0:0:0:
499,306,252829,1,0,0:0:0:0:
360,134,253000,69,8,1:3:0:0:
316,148,253085,1,0,2:0:0:0:
279,177,253171,1,0,1:0:0:0:
255,218,253257,1,0,1:0:0:0:
247,264,253343,2,0,L|212:165,1,62.6999980865479
128,150,253515,70,0,B|166:44|166:44|181:86,1,156.750005979538,2|2,0:1|1:2,0:0:0:0:
40,58,253857,5,0,0:0:0:0:
90,257,254029,1,8,1:2:0:0:
2,165,254200,1,0,0:0:0:0:
225,205,254372,1,0,0:0:0:0:
75,305,254543,2,0,B|76:329|94:344|94:344|110:297|88:253,1,135.849993781281,0|8,0:0|1:2,0:0:0:0:
326,204,254886,70,0,B|256:213|215:171|215:171|243:158|281:180,1,156.750005979538,0|2,0:0|1:2,0:0:0:0:
241,306,255229,22,0,L|250:264,1,31.349999043274
187,51,255400,2,0,L|192:81,1,31.349999043274,8|0,1:2|0:0,0:0:0:0:
290,50,255572,2,0,L|282:85,1,31.349999043274
379,90,255743,54,0,L|360:127,3,31.349999043274,0|0|2|0,0:0|0:0|0:0|0:0,0:0:0:0:
490,28,256086,1,8,1:2:0:0:
445,192,256257,2,0,B|444:262|487:287|487:287|471:260|468:226,1,156.750005979538,0|2,0:0|1:2,0:0:0:0:
110,293,256600,5,0,0:0:0:0:
126,144,256772,1,8,1:2:0:0:
17,315,256943,1,0,0:0:0:0:
17,315,257029,1,0,0:0:0:0:
17,315,257115,1,0,0:0:0:0:
167,371,257286,1,0,0:0:0:0:
52,194,257457,70,0,P|113:179|172:198,1,125.399996173096,8|0,1:2|0:0,0:0:0:0:
248,259,257715,1,0,0:0:0:0:
248,259,257800,22,0,P|269:188|217:114,1,125.399996173096,2|0,1:2|0:0,0:0:0:0:
55,77,258143,2,0,P|34:148|86:222,1,125.399996173096,10|0,1:2|0:0,0:0:0:0:
331,108,258486,2,0,P|280:54|189:62,1,125.399996173096,2|0,0:3|0:0,0:0:0:0:
207,54,258743,1,0,0:0:0:0:
148,108,258828,54,0,P|165:147|199:173,1,70.5375002690792,8|0,1:2|0:0,0:0:0:0:
130,227,259000,2,0,P|167:247|216:247,1,70.5375002690792,8|0,0:3|0:3,0:3:0:0:
328,267,259172,5,2,1:2:0:0:
267,168,259343,1,0,0:0:0:0:
440,203,259515,1,8,1:2:0:0:
310,329,259686,70,0,B|291:268|324:222|324:222|321:266|339:286,1,156.750005979538
172,196,260029,1,0,0:0:0:0:
360,136,260200,1,8,1:2:0:0:
360,136,260372,2,0,B|454:106|443:160|520:140,1,156.750005979538,0|2,0:0|1:2,0:0:0:0:
411,240,260715,22,0,L|402:280,1,31.349999043274
371,15,260886,2,0,L|331:27,1,31.349999043274,8|0,1:2|0:0,0:0:0:0:
243,0,261057,2,0,L|212:27,1,31.349999043274
120,40,261229,2,0,L|104:77,1,31.349999043274
76,153,261400,53,0,0:0:0:0:
360,136,261572,1,8,1:2:0:0:
360,136,261743,2,0,B|299:128|299:128|261:147|261:147|188:138,1,156.750005979538,0|2,0:0|1:2,0:0:0:0:
243,0,262086,5,2,0:1:0:0:
185,225,262257,1,8,1:2:0:0:
96,124,262428,1,0,0:0:0:0:
66,327,262600,70,0,L|125:276,1,78.3750029897691,2|0,1:0|0:0,0:0:0:0:
185,225,262771,1,0,0:0:0:0:
170,148,262857,2,0,L|155:70,1,78.3750029897691,2|8,2:1|0:0,0:0:0:0:
333,276,263114,2,0,L|259:249,1,78.3750029897691,2|0,2:1|0:0,0:0:0:0:
111,201,263285,1,2,1:2:0:0:
425,160,263457,22,0,L|394:164,1,31.349999043274,0|0,0:3|0:3,0:3:0:0:
247,23,263629,2,0,L|251:54,1,31.349999043274,8|0,1:2|0:3,0:3:0:0:
111,201,263800,2,0,L|142:196,1,31.349999043274,0|0,0:3|0:3,0:3:0:0:
289,337,263972,2,0,L|284:305,1,31.349999043274,0|0,0:3|0:3,0:3:0:0:
254,146,264143,1,2,0:0:0:0:
261,163,264229,1,0,0:0:0:0:
268,180,264314,54,0,L|327:188,6,39.1875014948846,8|0|0|0|0|0|0,1:2|0:0|0:0|0:0|0:0|0:0|0:0,0:0:0:0:
401,134,264657,6,0,B|435:189|407:285|383:235|349:312|384:370,1,250.799992346192,6|8,1:2|1:2,0:0:0:0:
277,278,265172,1,0,0:0:0:0:
277,278,265257,1,0,0:0:0:0:
277,278,265343,2,0,P|307:305|330:311,1,62.6999980865479
461,323,265515,1,0,0:0:0:0:
428,90,265686,70,0,P|412:110|401:134,1,52.25,8|0,1:2|0:0,0:0:0:0:
298,102,265857,2,0,P|292:127|291:153,1,52.25,0|0,0:2|0:0,0:0:0:0:
138,285,266029,21,2,1:2:0:0:
184,168,266200,2,0,P|189:193|218:235,1,62.6999980865479,2|0,0:2|0:0,0:0:0:0:
239,382,266371,2,0,P|281:338|276:277,1,125.399996173096,8|0,1:2|1:2,1:2:0:0:
207,224,266628,70,0,P|191:198|184:168,1,62.6999980865479,2|0,2:1|1:0,0:0:0:0:
270,85,266885,1,0,0:0:0:0:
388,212,267057,1,8,1:2:0:0:
299,153,267228,1,0,0:0:0:0:
464,167,267400,5,2,1:2:0:0:
423,325,267572,2,0,P|388:274|389:212,1,125.399996173096,0|8,0:0|1:2,0:0:0:0:
303,327,267915,1,0,0:0:0:0:
499,244,268086,1,2,0:1:0:0:
421,354,268257,1,0,0:0:0:0:
428,90,268429,1,8,1:2:0:0:
198,127,268600,69,2,0:0:0:0:
198,127,268685,1,0,0:0:0:0:
198,127,268771,2,0,L|33:161,1,125.399996173096,2|0,1:2|0:0,0:0:0:0:
272,32,269115,1,8,1:2:0:0:
133,56,269286,1,0,2:2:0:0:
243,239,269457,1,2,0:1:0:0:
85,118,269628,69,0,0:0:0:0:
80,135,269714,1,0,0:0:0:0:
75,152,269800,2,0,L|-11:170,1,70.5375002690792,12|0,1:2|0:0,0:0:0:0:
47,260,269972,2,0,L|3:315,1,70.5375002690792,8|0,0:3|0:0,0:0:0:0:
317,144,270143,5,6,1:2:0:0:
161,292,270315,2,0,P|146:226|196:153,1,125.399996173096,2|8,0:2|1:2,0:0:0:0:
275,324,270657,1,0,0:2:0:0:
271,340,270743,1,0,0:0:0:0:
267,356,270829,2,0,L|360:380,1,62.6999980865479,2|0,0:1|0:0,0:0:0:0:
416,321,271000,1,2,0:0:0:0:
488,122,271172,70,0,L|492:197,1,70.5375002690792,8|0,1:2|0:0,0:0:0:0:
419,250,271343,2,0,L|415:320,1,70.5375002690792,2|0,2:2|0:0,0:0:0:0:
506,368,271514,1,2,1:2:0:0:
329,192,271685,21,0,0:3:0:0:
325,178,271772,1,0,0:3:0:0:
321,164,271857,2,0,L|226:150,1,62.6999980865479,8|0,1:2|0:0,0:0:0:0:
249,57,272029,2,0,L|159:92,1,62.6999980865479,0|0,0:3|0:3,0:3:0:0:
132,0,272200,2,0,L|72:75,1,62.6999980865479,2|0,0:1|0:3,0:3:0:0:
57,192,272371,53,2,0:0:0:0:
62,212,272457,1,0,0:0:0:0:
67,232,272543,2,0,L|56:322,1,70.5375002690792,10|0,1:2|0:0,0:0:0:0:
166,384,272715,2,0,L|158:314,1,70.5375002690792,0|0,1:2|0:0,0:0:0:0:
239,96,272885,1,2,1:2:0:0:
258,294,273057,6,0,L|249:206,1,78.3750029897691,2|0,1:1|0:3,0:3:0:0:
132,101,273229,2,0,L|140:190,1,78.3750029897691,8|0,1:2|0:3,0:3:0:0:
347,161,273400,2,0,L|341:83,1,78.3750029897691,2|0,1:1|0:3,0:3:0:0:
158,22,273571,70,0,B|228:-17|228:-17|304:11,1,156.750005979538,2|2,0:1|0:0,0:0:0:0:
336,180,273829,1,2,0:1:0:0:
347,161,273914,2,0,B|359:119|359:119|336:74,1,83.6,8|0,1:2|0:0,0:0:0:0:
132,101,274085,2,0,B|120:143|120:143|143:188,1,83.6,2|0,1:1|0:0,0:0:0:0:
432,40,274257,22,0,P|465:62|489:92,1,78.3750029897691,2|0,1:2|0:0,0:0:0:0:
312,295,274429,2,0,P|279:273|255:243,1,78.3750029897691,2|0,1:2|0:0,0:0:0:0:
499,227,274600,70,0,B|486:265|486:265|446:284,1,83.6,8|0,1:2|0:0,0:0:0:0:
245,107,274772,2,0,B|258:69|258:69|297:49,1,83.6,0|0,1:2|0:0,0:0:0:0:
347,161,274943,70,0,P|376:141|348:176,1,130.625,0|0,1:0|0:0,0:0:0:0:
280,309,275114,21,0,1:0:0:0:
280,309,275200,1,0,2:0:0:0:
280,309,275285,2,0,P|325:318|371:308,1,94.0499971298219,8|0,1:2|0:0,0:0:0:0:
463,308,275457,70,0,B|421:320|421:320|373:307,1,94.0499971298219,8|0,1:2|0:0,0:0:0:0:
375,169,275628,69,4,1:1:0:0:
198,46,275800,2,0,P|171:141|215:179,1,141.075000538158,2|8,0:1|0:0,0:0:0:0:
316,87,276143,1,0,0:0:0:0:
280,309,276314,1,2,0:1:0:0:
76,253,276486,38,0,B|131:231|174:261|174:261|145:278|122:270,1,156.750005979538,2|8,0:2|1:1,0:2:0:0:
35,155,276829,1,2,0:0:0:0:
124,350,277000,37,2,1:2:0:0:
254,180,277171,2,0,P|289:240|280:309,1,141.075000538158,2|8,0:1|1:1,0:0:0:0:
296,41,277515,1,0,0:3:0:0:
453,137,277686,37,2,0:1:0:0:
462,129,277772,1,0,0:0:0:0:
466,117,277857,1,2,0:0:0:0:
461,106,277943,1,0,0:0:0:0:
450,99,278029,37,8,1:1:0:0:
369,231,278200,1,0,0:0:0:0:
395,15,278372,37,2,1:2:0:0:
194,57,278543,2,0,L|34:-14,1,141.075000538158,2|8,0:1|1:1,0:2:0:0:
71,164,278886,1,0,0:0:0:0:
277,150,279057,37,2,0:1:0:0:
279,168,279143,1,0,0:0:0:0:
271,184,279229,1,0,0:0:0:0:
258,194,279315,1,0,0:0:0:0:
241,197,279400,37,8,1:1:0:0:
194,57,279572,1,2,0:0:0:0:
372,247,279743,37,2,1:2:0:0:
334,0,279914,2,0,L|356:141,1,141.075000538158,2|8,0:1|1:1,0:0:0:0:
372,247,280257,1,0,0:0:0:0:
411,24,280429,37,2,0:1:0:0:
427,9,280515,1,0,0:0:0:0:
448,7,280600,1,0,0:0:0:0:
466,19,280686,1,0,0:0:0:0:
472,39,280772,38,0,L|504:25,6,35.2687501345396,8|0|0|0|0|0|0,1:1|0:0|0:0|0:0|0:0|0:0|0:0,0:0:0:0:
352,76,281115,53,2,1:2:0:0:
481,180,281286,1,2,0:1:0:0:
352,76,281629,5,0,0:0:0:0:
481,180,281800,1,2,0:1:0:0:
254,130,281972,6,0,L|137:164,1,94.0499971298219,0|2,0:0|0:3,0:0:0:0:
100,248,282315,1,0,0:0:0:0:
84,55,282486,53,0,0:0:0:0:
228,251,282657,1,2,0:1:0:0:
84,55,283000,5,0,0:0:0:0:
228,251,283172,1,2,0:1:0:0:
423,113,283343,6,0,L|407:0,1,114.950003507996,0|2,0:0|0:3,0:0:0:0:
512,21,283686,1,0,0:0:0:0:
327,192,283857,5,0,0:0:0:0:
308,327,284029,2,0,L|333:157,1,135.849993781281,2|8,0:1|0:1,0:0:0:0:
211,14,284372,1,0,0:0:0:0:
113,57,284543,6,0,P|173:117|255:113,1,146.299995535278,2|2,0:1|0:0,0:0:0:0:
350,39,284886,1,2,0:3:0:0:
308,327,285057,1,2,2:1:0:0:
327,192,285228,69,2,1:2:0:0:
302,158,285314,1,0,1:2:0:0:
263,142,285400,1,2,1:2:0:0:
221,144,285485,1,0,1:2:0:0:
183,161,285571,1,2,1:2:0:0:
142,153,285657,1,0,1:2:0:0:
110,126,285743,1,2,1:2:0:0:
96,87,285828,1,0,1:2:0:0:
38,115,285914,5,2,1:3:0:0:
4,179,286000,1,0,1:0:0:0:
1,252,286085,1,2,1:2:0:0:
50,309,286172,1,0,1:0:0:0:
120,330,286257,70,0,L|124:370,1,36.5749988838196,8|0,1:2|0:0,0:0:0:0:
169,274,286343,6,0,L|202:316,1,36.5749988838196,8|0,0:0|0:0,0:0:0:0:
183,201,286428,70,0,L|217:218,1,36.5749988838196,8|0,1:2|0:0,0:0:0:0:
156,130,286514,6,0,L|206:130,1,36.5749988838196,8|0,1:2|0:0,0:0:0:0:
96,87,286600,54,0,B|63:129|96:179|96:179|15:122|39:9|128:10|166:32|192:83|156:131|156:131|193:131|193:131|168:174|183:226|234:246|234:246|294:264|271:347|217:334|206:386|206:386|217:334|158:321|177:241|234:246|234:246|280:259|331:240|343:188|303:150|261:172|261:172|278:132|278:132|331:159|375:122|375:122|424:98|424:98|436:29|436:29|401:-9|401:-9|355:16|355:16|343:80|343:80|375:122|375:122|402:176|472:162,1,1738.87998938672,4|2,0:0|0:1,0:0:0:0:
415,160,292428,22,0,P|441:164|467:162,1,52.25,2|0,0:0|0:0,0:0:0:0:
228,259,292772,54,0,L|240:198,1,52.25,2|0,0:2|0:0,0:0:0:0:
198,262,292943,2,0,L|205:201,1,47.0249985649109,2|0,0:2|0:2,0:2:0:0:
176,278,293115,2,0,L|175:222,1,41.8,2|0,0:2|0:2,0:2:0:0:
164,297,293286,2,0,L|158:249,1,36.5749988838196,2|0,0:2|0:2,0:2:0:0:
240,124,293457,6,0,P|265:127|294:145,1,52.25,2|0,0:2|0:0,0:0:0:0:
406,231,293800,6,0,L|360:247,1,31.349999043274,2|0,0:0|0:0,0:0:0:0:
405,246,293972,2,0,L|354:264,1,36.5749988838196,2|0,0:0|0:0,0:0:0:0:
424,52,294143,54,0,L|473:15,1,52.25,2|0,0:2|0:0,0:0:0:0:
433,80,294314,2,0,L|484:48,1,47.0249985649109,2|0,0:0|0:3,0:3:0:0:
428,106,294486,2,0,L|477:82,1,41.8,2|0,0:0|0:3,0:3:0:0:
415,125,294657,2,0,L|460:109,1,36.5749988838196,2|0,0:0|0:3,0:3:0:0:
277,58,294828,6,0,P|313:75|350:76,1,52.25,2|0,0:0|0:0,0:0:0:0:
197,173,295171,6,0,L|192:132,1,36.5749988838196,2|0,0:0|0:0,0:0:0:0:
179,172,295343,2,0,L|171:98,1,41.8,2|0,0:0|0:0,0:0:0:0:
289,210,295514,54,0,L|373:221,1,52.25,2|0,0:0|0:0,0:0:0:0:
414,240,295685,2,0,L|349:255,1,47.0249985649109,2|0,0:0|0:0,0:0:0:0:
305,286,295857,2,0,L|364:293,1,41.8,2|0,0:0|0:0,0:0:0:0:
414,318,296028,2,0,L|367:331,1,36.5749988838196,2|0,0:0|0:0,0:0:0:0:
256,365,296200,53,2,0:1:0:0:
289,210,296372,1,0,0:0:0:0:
112,302,296543,38,0,P|120:324|136:342,1,47.0249985649109,2|0,0:0|0:0,0:0:0:0:
188,283,296714,6,0,P|214:282|239:274,1,52.25,2|0,0:2|0:3,0:3:0:0:
136,58,296885,54,0,P|144:86|137:145,1,73.1499977676392,2|0,0:0|0:0,0:0:0:0:
230,151,297057,22,0,P|219:180|194:206,1,62.6999980865479,2|0,0:0|0:0,0:0:0:0:
239,274,297228,70,0,P|207:284|174:280,1,52.25,2|0,0:2|0:3,0:3:0:0:
136,342,297400,54,0,P|120:323|112:299,1,47.0249985649109,2|0,0:0|0:0,0:0:0:0:
65,203,297571,70,0,P|89:214|115:219,1,52.25,2|0,0:1|0:0,0:0:0:0:
126,74,297915,6,0,L|125:20,1,31.349999043274,2|0,0:0|0:0,0:0:0:0:
136,58,298086,2,0,L|134:3,1,36.5749988838196,2|0,0:0|0:0,0:0:0:0:
230,151,298257,54,0,L|223:212,1,52.25,2|0,0:0|0:0,0:0:0:0:
255,130,298429,2,0,L|249:186,1,47.0249985649109,2|0,0:0|0:0,0:0:0:0:
276,111,298600,2,0,L|271:162,1,41.8,2|0,0:0|0:0,0:0:0:0:
294,95,298772,2,0,L|290:141,1,36.5749988838196,2|0,0:0|0:0,0:0:0:0:
436,129,298943,6,0,P|394:155|378:173,1,52.25,2|0,0:2|0:0,0:0:0:0:
230,151,299286,6,0,L|280:169,1,31.349999043274,2|0,0:0|0:0,0:0:0:0:
263,182,299457,2,0,L|315:199,1,36.5749988838196,2|0,0:0|0:0,0:0:0:0:
376,304,299629,54,0,L|383:243,1,52.25,2|0,0:0|0:0,0:0:0:0:
351,325,299801,2,0,L|357:269,1,47.0249985649109,2|0,0:0|0:0,0:0:0:0:
330,344,299972,2,0,L|335:293,1,41.8,2|0,0:0|0:0,0:0:0:0:
312,360,300144,2,0,L|316:314,1,36.5749988838196,2|0,0:0|0:0,0:0:0:0:
189,236,300315,22,2,P|185:269|189:293,1,52.25,2|0,0:2|0:0,0:0:0:0:
104,142,300657,70,0,L|74:152,1,31.349999043274,2|0,0:2|0:0,0:0:0:0:
52,150,300829,2,0,L|102:129,1,36.5749988838196,2|0,0:0|0:0,0:0:0:0:
179,14,301000,70,0,L|169:79,1,52.25,2|0,0:0|0:0,0:0:0:0:
202,134,301172,2,0,L|209:86,1,47.0249985649109,2|0,0:0|0:0,0:0:0:0:
186,23,301343,2,0,L|179:71,1,41.8,2|0,0:0|0:3,0:3:0:0:
195,125,301515,2,0,L|200:88,1,36.5749988838196,2|0,0:0|0:3,0:3:0:0:
323,236,301685,22,2,P|327:269|323:293,1,52.25,2|0,0:2|0:0,0:0:0:0:
408,142,302029,70,0,L|437:152,1,31.349999043274,2|0,0:2|0:0,0:0:0:0:
460,150,302201,2,0,L|410:129,1,36.5749988838196,2|0,0:0|0:0,0:0:0:0:
333,14,302372,70,0,L|343:79,1,52.25,2|0,0:0|0:0,0:0:0:0:
310,134,302544,2,0,L|303:86,1,47.0249985649109,2|0,0:0|0:0,0:0:0:0:
326,23,302715,2,0,L|333:71,1,41.8,2|0,0:0|0:3,0:3:0:0:
317,125,302885,2,0,L|312:88,1,36.5749988838196,2|0,0:0|0:3,0:3:0:0:
189,205,303057,5,2,0:0:0:0:
189,205,303400,6,0,P|184:250|202:283,1,62.6999980865479,2|0,0:0|0:0,0:0:0:0:
70,103,303743,70,0,L|11:112,1,47.0249985649109,2|0,0:2|0:0,0:0:0:0:
96,121,303915,2,0,L|42:130,1,41.8,2|0,0:0|0:0,0:0:0:0:
120,137,304086,2,0,L|70:145,1,36.5749988838196,2|0,0:0|0:0,0:0:0:0:
140,150,304258,2,0,L|96:159,1,31.349999043274,2|0,0:0|0:0,0:0:0:0:
263,182,304428,5,2,0:0:0:0:
263,182,304771,70,0,P|275:134|271:117,1,52.25,2|0,0:0|0:0,0:0:0:0:
154,158,305115,6,0,L|207:140,1,41.8,2|0,0:0|0:0,0:0:0:0:
138,184,305285,2,0,L|190:169,1,36.5749988838196,2|0,0:0|0:0,0:0:0:0:
124,210,305458,2,0,L|168:196,1,31.349999043274,2|0,0:0|0:0,0:0:0:0:
112,230,305628,2,0,L|155:218,1,26.125,2|0,0:0|0:0,0:0:0:0:
70,313,305800,69,2,0:0:0:0:
70,313,306143,6,0,P|103:324|131:320,1,52.25,2|2,0:0|0:0,0:0:0:0:
209,272,306486,70,0,L|176:231,1,36.5749988838196,2|0,0:0|0:0,0:0:0:0:
213,246,306657,2,0,L|172:214,1,31.349999043274,2|0,0:0|0:0,0:0:0:0:
210,224,306829,2,0,L|168:204,1,26.125,2|0,0:0|0:0,0:0:0:0:
207,206,307000,2,0,L|161:197,1,26.125,2|0,0:0|0:0,0:0:0:0:
122,140,307172,6,0,L|60:149,1,52.25,2|0,0:2|0:0,0:0:0:0:
207,56,307515,22,0,P|223:76|233:101,1,52.25,2|0,0:2|0:0,0:0:0:0:
373,89,307857,6,0,P|349:99|330:116,2,52.25,2|0|0,0:0|0:0|0:0,0:0:0:0:
407,208,308372,54,0,P|422:300|534:316,1,219.449993302918,2|0,0:2|0:0,0:0:0:0:
