osu file format v14

[General]
AudioFilename: audio.mp3
AudioLeadIn: 0
PreviewTime: 239872
Countdown: 0
SampleSet: Soft
StackLeniency: 0.7
Mode: 0
LetterboxInBreaks: 0
WidescreenStoryboard: 0

[Editor]
Bookmarks: 15408,29122,42837,56551,70265,83980,94265,97694,111408,125122,131980,138837,152551,159408,166265,179980,198837,212551,223923,224137,224459,224566,226265,239980,253694,267408,281122,294837,308551,318837,341137
DistanceSpacing: 0.3
BeatDivisor: 4
GridSize: 8
TimelineZoom: 2.499999

[Metadata]
Title:Transformations Ft. Laura Brehm
TitleUnicode:Transformations Ft. Laura Brehm
Artist:Rameses B
ArtistUnicode:Rameses B
Creator:Mir
Version:Evolution
Source:
Tags:monstercat glitch technical female vocalist 016 expedition dubstep
BeatmapID:1255843
BeatmapSetID:593642

[Difficulty]
HPDrainRate:5.5
CircleSize:4
OverallDifficulty:8
ApproachRate:9
SliderMultiplier:2.5
SliderTickRate:1

[Events]
//Background and Video events
0,0,"asuteroid2resizedaaa.jpg",0,0
//Break Periods
2,170001,195237
//Storyboard Layer 0 (Background)
//Storyboard Layer 1 (Fail)
//Storyboard Layer 2 (Pass)
//Storyboard Layer 3 (Foreground)
//Storyboard Sound Samples

[TimingPoints]
-20,428.571428571429,4,2,1,30,1,0
408,-166.666666666667,4,2,1,30,0,0
15408,-142.857142857143,4,2,2,30,0,0
29122,-125,4,2,1,60,0,0
35872,-125,4,2,1,5,0,0
35980,-125,4,2,1,60,0,0
41015,-125,4,2,1,5,0,0
41122,-125,4,2,1,60,0,0
56551,-200,4,2,1,60,0,0
70265,-142.857142857143,4,2,1,60,0,0
90837,-142.857142857143,4,2,1,65,0,0
92551,-142.857142857143,4,2,1,70,0,0
95980,-142.857142857143,4,2,1,50,0,0
98122,-66.6666666666667,4,2,1,90,0,1
98551,-200,4,2,1,90,0,1
99194,-200,4,2,1,90,0,1
99247,-200,4,2,1,5,0,1
99301,-200,4,2,1,90,0,1
99355,-200,4,2,1,5,0,1
99408,-66.6666666666667,4,2,1,90,0,1
99837,-76.9230769230769,4,2,1,90,0,1
100694,-66.6666666666667,4,2,1,90,0,1
101551,-66.6666666666667,4,2,1,90,0,1
101980,-125,4,2,1,90,0,1
103480,-66.6666666666667,4,2,1,90,0,1
105408,-125,4,2,1,90,0,1
105837,-76.9230769230769,4,2,1,90,0,1
107980,-66.6666666666667,4,2,1,90,0,1
108622,-200,4,2,1,90,0,1
108837,-66.6666666666667,4,2,1,90,0,1
109694,-200,4,2,1,90,0,1
109908,-66.6666666666667,4,2,1,90,0,1
110551,-100,4,2,1,90,0,1
110980,-100,4,2,1,90,0,1
111194,-66.6666666666667,4,2,1,90,0,0
111408,-66.6666666666667,4,2,1,90,0,1
112372,-66.6666666666667,4,2,1,5,0,1
112694,-66.6666666666667,4,2,1,90,0,1
115694,-125,4,2,1,90,0,1
116122,-66.6666666666667,4,2,1,90,0,1
125122,-133.333333333333,4,2,1,60,0,0
126301,-133.333333333333,4,2,1,5,0,0
126408,-133.333333333333,4,2,1,60,0,0
128872,-133.333333333333,4,2,1,5,0,0
128980,-133.333333333333,4,2,1,60,0,0
131980,-100,4,2,1,60,0,0
132301,-100,4,2,1,5,0,0
132408,-100,4,2,1,60,0,0
140390,-100,4,2,1,5,0,0
140444,-100,4,2,1,60,0,0
140497,-100,4,2,1,5,0,0
140551,-100,4,2,1,60,0,0
151694,-200,4,2,1,60,0,0
152551,-100,4,2,1,60,0,0
159408,-142.857142857143,4,2,1,60,0,0
166265,-200,4,2,1,60,0,0
169801,-200,4,2,1,25,0,0
169908,-200,4,2,1,60,0,0
212551,-166.666666666667,4,2,1,60,0,0
226587,-125,4,2,1,60,0,0
239230,-200,4,2,1,30,0,0
239980,-125,4,2,1,60,0,0
240408,-66.6666666666667,4,2,1,90,0,1
243408,-66.6666666666667,4,2,1,90,0,1
253480,-66.6666666666667,4,2,1,90,0,0
253694,-66.6666666666667,4,2,1,90,0,1
265908,-100,4,2,1,90,0,1
267408,-100,4,2,1,30,0,0
281122,-142.857142857143,4,2,1,30,0,0
293444,-142.857142857143,4,2,1,5,0,0
293551,-142.857142857143,4,2,1,30,0,0
293872,-142.857142857143,4,2,1,5,0,0
293980,-142.857142857143,4,2,1,30,0,0
294730,-142.857142857143,4,2,1,5,0,0
294837,-200,4,2,1,30,0,0
308551,-333.333333333333,4,2,1,30,0,0
308651,-333.333333333333,4,2,1,10,0,0
309837,-333.333333333333,4,2,1,30,0,0
310372,-333.333333333333,4,2,1,10,0,0
311551,-333.333333333333,4,2,1,30,0,0
312087,-333.333333333333,4,2,1,10,0,0
313265,-333.333333333333,4,2,1,30,0,0
315515,-333.333333333333,4,2,1,10,0,0
316694,-333.333333333333,4,2,1,30,0,0
319694,-333.333333333333,4,2,1,25,0,0
320551,-333.333333333333,4,2,1,20,0,0
321408,-333.333333333333,4,2,1,15,0,0
322265,-333.333333333333,4,2,1,10,0,0
323122,-333.333333333333,4,2,1,5,0,0

[Colours]
Combo1 : 85,147,221
Combo2 : 158,199,148
Combo3 : 118,119,177
Combo4 : 70,240,240

[HitObjects]
136,144,408,5,0,0:0:0:0:
150,147,837,1,0,0:0:0:0:
164,151,1265,1,0,0:0:0:0:
193,44,1694,5,2,3:2:0:0:
177,31,2122,2,0,L|88:27,1,74.9999977111817,0|0,0:2|0:2,0:2:0:0:
68,103,2551,1,0,0:2:0:0:
11,39,2765,1,0,0:2:0:0:
84,120,2980,2,0,P|86:181|22:237,1,149.999995422363,2|0,0:2|0:2,0:2:0:0:
10,271,3837,6,0,L|120:276,1,74.9999977111817,2|0,0:2|0:2,0:2:0:0:
149,364,4265,2,0,L|39:369,1,74.9999977111817,0|0,0:2|0:2,0:2:0:0:
176,281,4694,2,0,L|286:286,1,74.9999977111817,0|0,0:2|0:2,0:2:0:0:
251,130,5122,6,0,P|226:197|237:225,1,74.9999977111817,2|0,0:2|0:2,0:2:0:0:
334,295,5551,2,0,P|330:259|309:228,1,74.9999977111817,0|0,0:2|0:2,0:2:0:0:
254,288,5980,1,0,0:2:0:0:
254,288,6194,1,0,0:2:0:0:
329,382,6408,2,0,L|172:376,1,149.999995422363,2|0,0:2|0:2,0:2:0:0:
139,370,7265,6,0,L|142:290,1,74.9999977111817,2|0,0:2|0:2,0:2:0:0:
46,208,7694,2,0,L|48:282,1,74.9999977111817,2|0,0:2|0:2,0:2:0:0:
126,174,8122,2,0,L|128:99,1,74.9999977111817,2|0,0:2|0:2,0:2:0:0:
306,69,8551,6,0,P|315:106|301:164,1,74.9999977111817,2|0,0:2|0:2,0:2:0:0:
221,218,8980,2,0,P|216:180|225:144,1,74.9999977111817,2|0,0:2|0:2,0:2:0:0:
310,244,9408,2,0,P|318:280|314:317,1,74.9999977111817,2|0,0:2|0:2,0:2:0:0:
201,348,9837,1,2,0:2:0:0:
216,326,10694,6,0,P|261:306|351:341,1,149.999995422363,2|0,0:2|0:2,0:2:0:0:
420,380,11337,2,0,P|457:379|490:361,1,74.9999977111817,2|0,0:2|0:2,0:2:0:0:
433,298,11765,1,0,0:0:0:0:
433,298,11980,6,0,B|422:255|425:220|449:220|452:180|431:124,1,149.999995422363,2|0,0:2|0:2,0:2:0:0:
383,83,12622,1,2,0:2:0:0:
293,91,12837,1,2,0:2:0:0:
253,27,14122,6,0,L|142:20,1,74.9999977111817,2|0,0:2|0:2,0:2:0:0:
66,108,14551,2,0,L|177:101,1,74.9999977111817,0|0,0:2|0:2,0:2:0:0:
290,117,14980,2,0,P|293:181|279:202,1,74.9999977111817,0|0,0:2|0:2,0:2:0:0:
48,343,15408,6,0,L|237:343,1,174.999994659424,2|2,3:2|0:2,0:2:0:0:
316,342,16051,1,8,0:2:0:0:
215,162,16265,1,0,0:2:0:0:
189,253,16480,1,0,0:2:0:0:
310,133,16694,2,0,P|259:72|167:79,1,174.999994659424,2|8,0:2|0:2,0:2:0:0:
157,94,17551,6,0,L|160:197,1,87.499997329712,2|8,0:2|0:2,0:2:0:0:
0,230,17980,2,0,P|40:215|121:239,1,87.499997329712,0|0,0:2|0:2,0:2:0:0:
247,260,18408,2,0,P|207:275|126:251,1,87.499997329712,0|0,0:2|0:2,0:2:0:0:
325,155,18837,5,10,0:2:0:0:
352,137,19265,2,0,L|345:17,1,87.499997329712,0|8,0:2|0:2,0:2:0:0:
262,7,19694,1,0,0:2:0:0:
426,1,19908,1,0,0:2:0:0:
439,157,20122,2,0,P|418:200|297:207,1,174.999994659424,2|8,0:2|0:2,0:2:0:0:
277,204,20980,6,0,L|281:319,1,87.499997329712,2|8,0:2|0:2,0:2:0:0:
179,360,21408,2,0,L|181:272,1,87.499997329712,0|0,0:2|0:2,0:2:0:0:
360,322,21837,2,0,P|309:376|269:375,1,87.499997329712,8|0,0:2|0:2,0:2:0:0:
114,223,22265,6,0,L|119:99,1,87.499997329712,10|0,0:2|0:2,0:2:0:0:
207,52,22694,2,0,L|210:139,1,87.499997329712,0|8,0:2|0:2,0:2:0:0:
33,138,23122,2,0,P|65:70|98:56,1,87.499997329712,0|0,0:2|0:2,0:2:0:0:
114,223,23551,2,0,L|110:310,1,87.499997329712,0|0,0:2|0:2,0:2:0:0:
267,349,23980,5,10,0:2:0:0:
243,329,24408,2,0,L|241:219,2,87.499997329712,2|8|0,0:2|0:2|0:2,0:2:0:0:
327,222,25051,2,0,P|298:174|246:154,1,87.499997329712,0|0,0:2|0:2,0:2:0:0:
241,241,25480,1,0,0:2:0:0:
409,259,25694,6,0,L|412:66,1,174.999994659424,10|0,0:2|0:2,0:2:0:0:
301,40,26337,1,8,0:2:0:0:
377,14,26551,2,0,P|426:7|472:36,1,87.499997329712,0|0,0:2|0:2,0:2:0:0:
301,40,26980,1,2,0:2:0:0:
226,62,27194,1,0,0:2:0:0:
151,84,27408,5,2,0:2:0:0:
76,106,28051,5,2,0:2:0:0:
1,128,28694,5,2,0:2:0:0:
386,78,29122,6,0,P|411:119|310:210,1,200,4|0,3:2|0:2,0:2:0:0:
243,116,29765,2,0,P|291:111|344:153,1,100,2|0,3:2|0:2,0:2:0:0:
304,290,30194,1,0,0:2:0:0:
142,125,30408,6,0,L|141:13,2,100,10|0|0,3:2|0:2|0:2,0:2:0:0:
188,264,31051,1,2,0:2:0:0:
91,223,31265,1,2,0:2:0:0:
285,247,31480,1,2,0:2:0:0:
309,245,31587,1,2,0:2:0:0:
111,336,31801,1,2,0:2:0:0:
87,334,31908,1,2,0:2:0:0:
156,170,32122,1,10,0:2:0:0:
155,144,32230,1,2,0:2:0:0:
156,119,32337,1,2,0:2:0:0:
288,228,32551,5,2,3:2:0:0:
288,228,32765,2,0,L|402:229,1,100,2|0,0:2|0:2,0:2:0:0:
446,124,33194,1,2,3:2:0:0:
398,328,33408,1,2,0:2:0:0:
469,132,33622,1,2,0:2:0:0:
320,98,33837,1,10,0:2:0:0:
295,99,33944,1,2,0:2:0:0:
270,100,34051,1,2,0:2:0:0:
495,139,34265,5,2,0:2:0:0:
458,269,34480,2,0,L|348:270,1,100,2|0,0:2|0:2,0:2:0:0:
96,151,34908,2,0,P|196:156|233:261,1,200,2|0,3:2|0:2,0:2:0:0:
74,340,35551,2,0,P|82:268|143:228,1,150,2|0,3:2|0:2,0:2:0:0:
156,313,35980,6,0,L|270:331,1,100,2|0,3:2|0:2,0:2:0:0:
313,265,36408,1,0,0:2:0:0:
291,84,36622,2,0,L|276:202,1,100,2|0,3:2|0:2,0:2:0:0:
373,202,37051,1,2,0:2:0:0:
363,22,37265,1,8,0:2:0:0:
347,6,37694,6,0,L|131:12,1,200,2|0,0:2|0:2,0:2:0:0:
51,57,38337,1,0,0:2:0:0:
138,113,38551,1,2,0:2:0:0:
142,137,38658,1,2,0:2:0:0:
146,161,38765,1,2,0:2:0:0:
46,310,38980,2,0,L|51:211,1,100,8|0,0:2|0:2,0:2:0:0:
181,344,39408,5,2,3:2:0:0:
202,357,39515,2,0,P|268:346|307:286,1,100,2|0,0:2|0:2,0:2:0:0:
305,304,39837,2,0,L|310:189,1,100,0|0,0:0|3:0,0:0:0:0:
250,90,40265,1,2,0:2:0:0:
196,248,40480,1,2,0:2:0:0:
90,132,40694,6,0,P|113:82|112:145,1,150,10|0,0:2|0:2,0:2:0:0:
103,218,41122,1,2,0:2:0:0:
5,96,41337,6,0,P|29:40|89:6,1,100,0|0,3:2|0:2,0:2:0:0:
90,132,41765,1,0,0:2:0:0:
227,249,41980,2,0,P|210:202|173:169,1,100,2|0,3:2|0:2,0:2:0:0:
46,200,42301,1,0,0:2:0:0:
37,211,42408,2,0,P|52:164|89:131,1,100,10|0,0:2|0:2,0:2:0:0:
199,343,42837,6,0,P|262:341|299:304,1,100,2|0,3:2|0:2,0:2:0:0:
348,127,43265,2,0,L|241:124,1,100,0|0,0:0|0:3,0:0:0:0:
163,194,43694,1,0,0:2:0:0:
256,234,43908,1,0,0:2:0:0:
402,7,44122,1,8,0:2:0:0:
268,14,44337,6,0,L|150:22,1,100,2|0,0:2|0:2,0:2:0:0:
20,102,44765,2,0,L|138:110,1,100,2|0,0:2|0:2,0:2:0:0:
225,117,45194,1,0,0:2:0:0:
249,122,45301,1,0,0:2:0:0:
270,134,45408,1,2,0:2:0:0:
286,153,45515,1,0,0:2:0:0:
295,179,45622,2,2,L|262:183,1,25,2|2,0:2|0:2,0:2:0:0:
291,205,45730,2,2,L|258:200,1,25,2|2,0:2|0:2,0:2:0:0:
281,231,45837,2,0,P|236:248|174:232,1,100,8|0,0:2|0:2,0:2:0:0:
10,157,46265,6,0,L|151:152,1,100,2|0,3:2|0:2,0:2:0:0:
134,152,46587,1,0,0:2:0:0:
158,150,46694,1,2,0:2:0:0:
59,293,46908,1,0,3:2:0:0:
193,328,47122,2,0,L|190:378,1,50
251,259,47337,2,0,L|248:209,1,50
303,331,47550,1,8,0:2:0:0:
189,151,47765,1,2,0:2:0:0:
107,182,47980,5,0,0:2:0:0:
334,191,48194,2,0,P|305:139|236:122,1,100,2|0,0:2|0:2,0:2:0:0:
60,109,48622,1,0,0:2:0:0:
74,89,48729,1,0,0:2:0:0:
94,73,48836,1,2,0:2:0:0:
116,61,48943,1,0,0:2:0:0:
140,55,49051,2,2,L|146:99,1,25,2|2,0:2|0:2,0:2:0:0:
169,53,49158,2,2,L|166:83,1,25,2|2,0:2|0:2,0:2:0:0:
197,58,49265,2,0,P|255:87|275:137,1,100,8|0,0:2|0:2,0:2:0:0:
192,203,49587,1,0,0:2:0:0:
204,216,49694,6,0,L|348:215,1,100,2|0,3:2|0:2,0:2:0:0:
388,183,50015,1,0,0:2:0:0:
406,199,50122,2,0,L|398:322,1,100,2|0,0:2|3:2,0:2:0:0:
326,378,50551,2,0,L|208:377,1,100,0|0,0:2|0:2,0:2:0:0:
51,283,50980,1,8,0:2:0:0:
124,72,51194,6,0,L|110:217,1,100,2|0,0:2|0:2,0:2:0:0:
177,284,51622,1,0,0:0:0:0:
259,146,51837,1,0,0:0:0:0:
264,170,51944,1,0,0:0:0:0:
270,194,52051,1,0,0:0:0:0:
271,61,52265,2,0,P|243:60|209:76,1,50,2|0,0:2|0:2,0:2:0:0:
112,118,52480,2,2,L|77:109,1,25,2|2,0:2|0:2,0:2:0:0:
98,143,52587,2,2,L|61:143,1,25,2|2,0:2|0:2,0:2:0:0:
105,170,52694,2,0,P|117:232|154:264,1,100,0|0,0:2|0:2,0:2:0:0:
310,334,53122,6,0,L|194:333,1,100,2|0,3:2|0:2,0:2:0:0:
245,235,53444,1,2,0:2:0:0:
261,215,53551,2,0,L|255:94,1,100,0|0,0:2|3:2,0:2:0:0:
154,4,53980,1,2,0:2:0:0:
241,35,54194,1,2,0:2:0:0:
41,72,54408,2,0,P|24:129|47:178,1,100,8|0,0:0|0:0,0:0:0:0:
191,97,54837,5,2,0:2:0:0:
215,93,54944,1,0,0:2:0:0:
240,95,55051,1,2,3:2:0:0:
263,104,55158,1,0,0:2:0:0:
314,152,55265,5,2,0:2:0:0:
338,156,55372,1,0,0:2:0:0:
363,154,55479,1,2,3:2:0:0:
386,145,55586,1,0,0:2:0:0:
449,115,55694,6,0,L|447:54,1,50,2|0,3:2|0:2,0:2:0:0:
364,27,55908,2,2,L|359:62,1,25,2|2,0:2|0:2,0:2:0:0:
341,20,56015,2,2,L|336:55,1,25,2|2,0:2|0:2,0:2:0:0:
316,12,56122,2,0,L|207:16,1,100,8|0,0:2|0:2,0:2:0:0:
195,30,56444,1,0,0:2:0:0:
179,40,56551,6,0,L|112:37,3,62.5,2|0|0|0,0:2|0:2|0:2|0:2,0:2:0:0:
88,116,57408,2,0,L|25:118,3,62.5,2|0|0|0,0:2|0:2|0:2|0:2,0:2:0:0:
164,155,58265,6,0,L|226:157,3,62.5,2|0|0|0,0:2|0:2|0:2|0:2,0:2:0:0:
94,221,59122,2,0,L|31:223,3,62.5,2|0|0|0,0:2|0:2|0:2|0:2,0:2:0:0:
227,264,59980,6,0,L|312:274,1,62.5,2|0,0:2|0:2,0:2:0:0:
331,279,60408,1,0,0:2:0:0:
374,286,60622,1,0,0:2:0:0:
301,174,60837,2,0,L|216:184,1,62.5,2|0,0:2|0:2,0:2:0:0:
197,189,61265,1,0,0:2:0:0:
154,196,61479,1,0,0:2:0:0:
246,72,61694,6,0,L|331:82,1,62.5,2|0,0:2|0:2,0:2:0:0:
350,87,62122,1,0,0:2:0:0:
393,94,62336,1,0,0:2:0:0:
238,1,62551,2,0,L|153:11,1,62.5,2|0,0:2|0:2,0:2:0:0:
98,23,62979,1,2,0:2:0:0:
55,29,63193,1,0,0:2:0:0:
86,148,63408,6,0,L|90:239,1,62.5,2|0,0:2|0:2,0:2:0:0:
96,279,63837,1,0,0:2:0:0:
94,250,64051,1,0,0:2:0:0:
205,166,64265,2,0,L|185:254,1,62.5,2|0,0:2|0:2,0:2:0:0:
180,295,64694,1,0,0:2:0:0:
186,266,64908,1,0,0:2:0:0:
311,213,65122,6,0,L|268:293,1,62.5,2|0,0:2|0:2,0:2:0:0:
233,367,65551,1,2,0:2:0:0:
253,338,65765,1,0,0:2:0:0:
418,283,65980,2,0,L|356:350,1,62.5,2|0,0:2|0:2,0:2:0:0:
331,381,66409,1,0,0:2:0:0:
350,359,66623,1,0,0:2:0:0:
391,206,66837,6,0,L|383:131,1,62.5,2|0,0:2|0:2,0:2:0:0:
380,100,67265,1,0,0:0:0:0:
375,56,67480,1,0,0:0:0:0:
289,125,67694,2,0,L|282:187,1,62.5,2|0,0:2|0:2,0:2:0:0:
278,230,68122,1,0,0:0:0:0:
274,273,68337,1,0,0:0:0:0:
181,165,68551,6,0,L|187:227,3,62.5,2|0|0|0,0:2|0:2|0:2|0:2,0:2:0:0:
156,46,69408,5,2,0:2:0:0:
102,139,69622,1,0,0:2:0:0:
246,64,69837,1,0,0:2:0:0:
144,37,70051,1,0,0:2:0:0:
474,111,70265,5,2,3:2:0:0:
288,151,70694,1,0,3:2:0:0:
422,255,71122,1,0,3:2:0:0:
359,21,71551,1,0,3:2:0:0:
288,151,71980,1,0,3:2:0:0:
140,199,72408,5,2,3:2:0:0:
197,121,72622,1,2,0:2:0:0:
288,151,72836,1,2,3:2:0:0:
288,247,73050,1,2,0:2:0:0:
197,276,73265,1,2,3:2:0:0:
164,54,73694,5,0,3:2:0:0:
43,188,74122,1,0,3:2:0:0:
240,157,74551,1,0,3:2:0:0:
55,75,74979,1,0,3:2:0:0:
151,250,75408,1,0,3:2:0:0:
445,259,75837,5,2,3:2:0:0:
388,337,76051,2,0,L|397:390,1,43.749998664856,2|0,0:0|0:0,0:0:0:0:
297,307,76265,2,0,L|240:343,1,43.749998664856,2|0,3:2|0:0,0:0:0:0:
297,211,76480,2,0,L|221:192,1,43.749998664856
388,182,76694,1,8,3:2:0:0:
297,307,76908,1,0,0:2:0:0:
388,337,77122,5,0,3:2:0:0:
177,261,77551,1,0,3:2:0:0:
327,222,77980,1,0,3:2:0:0:
178,380,78409,1,0,3:2:0:0:
327,222,78837,1,0,3:2:0:0:
179,174,79265,5,2,3:2:0:0:
236,252,79479,1,2,0:2:0:0:
327,222,79693,1,2,3:2:0:0:
327,126,79907,1,2,0:2:0:0:
236,97,80122,1,2,3:2:0:0:
474,232,80551,5,0,3:2:0:0:
402,95,80765,1,0,0:2:0:0:
391,76,80872,1,0,0:2:0:0:
380,56,80980,1,0,3:2:0:0:
305,156,81194,1,0,0:2:0:0:
294,176,81302,1,0,0:2:0:0:
283,195,81408,2,0,P|282:216|283:251,2,43.749998664856,0|0|0,3:0|0:0|0:0,0:0:0:0:
247,49,81837,2,0,L|149:46,1,87.499997329712,0|0,3:0|0:0,0:0:0:0:
111,168,82265,6,0,L|106:222,1,43.749998664856,2|0,3:2|0:2,0:2:0:0:
178,247,82480,2,0,L|183:301,1,43.749998664856,2|0,0:2|0:2,0:2:0:0:
273,356,82694,1,2,3:2:0:0:
293,363,82801,1,0,0:2:0:0:
315,364,82908,1,2,0:2:0:0:
336,360,83015,1,0,0:2:0:0:
355,351,83122,2,0,P|382:337|413:338,1,43.749998664856,2|0,3:2|0:2,0:2:0:0:
443,270,83337,2,0,P|416:256|385:257,1,43.749998664856,2|0,0:2|0:2,0:2:0:0:
178,247,83551,1,10,3:2:0:0:
312,203,83765,1,0,0:2:0:0:
455,131,83980,6,0,L|326:124,1,87.499997329712,4|2,3:2|0:2,0:2:0:0:
209,198,84408,2,0,L|338:191,1,87.499997329712,0|2,3:2|0:2,0:2:0:0:
264,96,84837,2,0,L|135:89,1,87.499997329712,0|2,3:2|0:2,0:2:0:0:
18,163,85265,2,0,L|147:156,1,87.499997329712,0|2,3:2|0:2,0:2:0:0:
199,207,85694,5,0,3:2:0:0:
91,72,85908,1,2,0:2:0:0:
66,247,86122,1,0,3:2:0:0:
215,197,86337,1,2,0:2:0:0:
236,191,86444,1,0,0:2:0:0:
257,189,86551,1,0,3:2:0:0:
279,189,86658,1,0,0:2:0:0:
301,193,86765,1,2,0:2:0:0:
354,282,86980,2,0,P|302:296|250:280,1,87.499997329712,8|2,3:2|0:2,0:2:0:0:
302,106,87408,6,0,L|300:218,1,87.499997329712,0|2,3:2|0:2,0:2:0:0:
188,342,87837,2,0,L|186:254,1,87.499997329712,0|2,3:2|0:2,0:2:0:0:
201,65,88265,2,0,L|199:177,1,87.499997329712,0|2,3:2|0:2,0:2:0:0:
87,301,88694,2,0,L|85:213,1,87.499997329712,0|2,3:2|0:2,0:2:0:0:
199,152,89122,5,0,3:2:0:0:
93,330,89337,1,2,0:2:0:0:
86,187,89551,1,0,3:2:0:0:
285,242,89765,1,2,0:2:0:0:
306,244,89872,1,0,0:2:0:0:
328,241,89979,1,0,3:2:0:0:
348,233,90086,1,0,0:2:0:0:
366,221,90193,1,2,0:2:0:0:
381,205,90300,1,0,0:2:0:0:
392,186,90407,1,8,3:2:0:0:
218,196,90622,2,0,P|196:248|198:272,1,43.749998664856,2|0,0:2|0:2,0:2:0:0:
375,313,90837,5,0,3:2:0:0:
306,154,91051,1,2,3:2:0:0:
295,251,91265,1,0,3:2:0:0:
399,108,91480,1,2,3:2:0:0:
388,209,91694,1,0,3:2:0:0:
313,60,91908,1,2,3:2:0:0:
214,192,92122,1,0,3:2:0:0:
399,108,92337,1,2,3:2:0:0:
137,130,92551,5,0,3:2:0:0:
295,251,92765,1,2,3:2:0:0:
156,36,92980,1,0,3:2:0:0:
122,229,93194,1,2,3:2:0:0:
306,154,93408,1,0,3:2:0:0:
156,36,93622,1,2,3:2:0:0:
198,293,93837,1,0,3:2:0:0:
313,60,94051,1,2,3:2:0:0:
87,74,94265,5,0,3:2:0:0:
87,83,94372,1,0,3:2:0:0:
87,95,94479,1,0,3:2:0:0:
87,106,94586,1,0,3:2:0:0:
100,116,94693,5,0,3:2:0:0:
101,127,94800,1,0,3:2:0:0:
101,138,94907,1,0,3:2:0:0:
101,149,95014,1,0,3:2:0:0:
89,159,95122,5,0,3:2:0:0:
90,170,95229,1,0,3:2:0:0:
90,182,95336,1,0,3:2:0:0:
90,193,95443,1,0,3:2:0:0:
102,203,95550,5,0,3:2:0:0:
102,214,95657,1,0,3:2:0:0:
104,225,95764,1,0,3:2:0:0:
104,236,95872,1,0,3:2:0:0:
111,310,95980,5,10,0:2:0:0:
129,322,96087,1,2,0:2:0:0:
150,329,96194,1,2,0:2:0:0:
171,332,96301,1,2,0:2:0:0:
193,329,96408,2,0,L|243:322,1,43.749998664856
327,350,96622,5,2,0:2:0:0:
349,341,96729,1,2,0:2:0:0:
361,322,96837,2,0,P|364:272|355:254,2,43.749998664856,8|0|0,0:2|0:2|0:2,0:2:0:0:
262,232,97158,2,0,P|256:210|256:188,1,43.749998664856,8|0,0:2|0:2,0:2:0:0:
356,127,97372,1,0,0:0:0:0:
367,146,97480,2,0,P|367:167|362:188,1,43.749998664856,8|0,0:2|0:2,0:2:0:0:
119,148,97694,6,0,L|180:151,1,43.749998664856
312,63,97908,2,0,L|251:66,1,43.749998664856
182,231,98122,6,0,B|-14:234|-14:234|90:208,1,281.250010728836,2|0,0:2|0:2,0:2:0:0:
119,148,98551,6,0,L|120:116,1,31.25,8|0,0:2|0:2,0:2:0:0:
153,110,98765,2,0,L|146:80,1,31.25,0|0,0:2|0:2,0:2:0:0:
180,73,98980,2,0,L|162:44,1,31.25,0|0,0:2|0:2,0:2:0:0:
404,24,99194,6,0,L|376:28,1,15.625,0|0,0:2|0:2,0:2:0:0:
402,40,99301,2,0,L|429:44,1,15.625,0|0,0:2|0:2,0:2:0:0:
402,57,99408,6,0,B|397:109|397:109|412:150,1,93.7500035762788,2|0,3:2|0:2,0:2:0:0:
420,239,99622,2,0,B|424:186|424:186|409:145,1,93.7500035762788,2|0,3:2|0:2,0:2:0:0:
325,270,99837,2,0,B|283:309|311:388,1,81.2499962806703,0|0,0:2|0:2,0:2:0:0:
474,350,100051,2,0,P|429:330|359:348,1,81.2499962806703,0|0,0:2|0:2,0:2:0:0:
212,334,100265,5,8,0:2:0:0:
184,335,100372,1,0,0:2:0:0:
157,327,100479,1,0,0:2:0:0:
133,312,100586,1,0,0:2:0:0:
114,288,100694,2,0,P|97:258|96:175,1,93.7500035762788,2|0,0:2|0:2,0:2:0:0:
209,121,100908,2,0,P|205:167|184:209,1,93.7500035762788,2|0,0:2|0:2,0:2:0:0:
20,114,101122,6,0,L|138:113,1,93.7500035762788,0|0,3:2|0:2,0:2:0:0:
255,36,101337,2,0,L|137:35,1,93.7500035762788,0|0,0:2|0:2,0:2:0:0:
296,125,101551,6,0,B|382:103|374:177|459:157|485:140|481:113|481:113|473:84|427:88|415:146,1,281.250010728836,2|0,0:2|0:2,0:2:0:0:
326,222,101980,6,0,L|328:286,1,50,8|0,0:2|0:2,0:2:0:0:
291,249,102194,2,0,L|276:311,1,50,0|0,0:2|0:2,0:2:0:0:
128,283,102408,1,0,3:2:0:0:
128,258,102515,1,0,0:2:0:0:
136,234,102622,2,0,P|146:206|145:165,1,50,0|0,0:2|0:2,0:2:0:0:
59,88,102837,6,0,B|108:83|108:83|159:102|159:102|245:94,1,150,2|0,0:2|0:2,0:2:0:0:
229,95,103265,1,2,0:2:0:0:
253,89,103372,1,0,0:0:0:0:
276,85,103480,2,0,B|292:128|292:128|288:202,1,93.7500035762788,2|0,3:2|0:2,0:2:0:0:
317,348,103694,5,8,0:2:0:0:
335,343,103801,1,0,0:2:0:0:
353,338,103908,1,0,0:2:0:0:
371,334,104015,1,0,0:2:0:0:
427,279,104122,5,2,3:2:0:0:
418,252,104229,1,0,0:2:0:0:
347,220,104337,5,2,0:2:0:0:
359,195,104444,1,0,0:2:0:0:
416,136,104551,6,0,P|367:111|321:119,1,93.7500035762788,2|0,0:2|0:2,0:2:0:0:
164,84,104765,2,0,P|215:101|242:139,1,93.7500035762788,2|0,0:2|0:2,0:2:0:0:
245,259,104980,6,0,B|223:292|217:349|217:349|213:227|143:157,1,281.250010728836,2|0,0:2|0:2,0:2:0:0:
77,101,105408,6,0,L|7:104,1,50,8|0,0:2|0:2,0:2:0:0:
57,140,105622,2,0,L|-10:161,1,50,0|0,0:2|0:2,0:2:0:0:
9,271,105837,2,0,B|45:294|45:294|108:295,1,81.2499962806703,2|0,0:2|0:2,0:2:0:0:
158,318,106051,2,0,B|122:295|122:295|59:294,1,81.2499962806703,2|0,0:2|0:2,0:2:0:0:
246,379,106265,6,0,L|365:374,1,81.2499962806703,0|0,0:2|0:2,0:2:0:0:
512,330,106480,2,0,L|393:325,1,81.2499962806703,0|0,3:2|0:2,0:2:0:0:
347,169,106694,1,0,0:0:0:0:
352,145,106801,1,0,0:0:0:0:
350,120,106908,1,0,0:0:0:0:
343,97,107015,1,0,0:0:0:0:
279,43,107122,6,0,L|161:42,1,81.2499962806703,8|0,0:0|0:0,0:0:0:0:
48,99,107337,2,0,L|129:98,1,81.2499962806703
261,189,107551,2,0,B|280:233|279:344|279:344|289:290|333:241,1,243.749988842011,0|0,3:2|0:2,0:2:0:0:
384,144,107980,6,0,B|402:69|363:-2|363:-2|444:-7|444:-7|471:76,1,281.250010728836,2|0,3:2|0:2,0:2:0:0:
469,125,108408,1,0,0:2:0:0:
468,134,108515,1,0,0:2:0:0:
466,143,108622,2,0,L|463:194,1,31.25,0|0,0:2|0:2,0:2:0:0:
328,287,108837,5,8,0:0:0:0:
299,285,108944,1,0,0:0:0:0:
271,284,109051,1,0,0:0:0:0:
243,283,109158,1,0,0:0:0:0:
172,230,109265,5,2,3:2:0:0:
187,196,109372,1,0,0:2:0:0:
186,159,109479,1,0,0:2:0:0:
169,126,109586,1,0,0:2:0:0:
138,104,109694,6,0,L|101:105,1,31.25,2|0,0:2|0:2,0:2:0:0:
247,45,109908,6,0,B|390:36|390:36|311:73,1,187.500007152558,2|0,3:2|0:2,0:2:0:0:
338,76,110337,2,4,B|317:123|317:123|330:209,1,93.7500035762788,2|0,3:2|0:2,0:2:0:0:
402,278,110551,2,0,L|402:332,1,31.25,8|0,0:2|0:2,0:2:0:0:
372,298,110658,2,0,L|372:352,1,31.25,0|0,0:2|0:2,0:2:0:0:
347,319,110765,2,0,L|347:373,1,31.25,0|0,0:2|0:2,0:2:0:0:
208,270,110980,2,0,P|241:257|313:276,1,62.5,10|0,0:2|0:2,0:2:0:0:
216,361,111194,2,0,P|184:359|156:348,1,62.5,0|0,0:2|0:2,0:2:0:0:
169,54,111408,6,0,B|185:97|185:97|174:143,1,93.7500035762788,2|0,3:2|0:2,0:2:0:0:
86,255,111622,2,0,B|75:208|75:208|91:165,1,93.7500035762788,0|0,0:2|0:2,0:2:0:0:
270,92,111837,1,0,0:2:0:0:
298,91,111944,1,0,0:2:0:0:
326,91,112051,2,0,L|456:85,1,93.7500035762788,2|0,0:2|0:2,0:2:0:0:
503,291,112265,6,0,L|505:403,1,93.7500035762788,8|0,0:0|0:0,0:0:0:0:
355,273,112694,5,2,0:0:0:0:
351,245,112801,1,2,0:0:0:0:
356,217,112908,1,2,0:0:0:0:
370,192,113015,1,2,0:0:0:0:
438,248,113122,6,0,B|368:261|368:261|313:237|313:237|258:277|203:271|144:217,1,281.250010728836,2|0,3:2|0:2,0:2:0:0:
147,219,113551,1,0,0:2:0:0:
96,67,113765,1,0,3:2:0:0:
108,93,113872,1,0,0:2:0:0:
186,144,113980,2,0,L|301:141,1,93.7500035762788,10|0,0:2|0:2,0:2:0:0:
428,71,114194,2,0,L|313:68,1,93.7500035762788,0|0,0:2|0:2,0:2:0:0:
150,59,114408,1,0,0:2:0:0:
125,71,114515,1,0,0:2:0:0:
108,93,114622,2,0,P|91:134|118:200,1,93.7500035762788,0|0,0:2|0:2,0:2:0:0:
316,269,114837,6,0,B|246:276|246:276|200:258|200:258|46:267,1,187.500007152558,2|0,3:2|0:2,0:2:0:0:
395,140,115265,6,0,B|428:71|428:71|426:276,1,281.250010728836,2|0,0:2|0:2,0:2:0:0:
297,283,115694,6,0,L|303:345,1,50,8|0,0:2|0:2,0:2:0:0:
278,236,115908,2,0,L|267:297,1,50,0|0,0:2|0:2,0:2:0:0:
253,197,116122,6,0,B|142:128|54:203|54:203|97:173|160:198,1,281.250010728836,2|0,3:2|0:2,0:2:0:0:
99,269,116551,6,0,B|154:276|172:375|172:375|211:274|268:285,1,281.250010728836,2|0,0:2|0:2,0:2:0:0:
294,296,116980,1,0,0:2:0:0:
75,275,117194,1,0,3:2:0:0:
58,74,117408,2,0,L|189:77,1,93.7500035762788,8|0,0:2|0:2,0:2:0:0:
316,108,117622,2,0,L|155:123,1,93.7500035762788,0|0,0:2|0:2,0:2:0:0:
68,183,117837,1,0,3:2:0:0:
96,184,117944,1,0,0:2:0:0:
124,185,118051,1,0,0:2:0:0:
152,185,118158,1,0,0:2:0:0:
180,188,118265,6,0,B|216:201|250:194|250:194|206:263|206:263|242:312|233:397,1,281.250010728836,2|0,3:2|0:2,0:2:0:0:
22,299,118694,2,0,P|64:279|110:286,1,93.7500035762788,2|0,0:2|0:2,0:2:0:0:
156,361,118908,2,0,P|144:317|110:286,1,93.7500035762788,2|0,0:2|0:2,0:2:0:0:
77,358,119122,1,8,0:2:0:0:
113,51,119337,1,0,0:2:0:0:
105,78,119444,1,0,0:2:0:0:
98,103,119551,2,0,B|92:152|92:152|112:221,1,93.7500035762788,2|0,0:2|0:2,0:2:0:0:
110,286,119765,2,0,B|116:237|116:237|96:168,1,93.7500035762788,2|0,0:2|0:2,0:2:0:0:
346,113,119980,6,0,B|379:97|379:97|304:84|304:84|230:98,2,187.500007152558,2|0|0,0:2|3:2|0:2,0:2:0:0:
444,41,120622,1,0,0:2:0:0:
471,36,120730,1,0,0:2:0:0:
504,110,120837,2,0,L|508:250,1,93.7500035762788,10|0,0:2|0:2,0:2:0:0:
387,339,121051,2,0,L|389:245,1,93.7500035762788,0|0,0:2|0:2,0:2:0:0:
276,75,121265,6,0,B|77:76|77:76|174:110,1,281.250010728836,2|0,3:2|0:2,0:2:0:0:
295,166,121694,6,0,P|351:129|367:64,1,93.7500035762788,2|0,3:2|0:2,0:2:0:0:
375,21,121908,2,0,P|418:37|447:73,1,93.7500035762788,2|0,0:2|0:2,0:2:0:0:
287,252,122122,2,0,B|247:266|223:339|223:339|235:219|200:174,1,281.250010728836,2|0,0:2|0:2,0:2:0:0:
365,214,122551,2,0,B|440:239|506:239|506:239|441:238|366:271,1,281.250010728836,10|0,0:2|0:2,0:2:0:0:
85,230,122980,2,0,B|96:179|136:118|211:125|255:158|255:158|216:158|200:174,1,281.250010728836,2|0,3:2|0:2,0:2:0:0:
65,104,123408,6,0,P|209:57|350:145,1,281.250010728836,2|0,0:2|0:2,0:2:0:0:
392,236,123837,5,2,0:2:0:0:
386,271,123944,1,0,0:2:0:0:
315,223,124051,5,2,0:2:0:0:
310,185,124158,1,0,0:2:0:0:
386,154,124265,5,2,0:2:0:0:
413,155,124372,1,0,0:2:0:0:
440,165,124479,1,0,0:2:0:0:
461,184,124586,1,0,0:2:0:0:
392,236,124694,5,2,0:2:0:0:
386,271,124801,1,2,0:2:0:0:
378,307,124908,1,2,0:2:0:0:
370,343,125015,1,2,0:2:0:0:
361,375,125122,6,0,L|236:371,2,93.7500035762788,2|0|0,3:2|0:2|0:2,0:2:0:0:
392,236,125765,2,0,L|307:238,1,46.8750017881394
224,202,125980,2,0,B|147:191|157:236|56:207,1,140.625005364418,10|0,0:2|0:2,0:2:0:0:
90,126,126408,2,0,P|75:61|97:18,1,93.7500035762788,2|0,0:2|0:2,0:2:0:0:
324,35,126837,6,0,L|198:29,1,93.7500035762788,0|0,3:2|0:2,0:2:0:0:
90,126,127265,1,0,0:2:0:0:
291,143,127480,1,0,3:2:0:0:
267,127,127587,1,0,0:2:0:0:
244,110,127694,2,0,P|231:148|230:190,2,46.8750017881394,8|0|0,0:2|0:2|0:2,0:2:0:0:
371,320,128122,2,0,L|380:192,1,93.7500035762788,0|0,0:2|0:2,0:2:0:0:
269,73,128551,6,0,B|210:42|155:76|155:76|167:92|196:92,1,140.625005364418,2|0,3:2|0:2,0:2:0:0:
123,155,128980,2,0,P|78:109|94:15,1,140.625005364418,0|0,0:2|0:2,0:2:0:0:
156,76,129408,1,8,0:2:0:0:
17,180,129622,1,0,0:2:0:0:
204,219,129837,2,0,L|331:222,1,93.7500035762788,0|0,3:2|0:2,0:2:0:0:
160,295,130265,6,0,P|112:225|123:182,1,93.7500035762788,2|0,0:2|0:2,0:2:0:0:
115,187,130587,1,0,0:2:0:0:
134,160,130694,1,0,0:2:0:0:
240,130,130908,1,0,3:2:0:0:
261,323,131122,1,8,0:2:0:0:
173,48,131551,5,0,3:2:0:0:
199,32,131658,1,0,0:2:0:0:
230,25,131765,1,0,0:2:0:0:
261,28,131872,1,0,0:2:0:0:
288,40,131980,6,0,P|325:88|281:209,1,187.5,2|0,3:2|0:2,0:2:0:0:
228,247,132408,1,0,0:0:0:0:
396,187,132622,1,0,0:0:0:0:
180,328,132837,2,0,P|133:256|159:186,1,125,10|0,0:2|0:2,0:2:0:0:
144,190,133158,1,0,0:2:0:0:
165,167,133265,1,2,0:2:0:0:
228,247,133480,1,0,0:2:0:0:
60,163,133694,5,0,0:2:0:0:
237,119,133908,1,0,3:2:0:0:
237,119,134122,1,2,0:2:0:0:
128,65,134337,1,2,0:2:0:0:
228,247,134551,2,0,L|386:240,1,125,8|0,0:2|0:2,0:2:0:0:
326,363,134980,2,0,L|168:356,1,125,2|0,3:2|0:2,0:2:0:0:
165,331,135301,1,0,0:2:0:0:
142,293,135408,6,0,P|130:232|161:179,1,125,2|0,3:2|0:2,0:2:0:0:
369,143,135837,1,2,0:2:0:0:
226,247,136051,1,2,0:2:0:0:
369,143,136265,5,8,0:2:0:0:
397,131,136372,1,0,0:2:0:0:
429,130,136479,1,0,0:2:0:0:
458,140,136586,1,0,0:2:0:0:
412,212,136694,5,2,3:2:0:0:
383,223,136801,1,0,0:2:0:0:
351,224,136908,1,0,0:2:0:0:
322,214,137015,1,0,0:2:0:0:
256,175,137122,6,0,P|164:149|118:170,2,125,0|0|2,0:2|3:2|0:2,0:2:0:0:
82,237,137765,2,0,L|90:323,1,62.5,0|0,3:2|0:2,0:2:0:0:
353,300,137980,1,8,0:2:0:0:
355,262,138087,1,0,0:2:0:0:
360,224,138194,1,0,0:2:0:0:
177,276,138408,1,8,0:2:0:0:
182,314,138515,1,0,0:2:0:0:
184,352,138622,1,0,0:2:0:0:
136,65,138837,5,2,3:2:0:0:
314,201,139051,1,2,0:2:0:0:
74,139,139265,1,2,0:2:0:0:
52,116,139372,1,0,0:2:0:0:
41,86,139480,1,2,0:2:0:0:
194,176,139694,2,0,L|197:291,1,62.5,10|0,0:2|0:2,0:2:0:0:
86,269,139908,1,2,0:2:0:0:
64,292,140015,1,0,0:2:0:0:
53,322,140122,1,2,0:2:0:0:
265,352,140337,2,0,P|288:347|301:337,1,31.25
282,327,140444,2,0,P|301:314|310:300,1,31.25
294,286,140551,5,2,3:2:0:0:
358,221,140765,1,2,0:2:0:0:
262,384,140980,1,2,0:2:0:0:
274,175,141194,1,2,3:2:0:0:
271,143,141301,1,0,0:2:0:0:
268,111,141408,2,0,L|179:110,1,62.5,10|0,0:2|0:2,0:2:0:0:
79,45,141622,2,0,L|168:44,1,62.5,2|0,0:2|0:2,0:2:0:0:
282,20,141837,1,2,0:2:0:0:
313,21,141944,1,0,0:2:0:0:
344,22,142051,1,2,0:2:0:0:
375,23,142158,1,0,0:2:0:0:
410,26,142265,6,0,L|400:138,1,62.5,2|0,3:2|0:2,0:2:0:0:
365,237,142480,2,0,L|359:174,1,62.5,0|0,0:2|0:2,0:2:0:0:
438,297,142694,1,2,0:2:0:0:
415,318,142801,1,0,0:2:0:0:
385,327,142908,2,0,P|341:326|311:309,1,62.5,0|0,0:2|0:2,0:2:0:0:
233,162,143122,5,10,0:2:0:0:
257,181,143229,1,0,0:2:0:0:
273,208,143336,1,0,0:2:0:0:
280,238,143443,1,0,0:2:0:0:
236,318,143551,5,2,3:2:0:0:
204,316,143658,1,0,0:2:0:0:
172,314,143765,1,0,0:0:0:0:
140,312,143872,1,0,0:0:0:0:
108,309,143980,6,0,P|83:252|97:192,1,125,2|2,0:2|0:2,0:2:0:0:
120,170,144301,1,2,0:2:0:0:
150,161,144408,2,0,P|164:127|158:76,1,62.5,2|0,0:2|0:2,0:2:0:0:
19,25,144622,2,0,P|21:56|33:84,1,62.5,0|0,3:2|0:2,0:2:0:0:
285,56,144837,1,10,0:2:0:0:
315,51,144944,1,0,0:2:0:0:
346,47,145051,1,0,0:2:0:0:
238,190,145265,1,2,3:2:0:0:
208,180,145372,1,0,0:2:0:0:
183,161,145479,1,0,0:2:0:0:
167,134,145586,1,0,0:2:0:0:
164,101,145694,6,0,B|182:146|182:146|162:188|162:188|185:214|204:245|163:325,1,187.5,2|0,3:2|0:2,0:2:0:0:
41,259,146122,1,0,0:2:0:0:
68,252,146230,1,0,0:2:0:0:
99,248,146337,1,0,0:2:0:0:
311,236,146551,1,10,0:2:0:0:
268,150,146765,1,0,0:2:0:0:
267,118,146872,1,0,0:2:0:0:
268,86,146980,2,0,B|277:52|277:52|269:22,1,62.5
151,65,147194,2,0,B|143:91|143:91|152:125,1,62.5
220,253,147409,5,2,0:2:0:0:
351,169,147622,1,2,3:2:0:0:
351,169,147837,1,2,0:2:0:0:
293,312,148051,1,0,0:2:0:0:
322,322,148158,1,0,0:2:0:0:
353,321,148265,2,0,P|392:311|416:288,1,62.5,10|0,0:2|0:2,0:2:0:0:
353,232,148480,2,0,L|351:169,1,62.5,2|0,0:2|0:2,0:2:0:0:
435,6,148694,1,2,3:2:0:0:
464,15,148801,1,0,0:2:0:0:
488,35,148908,1,0,0:2:0:0:
504,61,149015,1,0,0:2:0:0:
510,92,149122,5,2,3:2:0:0:
350,168,149337,1,0,0:2:0:0:
207,43,149551,5,2,0:2:0:0:
179,28,149658,1,0,0:2:0:0:
148,22,149765,1,2,0:2:0:0:
117,25,149872,1,2,0:2:0:0:
147,106,149980,5,10,0:2:0:0:
174,120,150087,1,0,0:2:0:0:
205,126,150194,1,2,0:2:0:0:
236,123,150301,1,0,0:2:0:0:
293,66,150408,5,2,3:2:0:0:
319,48,150515,1,0,0:2:0:0:
350,42,150622,1,0,0:2:0:0:
381,45,150729,1,0,0:2:0:0:
416,56,150837,6,0,P|438:91|397:205,2,125,0|2|2,0:2|0:2|0:2,0:2:0:0:
348,198,151480,1,0,0:2:0:0:
361,226,151587,1,0,0:2:0:0:
376,255,151694,6,0,L|261:250,1,93.75,2|0,0:2|0:2,0:2:0:0:
183,224,152122,2,0,L|187:256,2,31.25,0|0|0,0:2|0:2|0:2,0:2:0:0:
222,106,152444,1,0,0:2:0:0:
197,125,152551,6,0,L|47:121,1,125,2|0,3:2|0:2,0:2:0:0:
207,17,152980,2,0,P|289:45|312:92,1,125,2|0,3:2|0:2,0:2:0:0:
301,197,153408,2,0,P|340:150|401:139,1,125,10|0,0:2|0:2,0:2:0:0:
311,296,153837,2,0,P|250:285|210:238,1,125,2|0,0:2|0:2,0:2:0:0:
389,236,154265,5,2,3:2:0:0:
404,262,154372,1,0,0:2:0:0:
411,293,154479,1,0,0:2:0:0:
408,324,154586,1,0,0:2:0:0:
396,352,154693,1,2,3:2:0:0:
301,197,154908,1,0,3:2:0:0:
195,338,155122,2,0,L|65:331,1,125,10|0,0:2|0:2,0:2:0:0:
29,226,155551,1,2,3:2:0:0:
47,202,155658,1,0,0:2:0:0:
74,186,155765,2,0,P|109:181|143:188,1,62.5,0|0,0:2|0:2,0:2:0:0:
301,197,155980,6,0,L|450:189,1,125,2|0,3:2|0:2,0:2:0:0:
267,114,156408,1,2,3:2:0:0:
240,130,156515,1,0,0:2:0:0:
223,156,156622,1,0,0:2:0:0:
349,66,156837,1,10,0:2:0:0:
327,43,156944,1,0,0:2:0:0:
300,29,157051,1,0,0:2:0:0:
269,24,157158,1,0,0:2:0:0:
238,28,157265,2,0,L|132:29,1,62.5,2|0,3:2|0:2,0:2:0:0:
74,99,157480,2,0,L|180:100,1,62.5,0|0,0:2|0:2,0:2:0:0:
267,114,157694,5,2,0:2:0:0:
186,289,157908,1,0,0:2:0:0:
146,110,158122,1,2,0:2:0:0:
292,232,158337,1,0,3:2:0:0:
322,235,158444,1,0,0:2:0:0:
353,232,158551,2,0,P|384:226|419:203,1,62.5,10|0,0:2|0:2,0:2:0:0:
264,147,158765,2,0,P|235:160|213:182,1,62.5,0|0,0:2|0:2,0:2:0:0:
26,280,158980,2,0,L|176:279,1,125,2|0,3:2|0:2,0:2:0:0:
186,289,159301,1,0,0:2:0:0:
216,307,159408,6,0,L|215:185,1,87.499997329712,2|0,3:2|0:2,0:2:0:0:
140,95,159837,2,0,L|139:182,1,87.499997329712,2|0,0:2|0:2,0:2:0:0:
222,54,160265,1,0,0:2:0:0:
209,36,160372,1,0,0:2:0:0:
193,21,160479,1,0,0:2:0:0:
173,11,160586,1,0,0:2:0:0:
152,6,160693,1,0,0:2:0:0:
140,95,160908,1,0,0:2:0:0:
304,35,161122,5,0,0:2:0:0:
326,36,161230,1,0,0:2:0:0:
347,37,161337,1,0,0:2:0:0:
446,39,161551,1,0,0:2:0:0:
425,234,161765,2,0,L|344:235,1,43.749998664856
205,140,161980,1,8,0:2:0:0:
222,242,162194,1,0,0:2:0:0:
243,242,162301,1,0,0:2:0:0:
265,243,162409,1,0,0:2:0:0:
345,379,162622,2,0,L|344:324,1,43.749998664856
325,134,162837,5,0,3:0:0:0:
222,242,163051,1,0,0:2:0:0:
129,145,163265,5,0,0:0:0:0:
123,123,163372,1,0,0:0:0:0:
124,102,163479,1,0,0:0:0:0:
131,81,163586,1,0,0:0:0:0:
209,115,163694,5,0,0:0:0:0:
230,120,163801,1,0,0:0:0:0:
251,119,163908,1,0,0:0:0:0:
272,112,164015,1,0,0:0:0:0:
290,100,164122,2,0,P|319:68|321:45,2,43.749998664856
168,217,164551,5,10,0:2:0:0:
287,210,164980,2,0,L|340:204,1,43.749998664856,2|0,0:2|0:2,0:2:0:0:
429,277,165194,2,0,L|376:271,1,43.749998664856,2|0,0:2|0:2,0:2:0:0:
213,263,165408,5,0,0:2:0:0:
204,260,165515,1,0,0:2:0:0:
195,256,165622,1,0,0:2:0:0:
186,252,165730,1,0,0:2:0:0:
168,217,165837,5,0,0:2:0:0:
153,221,165944,1,0,0:2:0:0:
139,228,166051,1,0,0:2:0:0:
124,234,166159,1,0,0:2:0:0:
90,201,166265,5,6,0:2:0:0:
256,192,166372,12,2,169801,0:2:0:0:
256,192,195837,12,0,198408,0:2:0:0:
118,66,198837,6,0,L|116:207,1,125,0|0,3:2|0:2,0:2:0:0:
147,289,199480,2,0,P|194:259|220:187,1,125,2|0,0:2|0:2,0:2:0:0:
116,190,200122,2,0,L|44:193,1,62.5,2|0,0:2|0:2,0:2:0:0:
202,78,200551,6,0,L|274:81,1,62.5,2|0,0:2|0:2,0:2:0:0:
105,37,200980,2,0,P|99:86|113:125,2,62.5
237,0,201622,1,0,0:2:0:0:
302,190,201837,1,2,0:2:0:0:
255,111,202051,1,0,0:2:0:0:
355,113,202265,6,0,L|505:123,1,125,2|0,3:2|3:2,0:2:0:0:
404,202,202908,1,2,0:2:0:0:
475,251,203122,2,0,L|468:345,1,93.75,0|0,3:2|0:2,0:2:0:0:
456,354,203551,2,0,P|407:339|345:346,1,93.75,2|0,3:2|0:2,0:2:0:0:
349,345,203980,5,0,3:2:0:0:
250,313,204194,2,0,L|257:225,2,62.5,2|0|0,0:2|3:2|0:2,0:2:0:0:
185,191,204837,2,0,P|233:162|318:187,1,125,2|0,3:2|3:2,0:2:0:0:
352,249,205480,1,2,0:2:0:0:
266,45,205694,5,0,3:2:0:0:
255,21,206122,2,0,L|108:23,1,125,2|0,3:2|3:2,0:2:0:0:
135,122,206765,2,0,P|77:107|63:96,2,62.5,2|0|0,0:2|3:2|0:2,0:2:0:0:
228,163,207408,6,0,P|197:204|105:220,1,125,2|0,3:2|3:2,0:2:0:0:
227,69,208051,2,0,P|285:84|299:95,2,62.5,2|0|0,0:2|3:2|0:2,0:2:0:0:
315,231,208694,6,0,L|451:232,1,125,2|0,3:2|3:2,0:2:0:0:
314,325,209337,2,0,P|259:311|240:289,2,62.5,2|0|0,0:2|3:2|0:2,0:2:0:0:
211,228,209980,2,0,L|142:227,1,62.5,2|0,3:2|0:2,0:2:0:0:
84,319,210408,2,0,L|153:318,1,62.5,2|0,3:2|0:2,0:2:0:0:
85,171,210837,6,0,L|77:127,3,31.25,0|0|0|0,3:2|0:2|0:2|0:2,0:2:0:0:
153,118,211265,2,0,L|158:87,3,31.25,0|0|0|0,3:2|0:2|0:2|0:2,0:2:0:0:
78,61,211694,2,0,L|72:30,3,31.25,0|0|2|0,3:2|0:2|0:2|0:2,0:2:0:0:
176,12,212122,1,2,3:2:0:0:
79,140,212337,1,2,0:2:0:0:
242,91,212551,6,0,L|415:83,1,149.999995422363,2|0,3:2|0:2,0:2:0:0:
412,97,213408,1,8,0:2:0:0:
434,114,213837,1,0,0:2:0:0:
194,256,214265,5,0,3:2:0:0:
154,160,214480,1,0,0:2:0:0:
172,157,214587,1,0,0:2:0:0:
190,157,214694,1,0,0:2:0:0:
194,256,214908,1,0,3:2:0:0:
59,190,215122,1,8,0:2:0:0:
56,171,215230,1,0,0:2:0:0:
57,152,215337,1,0,0:2:0:0:
154,160,215551,1,0,0:2:0:0:
98,279,215765,1,0,0:2:0:0:
91,296,215872,1,0,0:2:0:0:
84,313,215980,6,0,L|247:308,1,149.999995422363,0|0,3:2|0:2,0:2:0:0:
248,319,216515,1,0,0:2:0:0:
317,238,216730,1,0,0:2:0:0:
305,223,216837,2,0,L|295:160,1,37.4999988555909,8|0,0:2|0:2,0:2:0:0:
219,122,217051,2,0,L|213:159,1,37.4999988555909,0|0,0:2|0:2,0:2:0:0:
298,64,217265,6,0,P|218:25|156:47,1,149.999995422363,0|0,3:2|0:2,0:2:0:0:
155,49,217801,1,0,0:2:0:0:
147,57,217908,1,0,0:2:0:0:
140,65,218015,1,0,0:2:0:0:
134,75,218122,1,0,0:2:0:0:
130,85,218229,1,0,0:2:0:0:
127,96,218337,2,0,P|123:112|122:129,2,18.7499994277954,0|0|0,3:2|0:2|0:2,0:2:0:0:
38,140,218551,2,8,L|200:143,1,149.999995422363,8|0,0:2|0:2,0:2:0:0:
371,186,219194,1,0,0:2:0:0:
361,202,219301,1,0,0:2:0:0:
350,217,219408,6,0,L|251:220,1,74.9999977111817,4|0,3:2|0:2,0:2:0:0:
340,103,219837,1,0,0:2:0:0:
358,99,219944,1,0,0:2:0:0:
377,98,220051,1,0,0:2:0:0:
395,101,220158,1,0,0:2:0:0:
413,107,220265,1,8,0:2:0:0:
370,191,220480,1,0,0:2:0:0:
386,6,220694,1,0,3:2:0:0:
377,98,220908,1,0,0:2:0:0:
294,44,221122,6,0,L|129:34,1,149.999995422363,0|0,3:2|0:2,0:2:0:0:
67,102,221765,1,0,3:0:0:0:
216,158,221980,2,0,L|131:153,1,74.9999977111817,8|0,0:2|0:2,0:2:0:0:
10,256,222408,2,0,L|153:248,1,112.499996566773,0|0,0:2|0:2,0:2:0:0:
137,260,222837,5,0,3:2:0:0:
72,170,223051,1,0,0:2:0:0:
201,179,223265,1,0,0:2:0:0:
214,192,223372,1,0,0:2:0:0:
225,207,223479,1,0,0:2:0:0:
233,223,223586,1,0,0:2:0:0:
239,240,223694,2,0,L|235:294,1,37.4999988555909,8|0,3:2|0:2,0:2:0:0:
134,297,223908,2,0,L|136:259,1,37.4999988555909,0|0,0:2|0:2,0:2:0:0:
302,158,224122,5,0,3:2:0:0:
320,158,224230,1,0,0:2:0:0:
338,158,224337,2,0,L|397:158,1,37.4999988555909,0|0,0:2|0:2,0:2:0:0:
301,30,224551,5,0,3:2:0:0:
282,24,224658,1,0,0:2:0:0:
264,23,224765,1,0,0:2:0:0:
245,25,224872,1,0,0:2:0:0:
215,98,224980,5,0,3:2:0:0:
196,103,225087,1,0,0:2:0:0:
178,104,225194,1,0,3:2:0:0:
159,102,225301,1,0,0:2:0:0:
80,71,225408,5,8,3:2:0:0:
78,90,225515,1,0,0:2:0:0:
79,108,225622,1,2,0:2:0:0:
84,127,225729,1,0,0:2:0:0:
91,144,225837,2,0,L|95:209,1,37.4999988555909,2|0,3:2|0:2,0:2:0:0:
66,283,226051,1,2,0:2:0:0:
60,265,226158,1,2,0:2:0:0:
54,247,226265,5,0,0:0:0:0:
306,122,226480,1,0,0:0:0:0:
314,145,226587,2,0,L|312:194,2,50,0|8|0,0:0|0:0|0:0,0:0:0:0:
331,39,226908,2,8,P|267:41|223:85,1,100,2|8,0:0|0:0,0:0:0:0:
189,121,227230,2,8,P|125:119|81:75,1,100,0|0,0:0|0:0,0:0:0:0:
38,22,227551,2,0,L|153:22,1,100,10|0,0:2|0:2,0:2:0:0:
148,32,227872,1,0,0:2:0:0:
159,41,227980,5,8,0:2:0:0:
38,162,228194,2,0,P|21:191|27:269,1,100,2|8,0:2|0:2,0:2:0:0:
82,304,228515,2,0,L|203:306,1,100
236,246,228837,1,10,0:0:0:0:
159,18,229051,1,2,0:0:0:0:
172,118,229265,1,10,0:2:0:0:
172,118,229480,1,2,0:2:0:0:
172,118,229694,6,0,L|307:112,1,100,10|0,0:2|0:2,0:2:0:0:
348,142,230015,2,0,P|349:93|332:61,2,50,0|8|0,0:0|0:0|0:0,0:0:0:0:
289,198,230337,2,0,P|257:267|278:313,1,100,2|8,0:0|0:0,0:0:0:0:
341,264,230658,2,0,L|457:268,1,100,0|0,0:2|0:2,0:2:0:0:
512,352,230980,2,0,L|396:356,1,100,10|0,0:2|0:2,0:2:0:0:
261,286,231301,6,0,P|186:273|171:272,2,50,0|8|0,0:0|0:0|0:0,0:0:0:0:
166,329,231622,2,0,L|159:189,1,100,2|8,0:0|0:0,0:0:0:0:
139,145,231944,2,0,P|207:155|245:207,1,100
303,215,232265,2,0,B|363:212|363:212|391:197|391:197|473:195,1,150,10|0,0:2|0:2,0:2:0:0:
474,194,232694,1,10,0:2:0:0:
265,297,232908,1,2,0:2:0:0:
265,297,233122,6,0,L|381:294,1,100,10|0,0:2|0:2,0:2:0:0:
217,217,233444,2,0,P|184:253|178:286,2,50,0|8|0,0:0|0:0|0:0,0:0:0:0:
193,337,233765,2,0,L|93:339,1,100,2|8,0:2|0:2,0:2:0:0:
12,355,234087,2,0,P|14:305|45:267,1,100
116,219,234408,2,0,L|252:220,1,100,10|0,0:0|0:0,0:0:0:0:
352,250,234730,1,0,0:0:0:0:
373,239,234837,6,0,P|407:205|421:177,1,50,10|0,0:2|0:2,0:2:0:0:
468,106,235051,2,0,P|424:83|375:86,1,100,2|8,0:2|0:2,0:2:0:0:
241,134,235372,2,0,P|313:159|370:133,1,100,0|0,0:2|0:2,0:2:0:0:
489,17,235694,2,0,P|416:26|375:85,1,150,10|0,0:2|0:2,0:2:0:0:
468,106,236122,1,10,0:2:0:0:
287,47,236337,1,2,0:2:0:0:
279,259,236551,6,0,L|198:254,2,50,10|0|0,0:2|0:2|0:2,0:2:0:0:
184,191,236872,2,0,L|135:195,2,50,2|8|0,0:2|0:2|0:2,0:2:0:0:
125,275,237194,2,0,L|75:271,2,50,2|0|8,0:2|0:2|0:2,0:2:0:0:
49,196,237515,2,0,L|0:199,2,50,2|0|0,0:2|0:2|0:2,0:2:0:0:
79,117,237837,2,0,P|87:58|69:23,1,100,10|0,0:2|0:2,0:2:0:0:
52,5,238158,1,2,0:2:0:0:
26,5,238265,5,8,0:2:0:0:
289,59,238480,1,2,0:2:0:0:
308,74,238587,1,0,0:2:0:0:
250,152,238801,1,2,0:2:0:0:
231,167,238908,1,0,0:2:0:0:
212,183,239015,2,0,P|211:217|221:261,1,50,0|0,0:2|0:2,0:2:0:0:
317,343,239230,5,0,0:2:0:0:
317,343,239337,1,0,0:2:0:0:
317,343,239444,1,0,0:2:0:0:
317,343,239551,6,0,L|319:250,1,93.75,0|0,0:2|0:2,0:2:0:0:
211,226,239980,6,0,L|209:275,1,50,2|0,3:2|0:2,0:2:0:0:
317,142,240194,2,0,L|315:92,1,50,2|0,0:2|0:2,0:2:0:0:
155,78,240408,6,0,P|126:42|81:31,1,93.7500035762788,0|0,3:2|0:2,0:2:0:0:
138,180,240622,2,0,P|166:215|211:227,1,93.7500035762788,0|0,0:2|0:2,0:2:0:0:
317,142,240837,6,0,L|178:143,1,93.7500035762788,10|0,0:2|0:2,0:2:0:0:
69,173,241051,1,0,0:2:0:0:
44,179,241158,2,0,L|183:180,1,93.7500035762788,2|0,0:2|0:2,0:2:0:0:
284,240,241372,1,0,0:2:0:0:
309,251,241480,2,0,L|170:252,1,93.7500035762788,2|0,0:2|0:2,0:2:0:0:
169,41,241694,6,0,B|215:56|215:56|256:108,1,93.7500035762788,2|0,3:2|0:2,0:2:0:0:
317,142,241908,2,0,B|271:127|271:127|230:75,1,93.7500035762788,2|0,0:2|0:2,0:2:0:0:
391,89,242122,6,0,P|412:139|386:205,1,93.7500035762788,0|0,0:2|0:2,0:2:0:0:
394,279,242337,1,0,3:2:0:0:
366,273,242444,1,0,0:2:0:0:
284,240,242551,2,0,L|289:343,1,93.7500035762788,8|0,0:2|0:2,0:2:0:0:
317,142,242765,2,0,P|271:134|228:151,1,93.7500035762788
136,333,242980,6,0,B|128:279|105:260|105:260|93:181|122:134|122:134|113:179|151:237,1,281.250010728836,2|0,0:2|0:2,0:2:0:0:
228,150,243408,6,0,P|272:158|316:143,1,93.7500035762788,0|0,3:2|0:2,0:2:0:0:
473,12,243622,2,0,P|427:4|384:21,1,93.7500035762788,0|0,0:2|0:2,0:2:0:0:
442,122,243837,1,0,3:2:0:0:
441,150,243944,2,0,B|442:186|461:211|461:211|444:256|444:256|461:283|445:364,1,187.500007152558,2|0,0:2|0:2,0:2:0:0:
286,293,244265,6,0,L|112:282,1,93.7500035762788,10|0,0:2|0:2,0:2:0:0:
58,217,244480,1,0,0:2:0:0:
33,213,244587,2,0,L|207:202,1,93.7500035762788,2|0,0:2|3:2,0:2:0:0:
250,143,244801,1,0,0:2:0:0:
281,133,244908,2,0,L|107:122,1,93.7500035762788,2|0,0:2|0:2,0:2:0:0:
323,45,245122,6,0,P|363:67|385:107,1,93.7500035762788,2|0,0:2|0:2,0:2:0:0:
218,195,245337,2,0,P|240:154|280:132,1,93.7500035762788,0|0,0:2|0:2,0:2:0:0:
424,224,245551,6,0,L|407:340,1,93.7500035762788,0|0,0:2|0:2,0:2:0:0:
318,321,245765,1,0,3:2:0:0:
233,323,245872,1,0,3:2:0:0:
148,322,245980,5,8,0:2:0:0:
137,306,246087,1,0,0:2:0:0:
130,288,246194,1,0,3:2:0:0:
128,269,246301,1,0,0:2:0:0:
151,187,246408,5,2,3:2:0:0:
168,164,246515,1,0,0:2:0:0:
120,110,246622,5,2,0:2:0:0:
112,83,246729,1,0,0:2:0:0:
156,22,246837,6,0,L|310:28,1,93.7500035762788,2|0,3:2|0:2,0:2:0:0:
353,112,247051,2,0,L|199:118,1,93.7500035762788,0|0,0:2|0:2,0:2:0:0:
120,110,247265,2,0,B|85:142|85:142|75:214,1,93.7500035762788,2|0,3:2|0:2,0:2:0:0:
38,265,247480,2,0,B|73:233|73:233|79:187,1,93.7500035762788,2|0,3:2|0:2,0:2:0:0:
191,232,247694,6,0,L|371:241,1,93.7500035762788,8|0,0:2|0:2,0:2:0:0:
421,267,247908,1,0,0:2:0:0:
449,290,248015,2,0,L|269:299,1,93.7500035762788,2|0,3:2|0:2,0:2:0:0:
205,320,248230,1,0,0:2:0:0:
177,343,248337,2,0,L|357:352,1,93.7500035762788,2|0,0:2|0:2,0:2:0:0:
449,290,248551,6,0,P|467:243|427:161,1,93.7500035762788,2|0,0:2|0:2,0:2:0:0:
357,81,248765,2,0,P|350:126|368:169,1,93.7500035762788,0|0,3:2|0:2,0:2:0:0:
419,20,248980,1,0,0:2:0:0:
402,10,249087,1,0,0:2:0:0:
383,6,249194,1,0,0:2:0:0:
364,4,249301,1,0,0:2:0:0:
286,13,249408,6,0,L|174:15,1,93.7500035762788,8|0,0:2|0:2,0:2:0:0:
156,121,249622,2,0,L|268:123,1,93.7500035762788,0|0,0:2|0:2,0:2:0:0:
368,169,249837,2,0,B|379:216|379:216|366:281,1,93.7500035762788,0|0,3:2|0:2,0:2:0:0:
247,345,250051,1,0,0:2:0:0:
235,319,250158,1,0,0:2:0:0:
221,294,250265,6,0,L|101:294,1,93.7500035762788,0|0,3:2|0:2,0:2:0:0:
16,372,250480,2,0,L|136:372,1,93.7500035762788,0|0,0:2|0:2,0:2:0:0:
122,212,250694,2,0,P|74:226|46:272,1,93.7500035762788,0|0,0:2|0:2,0:2:0:0:
220,207,250908,1,0,0:2:0:0:
211,180,251015,1,0,0:2:0:0:
266,117,251122,6,0,L|443:123,1,93.7500035762788,10|0,0:2|0:2,0:2:0:0:
399,241,251337,2,0,L|222:247,1,93.7500035762788,2|0,0:2|0:2,0:2:0:0:
439,159,251551,1,0,3:2:0:0:
461,175,251658,1,0,0:2:0:0:
478,197,251765,1,0,0:2:0:0:
488,223,251872,1,0,0:2:0:0:
486,252,251980,6,0,P|480:291|417:328,1,93.7500035762788,0|0,0:2|0:2,0:2:0:0:
305,244,252194,1,0,3:2:0:0:
286,166,252301,1,0,3:2:0:0:
264,87,252408,5,8,0:0:0:0:
31,180,252622,1,0,3:2:0:0:
31,180,252837,2,0,L|183:182,1,93.7500035762788,10|0,0:2|0:2,0:2:0:0:
207,244,253051,5,0,3:2:0:0:
257,316,253159,1,0,3:2:0:0:
278,218,253265,5,8,0:2:0:0:
193,235,253372,1,0,3:2:0:0:
246,302,253480,1,0,3:2:0:0:
432,316,253694,6,0,B|399:362|399:362|398:184|398:184|432:216,1,281.250010728836,2|0,0:2|0:2,0:2:0:0:
431,215,254122,2,0,B|433:169|433:169|408:109,1,93.7500035762788,0|0,3:2|0:2,0:2:0:0:
399,36,254337,2,0,B|396:81|396:81|414:125,1,93.7500035762788,2|0,0:2|0:2,0:2:0:0:
306,13,254551,6,0,L|153:3,1,93.7500035762788,10|0,0:2|0:2,0:2:0:0:
62,57,254765,1,0,0:2:0:0:
38,72,254872,2,0,L|191:62,1,93.7500035762788,2|0,0:2|0:2,0:2:0:0:
263,116,255087,1,0,0:2:0:0:
287,131,255194,2,0,L|134:121,1,93.7500035762788,2|0,0:2|0:2,0:2:0:0:
217,212,255408,6,0,B|133:235|112:165|65:132|-18:180|-18:180|62:162|105:223,1,375.000014305115,2|0,3:2|0:2,0:2:0:0:
228,309,256051,1,0,3:2:0:0:
251,292,256158,1,0,0:2:0:0:
306,230,256265,6,0,P|314:170|289:120,1,93.7500035762788,10|0,0:2|0:2,0:2:0:0:
216,2,256480,2,0,P|203:46|213:92,1,93.7500035762788,0|0,0:2|0:2,0:2:0:0:
395,142,256694,1,2,0:2:0:0:
389,114,256801,1,0,0:2:0:0:
374,90,256908,2,0,P|344:60|273:54,1,93.7500035762788,0|0,0:2|0:2,0:2:0:0:
35,187,257122,6,0,B|106:185|106:185|146:201|146:201|259:197,1,187.500007152558,2|0,3:2|0:2,0:2:0:0:
395,142,257551,1,0,3:2:0:0:
400,169,257658,2,0,B|391:214|430:248|430:248|454:295|395:360,1,187.500007152558,2|0,0:2|0:2,0:2:0:0:
311,350,257980,6,0,L|140:343,1,93.7500035762788,10|0,0:2|0:2,0:2:0:0:
120,278,258194,1,0,0:2:0:0:
93,269,258301,2,0,L|264:262,1,93.7500035762788,2|0,0:2|3:2,0:2:0:0:
280,193,258515,1,0,0:2:0:0:
307,184,258622,2,0,L|136:177,1,93.7500035762788,2|0,0:2|0:2,0:2:0:0:
124,83,258837,6,0,B|85:53|39:43|39:43|117:61|173:32|173:32|241:68|247:6|369:71,1,375.000014305115,2|0,0:2|0:2,0:2:0:0:
455,279,259480,2,0,P|401:293|337:267,1,93.7500035762788,0|0,3:2|0:2,0:2:0:0:
206,211,259694,5,8,0:2:0:0:
191,234,259801,1,0,0:2:0:0:
182,260,259908,2,0,P|177:310|205:365,1,93.7500035762788,0|0,0:2|0:2,0:2:0:0:
333,288,260122,1,0,3:2:0:0:
117,85,260337,1,0,0:2:0:0:
104,110,260444,1,0,0:2:0:0:
93,135,260551,6,0,B|126:143|158:126|158:126|191:139|191:139|248:113|326:157,1,187.500007152558,2|0,3:2|0:2,0:2:0:0:
414,78,260980,1,0,3:2:0:0:
426,103,261087,1,0,0:2:0:0:
428,130,261194,2,0,P|426:185|393:237,1,93.7500035762788,2|0,0:2|0:2,0:2:0:0:
283,283,261408,6,0,L|122:278,1,93.7500035762788,10|0,0:2|0:2,0:2:0:0:
92,215,261622,1,0,0:2:0:0:
66,202,261730,2,0,L|227:197,1,93.7500035762788,2|0,0:2|0:2,0:2:0:0:
248,128,261944,1,0,0:2:0:0:
274,115,262051,2,0,L|113:110,1,93.7500035762788,2|0,0:2|0:2,0:2:0:0:
363,42,262265,6,0,B|386:88|386:88|385:151,1,93.7500035762788,2|0,0:2|0:2,0:2:0:0:
409,219,262480,2,0,B|386:172|386:172|386:130,1,93.7500035762788,2|0,3:2|0:2,0:2:0:0:
471,157,262694,1,0,0:0:0:0:
225,349,262908,1,0,0:2:0:0:
208,334,263015,1,0,0:2:0:0:
148,279,263122,6,0,L|148:138,1,93.7500035762788,8|0,0:2|0:2,0:2:0:0:
69,62,263337,2,0,L|69:155,1,93.7500035762788,0|0,0:2|0:2,0:2:0:0:
235,152,263551,6,0,B|299:177|299:177|366:176|366:176|447:149|447:149|371:114,1,281.250010728836,2|0,3:2|0:2,0:2:0:0:
279,72,263980,6,0,P|171:84|158:99,1,93.7500035762788,2|0,3:2|0:2,0:2:0:0:
171,231,264194,1,0,0:0:0:0:
204,265,264301,1,0,0:0:0:0:
178,308,264408,1,0,0:0:0:0:
203,344,264515,1,0,0:0:0:0:
170,384,264622,2,0,L|76:383,1,93.7500035762788,0|0,0:2|0:2,0:2:0:0:
29,377,264837,5,10,0:2:0:0:
39,258,265051,5,2,0:2:0:0:
67,224,265158,1,2,0:2:0:0:
155,174,265265,5,2,3:2:0:0:
126,141,265372,1,2,0:2:0:0:
33,94,265480,5,2,0:2:0:0:
61,60,265587,1,2,0:2:0:0:
398,78,265908,5,0,0:2:0:0:
307,66,266122,1,0,0:2:0:0:
294,68,266230,1,0,0:2:0:0:
281,71,266337,2,8,L|279:109,2,31.25,8|8|8,0:2|0:2|0:2,0:2:0:0:
156,37,266551,6,0,L|71:32,1,62.5,10|0,0:2|0:2,0:2:0:0:
46,129,266765,1,0,0:2:0:0:
33,142,266872,2,0,L|118:137,1,62.5,10|0,0:2|0:2,0:2:0:0:
203,214,267087,1,0,0:2:0:0:
216,227,267194,2,0,L|131:222,1,62.5,10|0,0:2|0:2,0:2:0:0:
219,321,267408,6,0,P|296:281|310:201,1,125,0|0,3:2|0:2,0:2:0:0:
316,232,268051,2,0,L|421:231,1,62.5,2|0,0:2|0:2,0:2:0:0:
396,236,268265,1,8,0:2:0:0:
205,42,268908,5,0,0:2:0:0:
196,58,269015,1,0,0:2:0:0:
76,228,269337,6,0,L|243:227,1,125,2|0,0:2|0:2,0:2:0:0:
302,226,269765,1,2,0:2:0:0:
304,244,269872,1,0,0:2:0:0:
307,262,269980,2,0,L|316:354,1,62.5,0|0,0:2|0:2,0:2:0:0:
386,240,270194,2,0,L|392:177,1,62.5,2|0,0:2|0:2,0:2:0:0:
395,154,270408,1,0,0:0:0:0:
395,154,270622,1,0,0:2:0:0:
209,27,270837,6,0,B|29:28|29:28|133:56,1,250,2|0,0:2|0:2,0:2:0:0:
168,112,271480,2,0,L|157:194,1,62.5,2|0,0:2|0:2,0:2:0:0:
157,191,271694,1,8,0:2:0:0:
92,260,271908,1,0,0:2:0:0:
225,250,272122,1,0,0:2:0:0:
164,324,272337,2,0,P|187:338|259:341,1,62.5,2|0,0:2|0:2,0:2:0:0:
340,339,272551,6,0,L|345:172,1,125,2|0,0:2|0:2,0:2:0:0:
349,196,272872,1,0,0:2:0:0:
356,178,272980,1,0,0:2:0:0:
450,274,273194,1,2,0:2:0:0:
457,291,273301,1,0,0:2:0:0:
463,307,273408,1,8,0:2:0:0:
455,167,273622,2,0,P|442:130|386:94,1,62.5,2|0,0:2|0:2,0:2:0:0:
321,77,273837,1,0,0:2:0:0:
107,121,274051,1,2,0:2:0:0:
123,111,274158,1,0,0:2:0:0:
140,104,274265,6,0,L|237:105,1,62.5,2|0,3:2|0:2,0:2:0:0:
294,191,274480,2,0,L|197:192,1,62.5,0|0,0:2|0:2,0:2:0:0:
18,272,274694,1,6,0:2:0:0:
18,272,274908,2,0,L|115:273,1,62.5,0|0,0:2|0:2,0:2:0:0:
246,300,275122,6,0,P|253:212|209:184,1,125,10|0,0:2|0:2,0:2:0:0:
213,186,275444,1,0,0:2:0:0:
194,182,275551,2,0,L|97:183,1,62.5,2|0,0:2|0:2,0:2:0:0:
19,106,275765,2,0,L|116:107,1,62.5,0|0,0:2|0:2,0:2:0:0:
235,61,275980,6,0,B|293:37|345:81|412:62|412:62|362:77|333:114,1,250,2|2,0:2|0:2,0:2:0:0:
189,312,276837,1,8,0:2:0:0:
116,246,277051,2,0,P|175:218|264:245,1,125,2|0,0:2|0:2,0:2:0:0:
191,328,277480,1,0,0:2:0:0:
23,316,277694,6,0,L|25:172,1,125,2|0,0:2|0:2,0:2:0:0:
0,17,278122,2,0,L|62:21,1,62.5
264,122,278337,2,0,L|201:126,1,62.5
71,154,278551,5,10,0:2:0:0:
89,152,278658,1,0,0:2:0:0:
107,151,278765,1,0,0:2:0:0:
125,150,278872,1,0,0:2:0:0:
147,121,278980,5,2,0:2:0:0:
165,123,279087,1,0,0:2:0:0:
183,124,279194,1,0,0:2:0:0:
201,125,279301,1,0,0:2:0:0:
269,174,279408,6,0,L|264:274,1,62.5,2|0,0:2|0:2,0:2:0:0:
187,320,279622,2,0,L|183:257,1,62.5,0|0,0:2|0:2,0:2:0:0:
183,124,279837,1,0,0:2:0:0:
365,204,280051,1,0,0:2:0:0:
381,194,280158,1,0,0:2:0:0:
398,187,280265,2,0,L|482:189,1,62.5
299,43,280480,2,0,L|300:88,1,31.25,0|0,0:2|0:2,0:2:0:0:
277,41,280587,2,0,L|278:86,1,31.25,0|0,0:2|0:2,0:2:0:0:
254,41,280694,1,8,0:2:0:0:
70,70,281122,6,0,L|76:266,1,174.999994659424,2|0,3:2|0:2,0:2:0:0:
133,322,281765,1,2,0:2:0:0:
188,248,281980,2,0,L|242:255,3,43.749998664856,10|0|0|0,0:2|0:2|0:2|0:2,0:2:0:0:
284,311,282408,2,0,L|327:305,3,43.749998664856,2|0|2|0,0:2|0:2|0:2|0:2,0:2:0:0:
377,242,282837,6,0,P|410:174|347:77,1,174.999994659424,0|0,3:2|0:2,0:2:0:0:
314,169,283480,1,0,0:2:0:0:
187,27,283694,2,0,L|189:140,1,87.499997329712,8|0,0:2|0:2,0:2:0:0:
76,201,284122,1,2,0:2:0:0:
58,121,284337,1,2,0:2:0:0:
102,285,284551,6,0,P|152:334|269:313,1,174.999994659424,2|0,3:2|0:2,0:2:0:0:
194,251,285408,6,0,L|202:198,3,43.749998664856
123,151,285837,2,0,L|115:98,3,43.749998664856
273,172,286265,6,0,L|480:172,1,174.999994659424,2|0,0:2|0:2,0:2:0:0:
330,88,286908,1,0,3:2:0:0:
318,82,287015,1,0,0:2:0:0:
306,75,287122,2,0,L|237:75,1,43.749998664856,10|0,0:2|0:2,0:2:0:0:
152,134,287337,2,0,L|221:134,1,43.749998664856,0|0,0:2|0:2,0:2:0:0:
98,66,287551,1,2,0:2:0:0:
62,184,287765,1,0,0:2:0:0:
60,196,287872,1,0,0:2:0:0:
58,209,287980,6,0,B|50:255|50:255|60:325,1,87.499997329712,2|0,3:2|0:2,0:2:0:0:
273,273,288408,2,0,P|189:243|149:256,1,131.249995994568,2|0,0:2|0:2,0:2:0:0:
134,270,288837,1,8,0:2:0:0:
121,291,289265,1,2,0:2:0:0:
118,314,289694,5,2,0:2:0:0:
77,83,289908,2,0,L|187:75,1,87.499997329712,0|0,3:2|0:2,0:2:0:0:
245,151,290337,1,2,0:2:0:0:
253,4,290551,1,10,0:2:0:0:
186,78,290765,1,0,0:2:0:0:
323,78,290980,2,0,L|410:84,1,87.499997329712,0|0,3:2|0:2,0:2:0:0:
346,256,291408,6,0,P|349:180|383:148,1,87.499997329712,2|0,3:2|0:2,0:2:0:0:
439,231,291837,2,0,P|485:312|477:355,1,131.249995994568,2|0,0:2|0:2,0:2:0:0:
471,375,292265,1,8,0:2:0:0:
338,308,292480,1,0,0:0:0:0:
327,300,292587,1,0,0:0:0:0:
78,339,292908,1,0,0:2:0:0:
74,326,293015,1,0,0:2:0:0:
69,313,293122,6,0,P|103:225|169:207,1,131.249995994568,2|0,0:2|0:2,0:2:0:0:
147,214,293551,2,0,P|208:168|209:98,1,131.249995994568,2|0,0:2|0:2,0:2:0:0:
200,100,293980,1,2,0:2:0:0:
106,84,294194,2,0,P|102:67|105:49,1,21.874999332428,2|0,0:0|0:0,0:0:0:0:
117,57,294301,2,0,P|122:40|133:26,1,21.874999332428,2|0,0:0|0:0,0:0:0:0:
139,40,294408,2,0,P|191:16|261:43,1,131.249995994568,2|0,0:2|0:2,0:2:0:0:
325,181,294837,5,2,0:2:0:0:
336,203,296122,1,2,0:2:0:0:
312,41,296551,5,2,0:2:0:0:
299,58,297837,1,2,0:2:0:0:
95,228,298265,5,2,0:2:0:0:
118,217,299551,1,2,0:2:0:0:
95,352,299980,6,0,L|94:207,1,125,2|0,0:2|0:2,0:2:0:0:
132,42,300837,1,0,0:2:0:0:
201,141,301265,1,0,0:2:0:0:
278,247,301694,5,0,0:2:0:0:
293,232,302980,1,2,0:2:0:0:
250,59,303408,5,2,0:2:0:0:
277,37,304265,1,2,0:2:0:0:
391,253,304694,1,2,0:2:0:0:
221,116,305122,5,2,0:2:0:0:
204,133,306408,1,2,0:2:0:0:
290,304,306837,5,2,0:2:0:0:
336,114,308551,6,0,B|281:114|281:114|251:130|251:130|180:130,1,149.999995422363,2|0,0:2|0:2,0:2:0:0:
101,111,309837,1,2,0:2:0:0:
60,265,310265,6,0,B|136:245|127:287|217:268,1,149.999995422363,2|0,0:2|0:2,0:2:0:0:
274,223,311551,1,2,0:2:0:0:
279,73,311980,6,0,L|273:233,1,149.999995422363,2|0,0:2|0:2,0:2:0:0:
166,156,313265,1,2,0:2:0:0:
378,140,313694,6,0,P|425:144|484:237,1,149.999995422363,2|2,0:2|0:2,0:2:0:0:
395,232,314980,1,2,0:2:0:0:
245,231,315408,6,0,L|411:232,1,149.999995422363,2|0,0:2|0:2,0:2:0:0:
378,140,316694,1,2,0:2:0:0:
223,145,317122,6,0,P|183:167|166:267,1,149.999995422363,2|2,0:2|0:2,0:2:0:0:
245,231,318408,1,2,0:2:0:0:
223,145,318837,5,2,0:2:0:0:
256,192,318944,12,0,327408,0:2:0:0:
