osu file format v14

[General]
AudioFilename: Rameses B - timeless.mp3
AudioLeadIn: 0
PreviewTime: 68288
Countdown: 0
SampleSet: Normal
StackLeniency: 0.7
Mode: 1
LetterboxInBreaks: 0
WidescreenStoryboard: 0

[Editor]
Bookmarks: 54917
DistanceSpacing: 0.5
BeatDivisor: 4
GridSize: 32
TimelineZoom: 1.3

[Metadata]
Title:Timeless (feat. Veela)
TitleUnicode:Timeless (feat. Veela)
Artist:Rameses B
ArtistUnicode:Rameses B
Creator:-Sh1n1-
Version:Oni
Source:
Tags:shini liquid EP Monstercat dnb drum and bass remix VeelaBeats Volta Flying_Pan
BeatmapID:1816539
BeatmapSetID:869176

[Difficulty]
HPDrainRate:5.5
CircleSize:4
OverallDifficulty:5.5
ApproachRate:5
SliderMultiplier:1.4
SliderTickRate:1

[Events]
//Background and Video events
0,0,"bg.jpg",0,5
//Break Periods
//Storyboard Layer 0 (Background)
//Storyboard Layer 1 (Fail)
//Storyboard Layer 2 (Pass)
//Storyboard Layer 3 (Foreground)
//Storyboard Sound Samples

[TimingPoints]
60,342.857142857143,4,1,0,60,1,0
43945,-100,4,1,0,60,0,0
68631,-100,4,1,0,70,0,1
78231,-100,4,1,0,60,0,0
79602,-100,4,1,0,70,0,1
90574,-100,4,1,0,60,0,0
115260,-100,4,1,0,70,0,1
122117,-100,4,1,0,60,0,0
123488,-100,4,1,0,70,0,1
132745,-100,4,1,0,60,0,0
133088,-100,4,1,0,40,0,0
133431,-100,4,1,0,30,0,0
133774,-100,4,1,0,20,0,0
134117,-100,4,1,0,10,0,0
134460,-100,4,1,0,5,0,0

[HitObjects]
256,192,43945,5,4,0:0:0:0:
256,192,44117,1,8,0:0:0:0:
256,192,44288,1,8,0:0:0:0:
256,192,44631,1,0,0:0:0:0:
256,192,44974,1,8,0:0:0:0:
256,192,45145,1,0,0:0:0:0:
256,192,45317,1,8,0:0:0:0:
256,192,45660,1,0,0:0:0:0:
256,192,45831,1,0,0:0:0:0:
256,192,46002,1,8,0:0:0:0:
256,192,46345,1,8,0:0:0:0:
256,192,46517,1,8,0:0:0:0:
256,192,46860,1,0,0:0:0:0:
256,192,47031,1,8,0:0:0:0:
256,192,47374,1,8,0:0:0:0:
256,192,47545,1,0,0:0:0:0:
256,192,47717,1,0,0:0:0:0:
256,192,47888,1,8,0:0:0:0:
256,192,48060,1,0,0:0:0:0:
256,192,48402,1,0,0:0:0:0:
256,192,48745,1,8,0:0:0:0:
256,192,48917,1,8,0:0:0:0:
256,192,49088,1,0,0:0:0:0:
256,192,49431,1,8,0:0:0:0:
256,192,49602,1,0,0:0:0:0:
256,192,49774,1,0,0:0:0:0:
256,192,49945,1,0,0:0:0:0:
256,192,50117,1,8,0:0:0:0:
256,192,50460,1,0,0:0:0:0:
256,192,50802,1,8,0:0:0:0:
256,192,51145,1,8,0:0:0:0:
256,192,51317,1,0,0:0:0:0:
256,192,51488,1,8,0:0:0:0:
256,192,51831,1,8,0:0:0:0:
256,192,52002,1,8,0:0:0:0:
256,192,52174,1,0,0:0:0:0:
256,192,52517,1,0,0:0:0:0:
256,192,52688,1,8,0:0:0:0:
256,192,53031,1,0,0:0:0:0:
256,192,53202,1,8,0:0:0:0:
256,192,53374,1,8,0:0:0:0:
256,192,53545,1,0,0:0:0:0:
256,192,53888,1,0,0:0:0:0:
256,192,54060,1,0,0:0:0:0:
256,192,54231,1,8,0:0:0:0:
256,192,54402,1,8,0:0:0:0:
256,192,54574,1,0,0:0:0:0:
256,192,54917,1,4,0:0:0:0:
256,192,55088,1,8,0:0:0:0:
256,192,55259,1,8,0:0:0:0:
256,192,55602,1,0,0:0:0:0:
256,192,55945,1,8,0:0:0:0:
256,192,56116,1,0,0:0:0:0:
256,192,56288,1,8,0:0:0:0:
256,192,56631,1,0,0:0:0:0:
256,192,56802,1,0,0:0:0:0:
256,192,56973,1,8,0:0:0:0:
256,192,57145,1,0,0:0:0:0:
256,192,57316,1,0,0:0:0:0:
256,192,57488,1,8,0:0:0:0:
256,192,57831,1,0,0:0:0:0:
256,192,58002,1,8,0:0:0:0:
256,192,58345,1,8,0:0:0:0:
256,192,58517,1,0,0:0:0:0:
256,192,58688,1,0,0:0:0:0:
256,192,58859,1,8,0:0:0:0:
256,192,59031,1,0,0:0:0:0:
256,192,59374,1,0,0:0:0:0:
256,192,59717,1,8,0:0:0:0:
256,192,59888,1,0,0:0:0:0:
256,192,60060,1,8,0:0:0:0:
256,192,60402,1,0,0:0:0:0:
256,192,60745,1,8,0:0:0:0:
256,192,61089,1,8,0:0:0:0:
256,192,61260,1,8,0:0:0:0:
256,192,61432,1,0,0:0:0:0:
256,192,61602,1,0,0:0:0:0:
256,192,61774,1,8,0:0:0:0:
256,192,62117,1,0,0:0:0:0:
256,192,62289,1,0,0:0:0:0:
256,192,62460,1,8,0:0:0:0:
256,192,62632,1,8,0:0:0:0:
256,192,62803,1,0,0:0:0:0:
256,192,63145,1,0,0:0:0:0:
256,192,63317,1,8,0:0:0:0:
256,192,63660,1,0,0:0:0:0:
256,192,63831,1,8,0:0:0:0:
256,192,64174,1,0,0:0:0:0:
256,192,64517,1,8,0:0:0:0:
256,192,64860,1,0,0:0:0:0:
256,192,65031,1,0,0:0:0:0:
256,192,65202,1,8,0:0:0:0:
256,192,65374,1,8,0:0:0:0:
256,192,65545,1,0,0:0:0:0:
256,192,65888,1,8,0:0:0:0:
256,192,66231,1,8,0:0:0:0:
256,192,66574,1,8,0:0:0:0:
256,192,66917,1,8,0:0:0:0:
256,192,67260,1,0,0:0:0:0:
256,192,67431,1,8,0:0:0:0:
256,192,67774,1,0,0:0:0:0:
256,192,68117,1,0,0:0:0:0:
256,192,68202,1,0,0:0:0:0:
256,192,68288,1,8,0:0:0:0:
256,192,68631,1,4,0:0:0:0:
256,192,68974,1,8,0:0:0:0:
256,192,69145,1,8,0:0:0:0:
256,192,69231,1,0,0:0:0:0:
256,192,69317,1,0,0:0:0:0:
256,192,69488,1,0,0:0:0:0:
256,192,69660,1,8,0:0:0:0:
256,192,69831,1,8,0:0:0:0:
256,192,69917,1,8,0:0:0:0:
256,192,70002,1,0,0:0:0:0:
256,192,70174,1,0,0:0:0:0:
256,192,70345,1,8,0:0:0:0:
256,192,70517,1,0,0:0:0:0:
256,192,70860,1,0,0:0:0:0:
256,192,71031,1,8,0:0:0:0:
256,192,71202,1,0,0:0:0:0:
256,192,71288,1,0,0:0:0:0:
256,192,71374,1,8,0:0:0:0:
256,192,71545,1,0,0:0:0:0:
256,192,71717,1,8,0:0:0:0:
256,192,71888,1,8,0:0:0:0:
256,192,71974,1,0,0:0:0:0:
256,192,72060,1,8,0:0:0:0:
256,192,72231,1,0,0:0:0:0:
256,192,72402,1,8,0:0:0:0:
256,192,72574,1,8,0:0:0:0:
256,192,72745,1,0,0:0:0:0:
256,192,73088,1,8,0:0:0:0:
256,192,73260,1,0,0:0:0:0:
256,192,73602,1,0,0:0:0:0:
256,192,73688,1,0,0:0:0:0:
256,192,73774,1,8,0:0:0:0:
256,192,73945,1,0,0:0:0:0:
256,192,74117,1,8,0:0:0:0:
256,192,74288,1,0,0:0:0:0:
256,192,74460,1,8,0:0:0:0:
256,192,74545,1,0,0:0:0:0:
256,192,74631,1,8,0:0:0:0:
256,192,74717,1,8,0:0:0:0:
256,192,74802,1,0,0:0:0:0:
256,192,74974,1,0,0:0:0:0:
256,192,75145,1,8,0:0:0:0:
256,192,75317,1,8,0:0:0:0:
256,192,75488,1,0,0:0:0:0:
256,192,75831,1,8,0:0:0:0:
256,192,76003,1,0,0:0:0:0:
256,192,76088,1,0,0:0:0:0:
256,192,76174,1,0,0:0:0:0:
256,192,76346,1,0,0:0:0:0:
256,192,76517,1,8,0:0:0:0:
256,192,76688,1,8,0:0:0:0:
256,192,76860,1,0,0:0:0:0:
256,192,77203,1,8,0:0:0:0:
256,192,77374,1,0,0:0:0:0:
256,192,77460,1,0,0:0:0:0:
256,192,77546,1,8,0:0:0:0:
256,192,77717,1,0,0:0:0:0:
256,192,77888,1,8,0:0:0:0:
256,192,78060,1,8,0:0:0:0:
256,192,78231,1,0,0:0:0:0:
256,192,78402,1,0,0:0:0:0:
256,192,78488,1,8,0:0:0:0:
256,192,78574,1,8,0:0:0:0:
256,192,78746,1,0,0:0:0:0:
256,192,78917,1,0,0:0:0:0:
256,192,79002,1,0,0:0:0:0:
256,192,79088,1,8,0:0:0:0:
256,192,79260,1,8,0:0:0:0:
256,192,79431,1,0,0:0:0:0:
256,192,79602,1,12,0:0:0:0:
256,192,79945,1,8,0:0:0:0:
256,192,80116,1,8,0:0:0:0:
256,192,80202,1,0,0:0:0:0:
256,192,80288,1,0,0:0:0:0:
256,192,80459,1,0,0:0:0:0:
256,192,80631,1,8,0:0:0:0:
256,192,80802,1,8,0:0:0:0:
256,192,80888,1,8,0:0:0:0:
256,192,80973,1,0,0:0:0:0:
256,192,81145,1,0,0:0:0:0:
256,192,81316,1,8,0:0:0:0:
256,192,81488,1,0,0:0:0:0:
256,192,81831,1,0,0:0:0:0:
256,192,82002,1,8,0:0:0:0:
256,192,82173,1,0,0:0:0:0:
256,192,82259,1,0,0:0:0:0:
256,192,82345,1,8,0:0:0:0:
256,192,82516,1,0,0:0:0:0:
256,192,82688,1,8,0:0:0:0:
256,192,82859,1,8,0:0:0:0:
256,192,82945,1,0,0:0:0:0:
256,192,83031,1,8,0:0:0:0:
256,192,83202,1,0,0:0:0:0:
256,192,83373,1,8,0:0:0:0:
256,192,83545,1,8,0:0:0:0:
256,192,83716,1,0,0:0:0:0:
256,192,84059,1,8,0:0:0:0:
256,192,84231,1,0,0:0:0:0:
256,192,84573,1,0,0:0:0:0:
256,192,84659,1,0,0:0:0:0:
256,192,84745,1,8,0:0:0:0:
256,192,84916,1,8,0:0:0:0:
256,192,85088,1,0,0:0:0:0:
256,192,85259,1,0,0:0:0:0:
256,192,85431,1,8,0:0:0:0:
256,192,85602,1,8,0:0:0:0:
256,192,85688,1,0,0:0:0:0:
256,192,85773,1,0,0:0:0:0:
256,192,85945,1,0,0:0:0:0:
256,192,86116,1,8,0:0:0:0:
256,192,86288,1,8,0:0:0:0:
256,192,86459,1,0,0:0:0:0:
256,192,86802,1,8,0:0:0:0:
256,192,86974,1,0,0:0:0:0:
256,192,87059,1,0,0:0:0:0:
256,192,87145,1,0,0:0:0:0:
256,192,87317,1,0,0:0:0:0:
256,192,87488,1,8,0:0:0:0:
256,192,87659,1,8,0:0:0:0:
256,192,87831,1,0,0:0:0:0:
256,192,88174,1,8,0:0:0:0:
256,192,88345,1,0,0:0:0:0:
256,192,88431,1,0,0:0:0:0:
256,192,88517,1,8,0:0:0:0:
256,192,88688,1,0,0:0:0:0:
256,192,88859,1,8,0:0:0:0:
256,192,89031,1,0,0:0:0:0:
256,192,89202,1,0,0:0:0:0:
256,192,89545,1,8,0:0:0:0:
256,192,89717,1,0,0:0:0:0:
256,192,89888,1,8,0:0:0:0:
256,192,90059,1,0,0:0:0:0:
256,192,90145,1,0,0:0:0:0:
256,192,90231,1,8,0:0:0:0:
256,192,90316,1,8,0:0:0:0:
256,192,90402,1,0,0:0:0:0:
256,192,90573,1,12,0:0:0:0:
256,192,90917,1,8,0:0:0:0:
256,192,91088,1,0,0:0:0:0:
256,192,91260,1,8,0:0:0:0:
256,192,91345,1,8,0:0:0:0:
256,192,91431,1,8,0:0:0:0:
256,192,91602,1,8,0:0:0:0:
256,192,91774,1,0,0:0:0:0:
256,192,91945,1,8,0:0:0:0:
256,192,92288,1,8,0:0:0:0:
256,192,92460,1,0,0:0:0:0:
256,192,92631,1,8,0:0:0:0:
256,192,92717,1,8,0:0:0:0:
256,192,92802,1,0,0:0:0:0:
256,192,92974,1,8,0:0:0:0:
256,192,93145,1,0,0:0:0:0:
256,192,93317,1,8,0:0:0:0:
256,192,93660,1,8,0:0:0:0:
256,192,93831,1,0,0:0:0:0:
256,192,94002,1,0,0:0:0:0:
256,192,94088,1,8,0:0:0:0:
256,192,94174,1,0,0:0:0:0:
256,192,94345,1,8,0:0:0:0:
256,192,94517,1,0,0:0:0:0:
256,192,94688,1,8,0:0:0:0:
256,192,95031,1,8,0:0:0:0:
256,192,95202,1,0,0:0:0:0:
256,192,95374,1,0,0:0:0:0:
256,192,95460,1,0,0:0:0:0:
256,192,95545,1,8,0:0:0:0:
256,192,95717,1,8,0:0:0:0:
256,192,95802,1,8,0:0:0:0:
256,192,95888,1,8,0:0:0:0:
256,192,96060,1,4,0:0:0:0:
256,192,96402,1,8,0:0:0:0:
256,192,96573,1,0,0:0:0:0:
256,192,96745,1,0,0:0:0:0:
256,192,96830,1,0,0:0:0:0:
256,192,96916,1,0,0:0:0:0:
256,192,97087,1,8,0:0:0:0:
256,192,97259,1,0,0:0:0:0:
256,192,97430,1,8,0:0:0:0:
256,192,97773,1,8,0:0:0:0:
256,192,97945,1,0,0:0:0:0:
256,192,98116,1,8,0:0:0:0:
256,192,98202,1,0,0:0:0:0:
256,192,98287,1,0,0:0:0:0:
256,192,98459,1,8,0:0:0:0:
256,192,98630,1,0,0:0:0:0:
256,192,98802,1,8,0:0:0:0:
256,192,98973,1,0,0:0:0:0:
256,192,99059,1,8,0:0:0:0:
256,192,99145,1,8,0:0:0:0:
256,192,99316,1,0,0:0:0:0:
256,192,99487,1,8,0:0:0:0:
256,192,99573,1,0,0:0:0:0:
256,192,99659,1,0,0:0:0:0:
256,192,99830,1,8,0:0:0:0:
256,192,100002,1,0,0:0:0:0:
256,192,100173,1,8,0:0:0:0:
256,192,100516,1,8,0:0:0:0:
256,192,100687,1,0,0:0:0:0:
256,192,100859,1,0,0:0:0:0:
256,192,100945,1,0,0:0:0:0:
256,192,101030,1,8,0:0:0:0:
256,192,101202,1,8,0:0:0:0:
256,192,101287,1,8,0:0:0:0:
256,192,101373,1,0,0:0:0:0:
256,192,101545,1,12,0:0:0:0:
256,192,101888,1,8,0:0:0:0:
256,192,102059,1,0,0:0:0:0:
256,192,102231,1,8,0:0:0:0:
256,192,102316,1,8,0:0:0:0:
256,192,102402,1,8,0:0:0:0:
256,192,102573,1,8,0:0:0:0:
256,192,102745,1,0,0:0:0:0:
256,192,102916,1,8,0:0:0:0:
256,192,103259,1,8,0:0:0:0:
256,192,103431,1,0,0:0:0:0:
256,192,103602,1,8,0:0:0:0:
256,192,103688,1,8,0:0:0:0:
256,192,103773,1,0,0:0:0:0:
256,192,103945,1,8,0:0:0:0:
256,192,104116,1,0,0:0:0:0:
256,192,104288,1,8,0:0:0:0:
256,192,104631,1,8,0:0:0:0:
256,192,104802,1,0,0:0:0:0:
256,192,104973,1,0,0:0:0:0:
256,192,105059,1,8,0:0:0:0:
256,192,105145,1,8,0:0:0:0:
256,192,105316,1,8,0:0:0:0:
256,192,105488,1,0,0:0:0:0:
256,192,105659,1,8,0:0:0:0:
256,192,106002,1,8,0:0:0:0:
256,192,106173,1,0,0:0:0:0:
256,192,106345,1,0,0:0:0:0:
256,192,106431,1,0,0:0:0:0:
256,192,106516,1,8,0:0:0:0:
256,192,106688,1,8,0:0:0:0:
256,192,106773,1,8,0:0:0:0:
256,192,106859,1,8,0:0:0:0:
256,192,107031,1,4,0:0:0:0:
256,192,107374,1,8,0:0:0:0:
256,192,107717,1,0,0:0:0:0:
256,192,107888,1,0,0:0:0:0:
256,192,108059,1,8,0:0:0:0:
256,192,108231,1,0,0:0:0:0:
256,192,108402,1,8,0:0:0:0:
256,192,108745,1,0,0:0:0:0:
256,192,109088,1,8,0:0:0:0:
256,192,109259,1,0,0:0:0:0:
256,192,109431,1,8,0:0:0:0:
256,192,109774,1,0,0:0:0:0:
256,192,109945,1,0,0:0:0:0:
256,192,110117,1,8,0:0:0:0:
256,192,110288,1,0,0:0:0:0:
256,192,110459,1,8,0:0:0:0:
256,192,110545,1,0,0:0:0:0:
256,192,110631,1,8,0:0:0:0:
256,192,110802,1,8,0:0:0:0:
256,192,110974,1,0,0:0:0:0:
256,192,111145,1,8,0:0:0:0:
256,192,111488,1,8,0:0:0:0:
256,192,111831,1,0,0:0:0:0:
256,192,112002,1,0,0:0:0:0:
256,192,112174,1,8,0:0:0:0:
256,192,112259,1,8,0:0:0:0:
256,192,112345,1,8,0:0:0:0:
256,192,112431,1,8,0:0:0:0:
256,192,112517,1,0,0:0:0:0:
256,192,112860,1,8,0:0:0:0:
256,192,113031,1,0,0:0:0:0:
256,192,113202,1,8,0:0:0:0:
256,192,113374,1,8,0:0:0:0:
256,192,113545,1,0,0:0:0:0:
256,192,113888,1,0,0:0:0:0:
256,192,114060,1,8,0:0:0:0:
256,192,114231,1,0,0:0:0:0:
256,192,114402,1,0,0:0:0:0:
256,192,114573,1,8,0:0:0:0:
256,192,114745,1,0,0:0:0:0:
256,192,114917,1,8,0:0:0:0:
256,192,115088,1,0,0:0:0:0:
256,192,115174,1,0,0:0:0:0:
256,192,115260,1,8,0:0:0:0:
256,192,115602,1,8,0:0:0:0:
256,192,115774,1,8,0:0:0:0:
256,192,115860,1,8,0:0:0:0:
256,192,115945,1,8,0:0:0:0:
256,192,116117,1,0,0:0:0:0:
256,192,116288,1,8,0:0:0:0:
256,192,116460,1,8,0:0:0:0:
256,192,116631,1,0,0:0:0:0:
256,192,116974,1,8,0:0:0:0:
256,192,117145,1,0,0:0:0:0:
256,192,117317,1,0,0:0:0:0:
256,192,117402,1,0,0:0:0:0:
256,192,117488,1,8,0:0:0:0:
256,192,117574,1,0,0:0:0:0:
256,192,117660,1,8,0:0:0:0:
256,192,117831,1,8,0:0:0:0:
256,192,118002,1,0,0:0:0:0:
256,192,118345,1,8,0:0:0:0:
256,192,118517,1,8,0:0:0:0:
256,192,118603,1,8,0:0:0:0:
256,192,118688,1,0,0:0:0:0:
256,192,118860,1,0,0:0:0:0:
256,192,119031,1,8,0:0:0:0:
256,192,119202,1,8,0:0:0:0:
256,192,119374,1,0,0:0:0:0:
256,192,119717,1,8,0:0:0:0:
256,192,119889,1,8,0:0:0:0:
256,192,120060,1,0,0:0:0:0:
256,192,120145,1,0,0:0:0:0:
256,192,120232,1,0,0:0:0:0:
256,192,120317,1,0,0:0:0:0:
256,192,120403,1,8,0:0:0:0:
256,192,120575,1,8,0:0:0:0:
256,192,120746,1,0,0:0:0:0:
256,192,120917,1,0,0:0:0:0:
256,192,121088,1,8,0:0:0:0:
256,192,121260,1,0,0:0:0:0:
256,192,121345,1,8,0:0:0:0:
256,192,121431,1,0,0:0:0:0:
256,192,121602,1,0,0:0:0:0:
256,192,121774,1,8,0:0:0:0:
256,192,122117,1,8,0:0:0:0:
256,192,122288,1,0,0:0:0:0:
256,192,122374,1,8,0:0:0:0:
256,192,122460,1,8,0:0:0:0:
256,192,122631,1,0,0:0:0:0:
256,192,122802,1,0,0:0:0:0:
256,192,122888,1,0,0:0:0:0:
256,192,122974,1,8,0:0:0:0:
256,192,123145,1,8,0:0:0:0:
256,192,123317,1,0,0:0:0:0:
256,192,123488,1,12,0:0:0:0:
256,192,123831,1,8,0:0:0:0:
256,192,124003,1,8,0:0:0:0:
256,192,124089,1,8,0:0:0:0:
256,192,124174,1,8,0:0:0:0:
256,192,124346,1,0,0:0:0:0:
256,192,124517,1,8,0:0:0:0:
256,192,124689,1,8,0:0:0:0:
256,192,124860,1,0,0:0:0:0:
256,192,125203,1,8,0:0:0:0:
256,192,125374,1,0,0:0:0:0:
256,192,125546,1,0,0:0:0:0:
256,192,125631,1,0,0:0:0:0:
256,192,125717,1,8,0:0:0:0:
256,192,125803,1,0,0:0:0:0:
256,192,125889,1,8,0:0:0:0:
256,192,126060,1,8,0:0:0:0:
256,192,126231,1,0,0:0:0:0:
256,192,126574,1,8,0:0:0:0:
256,192,126746,1,8,0:0:0:0:
256,192,126832,1,8,0:0:0:0:
256,192,126917,1,0,0:0:0:0:
256,192,127089,1,0,0:0:0:0:
256,192,127260,1,8,0:0:0:0:
256,192,127431,1,8,0:0:0:0:
256,192,127603,1,0,0:0:0:0:
256,192,127946,1,8,0:0:0:0:
256,192,128118,1,0,0:0:0:0:
256,192,128288,1,8,0:0:0:0:
256,192,128374,1,8,0:0:0:0:
256,192,128461,1,0,0:0:0:0:
256,192,128546,1,0,0:0:0:0:
256,192,128632,1,8,0:0:0:0:
256,192,128802,1,8,0:0:0:0:
256,192,128975,1,0,0:0:0:0:
256,192,129146,1,0,0:0:0:0:
256,192,129317,1,8,0:0:0:0:
256,192,129489,1,0,0:0:0:0:
256,192,129574,1,8,0:0:0:0:
256,192,129660,1,0,0:0:0:0:
256,192,129831,1,0,0:0:0:0:
256,192,130003,1,8,0:0:0:0:
256,192,130174,1,8,0:0:0:0:
256,192,130346,1,0,0:0:0:0:
256,192,130688,1,8,0:0:0:0:
256,192,130860,1,0,0:0:0:0:
256,192,131202,1,0,0:0:0:0:
256,192,131288,1,0,0:0:0:0:
256,192,131374,1,8,0:0:0:0:
256,192,131545,1,8,0:0:0:0:
256,192,131717,1,0,0:0:0:0:
256,192,131888,1,0,0:0:0:0:
256,192,132060,1,8,0:0:0:0:
256,192,132231,1,8,0:0:0:0:
256,192,132317,1,0,0:0:0:0:
256,192,132402,1,0,0:0:0:0:
256,192,132574,1,8,0:0:0:0:
256,192,132745,1,0,0:0:0:0:
256,192,133088,12,0,134460,0:0:0:0:
