osu file format v14

[General]
AudioFilename: audio.mp3
AudioLeadIn: 0
PreviewTime: 54897
Countdown: 0
SampleSet: None
StackLeniency: 0.3
Mode: 0
LetterboxInBreaks: 0
WidescreenStoryboard: 1

[Editor]
DistanceSpacing: 1.1
BeatDivisor: 4
GridSize: 8
TimelineZoom: 3.099999

[Metadata]
Title:Stones (feat. Holly Drummond)
TitleUnicode:Stones (feat. Holly Drummond)
Artist:Rameses B
ArtistUnicode:Rameses B
Creator:-Tochi
Version:Mathew's Hard
Source:
Tags:dnb drump and bass stones follow me
BeatmapID:2138073
BeatmapSetID:935145

[Difficulty]
HPDrainRate:6
CircleSize:3.8
OverallDifficulty:6.5
ApproachRate:8
SliderMultiplier:1.3
SliderTickRate:1

[Events]
//Background and Video events
0,0,"bg.jpg",0,0
//Break Periods
//Storyboard Layer 0 (Background)
//Storyboard Layer 1 (Fail)
//Storyboard Layer 2 (Pass)
//Storyboard Layer 3 (Foreground)
//Storyboard Layer 4 (Overlay)
//Storyboard Sound Samples

[TimingPoints]
40,342.857142857143,4,2,1,30,1,0
11354,-125,4,2,1,30,0,0
21982,-111.111111111111,4,2,1,50,0,0
32954,-105.263157894737,4,2,1,50,0,0
43925,-100,4,2,1,60,0,0
54725,-100,4,2,0,60,0,0
54897,-95.2380952380952,4,2,2,70,0,1
76754,-95.2380952380952,4,2,2,70,0,0
76840,-90.9090909090909,4,2,2,70,0,1
98782,-95.2380952380952,4,2,2,70,0,0
101525,-100,4,2,1,70,0,0
109754,-100,4,2,1,50,0,0
110440,-111.111111111111,4,2,1,50,0,0
115240,-117.647058823529,4,2,1,50,0,0
118668,-117.647058823529,4,2,2,40,0,0
119011,-117.647058823529,4,2,2,50,0,0
119697,-117.647058823529,4,2,2,40,0,0
120725,-117.647058823529,4,2,1,40,0,0
126211,-117.647058823529,4,2,2,40,0,0
126897,-117.647058823529,4,2,2,50,0,0
127240,-117.647058823529,4,2,2,40,0,0
128782,-117.647058823529,4,2,1,40,0,0
131697,-108.695652173913,4,2,1,50,0,0
142668,-90.9090909090909,4,2,2,70,0,0
164611,-90.9090909090909,4,2,2,70,0,1
186554,-95.2380952380952,4,2,2,70,0,0
208497,-100,4,2,2,60,0,0
230440,-100,4,2,2,5,0,0

[Colours]
Combo1 : 128,0,255
Combo2 : 0,255,255
Combo3 : 255,128,0
Combo4 : 255,0,0
Combo5 : 255,0,128

[HitObjects]
256,192,8268,12,2,11011,0:0:0:0:
351,57,11354,6,0,P|365:107|331:162,1,104,2|2,0:0|0:0,0:0:0:0:
351,57,12040,2,0,P|381:61|413:49,2,52,2|2|2,0:0|0:0|0:0,0:0:0:0:
161,57,12725,6,0,P|147:107|181:162,1,104,2|2,0:0|0:0,0:0:0:0:
161,57,13411,2,0,P|131:61|99:49,2,52,2|2|2,0:0|0:0|0:0,0:0:0:0:
256,153,14097,6,0,L|256:93,2,52,2|2|2,0:0|0:0|0:0,0:0:0:0:
256,288,14782,2,0,L|256:348,2,52,2|2|2,0:0|0:0|0:0,0:0:0:0:
140,217,15468,5,2,0:0:0:0:
140,217,15640,1,2,0:0:0:0:
140,217,15811,2,0,L|206:221,1,52,2|0,0:0|0:0,0:0:0:0:
247,181,16154,2,0,L|298:177,1,52,2|2,0:0|0:0,0:0:0:0:
355,140,16497,5,2,0:0:0:0:
168,72,16840,2,0,P|141:66|71:111,1,104,2|2,0:0|0:0,0:0:0:0:
168,72,17525,6,0,L|159:17,2,52,2|2|2,0:0|0:0|0:0,0:0:0:0:
344,71,18211,2,0,P|394:69|435:100,1,104,2|2,0:0|0:0,0:0:0:0:
344,71,18897,6,0,L|353:16,2,52,2|2|2,0:0|0:0|0:0,0:0:0:0:
256,175,19582,1,2,0:0:0:0:
256,175,19925,2,0,L|256:279,1,104,2|2,0:0|0:0,0:0:0:0:
304,327,20440,1,2,0:0:0:0:
256,376,20611,5,2,0:0:0:0:
256,376,20954,2,0,L|198:370,1,52,2|2,0:0|0:0,0:0:0:0:
187,353,21211,1,2,0:0:0:0:
170,336,21297,2,0,L|112:330,1,52,2|2,0:0|0:0,0:0:0:0:
69,283,21640,6,0,L|22:293,4,26,0|0|0|0|4,3:0|3:0|3:0|3:0|1:2,0:0:0:0:
69,283,22325,2,0,L|59:213,1,58.4999982147217,8|0,0:0|0:0,0:0:0:0:
109,166,22668,2,0,B|96:88|96:88|132:111,1,116.999996429443,0|8,1:0|0:0,0:0:0:0:
187,155,23182,6,0,P|248:135|272:84,1,116.999996429443,0|0,1:0|0:0,0:0:0:0:
196,78,23697,1,8,0:0:0:0:
187,155,23868,2,0,P|199:186|192:229,1,58.4999982147217,0|0,1:0|0:0,0:0:0:0:
151,270,24211,1,0,0:0:0:0:
196,330,24382,2,0,L|268:336,1,58.4999982147217,8|0,0:0|0:0,0:0:0:0:
330,343,24725,5,0,1:0:0:0:
330,343,25068,2,0,L|316:269,1,58.4999982147217,8|0,0:0|0:0,0:0:0:0:
303,210,25411,2,0,P|291:154|327:106,1,116.999996429443,0|8,1:0|0:0,0:0:0:0:
392,74,25925,1,0,1:0:0:0:
449,123,26097,6,0,P|442:151|454:190,1,58.4999982147217,0|0,0:0|0:0,0:0:0:0:
470,252,26440,1,8,0:0:0:0:
396,234,26611,1,0,1:0:0:0:
448,179,26782,2,0,P|397:157|333:195,1,116.999996429443,0|8,0:0|0:0,0:0:0:0:
295,239,27297,1,0,0:0:0:0:
249,299,27468,5,0,1:0:0:0:
249,299,27640,2,0,L|176:286,1,58.4999982147217,0|8,0:0|0:0,0:0:0:0:
128,246,27982,1,0,0:0:0:0:
128,246,28154,2,0,L|70:236,1,58.4999982147217,0|0,1:0|0:0,0:0:0:0:
13,185,28497,1,8,0:0:0:0:
13,185,28669,6,0,L|0:112,1,58.4999982147217,0|0,1:0|0:0,0:0:0:0:
64,84,29011,1,0,0:0:0:0:
64,84,29183,2,0,L|51:11,1,58.4999982147217,8|0,0:0|1:0,0:0:0:0:
126,46,29525,1,0,0:0:0:0:
274,11,29868,1,8,0:0:0:0:
411,75,30211,5,0,1:0:0:0:
411,75,30383,2,0,L|424:148,1,58.4999982147217,0|8,0:0|0:0,0:0:0:0:
346,145,30725,1,0,0:0:0:0:
346,145,30897,2,0,L|325:199,1,58.4999982147217,0|0,1:0|0:0,0:0:0:0:
256,167,31240,1,8,0:0:0:0:
187,199,31411,1,0,1:0:0:0:
204,272,31582,6,0,P|196:301|200:352,1,58.4999982147217,2|2,0:0|0:0,0:0:0:0:
270,314,31925,2,0,P|299:306|341:277,1,58.4999982147217,10|0,0:0|1:0,0:0:0:0:
271,237,32268,1,2,0:0:0:0:
204,272,32440,1,2,0:0:0:0:
139,232,32611,2,0,L|133:192,3,29.2499991073609,2|2|2|2,3:2|3:2|3:2|3:2,0:0:0:0:
150,176,32954,6,0,P|192:175|228:148,1,61.7499983510972,4|0,1:2|0:0,0:0:0:0:
269,112,33297,2,0,B|254:202|254:202|306:172,1,123.499996702194,8|2,0:0|0:0,0:0:0:0:
354,151,33811,1,0,0:0:0:0:
346,230,33982,1,8,0:0:0:0:
281,184,34154,6,0,P|272:251|311:301,1,123.499996702194,0|0,0:0|0:0,0:0:0:0:
346,230,34668,1,8,0:0:0:0:
281,184,34840,1,0,0:0:0:0:
354,152,35011,2,0,B|369:62|369:62|317:92,1,123.499996702194,2|8,0:0|0:0,0:0:0:0:
266,108,35525,1,0,0:0:0:0:
188,85,35697,6,0,P|160:90|126:124,1,61.7499983510972,0|0,1:0|0:0,0:0:0:0:
127,192,36040,2,0,L|56:192,2,61.7499983510972,8|0|2,0:0|0:0|0:0,0:0:0:0:
385,192,36725,1,8,0:0:0:0:
328,249,36897,6,0,P|297:239|263:249,1,61.7499983510972,0|2,0:0|0:0,0:0:0:0:
213,303,37240,2,0,P|183:296|154:306,1,61.7499983510972,0|8,0:0|0:0,0:0:0:0:
89,353,37582,1,0,0:0:0:0:
26,302,37754,2,0,L|5:180,1,123.499996702194,2|8,0:0|0:0,0:0:0:0:
132,82,38440,5,4,1:2:0:0:
91,237,38782,1,8,0:0:0:0:
169,220,38954,1,0,0:0:0:0:
169,220,39125,2,0,L|158:282,1,61.7499983510972,2|0,0:0|0:0,0:0:0:0:
141,359,39468,2,0,L|208:342,1,61.7499983510972,0|0,0:0|0:0,0:0:0:0:
278,323,39811,5,2,0:0:0:0:
278,323,40154,1,8,0:0:0:0:
331,263,40325,2,0,P|366:266|403:239,2,61.7499983510972,0|2|0,0:0|0:0|0:0,0:0:0:0:
272,206,40840,2,0,P|260:173|266:125,1,61.7499983510972,8|0,0:0|0:0,0:0:0:0:
301,78,41182,5,0,1:0:0:0:
301,78,41525,2,0,L|368:61,2,61.7499983510972,8|0|2,0:0|0:0|0:0,0:0:0:0:
151,62,42211,2,0,L|211:78,1,61.7499983510972,8|0,0:0|0:0,0:0:0:0:
256,144,42554,5,2,0:0:0:0:
198,199,42725,1,2,0:0:0:0:
256,254,42897,2,0,L|244:325,1,61.7499983510972,10|2,0:0|0:0,0:0:0:0:
306,367,43240,2,0,B|379:360|379:360|366:343,1,92.6249975266457,0|0,3:0|3:0,0:0:0:0:
352,317,43582,2,0,L|364:263,3,30.8749991755486,8|0|0|0,3:2|3:0|3:0|3:0,0:0:0:0:
353,257,43925,6,0,P|365:226|358:179,1,65,4|0,1:2|0:0,0:0:0:0:
281,216,44268,1,8,0:0:0:0:
353,257,44440,1,0,0:0:0:0:
434,234,44611,2,0,L|452:296,1,65,0|0,0:0|0:0,0:0:0:0:
402,360,44954,1,8,0:0:0:0:
402,360,45126,6,0,L|339:341,1,65,0|0,0:0|1:0,0:0:0:0:
260,311,45469,2,0,P|275:247|242:194,1,130,0|0,0:0|0:0,0:0:0:0:
192,262,45982,2,0,B|130:272|130:272|89:249,1,97.5,2|0,0:0|0:0,0:0:0:0:
72,236,46325,2,0,L|61:141,1,65,8|0,0:0|0:0,0:0:0:0:
131,120,46668,6,0,P|122:88|128:55,1,65,0|0,1:0|0:0,0:0:0:0:
206,88,47011,2,0,P|237:96|263:118,2,65,8|0|2,0:0|0:0|0:0,0:0:0:0:
206,88,47697,1,8,0:0:0:0:
136,136,47868,1,0,0:0:0:0:
136,136,48040,6,0,P|150:170|141:208,1,65,0|0,1:0|0:0,0:0:0:0:
98,266,48382,1,8,0:0:0:0:
162,320,48554,1,0,1:0:0:0:
162,320,48725,2,0,P|214:311|263:323,1,97.5,2|0,0:0|3:0,0:0:0:0:
283,340,49068,2,0,L|362:332,1,65,8|0,0:0|1:0,0:0:0:0:
422,293,49411,6,0,L|438:134,1,130,0|8,1:0|0:0,0:0:0:0:
358,127,49925,1,0,0:0:0:0:
358,127,50097,2,0,L|344:256,1,130,0|8,1:0|0:0,0:0:0:0:
283,314,50611,1,0,0:0:0:0:
203,285,50782,5,0,1:0:0:0:
203,285,51125,2,0,L|127:290,1,65,8|0,0:0|0:0,0:0:0:0:
95,215,51468,1,0,1:0:0:0:
95,215,51811,6,0,L|189:210,1,65,8|0,0:0|0:0,0:0:0:0:
160,211,54382,6,0,B|150:281|150:281|169:316,1,97.5,0|0,0:0|3:0,0:0:0:0:
180,332,54725,1,0,1:0:0:0:
256,377,54897,5,0,1:0:0:0:
332,332,55068,2,0,L|325:290,2,34.1249989585877,0|2|8,0:0|0:2|0:0,0:0:0:0:
415,361,55411,2,0,P|455:353|487:318,1,68.2499979171754,0|0,0:0|0:0,0:0:0:0:
504,251,55754,2,0,L|492:159,1,68.2499979171754,2|8,1:2|0:0,0:0:0:0:
432,119,56097,1,2,0:0:0:0:
473,40,56268,6,0,B|496:-4,2,34.1249989585877,0|2|0,1:0|0:0|0:0,0:0:0:0:
432,119,56611,1,10,0:0:0:0:
349,86,56782,1,2,0:0:0:0:
281,144,56954,1,0,0:0:0:0:
196,112,57125,1,0,1:0:0:0:
196,112,57297,2,0,P|166:95|132:97,1,68.2499979171754,8|0,0:0|0:0,0:0:0:0:
69,154,57640,6,0,L|82:225,1,68.2499979171754,0|0,1:0|0:0,0:0:0:0:
155,269,57982,2,0,P|145:298|151:336,2,68.2499979171754,8|0|0,0:0|0:0|0:0,0:0:0:0:
234,310,58497,1,0,1:0:0:0:
150,334,58668,2,0,L|72:320,1,68.2499979171754,8|0,0:0|0:0,0:0:0:0:
21,257,59011,5,0,1:0:0:0:
88,199,59182,1,0,0:0:0:0:
50,118,59354,1,10,0:0:0:0:
104,50,59525,1,0,0:0:0:0:
104,50,59611,1,0,0:0:0:0:
104,50,59697,2,0,L|177:75,1,68.2499979171754,2|0,0:0|1:0,0:0:0:0:
197,59,59954,2,0,L|299:86,1,102.374996875763,2|2,0:0|0:0,0:0:0:0:
380,111,60382,5,0,1:0:0:0:
466,131,60554,2,0,P|467:96|446:53,2,68.2499979171754,0|8|0,0:0|0:0|0:0,0:0:0:0:
403,194,61068,1,0,0:0:0:0:
380,111,61240,1,0,1:0:0:0:
466,131,61411,1,8,0:0:0:0:
403,194,61582,1,0,0:0:0:0:
455,266,61754,6,0,P|461:297|451:334,2,68.2499979171754,0|0|8,1:0|0:0|0:0,0:0:0:0:
371,296,62268,1,0,0:0:0:0:
371,296,62440,2,0,L|290:296,1,68.2499979171754,0|0,0:0|1:0,0:0:0:0:
232,242,62782,2,0,L|151:242,1,68.2499979171754,8|0,0:0|0:0,0:0:0:0:
83,203,63125,5,0,1:0:0:0:
142,136,63297,1,0,0:0:0:0:
142,136,63468,2,0,P|131:101|138:65,1,68.2499979171754,8|0,0:0|0:0,0:0:0:0:
221,95,63811,2,0,P|256:102|284:127,1,68.2499979171754,0|0,0:0|1:0,0:0:0:0:
214,182,64154,2,0,P|189:209|154:220,1,68.2499979171754,8|0,0:0|0:0,0:0:0:0:
81,262,64497,5,0,1:0:0:0:
81,262,64668,2,0,P|82:211|64:152,1,102.374996875763,2|2,0:0|0:0,0:0:0:0:
84,135,65011,1,0,0:0:0:0:
47,54,65182,2,0,P|80:47|114:51,1,68.2499979171754,2|2,0:0|1:2,0:0:0:0:
140,67,65440,2,0,L|266:50,1,102.374996875763,0|0,0:0|3:0,0:0:0:0:
329,40,65868,5,0,1:0:0:0:
402,89,66040,1,0,0:0:0:0:
402,89,66211,2,0,P|397:127|411:163,1,68.2499979171754,8|0,0:0|0:0,0:0:0:0:
443,235,66554,2,0,P|386:231|354:245,1,68.2499979171754,0|2,0:0|1:2,0:0:0:0:
407,317,66897,1,8,0:0:0:0:
443,235,67068,1,2,0:0:0:0:
405,154,67240,6,0,L|369:162,2,34.1249989585877,0|2|0,1:0|0:0|0:0,0:0:0:0:
479,106,67582,2,0,P|480:73|458:24,1,68.2499979171754,10|2,0:0|0:0,0:0:0:0:
385,7,67925,1,0,0:0:0:0:
313,60,68097,1,0,1:0:0:0:
227,37,68268,1,8,0:0:0:0:
161,97,68440,1,0,0:0:0:0:
96,157,68611,6,0,P|60:143|23:146,2,68.2499979171754,0|0|8,1:0|0:0|0:0,0:0:0:0:
161,217,69125,1,0,0:0:0:0:
161,217,69297,2,0,P|173:248|170:296,1,68.2499979171754,0|0,0:0|1:0,0:0:0:0:
101,335,69640,2,0,P|89:304|92:256,1,68.2499979171754,8|0,0:0|0:0,0:0:0:0:
173,282,69982,5,0,1:0:0:0:
237,221,70154,1,0,0:0:0:0:
316,259,70325,1,8,0:0:0:0:
258,326,70497,1,0,0:0:0:0:
258,326,70582,1,0,0:0:0:0:
258,326,70668,2,0,L|348:335,1,68.2499979171754,2|0,0:0|1:0,0:0:0:0:
342,355,70925,2,0,L|451:339,1,102.374996875763,2|2,0:0|0:0,0:0:0:0:
478,258,71354,6,0,P|487:228|479:165,1,68.2499979171754,0|0,1:0|0:0,0:0:0:0:
423,128,71697,1,8,0:0:0:0:
423,128,71868,1,0,0:0:0:0:
349,178,72040,2,0,P|319:169|256:177,1,68.2499979171754,0|0,0:0|1:0,0:0:0:0:
213,225,72382,1,8,0:0:0:0:
213,225,72554,1,0,0:0:0:0:
140,174,72725,6,0,P|105:174|73:165,2,68.2499979171754,0|0|8,1:0|0:0|0:0,0:0:0:0:
204,111,73240,1,0,0:0:0:0:
204,111,73411,2,0,P|195:78|178:48,1,68.2499979171754,0|0,0:0|1:0,0:0:0:0:
90,32,73754,2,0,P|65:55|49:85,1,68.2499979171754,8|0,0:0|0:0,0:0:0:0:
73,165,74097,5,0,1:0:0:0:
21,236,74268,1,2,0:0:0:0:
89,292,74440,2,0,L|96:340,2,34.1249989585877,8|2|0,0:0|0:0|0:0,0:0:0:0:
148,226,74782,2,0,L|136:149,1,68.2499979171754,2|0,0:0|1:0,0:0:0:0:
161,137,75040,2,0,B|237:158|237:158|228:136,1,102.374996875763,2|2,0:0|0:0,0:0:0:0:
301,87,75468,6,0,P|292:54|298:20,1,68.2499979171754,0|0,1:0|0:0,0:0:0:0:
381,50,75811,1,10,0:0:0:0:
419,129,75982,1,0,0:0:0:0:
432,156,76068,1,2,0:0:0:0:
445,183,76154,2,0,L|477:169,2,34.1249989585877,0|0|2,0:0|1:0|0:0,0:0:0:0:
379,243,76497,1,8,0:0:0:0:
314,304,76668,6,0,L|315:357,2,34.1249989585877,0|8|4,1:0|0:0|1:2,0:0:0:0:
261,234,77011,1,0,0:0:0:0:
240,257,77097,1,2,0:0:0:0:
217,278,77182,2,0,P|181:271|144:279,1,71.5000021820069,8|0,0:0|0:0,0:0:0:0:
62,315,77525,1,0,0:0:0:0:
133,373,77697,1,2,1:2:0:0:
147,277,77868,2,0,P|157:245|149:198,1,71.5000021820069,8|2,0:0|0:0,0:0:0:0:
99,130,78211,6,0,L|51:156,2,35.7500010910034,0|2|0,1:0|0:0|0:0,0:0:0:0:
182,87,78554,1,10,0:0:0:0:
182,87,78725,1,2,0:0:0:0:
258,140,78897,2,0,L|242:214,1,71.5000021820069,0|0,0:0|1:0,0:0:0:0:
160,254,79240,2,0,L|144:328,1,71.5000021820069,8|0,0:0|0:0,0:0:0:0:
226,368,79582,6,0,P|261:365|296:342,2,71.5000021820069,0|0|8,1:0|0:0|0:0,0:0:0:0:
237,274,80097,1,0,0:0:0:0:
237,274,80268,2,0,P|236:238|251:206,1,71.5000021820069,0|0,0:0|1:0,0:0:0:0:
331,254,80611,2,0,P|361:271|382:300,1,71.5000021820069,8|0,0:0|0:0,0:0:0:0:
291,346,80954,5,0,1:0:0:0:
237,274,81125,1,0,0:0:0:0:
331,254,81297,1,8,0:0:0:0:
369,169,81468,1,0,0:0:0:0:
307,99,81640,2,0,P|273:92|235:110,1,71.5000021820069,2|0,0:0|1:0,0:0:0:0:
217,129,81897,2,0,L|99:117,1,107.25000327301,2|2,0:0|0:0,0:0:0:0:
70,202,82325,6,0,L|-1:194,2,71.5000021820069,0|0|8,1:0|0:0|0:0,0:0:0:0:
118,282,82840,1,0,0:0:0:0:
118,282,83011,2,0,L|189:289,1,71.5000021820069,0|0,0:0|1:0,0:0:0:0:
276,257,83354,1,8,0:0:0:0:
276,257,83525,1,0,0:0:0:0:
266,164,83697,6,0,P|297:182|338:184,2,71.5000021820069,0|0|8,1:0|0:0|0:0,0:0:0:0:
328,93,84212,1,0,0:0:0:0:
328,93,84383,2,0,P|329:57|310:20,1,71.5000021820069,0|0,0:0|1:0,0:0:0:0:
232,69,84726,2,0,P|202:85|179:121,1,71.5000021820069,8|0,0:0|0:0,0:0:0:0:
143,200,85068,5,0,1:0:0:0:
109,287,85240,1,0,0:0:0:0:
185,338,85411,1,8,0:0:0:0:
260,284,85582,1,0,0:0:0:0:
232,195,85754,2,0,P|288:194|347:260,1,143.000004364014,0|8,0:0|0:0,0:0:0:0:
260,284,86268,1,0,0:0:0:0:
185,338,86440,5,0,1:0:0:0:
109,287,86611,1,2,0:0:0:0:
143,200,86782,2,0,L|173:254,2,35.7500010910034,8|2|0,0:0|0:0|0:0,0:0:0:0:
66,147,87125,2,0,P|53:115|54:71,1,71.5000021820069,2|0,1:2|0:0,0:0:0:0:
71,52,87382,2,0,P|118:30|186:49,1,107.25000327301,2|2,1:2|0:0,0:0:0:0:
256,75,87811,1,4,1:2:0:0:
342,39,87982,6,0,L|383:19,2,35.7500010910034,0|2|8,0:0|0:0|0:0,0:0:0:0:
256,75,88325,1,0,0:0:0:0:
290,161,88497,1,0,0:0:0:0:
290,161,88668,2,0,P|276:199|291:253,1,71.5000021820069,2|8,1:2|0:0,0:0:0:0:
309,317,89011,1,2,0:0:0:0:
399,296,89182,5,0,1:0:0:0:
408,265,89268,1,2,0:0:0:0:
417,234,89354,1,0,0:0:0:0:
485,171,89525,2,0,P|492:137|483:97,1,71.5000021820069,10|2,0:0|0:0,0:0:0:0:
409,47,89868,1,0,0:0:0:0:
327,92,90040,1,0,1:0:0:0:
327,92,90211,2,0,P|292:81|249:92,1,71.5000021820069,8|0,0:0|0:0,0:0:0:0:
203,162,90554,6,0,P|168:157|135:171,1,71.5000021820069,0|0,1:0|0:0,0:0:0:0:
66,233,90897,1,8,0:0:0:0:
66,233,91068,1,0,0:0:0:0:
11,157,91240,2,0,P|0:122|11:74,1,71.5000021820069,0|0,0:0|1:0,0:0:0:0:
81,36,91582,1,8,0:0:0:0:
81,36,91754,1,0,0:0:0:0:
154,91,91925,6,0,L|182:12,2,71.5000021820069,0|0|8,1:0|0:0|0:0,0:0:0:0:
179,181,92440,1,0,0:0:0:0:
179,181,92611,2,0,P|139:167|95:184,1,71.5000021820069,2|0,0:0|1:0,0:0:0:0:
88,195,92868,2,0,L|104:307,1,107.25000327301,2|2,0:0|0:0,0:0:0:0:
192,329,93297,6,0,P|175:359|131:383,2,71.5000021820069,0|0|8,1:0|0:0|0:0,0:0:0:0:
256,261,93811,1,0,0:0:0:0:
320,329,93982,2,0,P|337:359|381:383,1,71.5000021820069,0|0,0:0|1:0,0:0:0:0:
403,293,94325,2,0,P|420:263|419:213,1,71.5000021820069,8|0,0:0|0:0,0:0:0:0:
368,151,94668,6,0,L|286:162,1,71.5000021820069,0|0,1:0|0:0,0:0:0:0:
213,120,95011,1,8,0:0:0:0:
213,120,95183,1,0,0:0:0:0:
128,159,95354,2,0,L|154:248,1,71.5000021820069,0|0,0:0|1:0,0:0:0:0:
231,269,95697,1,8,0:0:0:0:
231,269,95868,1,0,0:0:0:0:
182,348,96040,5,0,0:0:0:0:
96,312,96211,2,0,B|12:318|12:318|44:281,1,107.25000327301,2|2,0:0|0:0,0:0:0:0:
51,279,96554,1,0,0:0:0:0:
113,210,96725,2,0,P|123:157|88:106,1,107.25000327301,2|2,0:0|0:0,0:0:0:0:
72,92,97068,2,0,L|89:12,1,71.5000021820069,8|2,0:0|0:0,0:0:0:0:
177,1,97411,5,0,1:0:0:0:
256,47,97582,1,0,0:0:0:0:
335,0,97754,2,0,P|348:34|344:72,1,71.5000021820069,10|0,0:0|0:0,0:0:0:0:
303,152,98097,1,8,0:0:0:0:
324,169,98182,1,8,0:0:0:0:
345,186,98268,1,0,1:0:0:0:
412,250,98440,2,0,L|428:298,3,35.7500010910034,8|0|8|8,0:0|1:0|0:0|0:0,0:0:0:0:
432,313,98782,6,0,P|401:302|366:312,1,68.2499979171754,2|0,1:2|0:0,0:0:0:0:
294,360,99125,2,0,P|261:368|229:357,1,68.2499979171754,2|2,1:2|0:0,0:0:0:0:
230,357,99811,1,2,1:2:0:0:
230,357,100154,6,0,L|221:281,1,68.2499979171754,2|0,1:2|0:0,0:0:0:0:
282,224,100497,2,0,L|273:148,1,68.2499979171754,2|2,1:2|0:0,0:0:0:0:
274,156,101182,2,0,L|257:103,3,34.1249989585877,0|2|2|2,1:0|0:0|0:0|0:0,0:0:0:0:
254,95,101525,6,0,L|330:98,1,65,4|0,1:2|0:0,0:0:0:0:
355,174,101868,2,0,L|431:177,1,65,8|2,0:0|0:0,0:0:0:0:
480,236,102211,2,0,B|501:317|501:317|467:363,1,130,0|8,1:0|0:0,0:0:0:0:
408,299,102725,1,0,0:0:0:0:
408,299,102897,6,0,P|370:291|329:302,1,65,0|0,0:0|0:0,0:0:0:0:
288,359,103240,1,8,0:0:0:0:
256,280,103411,1,0,1:0:0:0:
256,280,103582,2,0,L|245:134,1,130,0|8,0:0|0:0,0:0:0:0:
87,91,104268,6,0,L|73:25,2,65,0|0|8,1:0|0:0|0:0,0:0:0:0:
107,173,104782,1,0,0:0:0:0:
107,173,104954,2,0,B|12:153|12:153|42:202,1,130,0|8,1:0|0:0,0:0:0:0:
72,253,105468,1,0,1:0:0:0:
60,336,105640,6,0,P|93:323|133:333,1,65,0|0,0:0|0:0,0:0:0:0:
196,365,105982,1,8,0:0:0:0:
256,305,106154,1,0,1:0:0:0:
217,229,106325,2,0,L|232:86,1,130,0|8,0:0|0:0,0:0:0:0:
230,99,107011,6,0,P|264:106|306:85,1,65,0|0,1:0|0:0,0:0:0:0:
365,54,107354,2,0,P|395:63|427:56,1,65,10|2,0:0|0:0,0:0:0:0:
501,15,107697,2,0,P|460:75|469:139,1,130,2|10,1:2|0:0,0:0:0:0:
486,216,108211,1,2,1:2:0:0:
486,216,108382,6,0,L|412:224,1,65,2|0,0:0|0:0,0:0:0:0:
362,284,108725,2,0,L|288:292,1,65,10|2,0:0|1:2,0:0:0:0:
219,258,109067,1,2,0:0:0:0:
176,331,109239,1,0,0:0:0:0:
176,331,109411,2,0,L|114:338,3,32.5,10|0|2|0,0:0|0:0|3:2|0:0,0:0:0:0:
117,321,109754,6,0,P|132:289|130:250,1,65,4|0,1:2|0:0,0:0:0:0:
192,199,110097,2,0,P|188:166|171:139,1,65,8|0,0:0|0:0,0:0:0:0:
138,70,110440,2,0,B|210:49|210:49|250:58,1,116.999996429443,0|8,1:0|0:0,0:0:0:0:
324,93,110954,1,0,1:0:0:0:
324,93,111125,6,0,B|419:74|419:74|389:104,1,116.999996429443,0|8,0:0|0:0,0:0:0:0:
379,160,111640,1,0,1:0:0:0:
379,160,111811,1,0,0:0:0:0:
417,225,111982,1,2,0:0:0:0:
381,292,112154,1,10,0:0:0:0:
340,356,112325,1,2,0:0:0:0:
381,292,112497,6,0,P|354:281|305:289,1,58.4999982147217,2|0,1:2|0:0,0:0:0:0:
261,323,112840,2,0,P|231:322|205:333,1,58.4999982147217,8|0,0:0|0:0,0:0:0:0:
153,278,113182,2,0,P|189:230|170:156,1,116.999996429443,0|8,1:0|0:0,0:0:0:0:
115,211,113697,1,0,1:0:0:0:
153,278,113868,6,0,P|151:308|173:352,1,58.4999982147217,0|0,0:0|0:0,0:0:0:0:
228,301,114211,2,0,P|237:330|274:363,2,58.4999982147217,8|0|0,0:0|1:0|0:0,0:0:0:0:
281,246,114725,1,2,0:0:0:0:
269,170,114897,1,10,0:0:0:0:
257,94,115068,1,2,0:0:0:0:
269,170,115240,6,0,L|331:178,1,55.2500010538101,2|0,1:2|0:0,0:0:0:0:
393,161,115582,2,0,L|455:169,1,55.2500010538101,8|0,0:0|0:0,0:0:0:0:
508,129,115925,1,0,1:0:0:0:
508,129,116097,1,0,0:0:0:0:
463,65,116268,2,0,L|451:2,1,55.2500010538101,8|0,0:0|1:0,0:0:0:0:
385,36,116611,6,0,L|395:90,1,55.2500010538101,0|0,0:0|0:0,0:0:0:0:
326,112,116954,2,0,L|315:57,2,55.2500010538101,8|0|0,0:0|1:0|0:0,0:0:0:0:
340,182,117468,1,2,0:0:0:0:
295,238,117640,1,10,0:0:0:0:
245,290,117811,1,2,0:0:0:0:
295,238,117982,6,0,P|322:252|363:251,1,55.2500010538101,2|2,1:2|0:0,0:0:0:0:
412,226,118325,2,0,P|426:199|425:158,1,55.2500010538101,10|2,0:0|0:0,0:0:0:0:
406,105,118668,1,2,1:2:0:0:
349,60,118840,1,2,0:0:0:0:
286,95,119011,1,2,0:0:0:0:
238,41,119182,1,2,0:2:0:0:
180,83,119354,6,0,L|115:88,2,55.2500010538101,2|2|2,0:0|0:0|0:0,0:0:0:0:
238,41,119868,1,2,0:0:0:0:
443,335,120725,5,2,0:0:0:0:
256,227,121240,1,2,0:0:0:0:
69,335,121754,1,2,0:0:0:0:
230,192,122268,5,2,0:0:0:0:
69,49,122782,1,2,0:0:0:0:
256,155,123297,1,2,0:0:0:0:
317,117,123468,5,2,0:0:0:0:
256,323,123982,1,2,0:0:0:0:
428,192,124497,1,2,0:0:0:0:
256,61,125011,5,2,0:0:0:0:
84,192,125525,1,2,0:0:0:0:
256,323,126040,1,2,0:0:0:0:
227,257,126211,6,0,L|199:199,1,55.2500010538101,2|2,0:0|0:0,0:0:0:0:
241,146,126554,2,0,L|305:150,1,55.2500010538101,2|2,0:0|0:0,0:0:0:0:
328,214,126897,2,0,L|291:267,1,55.2500010538101,2|2,0:0|0:0,0:0:0:0:
227,257,127240,1,2,0:0:0:0:
148,56,127754,5,2,0:0:0:0:
148,56,127925,1,2,0:0:0:0:
111,118,128097,1,2,0:0:0:0:
75,180,128268,1,2,0:0:0:0:
256,296,128782,1,2,0:0:0:0:
256,223,128954,5,2,0:0:0:0:
429,95,129468,1,2,0:0:0:0:
506,296,129982,1,2,0:0:0:0:
350,146,130497,5,2,0:0:0:0:
256,339,131011,1,2,0:0:0:0:
162,146,131525,1,2,0:0:0:0:
103,198,131697,6,0,P|154:224|230:187,1,119.599995985108,0|8,1:0|0:0,0:0:0:0:
268,154,132211,2,0,P|319:180|395:143,1,119.599995985108,0|0,0:0|1:0,0:0:0:0:
423,101,132725,2,0,P|422:69|437:33,1,59.7999979925538,8|0,0:0|0:0,0:0:0:0:
497,83,133068,6,0,P|498:115|483:151,1,59.7999979925538
423,101,133411,1,8,0:0:0:0:
376,164,133582,1,0,0:0:0:0:
421,227,133754,2,0,P|454:279|441:344,1,119.599995985108,0|8,0:0|0:0,0:0:0:0:
379,373,134268,1,0,0:0:0:0:
379,373,134440,6,0,L|254:363,1,119.599995985108,0|8,1:0|0:0,0:0:0:0:
220,296,134954,2,0,L|100:305,1,119.599995985108,0|0,0:0|1:0,0:0:0:0:
59,239,135468,6,0,L|-7:233,2,59.7999979925538,8|0|0,0:0|0:0|1:0,0:0:0:0:
123,194,135982,1,0,0:0:0:0:
107,117,136154,1,8,0:0:0:0:
158,59,136325,1,0,1:0:0:0:
235,67,136497,2,0,P|266:72|299:62,1,59.7999979925538,0|0,0:0|1:0,0:0:0:0:
360,26,136840,1,8,0:0:0:0:
415,87,137011,1,0,0:0:0:0:
415,87,137182,6,0,L|426:169,1,59.7999979925538,0|0,1:0|0:0,0:0:0:0:
373,206,137525,1,8,0:0:0:0:
373,206,137697,2,0,B|387:300|387:300|349:282,1,119.599995985108,0|0,0:0|1:0,0:0:0:0:
292,319,138211,2,0,P|263:308|227:316,1,59.7999979925538,8|0,0:0|0:0,0:0:0:0:
169,354,138554,5,0,1:0:0:0:
169,354,138725,2,0,B|83:368|83:368|51:335,1,119.599995985108,0|0,0:0|0:0,0:0:0:0:
111,285,139240,1,0,0:0:0:0:
83,212,139411,1,0,1:0:0:0:
83,212,139582,2,0,P|84:175|61:139,1,59.7999979925538,8|0,0:0|0:0,0:0:0:0:
25,94,139925,6,0,P|81:76|136:106,1,119.599995985108,0|8,1:0|0:0,0:0:0:0:
175,167,140440,1,0,0:0:0:0:
398,99,140954,1,8,0:0:0:0:
256,284,141468,5,0,0:0:0:0:
293,133,141811,1,0,0:0:0:0:
235,81,141982,1,0,0:0:0:0:
169,123,142154,2,0,P|123:109|68:123,1,89.6999969888307,0|0,3:0|3:0,0:0:0:0:
60,131,142497,1,0,0:0:0:0:
11,226,142668,5,0,1:0:0:0:
11,226,142840,2,0,L|23:320,1,71.5000021820069,0|8,0:0|0:0,0:0:0:0:
94,352,143182,1,0,0:0:0:0:
169,296,143354,2,0,P|203:288|255:311,1,71.5000021820069,0|0,0:0|1:0,0:0:0:0:
293,222,143697,2,0,P|269:196|262:140,1,71.5000021820069,8|0,0:0|0:0,0:0:0:0:
298,76,144040,6,0,L|389:59,1,71.5000021820069,0|0,1:0|0:0,0:0:0:0:
460,49,144382,1,8,0:0:0:0:
460,49,144554,1,0,0:0:0:0:
505,129,144725,2,0,P|510:173|494:214,1,71.5000021820069,0|0,0:0|1:0,0:0:0:0:
464,283,145068,1,8,0:0:0:0:
464,283,145240,1,0,0:0:0:0:
380,242,145411,6,0,P|346:260|300:261,2,71.5000021820069,0|0|8,1:0|0:0|0:0,0:0:0:0:
321,169,145925,1,0,0:0:0:0:
321,169,146097,2,0,P|338:132|333:89,1,71.5000021820069,0|0,0:0|1:0,0:0:0:0:
265,41,146440,2,0,P|248:78|253:121,1,71.5000021820069,8|0,0:0|0:0,0:0:0:0:
321,169,146782,5,0,1:0:0:0:
245,224,146954,1,0,0:0:0:0:
176,161,147125,1,10,0:0:0:0:
87,190,147297,1,0,0:0:0:0:
57,177,147382,1,2,0:0:0:0:
27,164,147468,2,0,L|44:242,1,71.5000021820069,0|0,0:0|1:0,0:0:0:0:
120,283,147811,2,0,L|137:361,1,71.5000021820069,8|2,0:0|0:0,0:0:0:0:
212,300,148154,5,0,1:0:0:0:
308,306,148325,1,0,0:0:0:0:
344,217,148497,1,8,0:0:0:0:
270,155,148668,1,0,0:0:0:0:
188,206,148840,2,0,P|151:210|114:192,1,71.5000021820069,0|0,0:0|1:0,0:0:0:0:
49,137,149182,2,0,L|41:93,3,35.7500010910034,8|0|0|0,3:2|3:0|3:0|3:0,0:0:0:0:
62,76,149525,5,0,0:0:0:0:
153,43,149696,1,0,1:0:0:0:
212,119,149868,1,8,0:0:0:0:
158,199,150039,1,0,0:0:0:0:
102,273,150211,2,0,P|100:308|116:347,1,71.5000021820069,0|0,0:0|1:0,0:0:0:0:
202,365,150554,2,0,P|204:330|188:291,1,71.5000021820069,8|0,0:0|0:0,0:0:0:0:
102,273,150897,5,0,1:0:0:0:
158,199,151068,1,0,0:0:0:0:
158,199,151240,2,0,P|160:161|136:113,1,71.5000021820069,8|0,0:0|0:0,0:0:0:0:
61,98,151582,2,0,P|59:136|83:184,1,71.5000021820069,0|0,0:0|1:0,0:0:0:0:
158,199,151925,1,8,0:0:0:0:
242,159,152097,1,0,0:0:0:0:
308,223,152268,6,0,P|342:214|382:224,2,71.5000021820069,0|0|8,1:0|0:0|0:0,0:0:0:0:
263,305,152782,1,0,0:0:0:0:
276,334,152868,1,2,0:0:0:0:
288,363,152954,2,0,L|374:358,1,71.5000021820069,0|0,0:0|1:0,0:0:0:0:
434,302,153297,2,0,P|470:307|521:286,1,71.5000021820069,8|2,0:0|0:0,0:0:0:0:
463,213,153640,6,0,B|472:177|472:177|458:127,1,71.5000021820069,0|0,1:0|0:0,0:0:0:0:
404,72,153982,1,8,0:0:0:0:
404,72,154154,1,0,0:0:0:0:
325,122,154325,2,0,B|291:137|291:137|239:121,1,71.5000021820069,0|0,0:0|1:0,0:0:0:0:
176,82,154668,1,8,0:0:0:0:
176,82,154840,1,0,0:0:0:0:
99,133,155011,6,0,P|59:125|10:141,2,71.5000021820069,0|0|8,1:0|0:0|0:0,0:0:0:0:
176,184,155525,1,0,0:0:0:0:
176,184,155697,2,0,L|190:270,1,71.5000021820069,0|0,0:0|1:0,0:0:0:0:
268,300,156040,2,0,P|257:334|270:384,1,71.5000021820069,8|0,0:0|0:0,0:0:0:0:
350,339,156382,5,0,1:0:0:0:
447,344,156554,1,0,0:0:0:0:
482,254,156725,1,8,0:0:0:0:
406,194,156897,1,0,0:0:0:0:
325,246,157068,1,0,0:0:0:0:
251,188,157240,1,0,1:0:0:0:
281,100,157411,1,8,0:0:0:0:
373,101,157582,1,0,0:0:0:0:
406,194,157754,6,0,P|420:231|414:286,1,71.5000021820069,0|0,1:0|0:0,0:0:0:0:
354,328,158097,1,8,0:0:0:0:
267,295,158268,1,0,0:0:0:0:
273,326,158354,1,2,0:0:0:0:
280,357,158440,2,0,P|245:348|201:358,1,71.5000021820069,0|0,0:0|1:0,0:0:0:0:
148,285,158782,2,0,P|112:290|78:281,1,71.5000021820069,8|2,0:0|0:0,0:0:0:0:
113,195,159125,5,0,1:0:0:0:
171,118,159297,1,0,0:0:0:0:
116,39,159468,1,8,0:0:0:0:
24,67,159640,1,0,0:0:0:0:
22,163,159811,2,0,P|58:157|92:172,1,71.5000021820069,0|0,0:0|1:0,0:0:0:0:
152,239,160154,2,0,P|184:225|219:231,1,71.5000021820069,8|0,0:0|0:0,0:0:0:0:
297,282,160497,5,0,1:0:0:0:
382,328,160669,1,0,0:0:0:0:
452,261,160840,1,8,0:0:0:0:
410,174,161012,1,0,0:0:0:0:
314,186,161183,2,0,P|325:152|317:118,1,71.5000021820069,0|0,0:0|1:0,0:0:0:0:
244,61,161525,2,0,L|190:69,3,35.7500010910034,8|0|0|0,3:2|3:0|3:0|3:0,0:0:0:0:
177,73,161868,5,0,1:0:0:0:
89,39,162040,2,0,B|68:108|68:108|93:163,1,107.25000327301,2|2,0:0|0:0,0:0:0:0:
95,169,162382,1,0,0:0:0:0:
53,252,162554,2,0,P|89:246|127:261,1,71.5000021820069,2|0,0:0|1:0,0:0:0:0:
142,281,162811,2,0,L|253:270,1,107.25000327301,2|2,0:0|0:0,0:0:0:0:
328,222,163240,5,0,1:0:0:0:
295,135,163411,1,0,0:0:0:0:
262,48,163582,1,10,0:0:0:0:
173,85,163754,1,0,0:0:0:0:
173,85,163840,1,2,0:0:0:0:
173,85,163925,2,0,L|154:43,2,35.7500010910034,0|0|2,0:0|1:0|0:0,0:0:0:0:
202,173,164268,1,8,0:0:0:0:
295,135,164440,1,0,1:0:0:0:
324,123,164525,1,8,0:0:0:0:
354,111,164611,5,4,1:2:0:0:
435,67,164782,2,0,L|445:30,2,35.7500010910034,0|2|8,0:0|0:0|0:0,0:0:0:0:
425,159,165125,1,0,0:0:0:0:
474,242,165297,1,0,0:0:0:0:
474,242,165468,2,0,P|434:236|398:252,1,71.5000021820069,2|8,1:2|0:0,0:0:0:0:
336,309,165811,1,2,0:0:0:0:
256,260,165982,6,0,L|255:203,2,35.7500010910034,0|2|0,1:0|0:0|0:0,0:0:0:0:
176,309,166325,2,0,P|142:319|107:313,1,71.5000021820069,10|2,0:0|0:0,0:0:0:0:
57,234,166668,2,0,P|24:250|-22:241,2,71.5000021820069,0|0|8,0:0|1:0|0:0,0:0:0:0:
136,185,167182,1,0,0:0:0:0:
136,185,167354,6,0,L|118:87,1,71.5000021820069,0|0,1:0|0:0,0:0:0:0:
199,61,167697,1,8,0:0:0:0:
199,61,167868,1,0,0:0:0:0:
256,134,168040,2,0,L|256:206,1,71.5000021820069,0|0,0:0|1:0,0:0:0:0:
326,265,168382,1,8,0:0:0:0:
326,265,168554,1,0,0:0:0:0:
388,196,168725,6,0,P|426:200|480:164,1,71.5000021820069,0|0,1:0|0:0,0:0:0:0:
415,104,169068,1,8,0:0:0:0:
415,104,169240,1,0,0:0:0:0:
344,43,169411,2,0,L|267:62,1,71.5000021820069,2|0,0:0|1:0,0:0:0:0:
243,69,169668,2,0,B|176:60|176:60|129:73,1,107.25000327301,2|2,0:0|0:0,0:0:0:0:
98,155,170097,5,0,1:0:0:0:
55,240,170268,1,0,0:0:0:0:
123,308,170440,1,8,0:0:0:0:
208,265,170611,1,0,0:0:0:0:
192,170,170782,2,0,P|231:171|282:203,1,71.5000021820069,0|0,0:0|1:0,0:0:0:0:
323,252,171125,2,0,L|331:292,3,35.7500010910034,8|0|0|0,3:2|3:0|3:0|3:0,0:0:0:0:
358,302,171468,5,0,1:0:0:0:
431,363,171639,1,0,0:0:0:0:
512,312,171811,1,8,0:0:0:0:
489,219,171982,1,0,0:0:0:0:
393,214,172153,2,0,P|402:176|445:133,1,71.5000021820069,0|0,0:0|1:0,0:0:0:0:
489,219,172497,1,8,0:0:0:0:
439,297,172668,1,0,0:0:0:0:
345,298,172840,6,0,P|312:314|263:310,1,71.5000021820069,0|0,1:0|0:0,0:0:0:0:
210,250,173182,2,0,P|212:213|240:172,1,71.5000021820069,8|0,0:0|0:0,0:0:0:0:
318,156,173525,2,0,P|348:176|369:221,2,71.5000021820069,0|0|8,0:0|1:0|0:0,0:0:0:0:
228,183,174040,1,0,0:0:0:0:
163,116,174211,5,0,1:0:0:0:
84,165,174382,2,0,L|11:157,1,71.5000021820069,2|8,0:0|0:0,0:0:0:0:
12,157,174640,1,2,0:0:0:0:
12,157,174725,1,0,0:0:0:0:
33,247,174897,2,0,L|104:254,1,71.5000021820069,2|0,1:2|0:0,0:0:0:0:
120,282,175154,2,0,B|206:272|206:272|176:308,1,107.25000327301,2|2,1:2|0:0,0:0:0:0:
256,355,175582,5,4,1:2:0:0:
320,287,175754,2,0,L|335:233,2,35.7500010910034,0|2|8,0:0|0:0|0:0,0:0:0:0:
256,355,176097,1,0,0:0:0:0:
192,287,176268,1,0,0:0:0:0:
105,322,176440,2,0,P|98:290|108:240,1,71.5000021820069,2|8,1:2|0:0,0:0:0:0:
144,168,176782,1,2,0:0:0:0:
87,93,176954,6,0,L|29:103,2,35.7500010910034,0|2|0,1:0|0:0|0:0,0:0:0:0:
179,78,177297,1,10,0:0:0:0:
144,168,177468,1,2,0:0:0:0:
193,247,177640,2,0,P|229:239|275:251,1,71.5000021820069,0|0,0:0|1:0,0:0:0:0:
340,295,177982,1,8,0:0:0:0:
255,334,178154,1,0,0:0:0:0:
262,245,178325,6,0,L|242:144,1,71.5000021820069,0|0,1:0|0:0,0:0:0:0:
266,148,178582,2,0,P|253:98|287:30,1,107.25000327301,0|2,0:0|0:0,0:0:0:0:
346,101,179011,2,0,P|381:98|425:124,2,71.5000021820069,0|2|8,0:0|1:2|0:0,0:0:0:0:
266,148,179525,1,0,0:0:0:0:
183,190,179697,6,0,P|150:175|115:178,1,71.5000021820069,0|0,1:0|0:0,0:0:0:0:
64,256,180040,2,0,P|96:270|131:267,1,71.5000021820069,8|0,0:0|0:0,0:0:0:0:
183,190,180382,2,0,P|195:157|189:107,1,71.5000021820069,2|0,0:0|1:0,0:0:0:0:
181,90,180640,2,0,P|133:65|81:73,1,107.25000327301,2|2,0:0|0:0,0:0:0:0:
21,142,181068,6,0,L|32:222,1,71.5000021820069,0|0,1:0|0:0,0:0:0:0:
37,244,181325,2,0,P|83:267|133:250,1,107.25000327301,0|2,0:0|0:0,0:0:0:0:
207,194,181754,1,2,0:0:0:0:
256,272,181925,1,0,1:0:0:0:
305,194,182097,2,0,L|335:144,3,35.7500010910034,8|0|0|0,3:2|3:0|3:0|3:0,0:0:0:0:
339,135,182440,5,0,1:0:0:0:
316,45,182611,1,0,0:0:0:0:
405,19,182782,1,8,0:0:0:0:
429,108,182954,1,0,0:0:0:0:
339,135,183125,2,0,L|251:125,1,71.5000021820069,0|0,0:0|1:0,0:0:0:0:
194,184,183468,2,0,L|122:192,1,71.5000021820069,8|0,0:0|0:0,0:0:0:0:
37,155,183811,5,0,0:0:0:0:
110,98,183982,1,2,0:0:0:0:
122,192,184154,2,0,L|128:237,2,35.7500010910034,8|2|0,0:0|0:0|0:0,0:0:0:0:
110,98,184497,2,0,P|148:107|201:89,1,71.5000021820069,2|0,0:0|1:0,0:0:0:0:
207,85,184754,2,0,P|207:143|233:183,1,107.25000327301,2|2,0:0|0:0,0:0:0:0:
292,114,185182,6,0,P|328:106|369:119,2,71.5000021820069,0|0|10,1:0|0:0|0:0,0:0:0:0:
233,183,185697,1,0,0:0:0:0:
304,242,185868,1,8,0:0:0:0:
289,270,185954,1,8,0:0:0:0:
274,298,186040,1,0,1:0:0:0:
194,345,186211,2,0,L|144:334,3,35.7500010910034,8|0|8|8,0:0|1:0|0:0|0:0,0:0:0:0:
128,331,186554,5,4,1:2:0:0:
45,362,186725,1,0,0:0:0:0:
45,362,186897,2,0,B|20:273|20:273|32:220,1,136.499995834351,8|0,0:0|0:0,0:0:0:0:
99,174,187411,1,0,1:0:0:0:
181,206,187582,2,0,P|189:175|163:118,1,68.2499979171754,8|0,0:0|0:0,0:0:0:0:
99,174,187925,6,0,P|91:141|99:108,2,68.2499979171754,0|0|8,1:0|0:0|0:0,0:0:0:0:
181,206,188440,1,0,0:0:0:0:
267,186,188611,2,0,B|359:204|359:204|336:158,1,136.499995834351,0|8,0:0|0:0,0:0:0:0:
305,83,189125,1,0,0:0:0:0:
366,18,189297,6,0,P|401:14|437:34,2,68.2499979171754,0|0|8,1:0|0:0|0:0,0:0:0:0:
305,83,189811,1,0,0:0:0:0:
340,166,189982,2,0,P|304:175|265:164,1,68.2499979171754,0|0,0:0|1:0,0:0:0:0:
212,233,190325,2,0,P|178:226|146:235,1,68.2499979171754,8|0,0:0|0:0,0:0:0:0:
77,292,190668,5,0,1:0:0:0:
1,248,190840,1,0,0:0:0:0:
69,192,191011,1,10,0:0:0:0:
50,105,191182,1,0,0:0:0:0:
43,74,191268,1,2,0:0:0:0:
36,43,191354,2,0,P|69:56|104:50,1,68.2499979171754,0|0,0:0|1:0,0:0:0:0:
182,16,191697,2,0,P|215:29|250:23,1,68.2499979171754,8|2,0:0|0:0,0:0:0:0:
317,78,192040,6,0,P|350:73|381:86,2,68.2499979171754,0|0|8,1:0|0:0|0:0,0:0:0:0:
256,142,192554,1,0,0:0:0:0:
256,142,192725,2,0,L|270:233,1,68.2499979171754,0|0,0:0|1:0,0:0:0:0:
336,264,193068,2,0,L|344:320,3,34.1249989585877,8|0|0|0,3:2|3:0|3:0|3:0,0:0:0:0:
366,315,193411,5,0,0:0:0:0:
446,277,193582,1,0,1:0:0:0:
437,365,193754,1,8,0:0:0:0:
366,315,193925,2,0,B|302:290|302:290|234:313,1,136.499995834351,0|0,0:0|1:0,0:0:0:0:
152,342,194440,1,8,0:0:0:0:
168,255,194611,1,0,0:0:0:0:
85,286,194782,6,0,P|80:251|93:205,1,68.2499979171754,0|0,1:0|0:0,0:0:0:0:
168,255,195125,2,0,P|200:268|234:302,1,68.2499979171754,8|0,0:0|0:0,0:0:0:0:
152,342,195468,2,0,P|124:363|77:375,1,68.2499979171754,0|0,0:0|1:0,0:0:0:0:
85,286,195811,2,0,P|80:251|93:205,1,68.2499979171754,8|0,0:0|0:0,0:0:0:0:
153,160,196154,5,0,1:0:0:0:
234,196,196325,1,0,0:0:0:0:
308,147,196497,1,8,0:0:0:0:
380,96,196668,1,0,0:0:0:0:
409,78,196754,1,2,0:0:0:0:
436,57,196840,2,0,L|418:129,1,68.2499979171754,0|0,0:0|1:0,0:0:0:0:
474,192,197182,2,0,L|492:264,1,68.2499979171754,8|2,0:0|0:0,0:0:0:0:
438,330,197525,5,0,1:0:0:0:
438,330,197697,1,0,0:0:0:0:
363,378,197868,2,0,P|350:314|389:252,1,136.499995834351,8|0,0:0|0:0,0:0:0:0:
438,330,198382,1,0,1:0:0:0:
363,378,198554,2,0,P|334:364|288:370,1,68.2499979171754,8|0,0:0|0:0,0:0:0:0:
236,301,198897,5,0,1:0:0:0:
153,332,199068,1,0,0:0:0:0:
69,361,199240,2,0,L|83:270,1,68.2499979171754,8|0,0:0|0:0,0:0:0:0:
93,206,199582,2,0,B|71:106|71:106|125:146,1,136.499995834351,0|8,0:0|0:0,0:0:0:0:
169,181,200097,1,0,0:0:0:0:
256,146,200268,5,0,1:0:0:0:
343,181,200440,1,0,0:0:0:0:
353,268,200611,2,0,P|378:302|423:323,1,68.2499979171754,8|0,0:0|0:0,0:0:0:0:
437,236,200954,2,0,P|455:170|430:105,1,136.499995834351,0|8,0:0|0:0,0:0:0:0:
361,54,201468,1,0,0:0:0:0:
282,95,201640,6,0,L|202:84,2,68.2499979171754,0|0|8,1:0|0:0|0:0,0:0:0:0:
335,166,202154,1,0,0:0:0:0:
335,166,202240,1,2,0:0:0:0:
335,166,202325,2,0,L|402:175,1,68.2499979171754,0|0,0:0|1:0,0:0:0:0:
435,257,202668,2,0,L|393:310,1,68.2499979171754,8|2,0:0|0:0,0:0:0:0:
331,375,203011,5,0,1:0:0:0:
305,290,203182,1,0,0:0:0:0:
392,310,203354,1,8,0:0:0:0:
331,375,203525,1,0,0:0:0:0:
305,290,203697,2,0,L|235:296,1,68.2499979171754,0|0,0:0|1:0,0:0:0:0:
175,231,204040,2,0,L|106:236,1,68.2499979171754,8|0,0:0|0:0,0:0:0:0:
66,158,204382,5,0,1:0:0:0:
23,81,204554,1,0,0:0:0:0:
84,16,204725,1,8,0:0:0:0:
164,53,204897,1,0,0:0:0:0:
153,141,205068,2,0,P|186:138|226:114,1,68.2499979171754,0|0,0:0|1:0,0:0:0:0:
294,79,205411,6,0,L|289:118,3,34.1249989585877,8|0|0|0,3:2|3:0|3:0|3:0,0:0:0:0:
285,143,205754,2,0,P|317:142|356:168,1,68.2499979171754,0|0,1:0|0:0,0:0:0:0:
291,228,206097,1,8,0:0:0:0:
355,288,206268,1,0,0:0:0:0:
355,288,206440,2,0,L|450:275,1,68.2499979171754,2|0,0:0|1:0,0:0:0:0:
495,227,206783,1,8,0:0:0:0:
495,227,206954,1,2,0:0:0:0:
438,158,207125,6,0,L|449:80,1,68.2499979171754,2|0,0:0|1:0,0:0:0:0:
388,23,207468,1,8,0:0:0:0:
310,67,207640,1,0,0:0:0:0:
310,67,207725,1,2,0:0:0:0:
310,67,207811,1,0,0:0:0:0:
231,26,207982,1,0,1:0:0:0:
181,100,208154,2,0,P|149:88|104:95,1,68.2499979171754,8|2,0:0|0:0,0:0:0:0:
87,102,208411,1,2,0:0:0:0:
64,121,208497,6,0,L|72:200,1,65,4|0,1:2|0:0,0:0:0:0:
139,235,208840,2,0,L|147:314,1,65,8|2,0:0|0:0,0:0:0:0:
207,356,209182,2,0,B|257:335|297:353|297:353|277:342|265:313,1,130,0|8,0:0|0:0,0:0:0:0:
345,283,209697,1,0,0:0:0:0:
345,283,209868,6,0,P|334:254|344:195,1,65,0|0,0:0|0:0,0:0:0:0:
416,242,210211,2,0,P|445:231|504:241,1,65,8|2,0:0|0:0,0:0:0:0:
460,305,210554,2,0,B|433:157,1,130,0|8,0:0|0:0,0:0:0:0:
485,107,211068,1,0,0:0:0:0:
429,42,211240,6,0,L|356:34,1,65,0|0,1:0|0:0,0:0:0:0:
313,102,211582,2,0,L|242:123,1,65,8|2,0:0|0:0,0:0:0:0:
205,192,211925,2,0,P|242:249|225:313,1,130,0|8,0:0|0:0,0:0:0:0:
159,262,212440,1,0,0:0:0:0:
205,192,212611,6,0,P|209:158|196:106,2,65,0|0|8,1:0|0:0|0:0,0:0:0:0:
124,166,213125,1,2,0:0:0:0:
124,166,213297,2,0,P|97:100|104:33,1,130,0|8,0:0|0:0,0:0:0:0:
177,6,213811,1,0,0:0:0:0:
256,35,213982,6,0,P|242:66|246:104,1,65,0|0,0:0|0:0,0:0:0:0:
303,156,214325,2,0,P|336:152|367:130,1,65,8|2,0:0|0:0,0:0:0:0:
386,54,214668,2,0,P|366:26|331:10,1,65,0|0,0:0|1:0,0:0:0:0:
256,35,215011,2,0,L|220:30,3,32.5,8|0|0|0,3:2|3:0|3:0|3:0,0:0:0:0:
200,48,215354,6,0,P|167:41|134:50,1,65,0|0,1:0|0:0,0:0:0:0:
167,127,215697,2,0,P|174:158|167:189,1,65,8|2,0:0|0:0,0:0:0:0:
98,238,216040,2,0,P|165:226|218:265,1,130,0|8,0:0|0:0,0:0:0:0:
145,308,216554,1,0,0:0:0:0:
98,238,216725,5,0,1:0:0:0:
116,155,216897,1,0,0:0:0:0:
186,108,217068,1,8,0:0:0:0:
168,25,217240,1,2,0:0:0:0:
247,53,217411,2,0,P|268:126|223:182,1,130,0|8,0:0|0:0,0:0:0:0:
186,108,217925,1,0,0:0:0:0:
117,158,218097,5,0,1:0:0:0:
117,158,218268,2,0,L|145:286,1,130,0|2,0:0|0:0,0:0:0:0:
200,348,218782,2,0,L|277:353,1,65,0|0,1:0|3:0,0:0:0:0:
285,331,219039,2,0,P|324:358|371:355,1,97.5,0|0,1:0|3:0,0:0:0:0:
446,314,219468,5,0,1:0:0:0:
446,314,219640,2,0,L|451:239,1,65,0|8,0:0|0:0,0:0:0:0:
407,176,219982,1,2,0:0:0:0:
407,176,220154,2,0,P|336:212|354:270,1,130,0|8,0:0|0:0,0:0:0:0:
388,321,220668,1,0,0:0:0:0:
315,364,220840,6,0,P|289:372|246:364,1,65,0|0,1:0|0:0,0:0:0:0:
185,315,221182,1,8,0:0:0:0:
185,315,221354,1,2,0:0:0:0:
110,354,221525,2,0,L|34:348,1,65,0|0,0:0|1:0,0:0:0:0:
24,327,221782,2,0,P|7:286|26:221,1,97.5,0|0,3:0|3:0,0:0:0:0:
81,181,222211,6,0,L|157:175,1,65,0|0,1:0|0:0,0:0:0:0:
167,154,222468,2,0,P|184:113|165:48,1,97.5,0|2,3:0|0:0,0:0:0:0:
104,102,222897,2,0,L|247:119,1,130,0|8,0:0|0:0,0:0:0:0:
307,77,223411,1,0,0:0:0:0:
379,119,223582,6,0,P|402:144|405:187,1,65,0|0,1:0|0:0,0:0:0:0:
323,185,223925,2,0,P|338:215|329:257,1,65,8|2,0:0|0:0,0:0:0:0:
251,231,224268,2,0,P|257:264|237:302,1,65,0|0,0:0|1:0,0:0:0:0:
235,319,224525,2,0,P|277:345|334:335,1,97.5,0|0,3:0|3:0,0:0:0:0:
402,311,224954,6,0,P|394:279|403:240,1,65,0|0,1:0|0:0,0:0:0:0:
419,226,225211,2,0,P|437:179|431:132,1,97.5,0|2,3:0|0:0,0:0:0:0:
388,59,225640,2,0,P|358:50|322:55,1,65,0|0,0:0|1:0,0:0:0:0:
250,93,225982,6,0,L|263:134,3,32.5,8|0|0|0,3:2|3:0|3:0|3:0,0:0:0:0:
268,152,226325,2,0,P|234:148|200:160,1,65,0|0,1:0|0:0,0:0:0:0:
136,206,226668,1,8,0:0:0:0:
54,181,226840,1,2,0:0:0:0:
24,260,227011,2,0,P|23:293|42:330,1,65,0|0,0:0|1:0,0:0:0:0:
118,339,227354,2,0,P|119:306|100:269,1,65,8|0,0:0|0:0,0:0:0:0:
35,321,227697,5,0,1:0:0:0:
118,339,227868,2,0,P|171:326|216:344,1,97.5,2|2,0:0|0:0,0:0:0:0:
233,357,228211,1,2,0:0:0:0:
317,355,228382,2,0,P|339:315|332:248,1,97.5,2|2,0:0|0:0,0:0:0:0:
328,236,228725,1,0,0:0:0:0:
256,192,228897,5,2,0:0:0:0:
256,192,229068,12,0,230440,0:0:0:0:
