osu file format v14

[General]
AudioFilename: audio.mp3
AudioLeadIn: 0
PreviewTime: 54897
Countdown: 0
SampleSet: Soft
StackLeniency: 0.4
Mode: 0
LetterboxInBreaks: 0
WidescreenStoryboard: 1

[Editor]
Bookmarks: 40,11011,21982,32954,43925,54897,76840,98782,109754,120725,131697,142668,164611,186554,208497,227697,230440
DistanceSpacing: 1.3
BeatDivisor: 4
GridSize: 8
TimelineZoom: 2.699999

[Metadata]
Title:Stones (feat. Holly Drummond)
TitleUnicode:Stones (feat. Holly Drummond)
Artist:Rameses B
ArtistUnicode:Rameses B
Creator:-Tochi
Version:Drops In The Ocean
Source:
Tags:dnb drump and bass stones follow me
BeatmapID:1952307
BeatmapSetID:935145

[Difficulty]
HPDrainRate:6.5
CircleSize:3.8
OverallDifficulty:8.8
ApproachRate:9.4
SliderMultiplier:2
SliderTickRate:1

[Events]
//Background and Video events
0,0,"bg.jpg",0,0
//Break Periods
2,120925,125525
//Storyboard Layer 0 (Background)
//Storyboard Layer 1 (Fail)
//Storyboard Layer 2 (Pass)
//Storyboard Layer 3 (Foreground)
//Storyboard Layer 4 (Overlay)
//Storyboard Sound Samples

[TimingPoints]
40,342.857142857143,4,2,1,40,1,0
11011,-166.666666666667,4,2,1,20,0,0
20954,-125,4,2,1,20,0,0
21125,-125,4,2,1,25,0,0
21468,-83.3333333333333,4,2,1,30,0,0
21640,-83.3333333333333,4,2,1,35,0,0
21982,-100,4,2,1,50,0,0
32954,-200,4,2,1,60,0,0
33297,-100,4,2,1,60,0,0
43925,-100,4,2,1,65,0,0
54554,-100,4,2,1,40,0,0
54725,-100,4,2,0,40,0,0
54811,-100,4,2,1,40,0,0
54897,-90.9090909090909,4,2,2,70,0,1
55068,-90.9090909090909,4,2,2,70,0,0
75554,-90.9090909090909,4,2,2,50,0,0
75640,-90.9090909090909,4,2,2,70,0,0
76068,-90.9090909090909,4,2,2,50,0,0
76154,-90.9090909090909,4,2,2,70,0,0
76325,-90.9090909090909,4,2,2,50,0,0
76497,-90.9090909090909,4,2,2,70,0,0
76840,-83.3333333333333,4,2,2,70,0,1
98782,-62.5,4,2,2,60,0,0
101525,-83.3333333333333,4,2,1,60,0,0
102211,-125,4,2,1,60,0,0
102725,-100,4,2,1,60,0,0
109754,-111.111111111111,4,2,1,50,0,0
117468,-111.111111111111,4,2,1,40,0,0
118668,-111.111111111111,4,2,2,30,0,0
118840,-111.111111111111,4,2,2,15,0,0
119011,-111.111111111111,4,2,2,20,0,0
119182,-111.111111111111,4,2,2,25,0,0
119354,-111.111111111111,4,2,2,30,0,0
119525,-111.111111111111,4,2,2,40,0,0
119697,-111.111111111111,4,2,2,30,0,0
119868,-111.111111111111,4,2,2,20,0,0
120040,-111.111111111111,4,2,2,15,0,0
120211,-111.111111111111,4,2,2,20,0,0
120382,-111.111111111111,4,2,2,30,0,0
120554,-111.111111111111,4,2,2,35,0,0
120725,-111.111111111111,4,2,1,40,0,0
126211,-111.111111111111,4,2,2,10,0,0
126382,-111.111111111111,4,2,2,15,0,0
126897,-111.111111111111,4,2,2,20,0,0
127068,-111.111111111111,4,2,2,25,0,0
127240,-111.111111111111,4,2,2,15,0,0
127411,-111.111111111111,4,2,2,7,0,0
127582,-111.111111111111,4,2,2,10,0,0
127925,-111.111111111111,4,2,2,15,0,0
131525,-200,4,2,1,5,0,0
131697,-200,4,2,1,20,0,0
134440,-200,4,2,1,25,0,0
137182,-200,4,2,1,30,0,0
138554,-200,4,2,1,35,0,0
139925,-200,4,2,1,40,0,0
142325,-100,4,2,1,40,0,0
142668,-90.9090909090909,4,2,2,70,0,1
142840,-90.9090909090909,4,2,2,70,0,0
163325,-90.9090909090909,4,2,2,50,0,0
163411,-90.9090909090909,4,2,2,70,0,0
163840,-90.9090909090909,4,2,2,50,0,0
163925,-90.9090909090909,4,2,2,70,0,0
164097,-90.9090909090909,4,2,2,50,0,0
164268,-90.9090909090909,4,2,2,70,0,0
164611,-83.3333333333333,4,2,2,70,0,1
186554,-62.5,4,2,2,70,0,0
186897,-90.9090909090909,4,2,2,70,0,0
205754,-62.5,4,2,2,70,0,0
206097,-90.9090909090909,4,2,2,70,0,0
208497,-100,4,2,2,60,0,0
230440,-100,4,2,2,5,0,0

[HitObjects]
403,119,11011,5,2,0:0:0:0:
373,275,11182,1,0,0:0:0:0:
468,167,11354,2,0,L|399:153,1,59.9999981689454,2|2,0:0|0:0,0:0:0:0:
152,238,11697,2,0,P|206:256|271:215,1,119.999996337891,2|2,0:0|0:0,0:0:0:0:
201,173,12211,1,2,0:0:0:0:
225,349,12382,5,2,0:0:0:0:
225,349,12554,1,0,0:0:0:0:
201,173,12725,2,0,L|128:158,1,59.9999981689454,2|2,0:0|0:0,0:0:0:0:
260,230,13068,1,2,0:0:0:0:
349,215,13240,1,0,0:0:0:0:
437,200,13411,2,0,L|364:215,1,59.9999981689454,2|2,0:0|0:0,0:0:0:0:
152,238,13754,6,0,P|131:187|145:125,1,119.999996337891,2|2,0:0|0:0,0:0:0:0:
218,73,14268,1,2,0:0:0:0:
134,107,14440,1,2,0:0:0:0:
311,83,14611,1,0,0:0:0:0:
349,215,14782,2,0,L|271:204,1,59.9999981689454,2|2,0:0|0:0,0:0:0:0:
349,316,15125,6,0,L|202:332,1,119.999996337891,2|2,0:0|0:0,0:0:0:0:
229,328,15640,1,2,0:0:0:0:
282,187,15811,1,2,0:0:0:0:
226,116,15982,1,0,0:0:0:0:
316,110,16154,1,2,0:0:0:0:
316,110,16325,1,2,0:0:0:0:
349,316,16497,6,0,P|295:334|231:314,1,119.999996337891,2|2,0:0|0:0,0:0:0:0:
186,242,17011,1,2,0:0:0:0:
136,317,17182,2,0,P|79:334|23:316,1,119.999996337891,2|2,0:0|0:0,0:0:0:0:
136,317,17697,1,2,0:0:0:0:
77,239,17868,5,2,0:0:0:0:
77,239,18040,2,0,P|59:214|60:171,1,59.9999981689454,0|2,0:0|0:0,0:0:0:0:
136,318,18382,1,2,0:0:0:0:
186,242,18554,2,0,P|207:191|190:120,1,119.999996337891,2|2,0:0|0:0,0:0:0:0:
130,65,19068,1,2,0:0:0:0:
287,132,19240,6,0,L|218:121,1,59.9999981689454,2|0,0:0|0:0,0:0:0:0:
293,231,19582,1,2,0:0:0:0:
381,214,19754,1,2,0:0:0:0:
293,231,19925,2,0,L|224:220,1,59.9999981689454,2|0,0:0|0:0,0:0:0:0:
299,330,20268,1,2,0:0:0:0:
387,313,20440,1,2,0:0:0:0:
299,330,20611,2,0,L|230:319,1,59.9999981689454,2|0,0:0|0:0,0:0:0:0:
68,163,20954,6,0,L|163:148,1,80,2|2,0:0|0:0,0:0:0:0:
187,148,21211,1,2,0:0:0:0:
187,148,21297,1,2,0:0:0:0:
463,51,21468,6,0,L|345:32,1,119.999996337891,2|0,0:0|3:0,0:0:0:0:
316,32,21725,1,0,3:0:0:0:
320,79,21811,1,0,3:0:0:0:
324,126,21897,1,0,3:0:0:0:
329,173,21982,5,4,1:2:0:0:
329,173,22325,2,0,P|236:143|120:149,1,200,8|0,0:0|1:0,0:0:0:0:
296,306,22840,2,0,P|345:307|393:292,1,100,0|8,0:0|0:0,0:0:0:0:
393,292,23182,2,0,L|156:273,1,200,0|0,1:0|0:0,0:0:0:0:
393,292,23697,1,8,0:0:0:0:
132,342,23868,2,0,B|103:304|103:304|117:237,1,100,0|0,1:0|0:0,0:0:0:0:
358,87,24211,2,0,L|379:198,1,100,0|8,0:0|0:0,0:0:0:0:
376,185,24554,1,0,0:0:0:0:
63,136,24725,5,0,1:0:0:0:
198,280,24897,1,0,0:0:0:0:
277,79,25068,2,0,P|347:43|479:42,1,200,8|0,0:0|1:0,0:0:0:0:
426,279,25582,2,0,P|381:289|320:270,1,100,0|8,0:0|0:0,0:0:0:0:
383,174,25925,1,0,1:0:0:0:
383,174,26097,2,0,P|282:153|184:180,1,200,0|8,0:0|0:0,0:0:0:0:
120,282,26611,1,0,1:0:0:0:
189,177,26782,2,0,L|75:161,1,100,0|0,0:0|0:0,0:0:0:0:
335,286,27125,2,0,B|385:302|385:302|432:274,1,100,8|0,0:0|0:0,0:0:0:0:
363,28,27468,5,0,1:0:0:0:
363,28,27811,2,0,P|396:121|374:218,1,200,8|0,0:0|1:0,0:0:0:0:
119,281,28325,2,0,P|93:236|102:167,1,100,0|8,0:0|0:0,0:0:0:0:
213,14,28668,2,0,L|189:212,1,200,0|0,1:0|0:0,0:0:0:0:
245,296,29182,2,0,P|280:258|287:188,1,100,8|0,0:0|1:0,0:0:0:0:
202,114,29525,1,0,0:0:0:0:
245,296,29697,1,0,0:0:0:0:
202,114,29868,2,0,B|165:86|165:86|93:99,1,100,8|0,0:0|0:0,0:0:0:0:
63,347,30211,6,0,P|135:297|249:297,2,200,0|8|0,1:0|0:0|1:0,0:0:0:0:
219,191,31068,2,0,P|264:170|313:168,1,100,0|8,0:0|0:0,0:0:0:0:
473,319,31411,1,0,1:0:0:0:
290,283,31582,5,2,0:0:0:0:
461,195,31754,1,2,0:0:0:0:
222,339,31925,2,0,B|193:301|193:301|210:243,1,100,10|0,0:0|1:0,0:0:0:0:
228,216,32182,1,2,0:0:0:0:
228,216,32268,1,2,0:0:0:0:
222,339,32440,5,2,0:0:0:0:
188,75,32611,1,2,3:2:0:0:
188,75,32697,1,2,3:2:0:0:
188,75,32782,1,2,3:2:0:0:
188,75,32868,1,2,3:2:0:0:
202,101,32954,6,0,L|117:115,1,75,4|0,1:2|0:0,0:0:0:0:
56,262,33297,6,0,L|165:275,1,100,8|0,0:0|0:0,0:0:0:0:
356,273,33640,2,0,L|456:262,1,100,2|0,0:0|0:0,0:0:0:0:
256,82,33982,2,0,B|230:124|230:124|256:167,1,100,8|0,0:0|0:0,0:0:0:0:
456,285,34325,2,0,L|356:273,1,100,2|0,0:0|0:0,0:0:0:0:
156,93,34668,2,0,L|255:81,1,100,8|0,0:0|0:0,0:0:0:0:
456,199,35011,2,0,B|481:241|481:241|456:284,1,100,2|0,0:0|0:0,0:0:0:0:
256,167,35354,2,0,B|230:124|230:124|256:81,1,100,8|0,0:0|0:0,0:0:0:0:
314,360,35697,6,0,P|229:310|131:316,1,200,0|8,1:0|0:0,0:0:0:0:
130,316,36211,1,0,0:0:0:0:
256,167,36382,2,0,L|383:144,1,100,2|0,0:0|0:0,0:0:0:0:
455,285,36725,2,0,L|356:267,1,100,8|0,0:0|0:0,0:0:0:0:
171,196,37068,2,0,B|160:154|160:154|189:103,1,100,2|0,0:0|0:0,0:0:0:0:
411,88,37411,2,0,B|439:136|439:136|428:178,1,100,8|0,0:0|0:0,0:0:0:0:
306,334,37754,2,0,L|202:345,1,100,2|0,0:0|0:0,0:0:0:0:
188,105,38097,1,8,0:0:0:0:
200,118,38440,6,0,L|-4:104,1,200,4|8,1:2|0:0,0:0:0:0:
30,199,38954,1,0,0:0:0:0:
124,230,39125,2,0,P|172:225|237:212,1,100,2|0,0:0|0:0,0:0:0:0:
353,62,39468,2,0,L|240:44,1,100,0|0,0:0|0:0,0:0:0:0:
297,274,39811,2,0,B|325:231|325:231|308:185,1,100,2|0,0:0|0:0,0:0:0:0:
104,34,40154,2,0,P|109:79|120:147,1,100,8|0,0:0|0:0,0:0:0:0:
209,314,40497,2,0,P|214:269|225:201,1,100,2|0,0:0|0:0,0:0:0:0:
426,182,40840,2,0,P|433:231|439:281,1,100,8|0,0:0|0:0,0:0:0:0:
84,227,41182,6,0,P|73:128|103:33,1,200,0|8,1:0|0:0,0:0:0:0:
200,7,41697,1,0,0:0:0:0:
281,64,41868,2,0,P|286:113|271:161,1,100,2|0,0:0|0:0,0:0:0:0:
209,314,42211,2,0,P|194:266|199:217,1,100,8|0,0:0|0:0,0:0:0:0:
426,182,42554,5,2,0:0:0:0:
294,256,42725,1,2,0:0:0:0:
467,309,42897,1,10,0:0:0:0:
467,108,43068,1,2,0:0:0:0:
467,108,43154,1,2,0:0:0:0:
467,108,43240,2,0,L|362:93,1,100,0|2,3:0|0:0,0:0:0:0:
327,92,43497,1,0,3:0:0:0:
326,92,43582,2,0,L|311:140,1,50,8|0,3:2|3:0,0:0:0:0:
381,276,43754,2,0,L|376:223,1,50,0|0,3:0|3:0,0:0:0:0:
213,69,43925,5,4,1:2:0:0:
173,297,44097,1,0,0:0:0:0:
37,159,44268,2,0,L|140:149,1,100,8|0,0:0|0:0,0:0:0:0:
424,350,44611,2,0,P|373:361|324:339,1,100,0|0,0:0|0:0,0:0:0:0:
467,108,44954,1,8,0:0:0:0:
381,276,45125,1,0,0:0:0:0:
324,59,45297,5,0,1:0:0:0:
433,179,45468,1,0,0:0:0:0:
283,267,45640,2,0,L|162:279,1,100,8|0,0:0|0:0,0:0:0:0:
71,88,45982,2,0,B|161:54|161:54|240:76,1,150,2|0,0:0|0:0,0:0:0:0:
249,84,46325,1,8,0:0:0:0:
183,276,46497,1,0,0:0:0:0:
437,345,46668,6,0,B|465:307|465:307|449:235,1,100,0|0,1:0|0:0,0:0:0:0:
207,307,47011,2,0,L|325:289,1,100,8|0,0:0|0:0,0:0:0:0:
494,124,47354,2,0,L|376:106,1,100,2|0,0:0|0:0,0:0:0:0:
161,54,47697,2,0,B|132:94|132:94|147:158,1,100,8|0,0:0|0:0,0:0:0:0:
313,332,48040,6,0,P|373:285|503:279,1,200,0|8,1:0|0:0,0:0:0:0:
348,128,48554,2,0,L|230:110,1,100,0|2,1:0|0:0,0:0:0:0:
207,307,48897,1,0,3:0:0:0:
207,307,48982,2,0,P|196:280|200:253,1,50,0|8,3:0|0:0,0:0:0:0:
438,143,49240,1,0,1:0:0:0:
161,54,49411,6,0,B|136:97|136:97|151:151,1,100,0|0,1:0|0:0,0:0:0:0:
161,368,49754,2,0,B|136:325|136:325|151:271,1,100,8|0,0:0|0:0,0:0:0:0:
338,154,50097,2,0,L|454:141,1,100,0|0,1:0|0:0,0:0:0:0:
437,346,50440,2,0,L|337:334,1,100,8|0,0:0|0:0,0:0:0:0:
149,145,50782,6,0,P|101:124|30:141,1,100,0|0,1:0|0:0,0:0:0:0:
295,239,51125,2,0,P|343:247|390:230,1,100,8|0,0:0|0:0,0:0:0:0:
87,222,51468,1,0,1:0:0:0:
456,61,51811,2,0,L|350:49,1,100,8|0,0:0|0:0,0:0:0:0:
399,313,54554,5,0,3:0:0:0:
399,313,54640,1,0,3:0:0:0:
399,313,54725,1,0,1:0:0:0:
399,313,54811,1,0,3:0:0:0:
399,313,54897,5,0,1:0:0:0:
133,202,55068,2,0,L|69:210,2,55.0000016784668,0|2|8,0:0|0:2|0:0,0:0:0:0:
314,97,55411,2,0,B|375:66|375:66|430:80,1,110.000003356934,0|0,0:0|0:0,0:0:0:0:
283,304,55754,5,2,1:2:0:0:
172,93,55925,1,8,0:0:0:0:
389,168,56097,1,2,0:0:0:0:
133,202,56268,5,0,1:0:0:0:
133,202,56354,2,0,P|145:251|158:325,1,110.000003356934,2|0,0:0|0:0,0:0:0:0:
156,309,56611,1,10,0:0:0:0:
461,221,56782,2,0,B|484:177|484:177|458:105,1,110.000003356934,2|0,0:0|0:0,0:0:0:0:
170,122,57125,1,0,1:0:0:0:
389,168,57297,1,8,0:0:0:0:
283,304,57468,1,0,0:0:0:0:
363,49,57640,5,0,1:0:0:0:
485,321,57811,2,0,L|364:333,1,110.000003356934,0|8,0:0|0:0,0:0:0:0:
389,168,58154,1,0,0:0:0:0:
133,202,58325,2,0,L|242:212,1,110.000003356934,0|0,0:0|1:0,0:0:0:0:
177,342,58668,1,8,0:0:0:0:
369,149,58840,2,0,B|388:104|388:104|357:36,1,110.000003356934,0|0,0:0|1:0,0:0:0:0:
76,92,59182,6,0,L|144:81,1,55.0000016784668,0|0,0:0|0:0,0:0:0:0:
298,104,59354,1,10,0:0:0:0:
106,285,59525,1,0,0:0:0:0:
137,254,59610,1,0,0:0:0:0:
175,232,59697,1,2,0:0:0:0:
218,223,59782,1,0,0:0:0:0:
278,231,59867,5,0,1:0:0:0:
278,231,59954,2,0,L|340:244,1,55.0000016784668,2|8,0:0|0:0,0:0:0:0:
412,181,60125,1,0,0:0:0:0:
412,181,60211,2,0,L|358:169,1,55.0000016784668,2|0,0:0|0:0,0:0:0:0:
205,328,60382,5,0,1:0:0:0:
130,83,60554,1,0,0:0:0:0:
57,269,60725,1,8,0:0:0:0:
225,52,60897,1,0,0:0:0:0:
39,146,61068,1,0,0:0:0:0:
39,146,61240,1,0,1:0:0:0:
287,237,61411,2,0,B|308:188|308:188|287:123,1,110.000003356934,8|0,0:0|0:0,0:0:0:0:
484,250,61754,5,0,1:0:0:0:
204,186,61925,1,0,0:0:0:0:
512,132,62097,1,8,0:0:0:0:
353,326,62268,1,0,0:0:0:0:
225,52,62440,2,0,B|181:28|181:28|111:47,1,110.000003356934,0|0,0:0|1:0,0:0:0:0:
383,223,62782,1,8,0:0:0:0:
173,122,62954,1,0,0:0:0:0:
258,334,63125,5,0,1:0:0:0:
357,73,63297,1,0,0:0:0:0:
377,328,63468,1,8,0:0:0:0:
105,205,63640,1,0,0:0:0:0:
383,223,63811,2,0,B|330:234|330:234|276:199,1,110.000003356934,0|0,0:0|1:0,0:0:0:0:
459,49,64154,1,8,0:0:0:0:
459,49,64325,1,0,0:0:0:0:
349,139,64497,5,0,1:0:0:0:
493,328,64668,2,0,L|367:303,1,110.000003356934,2|8,0:0|0:0,0:0:0:0:
353,150,64925,2,0,L|460:128,1,110.000003356934,2|0,0:0|0:0,0:0:0:0:
459,49,65182,1,2,0:0:0:0:
421,42,65267,1,2,0:0:0:0:
383,36,65354,1,2,1:2:0:0:
281,284,65525,1,8,3:2:0:0:
292,287,65611,1,0,3:0:0:0:
292,298,65697,1,0,3:0:0:0:
281,300,65782,1,0,3:0:0:0:
276,293,65868,6,0,L|397:283,1,110.000003356934,0|0,1:0|0:0,0:0:0:0:
479,144,66211,1,8,0:0:0:0:
422,283,66382,1,0,0:0:0:0:
383,36,66554,1,0,0:0:0:0:
251,186,66725,2,0,B|208:210|208:210|138:184,1,110.000003356934,2|8,1:2|0:0,0:0:0:0:
17,34,67068,6,0,B|60:10|60:10|130:36,1,110.000003356934,2|0,0:0|1:0,0:0:0:0:
204,99,67325,2,0,L|341:83,1,110.000003356934,2|0,0:0|0:0,0:0:0:0:
313,86,67582,1,10,0:0:0:0:
276,293,67754,1,2,0:0:0:0:
251,186,67925,1,0,0:0:0:0:
251,186,68097,1,0,1:0:0:0:
192,357,68268,1,8,0:0:0:0:
353,219,68440,1,0,0:0:0:0:
175,103,68611,6,0,L|57:89,1,110.000003356934,0|0,1:0|0:0,0:0:0:0:
184,263,68954,1,8,0:0:0:0:
317,90,69125,1,0,0:0:0:0:
419,294,69297,2,0,B|373:324|373:324|309:306,1,110.000003356934,0|0,0:0|1:0,0:0:0:0:
420,38,69640,1,8,0:0:0:0:
353,219,69811,1,0,0:0:0:0:
225,20,69982,5,0,1:0:0:0:
236,279,70154,2,0,L|183:262,1,55.0000016784668,0|0,0:0|0:0,0:0:0:0:
77,233,70325,1,8,0:0:0:0:
293,126,70497,1,0,0:0:0:0:
336,120,70582,1,0,0:0:0:0:
380,114,70668,1,2,0:0:0:0:
423,109,70754,1,0,0:0:0:0:
478,130,70839,5,0,1:0:0:0:
478,130,70925,2,0,L|462:207,1,55.0000016784668,2|8,0:0|0:0,0:0:0:0:
364,272,71097,1,0,0:0:0:0:
364,272,71182,2,0,L|352:218,1,55.0000016784668,2|0,0:0|0:0,0:0:0:0:
355,76,71354,5,0,1:0:0:0:
270,341,71525,1,0,0:0:0:0:
458,214,71697,1,8,0:0:0:0:
159,310,71868,1,0,0:0:0:0:
368,374,72040,1,0,0:0:0:0:
368,374,72211,1,0,1:0:0:0:
253,203,72382,2,0,B|229:153|229:153|252:103,1,110.000003356934,8|0,0:0|0:0,0:0:0:0:
475,208,72725,5,0,1:0:0:0:
328,152,72897,1,0,0:0:0:0:
512,126,73068,1,8,0:0:0:0:
382,276,73240,1,0,0:0:0:0:
312,53,73411,2,0,P|257:48|184:41,1,110.000003356934,0|0,0:0|1:0,0:0:0:0:
181,294,73754,2,0,P|235:288|290:283,1,110.000003356934,8|0,0:0|0:0,0:0:0:0:
404,71,74097,5,0,1:0:0:0:
141,171,74268,1,2,0:0:0:0:
377,224,74440,1,8,0:0:0:0:
377,224,74525,2,0,B|408:265|408:265|391:321,1,110.000003356934,2|0,0:0|0:0,0:0:0:0:
391,321,74782,1,2,0:0:0:0:
181,294,74954,1,0,1:0:0:0:
181,294,75040,1,2,0:0:0:0:
181,294,75125,1,8,0:0:0:0:
313,282,75297,1,2,0:0:0:0:
68,358,75468,5,0,1:0:0:0:
68,358,75554,2,0,P|58:303|52:249,1,110.000003356934,2|0,0:0|0:0,0:0:0:0:
142,255,75811,1,10,0:0:0:0:
39,136,75982,1,0,0:0:0:0:
39,136,76068,2,0,P|93:126|147:120,1,110.000003356934,2|0,0:0|1:0,0:0:0:0:
147,120,76325,1,2,0:0:0:0:
316,359,76497,2,0,L|227:336,1,55.0000016784668,8|8,0:0|0:3,0:0:0:0:
136,228,76668,2,0,L|225:205,1,55.0000016784668,0|8,1:0|0:0,0:0:0:0:
399,119,76840,6,0,B|414:65|414:65|373:15,1,119.999996337891,4|0,1:2|0:0,0:0:0:0:
373,15,77097,1,2,0:0:0:0:
373,15,77182,1,8,0:0:0:0:
283,253,77354,1,0,0:0:0:0:
315,88,77525,1,0,0:0:0:0:
382,353,77697,2,0,L|237:343,1,119.999996337891,2|8,1:2|0:0,0:0:0:0:
195,96,78040,6,0,L|314:87,1,119.999996337891,2|0,0:0|1:0,0:0:0:0:
399,229,78297,2,0,B|342:249|342:249|279:220,1,119.999996337891,2|0,0:0|0:0,0:0:0:0:
287,224,78554,1,10,0:0:0:0:
401,32,78725,1,2,0:0:0:0:
161,209,78897,1,0,0:0:0:0:
344,127,79068,1,0,1:0:0:0:
76,76,79240,1,8,0:0:0:0:
176,232,79411,1,0,0:0:0:0:
36,358,79582,5,0,1:0:0:0:
195,96,79754,1,0,0:0:0:0:
413,341,79925,1,8,0:0:0:0:
199,244,80097,1,0,0:0:0:0:
416,64,80268,2,0,B|451:119|451:119|425:173,1,119.999996337891,0|0,0:0|1:0,0:0:0:0:
161,91,80611,1,8,0:0:0:0:
350,123,80782,1,0,0:0:0:0:
54,176,80954,5,0,1:0:0:0:
272,51,81125,1,0,0:0:0:0:
322,340,81297,2,0,L|188:334,1,119.999996337891,8|0,0:0|0:0,0:0:0:0:
77,94,81640,5,2,0:0:0:0:
13,329,81811,1,0,1:0:0:0:
13,329,81897,2,0,P|32:304|37:266,1,59.9999981689454,2|8,0:0|0:0,0:0:0:0:
4,28,82154,1,2,0:0:0:0:
208,219,82325,6,0,B|260:248|260:248|323:231,1,119.999996337891,0|0,1:0|0:0,0:0:0:0:
484,31,82668,1,8,0:0:0:0:
415,325,82840,1,0,0:0:0:0:
271,131,83011,1,0,0:0:0:0:
451,204,83182,1,0,1:0:0:0:
153,148,83354,1,8,0:0:0:0:
153,148,83525,1,0,0:0:0:0:
387,27,83697,6,0,P|415:80|403:140,1,119.999996337891,0|0,1:0|0:0,0:0:0:0:
35,160,84040,1,8,0:0:0:0:
327,93,84211,1,0,0:0:0:0:
99,69,84382,1,0,0:0:0:0:
263,184,84554,1,0,1:0:0:0:
197,23,84725,1,8,0:0:0:0:
132,299,84897,1,0,0:0:0:0:
381,203,85068,6,0,L|233:178,1,119.999996337891,0|0,1:0|0:0,0:0:0:0:
13,318,85411,2,0,L|131:298,1,119.999996337891,8|0,0:0|0:0,0:0:0:0:
342,81,85754,1,0,0:0:0:0:
165,164,85925,1,0,1:0:0:0:
408,208,86097,1,8,0:0:0:0:
165,164,86268,1,0,0:0:0:0:
491,258,86440,6,0,B|511:207|511:207|479:142,1,119.999996337891,0|2,1:0|0:0,0:0:0:0:
66,80,86782,1,8,0:0:0:0:
66,80,86868,2,0,L|42:212,1,119.999996337891,2|0,0:0|0:0,0:0:0:0:
79,240,87125,2,0,P|153:198|291:220,1,179.999994506836,2|2,1:2|1:2,0:0:0:0:
311,261,87468,1,8,0:0:0:0:
356,268,87553,1,8,0:3:0:0:
401,277,87640,1,2,0:0:0:0:
447,286,87725,1,8,0:3:0:0:
492,295,87811,5,4,1:2:0:0:
202,380,87982,2,0,L|187:321,1,59.9999981689454,0|2,0:0|0:0,0:0:0:0:
153,197,88154,1,8,0:0:0:0:
38,369,88325,1,0,0:0:0:0:
287,165,88497,1,0,0:0:0:0:
28,54,88668,2,0,B|-13:100|-13:100|0:156,1,119.999996337891,2|8,1:2|0:0,0:0:0:0:
315,267,89011,6,0,B|328:211|328:211|287:165,1,119.999996337891,2|0,0:0|1:0,0:0:0:0:
134,206,89268,2,0,B|121:262|121:262|162:308,1,119.999996337891,2|0,0:0|0:0,0:0:0:0:
225,236,89525,1,10,0:0:0:0:
83,124,89697,2,0,P|145:114|201:108,1,119.999996337891,2|0,0:0|0:0,0:0:0:0:
261,351,90040,1,0,1:0:0:0:
290,98,90211,1,8,0:0:0:0:
362,290,90382,1,0,0:0:0:0:
408,114,90554,6,0,L|289:97,1,119.999996337891,0|0,1:0|0:0,0:0:0:0:
265,330,90897,1,8,0:0:0:0:
201,107,91068,1,0,0:0:0:0:
146,347,91240,2,0,L|265:330,1,119.999996337891,0|0,0:0|1:0,0:0:0:0:
83,124,91582,1,8,0:0:0:0:
279,189,91754,1,0,0:0:0:0:
43,254,91925,5,0,1:0:0:0:
212,69,92097,1,0,0:0:0:0:
146,347,92268,1,8,0:0:0:0:
86,135,92440,1,0,0:0:0:0:
237,266,92611,2,0,B|295:282|295:282|344:249,1,119.999996337891,2|0,0:0|1:0,0:0:0:0:
416,194,92868,2,0,B|440:177|440:177|469:185,1,59.9999981689454,2|8,0:0|0:0,0:0:0:0:
223,263,93125,1,2,0:0:0:0:
332,36,93297,6,0,L|204:20,1,119.999996337891,0|0,1:0|0:0,0:0:0:0:
43,254,93640,2,0,B|22:311|22:311|63:353,1,119.999996337891,8|0,0:0|0:0,0:0:0:0:
361,169,93982,1,0,0:0:0:0:
138,284,94154,1,0,1:0:0:0:
446,225,94325,1,8,0:0:0:0:
236,165,94497,1,0,0:0:0:0:
352,341,94668,5,0,1:0:0:0:
439,91,94840,1,0,0:0:0:0:
297,241,95011,1,8,0:0:0:0:
123,30,95182,1,0,0:0:0:0:
43,254,95354,2,0,L|183:243,1,119.999996337891,0|0,0:0|1:0,0:0:0:0:
438,310,95697,1,8,0:0:0:0:
189,244,95868,1,0,0:0:0:0:
346,42,96040,5,0,0:0:0:0:
426,283,96211,1,2,0:0:0:0:
222,120,96382,1,8,0:0:0:0:
222,120,96468,2,0,B|174:89|174:89|113:109,1,119.999996337891,2|0,0:0|0:0,0:0:0:0:
42,148,96725,5,2,0:0:0:0:
287,29,96897,1,0,1:0:0:0:
287,29,96982,2,0,L|359:44,1,59.9999981689454,2|8,0:0|0:0,0:0:0:0:
189,244,97240,1,2,0:0:0:0:
107,25,97411,1,0,1:0:0:0:
107,25,97497,2,0,L|37:49,1,59.9999981689454,2|0,0:0|0:0,0:0:0:0:
96,283,97754,1,10,0:0:0:0:
25,61,97925,1,0,0:0:0:0:
25,316,98097,5,8,0:0:0:0:
101,303,98182,1,8,0:0:0:0:
178,290,98268,1,0,1:0:0:0:
440,55,98440,2,0,L|369:43,1,59.9999981689454,8|0,0:0|1:0,0:0:0:0:
139,126,98611,2,0,L|198:136,1,59.9999981689454,8|8,0:0|0:0,0:0:0:0:
413,245,98782,6,0,P|295:268|177:289,1,240,2|0,1:2|0:0,0:0:0:0:
101,303,99125,1,2,1:2:0:0:
184,29,99297,1,2,0:0:0:0:
73,213,99811,5,2,1:2:0:0:
284,47,99982,1,0,0:0:0:0:
284,47,100068,1,0,0:0:0:0:
284,47,100154,6,0,P|303:178|321:292,1,240,2|0,1:2|0:0,0:0:0:0:
383,335,100497,1,2,1:2:0:0:
71,299,100668,1,2,0:0:0:0:
417,58,101182,5,0,1:0:0:0:
412,105,101268,1,2,0:0:0:0:
407,152,101354,1,2,0:0:0:0:
402,199,101440,1,2,0:0:0:0:
398,246,101525,6,0,P|307:200|228:214,1,179.999994506836,4|0,1:2|0:0,0:0:0:0:
163,255,101868,1,8,0:0:0:0:
121,249,101954,1,2,0:0:0:0:
79,244,102040,1,2,0:0:0:0:
79,244,102211,2,0,L|70:139,1,80,0|0,1:0|0:0,0:0:0:0:
377,125,102554,1,8,0:0:0:0:
256,30,102725,6,0,P|209:116|232:211,1,200,0|0,0:0|0:0,0:0:0:0:
398,246,103240,1,8,0:0:0:0:
299,177,103411,2,0,P|284:128|321:74,1,100,0|0,1:0|0:0,0:0:0:0:
398,246,103754,1,0,0:0:0:0:
398,246,103925,2,0,P|416:307|370:374,1,150,8|0,0:0|0:0,0:0:0:0:
339,362,104268,5,0,1:0:0:0:
226,263,104440,2,0,L|211:202,2,50,0|0|8,0:0|0:0|0:0,0:0:0:0:
118,264,104782,1,0,0:0:0:0:
321,196,104954,2,0,P|330:146|337:87,1,100,0|0,1:0|0:0,0:0:0:0:
200,122,105297,1,8,0:0:0:0:
427,27,105468,2,0,P|435:76|442:125,2,100,0|0|0,1:0|0:0|0:0,0:0:0:0:
455,217,105982,5,8,0:0:0:0:
312,74,106154,2,0,P|243:26|117:37,1,200,0|0,1:0|0:0,0:0:0:0:
51,261,106668,2,0,P|100:271|153:251,1,100,8|0,0:0|0:0,0:0:0:0:
407,79,107011,6,0,P|359:63|311:73,1,100,0|0,1:0|0:0,0:0:0:0:
311,73,107268,1,0,0:0:0:0:
311,73,107354,1,10,0:0:0:0:
353,167,107525,1,2,0:0:0:0:
321,253,107697,1,2,1:2:0:0:
419,101,107868,1,0,0:0:0:0:
321,253,108040,1,10,0:0:0:0:
235,279,108211,1,2,1:2:0:0:
413,277,108382,5,2,0:0:0:0:
413,277,108554,1,0,0:0:0:0:
253,189,108725,1,10,0:0:0:0:
230,101,108897,1,2,1:2:0:0:
235,279,109068,1,2,0:0:0:0:
253,189,109240,1,0,0:0:0:0:
163,332,109411,2,0,L|148:284,1,50,10|0,0:0|0:0,0:0:0:0:
334,239,109582,2,0,L|348:191,1,50,2|0,3:2|0:0,0:0:0:0:
230,101,109754,6,0,P|323:88|422:73,1,179.999994506836,4|8,1:2|0:0,0:0:0:0:
341,357,110440,2,0,P|252:343|162:331,1,179.999994506836,0|8,1:0|0:0,0:0:0:0:
247,254,110954,2,0,P|332:237|439:260,1,179.999994506836,0|0,1:0|0:0,0:0:0:0:
476,155,111468,1,8,0:0:0:0:
403,98,111640,2,0,P|322:71|222:74,1,179.999994506836,0|2,1:0|0:0,0:0:0:0:
132,324,112154,1,10,0:0:0:0:
77,128,112325,1,2,0:0:0:0:
60,262,112497,5,2,1:2:0:0:
77,128,112668,1,0,0:0:0:0:
60,262,112840,2,0,P|144:235|236:246,2,179.999994506836,8|0|8,0:0|1:0|0:0,0:0:0:0:
135,348,113697,1,0,1:0:0:0:
135,348,113868,6,0,P|220:375|308:364,1,179.999994506836,0|8,0:0|0:0,0:0:0:0:
372,301,114382,1,0,1:0:0:0:
372,301,114725,1,2,0:0:0:0:
358,118,114897,1,10,0:0:0:0:
421,218,115068,1,2,0:0:0:0:
256,282,115240,6,0,L|150:264,1,89.9999972534181,2|0,1:2|0:0,0:0:0:0:
170,152,115582,2,0,L|258:136,1,89.9999972534181,8|0,0:0|0:0,0:0:0:0:
358,118,115925,2,0,P|395:185|377:292,1,179.999994506836,0|8,1:0|0:0,0:0:0:0:
294,352,116440,6,0,L|97:371,1,179.999994506836,0|0,1:0|0:0,0:0:0:0:
212,319,116954,1,8,0:0:0:0:
114,334,117125,2,0,L|294:352,1,179.999994506836,0|2,1:0|0:0,0:0:0:0:
381,284,117640,1,10,0:0:0:0:
358,118,117811,1,2,0:0:0:0:
425,204,117982,5,2,1:2:0:0:
381,284,118154,1,2,0:0:0:0:
312,210,118325,5,10,0:0:0:0:
261,262,118497,1,2,0:0:0:0:
213,172,118668,5,2,1:2:0:0:
162,201,118840,1,2,0:0:0:0:
262,64,119011,5,2,0:0:0:0:
192,50,119183,1,2,0:2:0:0:
427,87,119354,5,2,0:0:0:0:
373,19,119526,1,2,0:0:0:0:
481,239,119697,5,2,0:0:0:0:
508,166,119869,1,2,0:0:0:0:
472,329,120040,5,2,0:0:0:0:
383,353,120211,1,2,0:0:0:0:
289,294,120382,1,2,0:0:0:0:
157,279,120554,1,2,0:0:0:0:
57,357,120725,5,2,0:0:0:0:
473,148,126211,5,2,0:0:0:0:
399,115,126382,1,2,0:0:0:0:
319,200,126554,5,2,0:0:0:0:
279,119,126725,1,2,0:0:0:0:
151,133,126897,5,2,0:0:0:0:
174,36,127068,1,2,0:0:0:0:
67,214,127240,5,2,0:0:0:0:
126,268,127411,1,2,0:0:0:0:
179,273,127582,1,2,0:0:0:0:
212,259,127754,1,2,0:0:0:0:
257,230,127925,1,2,0:0:0:0:
329,232,128097,1,2,0:0:0:0:
396,276,128268,1,2,0:0:0:0:
256,192,128954,12,0,131525,0:0:0:0:
161,148,131697,5,0,1:0:0:0:
436,74,132040,1,8,0:0:0:0:
436,74,132211,2,0,L|322:61,1,100,0|0,0:0|1:0,0:0:0:0:
265,100,132725,2,0,P|197:129|91:71,1,200,8|8,0:0|0:0,0:0:0:0:
134,4,133582,1,0,0:0:0:0:
143,146,133754,1,0,0:0:0:0:
44,158,133925,1,0,1:0:0:0:
44,158,134097,2,0,L|158:145,1,100,8|0,0:0|1:0,0:0:0:0:
423,319,134782,5,8,0:0:0:0:
423,319,134954,2,0,L|309:306,1,100,0|0,0:0|1:0,0:0:0:0:
269,248,135468,2,0,P|253:216|260:173,1,75,8|0,0:0|0:0,0:0:0:0:
258,178,135811,1,0,1:0:0:0:
33,314,136154,5,8,0:0:0:0:
33,314,136325,2,0,P|73:330|143:308,1,100,0|0,1:0|1:0,0:0:0:0:
189,267,136840,1,8,0:0:0:0:
113,240,137011,1,0,0:0:0:0:
127,319,137182,5,0,1:0:0:0:
232,34,137525,1,8,0:0:0:0:
287,91,137697,2,0,L|397:108,1,100,0|0,0:0|1:0,0:0:0:0:
440,163,138211,1,8,0:0:0:0:
414,238,138554,5,0,1:0:0:0:
206,109,138897,1,8,0:0:0:0:
261,166,139068,2,0,L|371:183,1,100,0|0,0:0|1:0,0:0:0:0:
414,238,139582,1,8,0:0:0:0:
61,326,139925,6,0,P|56:277|51:216,1,100,0|8,1:0|0:0,0:0:0:0:
132,230,140440,1,0,0:0:0:0:
293,231,140782,1,0,1:0:0:0:
207,314,140954,2,0,P|210:264|216:203,1,100,8|0,0:0|1:0,0:0:0:0:
455,270,141640,1,8,0:0:0:0:
380,239,141811,2,0,P|367:287|355:336,1,100,0|0,0:0|3:0,0:0:0:0:
207,314,142325,5,8,0:0:0:0:
207,314,142411,2,0,P|199:288|193:264,1,50,0|0,3:0|0:0,0:0:0:0:
450,183,142668,5,0,1:0:0:0:
173,147,142840,1,0,0:0:0:0:
359,235,143011,1,8,0:0:0:0:
480,85,143182,1,0,0:0:0:0:
404,308,143354,2,0,B|355:326|355:326|301:299,1,110.000003356934,0|0,0:0|1:0,0:0:0:0:
220,81,143697,1,8,0:0:0:0:
106,321,143868,1,0,0:0:0:0:
206,313,144040,6,0,B|155:339|155:339|106:321,1,110.000003356934,0|0,1:0|0:0,0:0:0:0:
41,77,144382,1,8,0:0:0:0:
150,249,144554,1,0,0:0:0:0:
222,63,144725,1,0,0:0:0:0:
135,246,144897,1,0,1:0:0:0:
374,123,145068,1,8,0:0:0:0:
140,13,145240,1,0,0:0:0:0:
235,232,145411,6,0,B|298:211|298:211|361:223,1,110.000003356934,0|0,1:0|0:0,0:0:0:0:
476,27,145754,2,0,L|346:10,1,110.000003356934,8|0,0:0|0:0,0:0:0:0:
305,304,146097,1,0,0:0:0:0:
276,121,146268,1,0,1:0:0:0:
420,315,146440,1,8,0:0:0:0:
379,57,146611,1,0,0:0:0:0:
176,287,146782,5,0,1:0:0:0:
420,166,146954,2,0,L|340:146,1,55.0000016784668,0|0,0:0|0:0,0:0:0:0:
234,210,147125,1,10,0:0:0:0:
379,57,147297,1,0,0:0:0:0:
339,75,147382,1,2,0:0:0:0:
296,84,147468,1,0,0:0:0:0:
252,83,147554,1,2,0:0:0:0:
209,72,147639,1,0,1:0:0:0:
281,319,147811,1,8,0:0:0:0:
420,166,147982,2,0,L|340:146,1,55.0000016784668,2|0,0:0|0:0,0:0:0:0:
125,105,148154,6,0,B|104:59|104:59|139:9,1,110.000003356934,0|0,1:0|0:0,0:0:0:0:
447,15,148497,1,8,0:0:0:0:
209,72,148668,1,0,0:0:0:0:
360,239,148840,1,0,0:0:0:0:
339,75,149011,1,0,1:0:0:0:
281,319,149182,1,8,3:2:0:0:
281,319,149268,1,0,3:0:0:0:
281,319,149354,1,0,3:0:0:0:
281,319,149440,1,0,3:0:0:0:
281,319,149525,5,0,0:0:0:0:
440,188,149697,1,0,1:0:0:0:
123,280,149868,1,8,0:0:0:0:
369,325,150040,1,0,0:0:0:0:
56,216,150211,2,0,B|26:240|26:240|34:321,1,110.000003356934,0|0,0:0|1:0,0:0:0:0:
350,228,150554,1,8,0:0:0:0:
123,280,150725,1,0,0:0:0:0:
455,292,150897,6,0,L|466:177,1,110.000003356934,0|0,1:0|0:0,0:0:0:0:
152,190,151240,1,8,0:0:0:0:
350,228,151411,1,0,0:0:0:0:
212,280,151582,1,0,0:0:0:0:
417,96,151754,1,0,1:0:0:0:
369,325,151925,1,8,0:0:0:0:
369,325,152097,1,0,0:0:0:0:
225,105,152268,6,0,P|175:95|84:86,1,110.000003356934,0|0,1:0|0:0,0:0:0:0:
116,87,152525,1,0,0:0:0:0:
116,87,152611,1,8,0:0:0:0:
342,163,152782,1,0,0:0:0:0:
321,195,152867,1,2,0:0:0:0:
291,219,152953,1,0,0:0:0:0:
256,233,153040,1,2,0:0:0:0:
218,235,153124,1,0,1:0:0:0:
16,86,153297,1,8,0:0:0:0:
144,273,153468,2,0,L|136:203,1,55.0000016784668,2|0,0:0|0:0,0:0:0:0:
182,44,153640,6,0,P|232:34|323:25,1,110.000003356934,0|0,1:0|0:0,0:0:0:0:
405,233,153982,1,8,0:0:0:0:
253,115,154154,1,0,0:0:0:0:
364,330,154325,2,0,P|418:323|472:312,1,110.000003356934,0|0,0:0|1:0,0:0:0:0:
512,73,154668,1,8,0:0:0:0:
488,223,154840,1,0,0:0:0:0:
463,3,155011,5,0,1:0:0:0:
485,205,155182,1,0,0:0:0:0:
227,113,155354,1,8,0:0:0:0:
433,137,155525,1,0,0:0:0:0:
146,186,155697,2,0,P|134:127|127:60,1,110.000003356934,0|0,0:0|1:0,0:0:0:0:
232,289,156040,1,8,0:0:0:0:
35,148,156211,1,0,0:0:0:0:
344,244,156382,6,0,B|368:292|368:292|339:342,1,110.000003356934,0|0,1:0|0:0,0:0:0:0:
23,369,156725,2,0,B|-5:320|-5:320|18:272,1,110.000003356934,8|0,0:0|0:0,0:0:0:0:
302,165,157068,1,0,0:0:0:0:
102,318,157240,1,0,1:0:0:0:
263,290,157411,1,8,0:0:0:0:
89,321,157582,1,0,0:0:0:0:
342,353,157754,6,0,P|362:305|345:230,1,110.000003356934,0|0,1:0|0:0,0:0:0:0:
354,248,158011,1,0,0:0:0:0:
354,248,158097,1,8,0:0:0:0:
154,66,158268,1,0,0:0:0:0:
187,85,158353,1,2,0:0:0:0:
224,94,158439,1,0,0:0:0:0:
262,94,158525,1,2,0:0:0:0:
299,84,158610,1,0,1:0:0:0:
426,9,158782,1,8,0:0:0:0:
188,178,158954,2,0,L|198:231,1,55.0000016784668,2|0,0:0|0:0,0:0:0:0:
342,353,159125,6,0,P|399:349|453:340,1,110.000003356934,0|0,1:0|0:0,0:0:0:0:
510,53,159468,1,8,0:0:0:0:
385,252,159640,1,0,0:0:0:0:
398,17,159811,2,0,L|421:144,1,110.000003356934,0|0,0:0|1:0,0:0:0:0:
342,353,160154,1,8,0:0:0:0:
424,155,160325,1,0,0:0:0:0:
114,230,160497,6,0,B|88:180|88:180|111:132,1,110.000003356934,0|0,1:0|0:0,0:0:0:0:
425,264,160840,1,8,0:0:0:0:
191,176,161011,1,0,0:0:0:0:
424,155,161182,1,0,0:0:0:0:
114,230,161354,1,0,1:0:0:0:
336,173,161525,1,8,3:2:0:0:
336,173,161611,1,0,3:0:0:0:
336,173,161697,1,0,3:0:0:0:
336,173,161782,1,0,3:0:0:0:
336,173,161868,5,0,1:0:0:0:
151,53,162040,1,2,0:0:0:0:
208,279,162211,1,8,0:0:0:0:
208,279,162297,2,0,L|336:270,1,110.000003356934,2|0,0:0|0:0,0:0:0:0:
317,271,162554,1,2,0:0:0:0:
424,155,162725,1,0,1:0:0:0:
424,155,162811,1,2,0:0:0:0:
424,155,162897,1,8,0:0:0:0:
240,190,163068,1,2,0:0:0:0:
468,60,163240,5,0,1:0:0:0:
468,60,163325,2,0,L|340:51,1,110.000003356934,2|0,0:0|0:0,0:0:0:0:
287,87,163582,1,10,0:0:0:0:
72,195,163754,1,0,0:0:0:0:
72,195,163839,2,0,P|48:145|51:91,1,110.000003356934,2|0,0:0|1:0,0:0:0:0:
51,91,164097,1,2,0:0:0:0:
357,25,164268,1,8,0:0:0:0:
133,132,164440,1,0,1:0:0:0:
181,137,164525,1,8,0:0:0:0:
234,143,164611,5,4,1:2:0:0:
468,60,164782,1,0,0:0:0:0:
468,60,164868,1,2,0:0:0:0:
468,60,164954,1,8,0:0:0:0:
259,270,165125,1,0,0:0:0:0:
437,188,165297,1,0,0:0:0:0:
160,339,165468,2,0,L|144:209,1,119.999996337891,2|8,1:2|0:0,0:0:0:0:
504,136,165811,6,0,B|530:189|530:189|500:241,1,119.999996337891,2|0,0:0|1:0,0:0:0:0:
368,235,166068,2,0,B|341:181|341:181|371:129,1,119.999996337891,2|0,0:0|0:0,0:0:0:0:
371,129,166325,1,10,0:0:0:0:
406,323,166497,1,2,0:0:0:0:
303,71,166668,1,0,0:0:0:0:
259,270,166840,1,0,1:0:0:0:
442,69,167011,1,8,0:0:0:0:
241,163,167182,1,0,0:0:0:0:
504,136,167354,5,0,1:0:0:0:
177,54,167525,1,0,0:0:0:0:
437,188,167697,1,8,0:0:0:0:
152,46,167868,1,0,0:0:0:0:
261,255,168040,2,0,B|321:271|321:271|370:240,1,119.999996337891,0|0,0:0|1:0,0:0:0:0:
280,9,168382,1,8,0:0:0:0:
308,179,168554,1,0,0:0:0:0:
442,69,168725,5,0,1:0:0:0:
163,182,168897,1,0,0:0:0:0:
382,257,169068,1,8,0:0:0:0:
102,368,169240,1,0,0:0:0:0:
306,353,169411,5,2,0:0:0:0:
85,206,169582,1,0,1:0:0:0:
85,206,169668,2,0,P|80:176|88:147,1,59.9999981689454,2|8,0:0|0:0,0:0:0:0:
237,22,169925,1,2,0:0:0:0:
21,268,170097,6,0,B|74:295|74:295|132:279,1,119.999996337891,0|0,1:0|0:0,0:0:0:0:
400,167,170440,1,8,0:0:0:0:
196,358,170611,1,0,0:0:0:0:
167,97,170782,1,0,0:0:0:0:
278,246,170954,1,0,1:0:0:0:
40,133,171125,1,8,3:2:0:0:
40,133,171211,1,0,3:0:0:0:
40,133,171297,1,0,3:0:0:0:
40,133,171382,1,0,3:0:0:0:
40,133,171468,5,0,1:0:0:0:
340,63,171640,1,0,0:0:0:0:
128,213,171811,1,8,0:0:0:0:
478,125,171982,1,0,0:0:0:0:
236,64,172154,1,0,0:0:0:0:
499,129,172325,1,0,1:0:0:0:
312,228,172497,1,8,0:0:0:0:
312,228,172668,1,0,0:0:0:0:
504,46,172840,5,0,1:0:0:0:
399,276,173011,1,0,0:0:0:0:
236,64,173182,2,0,B|183:44|183:44|122:64,1,119.999996337891,8|0,0:0|0:0,0:0:0:0:
81,349,173525,1,0,0:0:0:0:
182,151,173697,1,0,1:0:0:0:
251,308,173868,1,8,0:0:0:0:
251,308,174040,1,0,0:0:0:0:
33,101,174211,5,0,1:0:0:0:
317,136,174382,1,2,0:0:0:0:
42,220,174554,1,8,0:0:0:0:
42,220,174640,2,0,L|31:84,1,119.999996337891,2|0,0:0|0:0,0:0:0:0:
56,60,174897,2,0,P|147:72|237:22,1,179.999994506836,2|2,1:2|1:2,0:0:0:0:
224,34,175240,1,8,0:0:0:0:
55,314,175411,1,2,0:0:0:0:
371,247,175582,5,4,1:2:0:0:
154,180,175754,1,0,0:0:0:0:
154,180,175840,1,2,0:0:0:0:
154,180,175925,1,8,0:0:0:0:
493,197,176097,1,0,0:0:0:0:
250,249,176268,1,0,0:0:0:0:
500,316,176440,2,0,L|492:196,1,119.999996337891,2|8,1:2|0:0,0:0:0:0:
248,342,176782,6,0,B|192:362|192:362|138:333,1,119.999996337891,2|0,0:0|1:0,0:0:0:0:
48,266,177040,2,0,B|28:210|28:210|56:156,1,119.999996337891,2|0,0:0|0:0,0:0:0:0:
56,156,177297,1,10,0:0:0:0:
342,169,177468,1,2,0:0:0:0:
136,221,177640,1,0,0:0:0:0:
352,32,177811,1,0,1:0:0:0:
255,257,177982,1,8,0:0:0:0:
371,37,178154,1,0,0:0:0:0:
467,291,178325,6,0,P|353:318|254:256,1,239.999992675781,0|8,1:0|0:0,0:0:0:0:
93,48,178840,2,0,L|243:36,1,119.999996337891,2|0,0:0|0:0,0:0:0:0:
434,196,179182,2,0,L|284:184,1,119.999996337891,2|8,1:2|0:0,0:0:0:0:
44,301,179525,1,0,0:0:0:0:
281,185,179697,5,0,1:0:0:0:
74,204,179868,1,0,0:0:0:0:
288,80,180040,1,8,0:0:0:0:
176,312,180211,1,0,0:0:0:0:
22,111,180382,2,0,P|76:90|139:100,1,119.999996337891,2|0,0:0|1:0,0:0:0:0:
208,146,180640,2,0,P|235:156|265:154,1,59.9999981689454,2|8,0:0|0:0,0:0:0:0:
2,122,180897,1,2,0:0:0:0:
362,128,181068,6,0,B|386:72|386:72|355:22,1,119.999996337891,0|0,1:0|0:0,0:0:0:0:
47,205,181411,1,8,0:0:0:0:
288,80,181582,1,2,0:0:0:0:
288,80,181668,1,2,0:0:0:0:
288,80,181754,2,0,L|149:69,1,119.999996337891,2|0,0:0|1:0,0:0:0:0:
465,218,182097,1,8,3:2:0:0:
435,220,182182,1,0,3:0:0:0:
405,222,182268,1,0,3:0:0:0:
375,225,182354,1,0,3:0:0:0:
345,227,182439,5,0,1:0:0:0:
143,68,182611,1,0,0:0:0:0:
275,358,182782,1,8,0:0:0:0:
382,124,182954,1,0,0:0:0:0:
224,248,183125,1,0,0:0:0:0:
475,67,183297,1,0,1:0:0:0:
224,248,183468,2,0,B|170:272|170:272|115:245,1,119.999996337891,8|0,0:0|0:0,0:0:0:0:
465,218,183811,5,0,0:0:0:0:
172,155,183982,1,2,0:0:0:0:
471,98,184154,1,8,0:0:0:0:
471,98,184240,2,0,L|464:224,1,119.999996337891,2|0,0:0|0:0,0:0:0:0:
458,302,184497,5,2,0:0:0:0:
224,248,184668,1,0,1:0:0:0:
224,248,184754,2,0,L|300:240,1,59.9999981689454,2|8,0:0|0:0,0:0:0:0:
471,98,185011,1,2,0:0:0:0:
237,44,185182,1,0,1:0:0:0:
237,44,185268,2,0,L|313:36,1,59.9999981689454,2|0,0:0|0:0,0:0:0:0:
464,217,185525,1,10,0:0:0:0:
386,34,185697,1,0,0:0:0:0:
491,302,185868,5,8,0:0:0:0:
412,290,185954,1,8,0:0:0:0:
334,278,186040,1,0,1:0:0:0:
36,74,186211,2,0,L|102:62,1,59.9999981689454,8|0,0:0|1:0,0:0:0:0:
251,146,186382,2,0,L|195:166,1,59.9999981689454,8|8,0:0|0:0,0:0:0:0:
24,304,186554,6,0,L|271:320,1,240,4|0,1:2|0:0,0:0:0:0:
334,278,186897,6,0,B|364:232|364:232|347:179,1,110.000003356934,8|0,0:0|0:0,0:0:0:0:
164,32,187240,2,0,L|35:22,1,110.000003356934,0|0,0:0|1:0,0:0:0:0:
266,214,187582,1,8,0:0:0:0:
157,223,187754,2,0,L|266:214,1,110.000003356934,0|0,0:0|1:0,0:0:0:0:
437,96,188097,5,0,0:0:0:0:
437,96,188268,2,0,L|327:87,1,110.000003356934,8|0,0:0|0:0,0:0:0:0:
77,285,188611,1,0,0:0:0:0:
204,129,188782,1,0,1:0:0:0:
89,292,188954,1,8,0:0:0:0:
164,32,189125,1,0,0:0:0:0:
355,239,189297,6,0,B|407:261|407:261|456:241,1,110.000003356934,0|0,1:0|0:0,0:0:0:0:
122,210,189640,1,8,0:0:0:0:
410,153,189811,1,0,0:0:0:0:
191,273,189982,1,0,0:0:0:0:
340,89,190153,1,0,1:0:0:0:
268,288,190325,1,8,0:0:0:0:
263,74,190496,1,0,0:0:0:0:
327,240,190668,5,0,1:0:0:0:
106,122,190840,2,0,L|183:112,1,55.0000016784668,0|0,0:0|0:0,0:0:0:0:
304,159,191011,1,10,0:0:0:0:
28,201,191182,1,0,0:0:0:0:
5,163,191267,1,2,0:0:0:0:
0,120,191353,1,0,0:0:0:0:
8,77,191439,1,2,0:0:0:0:
33,41,191524,1,0,1:0:0:0:
241,210,191697,1,8,0:0:0:0:
125,33,191868,2,0,L|179:25,1,55.0000016784668,2|0,0:0|0:0,0:0:0:0:
368,40,192040,6,0,B|401:78|401:78|390:137,1,110.000003356934,0|0,1:0|0:0,0:0:0:0:
107,252,192382,1,8,0:0:0:0:
302,102,192554,1,0,0:0:0:0:
191,274,192725,1,0,0:0:0:0:
217,79,192897,1,0,1:0:0:0:
258,234,193068,1,8,3:2:0:0:
258,234,193154,1,0,3:0:0:0:
258,234,193240,1,0,3:0:0:0:
258,234,193325,1,0,3:0:0:0:
258,234,193411,6,0,L|373:224,1,110.000003356934,0|0,0:0|1:0,0:0:0:0:
159,148,193754,1,8,0:0:0:0:
458,180,193925,2,0,L|448:289,1,110.000003356934,0|0,0:0|0:0,0:0:0:0:
168,346,194268,1,0,1:0:0:0:
168,346,194440,2,0,L|158:236,1,110.000003356934,8|0,0:0|0:0,0:0:0:0:
388,56,194782,6,0,L|503:43,1,110.000003356934,0|0,1:0|0:0,0:0:0:0:
229,41,195125,1,8,0:0:0:0:
464,140,195297,1,0,0:0:0:0:
299,0,195468,1,0,0:0:0:0:
392,180,195640,1,0,1:0:0:0:
377,15,195811,1,8,0:0:0:0:
314,165,195983,1,0,0:0:0:0:
411,82,196154,5,0,1:0:0:0:
203,219,196325,2,0,L|183:152,1,55.0000016784668,0|0,0:0|0:0,0:0:0:0:
113,85,196497,1,8,0:0:0:0:
299,273,196668,1,0,0:0:0:0:
267,303,196753,1,2,0:0:0:0:
227,321,196839,1,0,0:0:0:0:
184,324,196925,1,2,0:0:0:0:
142,313,197010,1,0,1:0:0:0:
323,78,197182,1,8,0:0:0:0:
203,219,197354,2,0,L|133:209,1,55.0000016784668,2|0,0:0|0:0,0:0:0:0:
19,143,197525,6,0,B|-6:96|-6:96|18:43,1,110.000003356934,0|0,1:0|0:0,0:0:0:0:
314,165,197868,2,0,L|296:288,1,110.000003356934,8|0,0:0|0:0,0:0:0:0:
54,355,198211,2,0,L|38:246,1,110.000003356934,0|0,0:0|1:0,0:0:0:0:
409,239,198554,1,8,0:0:0:0:
191,151,198725,2,0,L|175:259,1,110.000003356934,0|0,0:0|1:0,0:0:0:0:
393,347,199068,5,0,0:0:0:0:
393,347,199240,2,0,L|408:238,1,110.000003356934,8|0,0:0|0:0,0:0:0:0:
315,70,199582,1,0,0:0:0:0:
411,208,199754,1,0,1:0:0:0:
415,33,199925,1,8,0:0:0:0:
311,245,200097,1,0,0:0:0:0:
200,62,200268,6,0,B|153:38|153:38|98:56,1,110.000003356934,0|0,1:0|0:0,0:0:0:0:
427,123,200611,1,8,0:0:0:0:
144,145,200782,1,0,0:0:0:0:
366,54,200954,1,0,0:0:0:0:
204,213,201125,1,0,1:0:0:0:
286,43,201297,1,8,0:0:0:0:
284,224,201468,1,0,0:0:0:0:
226,91,201640,5,0,1:0:0:0:
338,308,201811,2,0,L|260:324,1,55.0000016784668,0|0,0:0|0:0,0:0:0:0:
176,296,201982,1,8,0:0:0:0:
446,249,202154,1,0,0:0:0:0:
472,214,202239,1,2,0:0:0:0:
477,170,202325,1,0,0:0:0:0:
462,129,202411,1,2,0:0:0:0:
428,101,202496,1,0,1:0:0:0:
204,77,202668,1,8,0:0:0:0:
388,181,202840,2,0,L|320:189,1,55.0000016784668,2|0,0:0|0:0,0:0:0:0:
139,150,203011,6,0,P|111:103|114:49,1,110.000003356934,0|0,1:0|0:0,0:0:0:0:
428,101,203354,1,8,0:0:0:0:
204,77,203525,1,0,0:0:0:0:
366,163,203697,1,0,0:0:0:0:
265,14,203868,1,0,1:0:0:0:
290,156,204040,1,8,0:0:0:0:
341,21,204211,1,0,0:0:0:0:
258,88,204382,5,0,1:0:0:0:
476,26,204554,1,0,0:0:0:0:
183,146,204725,2,0,B|156:100|156:100|174:46,1,110.000003356934,8|0,0:0|0:0,0:0:0:0:
452,121,205068,2,0,B|470:174|470:174|443:220,1,110.000003356934,0|0,0:0|1:0,0:0:0:0:
94,175,205411,1,8,3:2:0:0:
94,175,205497,1,0,3:0:0:0:
94,175,205582,1,0,3:0:0:0:
94,175,205668,1,0,3:0:0:0:
94,175,205754,6,0,L|344:151,1,240,0|0,1:0|0:0,0:0:0:0:
379,66,206097,6,0,L|248:51,1,110.000003356934,8|0,0:0|0:0,0:0:0:0:
25,235,206440,2,0,L|37:344,1,110.000003356934,2|0,0:0|1:0,0:0:0:0:
320,261,206782,2,0,L|332:151,1,110.000003356934,8|2,0:0|0:0,0:0:0:0:
153,36,207125,2,0,L|22:21,1,110.000003356934,2|0,0:0|1:0,0:0:0:0:
293,41,207468,1,8,0:0:0:0:
49,143,207640,5,0,0:0:0:0:
92,137,207725,1,2,0:0:0:0:
136,132,207811,1,0,0:0:0:0:
180,127,207897,1,2,0:0:0:0:
223,121,207982,1,0,1:0:0:0:
416,291,208154,1,8,0:0:0:0:
229,221,208325,1,2,0:0:0:0:
229,221,208411,1,2,0:0:0:0:
229,221,208497,6,0,P|305:231|407:163,1,200,4|8,1:2|0:0,0:0:0:0:
206,27,209011,2,0,L|84:13,1,100,2|0,0:0|0:0,0:0:0:0:
294,130,209354,1,0,1:0:0:0:
36,127,209525,2,0,L|135:115,1,100,8|0,0:0|0:0,0:0:0:0:
431,156,209868,6,0,P|469:226|418:335,1,200,0|8,0:0|0:0,0:0:0:0:
192,355,210382,2,0,L|70:346,1,100,2|0,0:0|0:0,0:0:0:0:
361,241,210725,1,0,1:0:0:0:
155,259,210897,2,0,L|146:137,1,100,8|0,0:0|0:0,0:0:0:0:
436,37,211240,6,0,P|368:82|248:48,1,200,0|8,1:0|0:0,0:0:0:0:
31,84,211754,2,0,L|16:210,1,100,2|0,0:0|0:0,0:0:0:0:
254,187,212097,1,0,1:0:0:0:
120,148,212268,1,8,0:0:0:0:
344,116,212440,1,0,0:0:0:0:
149,274,212611,6,0,B|189:312|189:312|345:292,1,200,0|8,1:0|0:0,0:0:0:0:
474,158,213125,2,0,L|483:48,1,100,2|0,0:0|0:0,0:0:0:0:
254,187,213468,1,0,1:0:0:0:
374,98,213640,1,8,0:0:0:0:
162,249,213811,1,0,0:0:0:0:
33,43,213982,6,0,B|112:31|112:31|146:43|146:43|233:31,1,200,0|8,0:0|0:0,0:0:0:0:
474,158,214497,2,0,L|459:271,1,100,2|0,0:0|0:0,0:0:0:0:
194,254,214840,1,0,1:0:0:0:
369,199,215011,1,8,3:2:0:0:
369,199,215097,1,0,3:0:0:0:
369,199,215182,2,0,L|362:149,1,50,0|0,3:0|3:0,0:0:0:0:
307,65,215354,6,0,L|74:49,1,200,0|8,1:0|0:0,0:0:0:0:
8,217,215868,2,0,L|117:205,1,100,2|0,0:0|0:0,0:0:0:0:
369,299,216211,1,0,1:0:0:0:
177,278,216382,2,0,L|286:266,1,100,8|0,0:0|0:0,0:0:0:0:
483,195,216725,6,0,B|510:133|510:133|477:3,1,200,0|8,1:0|0:0,0:0:0:0:
231,25,217240,2,0,L|97:38,1,100,2|0,0:0|0:0,0:0:0:0:
403,128,217582,1,0,1:0:0:0:
197,127,217754,2,0,L|296:136,1,100,8|0,0:0|0:0,0:0:0:0:
483,341,218097,6,0,P|404:378|289:335,1,200,0|8,1:0|0:0,0:0:0:0:
296,136,218611,1,2,0:0:0:0:
389,245,218782,1,0,1:0:0:0:
158,201,218954,1,0,3:0:0:0:
158,201,219040,2,0,L|79:187,1,50,0|8,1:0|0:0,0:0:0:0:
296,43,219297,2,0,L|345:51,1,50,0|0,3:0|0:0,0:0:0:0:
398,148,219468,5,0,1:0:0:0:
173,38,219640,1,0,0:0:0:0:
296,136,219811,1,8,0:0:0:0:
41,123,219982,2,0,L|163:112,1,100,2|0,0:0|0:0,0:0:0:0:
389,245,220325,1,0,1:0:0:0:
296,43,220497,1,8,0:0:0:0:
252,210,220668,1,0,0:0:0:0:
252,210,220754,1,0,0:0:0:0:
252,210,220840,5,0,1:0:0:0:
463,196,221011,2,0,L|524:192,2,50,0|0|8,0:0|0:0|0:0,0:0:0:0:
174,299,221354,2,0,L|156:194,1,100,2|0,0:0|0:0,0:0:0:0:
394,52,221697,1,0,1:0:0:0:
394,52,221782,2,0,L|471:40,1,50,0|8,3:0|0:0,0:0:0:0:
202,30,222040,1,0,3:0:0:0:
383,162,222211,6,0,P|310:118|180:142,1,200,0|8,1:0|0:0,0:0:0:0:
74,311,222725,2,0,L|188:297,1,100,2|0,0:0|0:0,0:0:0:0:
325,247,223068,1,0,1:0:0:0:
110,194,223240,2,0,L|96:80,1,100,8|0,0:0|0:0,0:0:0:0:
394,52,223582,5,0,1:0:0:0:
199,129,223754,1,0,0:0:0:0:
347,136,223925,1,8,0:0:0:0:
107,69,224097,2,0,L|94:168,1,100,2|0,0:0|0:0,0:0:0:0:
318,296,224440,1,0,1:0:0:0:
318,296,224525,2,0,L|324:246,1,50,0|8,3:0|0:0,0:0:0:0:
199,129,224782,1,0,3:0:0:0:
423,290,224954,5,0,1:0:0:0:
215,258,225125,1,0,0:0:0:0:
440,293,225297,1,8,0:0:0:0:
228,357,225468,2,0,L|213:245,1,100,2|0,0:0|0:0,0:0:0:0:
409,28,225811,1,0,1:0:0:0:
301,143,225982,1,8,3:2:0:0:
301,143,226068,1,0,3:0:0:0:
301,143,226154,2,0,L|244:135,1,50,0|0,3:0|3:0,0:0:0:0:
73,91,226325,6,0,L|93:295,1,200,0|8,1:0|0:0,0:0:0:0:
392,205,226840,2,0,L|401:105,1,100,2|0,0:0|0:0,0:0:0:0:
171,187,227182,1,0,1:0:0:0:
301,143,227354,1,8,0:0:0:0:
73,91,227525,1,0,0:0:0:0:
190,290,227697,5,0,1:0:0:0:
26,368,227868,2,0,L|145:357,1,100,2|0,0:0|0:0,0:0:0:0:
190,290,228125,2,0,L|239:294,2,50,2|2|0,0:0|0:0|0:0,0:0:0:0:
87,240,228382,6,0,L|69:57,2,150,2|2|2,0:0|0:0|0:0,0:0:0:0:
256,192,228982,12,0,230440,0:0:0:0:
