osu file format v14

[General]
AudioFilename: audio.mp3
AudioLeadIn: 0
PreviewTime: 44466
Countdown: 0
SampleSet: Soft
StackLeniency: 0.7
Mode: 0
LetterboxInBreaks: 0
WidescreenStoryboard: 1

[Editor]
DistanceSpacing: 1.1
BeatDivisor: 4
GridSize: 32
TimelineZoom: 2.699999

[Metadata]
Title:Samurai
TitleUnicode:Samurai
Artist:Rameses B
ArtistUnicode:Rameses B
Creator:Dayno
Version:Insane
Source:
Tags:dancefloor dnb drum & and bass d&b d'n'b electronic instrumental halftime drumstep monstercat instinct vol. volume 7
BeatmapID:2871731
BeatmapSetID:1390484

[Difficulty]
HPDrainRate:5
CircleSize:4.2
OverallDifficulty:8
ApproachRate:9
SliderMultiplier:1.3
SliderTickRate:1

[Events]
//Background and Video events
0,0,"ooOooOOoOooO.jpg",0,0
//Break Periods
//Storyboard Layer 0 (Background)
//Storyboard Layer 1 (Fail)
//Storyboard Layer 2 (Pass)
//Storyboard Layer 3 (Foreground)
//Storyboard Layer 4 (Overlay)
//Storyboard Sound Samples

[TimingPoints]
329,344.827586206897,4,2,1,50,1,0
329,-133.333333333333,4,2,1,50,0,0
1363,344.827586206897,4,2,1,50,1,0
1363,-133.333333333333,4,2,1,60,0,0
23431,-100,4,2,1,70,0,0
34466,-83.3333333333333,4,2,1,70,0,0
42742,-100,4,2,1,50,0,0
44725,-100,4,2,1,5,0,0
44811,-100,4,2,1,50,0,0
45069,-100,4,2,1,5,0,0
45156,-100,4,2,1,50,0,0
45414,-100,4,2,1,5,0,0
45500,-66.6666666666667,4,2,2,80,0,1
64811,-83.3333333333333,4,2,1,70,0,0
77225,-100,4,2,1,50,0,0
78604,-83.3333333333333,4,2,1,70,0,0
86880,-100,4,2,1,50,0,0
89638,-83.3333333333333,4,2,1,70,0,0
99294,-100,4,2,1,50,0,0
100673,-83.3333333333333,4,2,1,70,0,0
108949,-100,4,2,1,50,0,0
111707,-200,4,2,1,50,0,0
133776,-100,4,2,1,60,0,0
144811,-83.3333333333333,4,2,1,70,0,0
153087,-100,4,2,1,50,0,0
155069,-100,4,2,1,5,0,0
155156,-100,4,2,1,50,0,0
155414,-100,4,2,1,5,0,0
155500,-100,4,2,1,50,0,0
155759,-100,4,2,1,5,0,0
155845,-83.3333333333333,4,2,1,70,0,0
187569,-100,4,2,1,50,0,0
188949,-83.3333333333333,4,2,1,70,0,0
194466,-100,4,2,1,50,0,0
199983,-83.3333333333333,4,2,1,70,0,0
209638,-100,4,2,1,50,0,0
211018,-83.3333333333333,4,2,1,70,0,0
216535,-100,4,2,1,50,0,0
219294,-100,4,2,3,50,0,0

[Colours]
Combo1 : 161,156,164
Combo2 : 177,61,61
Combo3 : 223,205,163

[HitObjects]
68,268,329,6,0,P|79:204|54:161,2,97.50000371933,2|2|2,0:0|0:0|0:0,0:0:0:0:
140,323,1363,2,0,L|204:306,1,48.750001859665,2|0,3:0|0:0,0:0:0:0:
291,200,1707,2,0,L|197:227,1,97.50000371933,8|0,0:0|0:0,0:0:0:0:
119,188,2225,1,0,3:0:0:0:
119,188,2397,1,8,0:0:0:0:
415,376,2742,2,0,P|432:348|440:322,1,48.750001859665,0|0,3:0|0:0,0:0:0:0:
462,229,3087,2,0,P|424:258|378:273,2,97.50000371933,10|2|10,0:0|0:0|0:0,0:0:0:0:
346,85,4121,6,0,L|336:133,1,48.750001859665,0|0,3:0|0:0,0:0:0:0:
400,178,4466,2,0,L|377:282,1,97.50000371933,8|0,0:0|0:0,0:0:0:0:
483,157,4983,1,0,3:0:0:0:
483,157,5156,1,8,0:0:0:0:
353,16,5500,2,0,P|328:18|305:25,1,48.750001859665,0|0,3:0|0:0,0:0:0:0:
211,74,5845,2,0,P|167:48|148:-1,2,97.50000371933,10|2|10,0:0|0:0|0:0,0:0:0:0:
83,173,6880,6,0,L|71:109,1,48.750001859665,2|0,3:0|0:0,0:0:0:0:
127,223,7225,2,0,L|24:204,1,97.50000371933,8|0,0:0|0:0,0:0:0:0:
67,297,7742,1,0,3:0:0:0:
127,223,7914,1,10,0:0:0:0:
155,313,8087,1,2,0:0:0:0:
210,238,8259,1,2,3:0:0:0:
210,238,8431,1,2,0:0:0:0:
245,315,8604,1,10,0:0:0:0:
315,153,8949,6,0,L|292:247,2,97.50000371933,2|10|2,0:0|0:0|3:0,0:0:0:0:
132,110,9983,2,0,P|181:115|221:141,1,97.50000371933,8|0,0:0|0:0,0:0:0:0:
219,51,10500,1,0,3:0:0:0:
219,51,10672,1,8,0:0:0:0:
498,18,11018,2,0,L|438:33,1,48.750001859665,0|0,1:0|0:0,0:0:0:0:
378,81,11363,1,2,0:0:0:0:
498,113,11535,2,0,L|438:128,1,48.750001859665,0|0,1:0|0:0,0:0:0:0:
390,187,11880,1,2,0:0:0:0:
221,141,12052,1,0,1:0:0:0:
327,379,12397,6,0,P|345:335|345:316,1,48.750001859665,2|0,3:0|0:0,0:0:0:0:
268,297,12742,2,0,P|325:305|370:279,1,97.50000371933,8|0,0:0|0:0,0:0:0:0:
308,228,13259,1,0,3:0:0:0:
374,176,13431,1,10,0:0:0:0:
302,130,13604,1,2,0:0:0:0:
380,90,13776,1,2,3:0:0:0:
380,90,13949,1,2,0:0:0:0:
308,228,14121,1,10,0:0:0:0:
238,57,14466,6,0,L|222:153,2,97.50000371933,2|10|2,0:0|0:0|3:0,0:0:0:0:
12,151,15500,2,0,P|67:157|82:196,1,97.50000371933,8|0,0:0|0:0,0:0:0:0:
3,268,16018,1,0,3:0:0:0:
3,268,16190,2,0,L|108:292,2,97.50000371933,10|2|8,0:0|3:0|0:0,0:0:0:0:
140,353,17397,1,8,0:0:0:0:
376,343,17914,6,0,L|390:230,1,97.50000371933,2|0,0:0|0:0,0:0:0:0:
324,174,18431,2,0,L|310:287,1,97.50000371933,2|0,0:0|0:0,0:0:0:0:
244,194,18949,2,0,L|258:81,1,97.50000371933,2|0,0:0|0:0,0:0:0:0:
185,51,19466,2,0,L|171:164,1,97.50000371933,2|0,0:0|0:0,0:0:0:0:
173,147,19983,1,2,0:0:0:0:
173,147,20328,1,2,0:0:0:0:
107,84,20673,1,0,3:0:0:0:
256,192,20759,12,0,23345,0:0:0:0:
484,127,23431,6,0,L|495:63,1,65,4|0,3:0|0:0,0:0:0:0:
380,58,23776,2,0,P|446:63|495:9,1,130,8|0,0:0|0:0,0:0:0:0:
307,103,24294,1,0,3:0:0:0:
220,64,24466,2,0,P|177:69|156:89,1,65,8|0,0:0|0:0,0:0:0:0:
79,24,24811,2,0,P|61:50|60:82,1,65,0|0,3:0|0:0,0:0:0:0:
123,179,25156,2,0,B|142:240|142:240|114:304,2,130,10|2|10,0:0|0:0|0:0,0:0:0:0:
271,308,26190,6,0,L|200:296,1,65,2|0,3:0|0:0,0:0:0:0:
339,373,26535,2,0,L|485:349,1,130,8|0,0:0|0:0,0:0:0:0:
509,245,27052,1,0,3:0:0:0:
406,177,27225,2,0,P|386:203|379:244,1,65,8|0,0:0|0:0,0:0:0:0:
271,308,27569,2,0,P|263:276|243:251,1,65,0|0,3:0|0:0,0:0:0:0:
337,137,27914,2,0,L|475:167,2,130,10|2|2,0:0|3:0|3:0,0:0:0:0:
459,9,28949,6,0,P|476:60|475:84,1,65,6|0,3:0|0:0,0:0:0:0:
397,149,29294,2,0,P|373:189|382:287,1,130,8|0,0:0|0:0,0:0:0:0:
410,351,29811,1,0,3:0:0:0:
285,335,29983,1,10,0:0:0:0:
374,270,30156,1,2,0:0:0:0:
259,248,30328,1,2,3:0:0:0:
259,248,30500,1,2,0:0:0:0:
327,187,30673,1,10,0:0:0:0:
188,328,31018,6,0,L|169:182,2,130,2|10|2,0:0|0:0|3:0,0:0:0:0:
25,134,32052,2,0,P|103:141|145:91,1,130,8|0,0:0|0:0,0:0:0:0:
171,199,32569,1,0,3:0:0:0:
171,199,32742,1,8,0:0:0:0:
296,92,33087,1,0,3:0:0:0:
190,32,33259,1,0,0:0:0:0:
312,99,33431,2,0,L|386:79,1,65,10|0,0:0|0:0,0:0:0:0:
233,215,33776,2,0,L|170:198,1,65,8|2,0:0|0:0,0:0:0:0:
318,108,34121,2,0,L|380:91,1,65,8|0,0:0|0:0,0:0:0:0:
455,295,34466,6,0,P|445:282|385:260,1,77.999997619629,6|0,3:0|0:0,0:0:0:0:
224,358,34811,2,0,B|254:321|254:321|230:205,1,155.999995239258,8|0,0:0|0:0,0:0:0:0:
113,168,35328,1,0,3:0:0:0:
242,121,35500,1,10,0:0:0:0:
162,248,35673,1,2,0:0:0:0:
118,91,35845,1,6,3:0:0:0:
118,91,36018,1,2,0:0:0:0:
242,121,36190,2,0,L|234:44,1,77.999997619629,10|0,0:0|0:0,0:0:0:0:
356,132,36535,2,0,L|346:222,1,77.999997619629,2|0,0:0|3:0,0:0:0:0:
464,82,36880,2,0,L|455:4,1,77.999997619629,10|0,0:0|0:0,0:0:0:0:
512,210,37225,6,0,P|474:182|437:177,1,77.999997619629,6|0,3:0|0:0,0:0:0:0:
363,329,37569,2,0,P|395:263|346:208,1,155.999995239258,8|0,0:0|0:0,0:0:0:0:
238,299,38087,1,0,3:0:0:0:
119,221,38259,2,0,L|196:230,1,77.999997619629,10|0,0:0|0:0,0:0:0:0:
77,316,38604,2,0,L|0:325,1,77.999997619629,6|0,3:0|0:0,0:0:0:0:
168,383,38949,2,0,L|202:198,1,155.999995239258,8|0,0:0|0:0,0:0:0:0:
15,61,39466,1,0,3:0:0:0:
33,140,39638,1,8,0:0:0:0:
33,140,39725,2,0,L|43:201,1,38.9999988098145,0|0,3:0|0:0,0:0:0:0:
71,304,39983,5,6,3:0:0:0:
160,136,40156,1,0,3:0:0:0:
152,257,40328,5,8,0:0:0:0:
91,86,40501,1,2,3:0:0:0:
217,201,40673,5,4,3:0:0:0:
278,30,40846,1,0,3:0:0:0:
258,130,41018,5,10,0:0:0:0:
199,0,41190,1,0,3:0:0:0:
331,94,41363,6,0,L|368:82,3,38.9999988098145,4|0|2|0,3:0|3:0|3:0|3:0,0:0:0:0:
160,136,41707,2,0,L|123:124,3,38.9999988098145,0|0|0|0,3:0|3:0|3:0|3:0,0:0:0:0:
319,193,42052,2,0,L|356:181,3,38.9999988098145,6|0|0|0,3:0|3:0|3:0|3:0,0:0:0:0:
258,234,42397,2,0,L|221:222,3,38.9999988098145,2|0|0|0,3:0|3:0|3:0|3:0,0:0:0:0:
134,266,42742,6,0,P|112:313|113:340,1,65,2|0,3:0|0:0,0:0:0:0:
244,368,43087,2,0,P|238:336|221:308,1,65,8|0,0:0|3:0,0:0:0:0:
221,308,43345,1,0,3:0:0:0:
221,308,43431,1,0,3:0:0:0:
221,308,43518,1,0,3:0:0:0:
221,308,43604,1,8,0:0:0:0:
134,266,43776,2,0,L|148:218,1,32.5,0|0,3:0|3:0,0:0:0:0:
261,234,43949,2,0,L|251:202,1,32.5,0|0,3:0|3:0,0:0:0:0:
213,66,44121,5,8,0:0:0:0:
160,136,44294,1,8,0:0:0:0:
370,190,44466,5,2,0:0:0:0:
213,66,44811,1,2,0:0:0:0:
134,266,45156,1,2,0:0:0:0:
307,42,45500,6,0,L|185:72,1,97.50000371933,6|0,3:0|0:0,0:0:0:0:
83,24,45845,2,0,P|168:71|199:183,1,195.00000743866,8|0,0:0|0:0,0:0:0:0:
225,340,46363,1,0,3:0:0:0:
280,233,46535,1,10,0:0:0:0:
316,366,46707,1,2,0:0:0:0:
192,255,46880,1,2,3:0:0:0:
375,212,47052,1,2,0:0:0:0:
225,340,47225,2,0,L|129:319,1,97.50000371933,10|0,0:0|0:0,0:0:0:0:
280,233,47569,2,0,L|375:212,1,97.50000371933,2|0,0:0|3:0,0:0:0:0:
221,111,47914,2,0,L|189:267,1,146.250005578995,10|0,0:0|0:0,0:0:0:0:
191,254,48259,6,0,P|147:223|93:235,1,97.50000371933,2|0,3:0|0:0,0:0:0:0:
0,315,48604,2,0,P|58:275|49:160,1,195.00000743866,10|0,0:0|0:0,0:0:0:0:
165,84,49121,1,0,3:0:0:0:
0,49,49294,2,0,L|128:24,1,97.50000371933,8|0,0:0|0:0,0:0:0:0:
269,0,49638,2,0,L|250:95,1,97.50000371933,0|0,3:0|0:0,0:0:0:0:
426,219,49983,2,0,B|397:174|397:174|330:157,1,97.50000371933,10|0,0:0|0:0,0:0:0:0:
173,266,50328,2,0,B|216:255|216:255|244:210,1,97.50000371933,2|0,0:0|3:0,0:0:0:0:
194,24,50673,2,0,B|238:52|238:52|249:95,1,97.50000371933,10|0,0:0|0:0,0:0:0:0:
470,55,51018,6,0,L|375:32,1,97.50000371933,6|0,3:0|0:0,0:0:0:0:
329,168,51363,2,0,P|244:180|249:95,1,195.00000743866,8|0,0:0|0:0,0:0:0:0:
375,32,51880,1,0,3:0:0:0:
430,163,52052,1,10,0:0:0:0:
293,37,52225,1,2,0:0:0:0:
467,74,52397,1,2,3:0:0:0:
328,168,52569,1,2,0:0:0:0:
499,210,52742,2,0,L|508:323,1,97.50000371933,10|0,0:0|0:0,0:0:0:0:
307,345,53087,2,0,L|404:352,1,97.50000371933,2|0,0:0|3:0,0:0:0:0:
279,227,53431,2,0,L|122:248,1,146.250005578995,10|0,0:0|0:0,0:0:0:0:
134,246,53776,6,0,B|110:196|110:196|133:134,1,97.50000371933,2|0,3:0|0:0,0:0:0:0:
2,138,54121,2,0,P|38:69|172:56,1,195.00000743866,8|0,0:0|0:0,0:0:0:0:
296,145,54638,1,0,3:0:0:0:
345,40,54811,2,0,P|296:40|254:63,1,97.50000371933,8|0,0:0|0:0,0:0:0:0:
125,156,55156,2,0,P|167:178|215:179,1,97.50000371933,0|0,3:0|0:0,0:0:0:0:
296,145,55500,1,10,0:0:0:0:
481,154,55673,2,0,P|432:154|390:177,1,97.50000371933,0|2,3:0|0:0,0:0:0:0:
350,306,56018,1,0,3:0:0:0:
296,145,56190,1,10,0:0:0:0:
177,322,56535,6,0,B|136:316|136:316|131:308|131:308|84:300,1,97.50000371933,6|0,3:0|0:0,0:0:0:0:
0,194,56880,2,0,B|90:173|90:173|106:181|106:181|188:160,1,195.00000743866,8|0,0:0|0:0,0:0:0:0:
288,79,57397,1,0,3:0:0:0:
112,51,57569,1,10,0:0:0:0:
282,156,57742,1,2,0:0:0:0:
206,18,57914,1,2,3:0:0:0:
52,107,58087,1,2,0:0:0:0:
176,252,58259,2,0,P|191:180|167:140,1,97.50000371933,10|0,0:0|0:0,0:0:0:0:
359,136,58604,2,0,P|331:96|287:78,1,97.50000371933,2|0,0:0|3:0,0:0:0:0:
371,236,58949,2,0,P|415:218|450:115,1,146.250005578995,10|0,0:0|0:0,0:0:0:0:
453,132,59294,6,0,L|467:250,1,97.50000371933,2|0,3:0|0:0,0:0:0:0:
258,344,59638,2,0,L|288:146,1,195.00000743866,8|0,0:0|0:0,0:0:0:0:
368,235,60156,1,0,3:0:0:0:
453,132,60328,2,0,B|400:123|400:123|348:152,1,97.50000371933,10|0,0:0|0:0,0:0:0:0:
180,224,60673,2,0,B|218:245|218:245|271:236,1,97.50000371933,2|0,3:0|0:0,0:0:0:0:
390,360,61018,1,8,0:0:0:0:
376,283,61190,1,0,0:0:0:0:
376,283,61276,2,0,L|364:215,1,48.750001859665,0|2,3:0|0:0,0:0:0:0:
277,332,61535,1,2,3:0:0:0:
231,170,61707,1,10,0:0:0:0:
131,280,61880,1,2,0:0:0:0:
25,118,62052,6,0,L|144:147,1,97.50000371933,6|0,3:0|0:0,0:0:0:0:
131,280,62397,1,8,0:0:0:0:
232,225,62569,2,0,L|39:254,1,195.00000743866,2|0,3:0|0:0,0:0:0:0:
277,332,63087,1,10,0:0:0:0:
232,225,63431,2,0,L|350:205,1,97.50000371933,0|2,3:0|0:0,0:0:0:0:
350,62,63776,1,8,0:0:0:0:
439,118,63949,2,0,L|239:75,1,195.00000743866,0|0,3:0|0:0,0:0:0:0:
484,11,64466,1,10,0:0:0:0:
439,118,64811,6,0,P|483:160|502:161,1,77.999997619629,2|0,3:0|0:0,0:0:0:0:
391,5,65156,2,0,P|366:77|286:98,1,155.999995239258,8|0,0:0|0:0,0:0:0:0:
238,34,65673,1,0,3:0:0:0:
96,71,65845,2,0,L|173:85,1,77.999997619629,8|0,0:0|0:0,0:0:0:0:
244,249,66190,5,0,3:0:0:0:
209,169,66363,1,0,3:0:0:0:
161,244,66535,1,2,1:0:0:0:
161,244,66707,1,0,1:0:0:0:
289,183,66880,1,10,0:0:0:0:
197,312,67052,1,0,3:0:0:0:
129,160,67225,1,10,0:0:0:0:
250,254,67397,1,0,3:0:0:0:
348,122,67569,6,0,P|361:158|366:197,1,77.999997619629,6|0,3:0|0:0,0:0:0:0:
483,320,67914,2,0,L|375:298,1,77.999997619629,8|0,0:0|0:0,0:0:0:0:
391,314,68173,1,0,0:0:0:0:
378,311,68259,1,0,0:0:0:0:
365,308,68345,1,0,0:0:0:0:
353,305,68431,1,0,3:0:0:0:
168,356,68604,2,0,L|270:338,1,77.999997619629,8|0,0:0|0:0,0:0:0:0:
263,177,68949,6,0,L|249:253,1,77.999997619629,0|0,3:0|0:0,0:0:0:0:
213,78,69294,1,10,0:0:0:0:
135,153,69466,1,0,0:0:0:0:
135,153,69552,1,0,0:0:0:0:
135,153,69638,1,2,0:0:0:0:
222,62,69811,1,0,3:0:0:0:
263,177,69983,2,0,P|326:150|353:81,1,116.999996429443,10|0,0:0|0:0,0:0:0:0:
349,110,70328,6,0,P|375:86|437:104,1,77.999997619629,2|0,3:0|0:0,0:0:0:0:
222,62,70673,2,0,P|196:37|134:55,1,77.999997619629,8|0,0:0|0:0,0:0:0:0:
138,56,70931,1,0,0:0:0:0:
134,68,71017,1,0,0:0:0:0:
130,80,71103,1,0,0:0:0:0:
126,93,71189,1,0,3:0:0:0:
76,204,71363,2,0,L|-18:188,1,77.999997619629,8|0,0:0|0:0,0:0:0:0:
69,338,71707,6,0,L|145:324,1,77.999997619629,0|0,3:0|0:0,0:0:0:0:
258,375,72052,1,10,0:0:0:0:
211,269,72225,1,0,0:0:0:0:
211,269,72311,1,0,0:0:0:0:
211,269,72397,1,2,0:0:0:0:
313,208,72569,1,0,3:0:0:0:
386,384,72742,2,0,B|375:348|375:348|410:255,1,116.999996429443,10|0,0:0|0:0,0:0:0:0:
402,273,73087,6,0,P|409:231|390:188,1,77.999997619629,6|0,3:0|0:0,0:0:0:0:
463,113,73431,2,0,P|433:87|396:78,1,77.999997619629,8|0,0:0|0:0,0:0:0:0:
368,93,73690,1,0,0:0:0:0:
364,105,73776,1,0,0:0:0:0:
361,118,73862,1,0,0:0:0:0:
358,130,73948,1,0,3:0:0:0:
209,20,74121,2,0,L|225:152,1,116.999996429443,8|0,0:0|0:0,0:0:0:0:
223,136,74466,5,2,3:0:0:0:
274,227,74638,1,2,0:0:0:0:
364,105,74811,2,0,B|327:83|327:83|282:91,1,77.999997619629,10|0,0:0|0:0,0:0:0:0:
422,188,75156,2,0,B|456:194|456:194|493:172,1,77.999997619629,2|0,0:0|3:0,0:0:0:0:
329,194,75500,2,0,B|289:210|289:210|258:288,1,116.999996429443,10|0,0:0|0:0,0:0:0:0:
261,278,75845,6,0,P|218:239|183:238,1,77.999997619629,2|0,3:0|0:0,0:0:0:0:
73,293,76190,1,8,0:0:0:0:
125,197,76363,1,0,0:0:0:0:
125,197,76449,1,0,0:0:0:0:
125,197,76535,1,0,0:0:0:0:
152,346,76707,1,0,3:0:0:0:
123,185,76880,2,0,L|148:103,1,77.999997619629,8|0,0:0|0:0,0:0:0:0:
278,42,77225,6,0,L|206:56,1,65,0|0,3:0|0:0,0:0:0:0:
337,112,77569,2,0,L|273:124,1,65,10|0,0:0|0:0,0:0:0:0:
273,124,77828,1,0,0:0:0:0:
273,124,77914,1,0,0:0:0:0:
273,124,78000,1,0,0:0:0:0:
273,124,78087,1,2,3:0:0:0:
372,181,78259,1,8,0:0:0:0:
282,294,78604,6,0,P|263:329|266:369,1,77.999997619629,6|0,3:0|0:0,0:0:0:0:
416,279,78949,2,0,P|417:240|399:206,1,77.999997619629,8|0,0:0|0:0,0:0:0:0:
372,181,79207,1,0,0:0:0:0:
372,181,79294,1,0,0:0:0:0:
488,143,79466,1,0,3:0:0:0:
353,263,79638,1,10,0:0:0:0:
382,99,79811,1,2,0:0:0:0:
259,207,79983,6,0,P|211:166|204:125,1,77.999997619629,2|0,3:0|0:0,0:0:0:0:
329,152,80328,2,0,P|348:118|381:98,1,77.999997619629,10|0,0:0|0:0,0:0:0:0:
344,252,80673,2,0,P|362:286|361:324,1,77.999997619629,2|0,0:0|3:0,0:0:0:0:
268,353,81018,2,0,P|229:353|170:297,1,116.999996429443,10|0,0:0|0:0,0:0:0:0:
172,304,81363,6,0,L|156:197,1,77.999997619629,2|0,3:0|0:0,0:0:0:0:
78,76,81707,2,0,L|61:183,1,77.999997619629,8|0,0:0|0:0,0:0:0:0:
64,186,81966,1,0,0:0:0:0:
64,186,82052,1,0,0:0:0:0:
175,123,82225,1,0,3:0:0:0:
258,203,82397,2,0,B|303:199|303:199|355:171,1,77.999997619629,10|0,0:0|0:0,0:0:0:0:
261,49,82742,6,0,B|232:33|232:33|187:30,1,77.999997619629,2|0,3:0|0:0,0:0:0:0:
353,4,83087,1,8,0:0:0:0:
376,81,83259,1,0,0:0:0:0:
376,81,83345,2,0,L|389:136,1,38.9999988098145,0|0,3:0|0:0,0:0:0:0:
503,197,83604,1,0,3:0:0:0:
485,51,83776,2,0,L|470:141,1,77.999997619629,8|0,0:0|0:0,0:0:0:0:
367,254,84121,6,0,P|415:285|430:330,1,77.999997619629,6|0,3:0|0:0,0:0:0:0:
350,330,84466,1,8,0:0:0:0:
369,178,84638,2,0,P|442:204|501:288,1,155.999995239258,2|0,3:0|0:0,0:0:0:0:
268,254,85156,1,10,0:0:0:0:
142,131,85500,6,0,P|94:100|79:55,1,77.999997619629,0|2,3:0|0:0,0:0:0:0:
162,54,85845,1,8,0:0:0:0:
143,206,86018,2,0,P|70:180|11:96,1,155.999995239258,0|0,3:0|0:0,0:0:0:0:
244,130,86535,1,10,0:0:0:0:
15,249,86880,6,0,L|1:330,1,65,0|0,3:0|0:0,0:0:0:0:
103,192,87225,2,0,L|79:331,1,130,8|0,0:0|0:0,0:0:0:0:
178,162,87742,1,0,3:0:0:0:
46,105,87914,1,0,0:0:0:0:
178,162,88259,5,0,3:0:0:0:
271,118,88431,1,0,3:0:0:0:
189,84,88604,1,0,1:0:0:0:
189,84,88776,1,0,1:0:0:0:
256,191,88949,1,8,0:0:0:0:
254,41,89121,1,0,3:0:0:0:
117,117,89294,1,8,0:0:0:0:
329,170,89466,1,0,3:0:0:0:
170,258,89638,6,0,L|61:274,1,77.999997619629,4|0,3:0|0:0,0:0:0:0:
0,99,89983,2,0,L|77:110,1,77.999997619629,8|0,0:0|0:0,0:0:0:0:
117,117,90242,1,0,0:0:0:0:
117,117,90328,1,0,0:0:0:0:
170,258,90500,1,0,3:0:0:0:
37,190,90673,1,8,0:0:0:0:
318,350,91018,6,0,P|358:325|376:291,1,77.999997619629,0|0,3:0|0:0,0:0:0:0:
340,175,91363,1,8,0:0:0:0:
456,299,91535,1,0,0:0:0:0:
456,279,91621,1,0,0:0:0:0:
451,260,91707,1,0,0:0:0:0:
443,243,91793,1,0,0:0:0:0:
430,228,91879,1,0,3:0:0:0:
316,107,92052,1,8,0:0:0:0:
127,39,92397,6,0,L|113:138,1,77.999997619629,0|0,3:0|0:0,0:0:0:0:
199,315,92742,2,0,L|188:237,1,77.999997619629,8|0,0:0|0:0,0:0:0:0:
182,214,93000,1,0,0:0:0:0:
182,214,93087,1,0,0:0:0:0:
79,284,93259,1,0,3:0:0:0:
153,376,93431,1,8,0:0:0:0:
285,163,93776,6,0,P|338:194|356:219,1,77.999997619629,0|0,3:0|0:0,0:0:0:0:
418,80,94121,1,8,0:0:0:0:
497,129,94294,1,0,0:0:0:0:
484,143,94380,1,0,0:0:0:0:
469,156,94466,1,0,0:0:0:0:
452,165,94552,1,0,0:0:0:0:
433,172,94638,1,0,3:0:0:0:
512,269,94811,1,8,0:0:0:0:
217,353,95156,6,0,L|133:341,1,77.999997619629,4|0,3:0|0:0,0:0:0:0:
0,216,95500,2,0,L|77:227,1,77.999997619629,8|0,0:0|0:0,0:0:0:0:
102,232,95759,1,0,0:0:0:0:
102,232,95845,1,0,0:0:0:0:
201,130,96018,1,0,3:0:0:0:
205,283,96190,1,8,0:0:0:0:
316,55,96535,6,0,P|343:85|353:135,1,77.999997619629,0|0,3:0|0:0,0:0:0:0:
286,207,96880,1,8,0:0:0:0:
426,313,97052,1,0,0:0:0:0:
413,298,97138,1,0,0:0:0:0:
398,287,97224,1,0,0:0:0:0:
380,279,97310,1,0,0:0:0:0:
361,276,97396,1,0,3:0:0:0:
355,376,97569,1,8,0:0:0:0:
174,268,97914,6,0,L|205:170,1,77.999997619629,0|0,3:0|0:0,0:0:0:0:
62,357,98259,2,0,L|38:282,1,77.999997619629,8|0,0:0|0:0,0:0:0:0:
30,253,98518,1,0,0:0:0:0:
30,253,98604,1,0,0:0:0:0:
123,186,98776,1,0,3:0:0:0:
0,115,98949,1,8,0:0:0:0:
307,47,99294,6,0,P|331:81|341:121,1,65,0|0,3:0|0:0,0:0:0:0:
453,0,99638,2,0,P|429:34|419:74,1,65,8|0,0:0|0:0,0:0:0:0:
421,55,99897,1,0,0:0:0:0:
421,55,99983,1,0,0:0:0:0:
421,55,100069,1,0,0:0:0:0:
421,55,100156,1,0,3:0:0:0:
474,160,100328,1,8,0:0:0:0:
196,275,100673,6,0,L|101:261,1,77.999997619629,4|0,3:0|0:0,0:0:0:0:
101,136,101018,1,8,0:0:0:0:
225,191,101190,1,0,0:0:0:0:
225,191,101276,1,0,0:0:0:0:
225,191,101363,1,0,0:0:0:0:
55,208,101535,1,0,3:0:0:0:
178,114,101707,1,10,0:0:0:0:
196,275,101880,1,2,0:0:0:0:
242,164,102052,6,0,P|278:201|293:244,1,77.999997619629,2|0,3:0|0:0,0:0:0:0:
178,114,102397,2,0,P|196:79|224:53,1,77.999997619629,10|0,0:0|0:0,0:0:0:0:
163,200,102742,2,0,P|129:219|90:225,1,77.999997619629,2|0,0:0|3:0,0:0:0:0:
209,293,103087,2,0,P|247:299|324:346,1,116.999996429443,10|0,0:0|0:0,0:0:0:0:
314,337,103431,6,0,B|362:332|362:332|413:363,1,77.999997619629,2|0,3:0|0:0,0:0:0:0:
500,229,103776,2,0,B|452:223|452:223|401:254,1,77.999997619629,8|0,0:0|0:0,0:0:0:0:
413,256,104035,1,0,0:0:0:0:
413,256,104121,1,0,0:0:0:0:
423,143,104294,1,0,3:0:0:0:
343,76,104466,2,0,P|360:23|409:7,1,77.999997619629,8|0,0:0|0:0,0:0:0:0:
276,151,104811,6,0,P|248:124|242:86,1,77.999997619629,0|0,3:0|0:0,0:0:0:0:
133,7,105156,1,8,0:0:0:0:
148,86,105328,1,0,0:0:0:0:
148,86,105414,2,0,L|158:145,1,38.9999988098145,0|2,3:0|0:0,0:0:0:0:
276,151,105673,1,0,3:0:0:0:
186,249,105845,2,0,B|136:217|136:217|60:225,1,116.999996429443,10|0,0:0|0:0,0:0:0:0:
78,223,106190,6,0,L|62:132,1,77.999997619629,2|0,3:0|0:0,0:0:0:0:
147,87,106535,1,8,0:0:0:0:
233,22,106707,2,0,L|264:190,1,155.999995239258,0|0,3:0|0:0,0:0:0:0:
186,249,107225,1,8,0:0:0:0:
444,224,107569,2,0,L|460:132,1,77.999997619629,0|0,3:0|0:0,0:0:0:0:
375,87,107914,1,8,0:0:0:0:
289,22,108086,2,0,L|258:190,1,155.999995239258,0|0,3:0|0:0,0:0:0:0:
336,249,108604,1,8,0:0:0:0:
409,322,108949,6,0,P|448:310|487:313,1,65,0|0,3:0|0:0,0:0:0:0:
336,249,109294,2,0,P|366:239|399:237,1,65,0|0,3:0|0:0,0:0:0:0:
512,80,109638,2,0,P|481:70|448:68,1,65,0|0,3:0|0:0,0:0:0:0:
438,152,109983,2,0,P|407:142|374:140,1,65,0|0,3:0|0:0,0:0:0:0:
230,191,110328,5,0,3:0:0:0:
267,305,110500,1,0,3:0:0:0:
303,166,110673,1,0,3:0:0:0:
340,280,110845,1,0,3:0:0:0:
374,140,111018,2,0,L|385:87,3,32.5,0|0|0|0,3:0|3:0|3:0|3:0,0:0:0:0:
304,80,111363,2,0,L|297:48,3,32.5,0|0|0|0,3:0|3:0|3:0|3:0,0:0:0:0:
237,124,111707,6,0,P|123:162|67:57,1,260,2|0,0:0|0:0,0:0:0:0:
160,88,113431,1,2,0:0:0:0:
160,88,113776,1,2,0:0:0:0:
160,88,114121,1,2,0:0:0:0:
512,174,114466,6,0,P|398:135|342:240,1,260,2|0,0:0|0:0,0:0:0:0:
435,210,116190,1,2,0:0:0:0:
435,210,116535,1,2,0:0:0:0:
435,210,116880,1,2,0:0:0:0:
215,337,117225,6,0,B|193:216|193:216|181:208|181:208|157:75,1,260,2|0,0:0|0:0,0:0:0:0:
104,218,118863,1,0,0:0:0:0:
104,218,118949,1,2,0:0:0:0:
104,218,119294,1,2,0:0:0:0:
104,218,119638,1,2,0:0:0:0:
386,0,119983,6,0,B|364:120|364:120|352:128|352:128|328:262,1,260,2|0,0:0|0:0,0:0:0:0:
434,225,121707,1,2,0:0:0:0:
273,128,122225,1,2,0:0:0:0:
273,128,122397,1,0,0:0:0:0:
224,309,122742,6,0,B|121:341|141:261|36:283,1,195,10|0,0:0|0:0,0:0:0:0:
177,234,123949,1,2,0:0:0:0:
109,185,124121,2,0,P|147:157|174:154,1,65,2|2,0:0|0:0,0:0:0:0:
53,116,124811,2,0,P|23:106|0:84,1,65,2|10,0:0|0:0,0:0:0:0:
260,4,125500,6,0,B|222:56|222:56|244:120,1,130,2|0,0:0|0:0,0:0:0:0:
350,75,126535,1,2,0:0:0:0:
434,156,126880,2,0,B|472:208|472:208|450:272,1,130,2|0,0:0|0:0,0:0:0:0:
265,339,128259,6,0,L|339:353,1,65,10|0,0:0|0:0,0:0:0:0:
234,259,128776,2,0,L|308:273,1,65,10|0,0:0|0:0,0:0:0:0:
210,178,129294,2,0,L|284:192,1,65,10|0,0:0|0:0,0:0:0:0:
191,95,129811,2,0,L|265:109,1,65,10|0,0:0|0:0,0:0:0:0:
254,107,130328,1,10,0:0:0:0:
254,107,130673,1,10,0:0:0:0:
235,24,131018,1,10,0:0:0:0:
256,192,131104,12,0,132656,0:0:0:0:
415,48,132742,6,0,P|456:49|489:64,2,65,2|2|2,0:0|0:0|0:0,0:0:0:0:
295,104,133776,6,0,L|275:243,1,130,2|0,3:0|0:0,0:0:0:0:
221,35,134294,2,0,L|202:163,1,130,0|0,3:0|0:0,0:0:0:0:
137,222,134811,2,0,P|120:187|120:153,1,65,0|0,3:0|0:0,0:0:0:0:
198,273,135156,2,0,P|195:305|180:334,1,65,0|0,3:0|0:0,0:0:0:0:
284,256,135500,2,0,L|409:289,2,130,2|10|2,0:0|0:0|0:0,0:0:0:0:
99,297,136535,6,0,P|32:275|46:232,1,130,2|0,3:0|0:0,0:0:0:0:
190,157,137052,2,0,P|194:215|135:221,1,130,0|0,3:0|0:0,0:0:0:0:
82,137,137569,2,0,L|100:71,1,65,0|0,3:0|0:0,0:0:0:0:
190,70,137914,2,0,L|208:4,1,65,0|0,3:0|0:0,0:0:0:0:
291,62,138259,2,0,L|318:209,2,130,2|2|10,0:0|0:0|0:0,0:0:0:0:
512,74,139294,6,0,B|476:57|476:57|385:106,1,130,2|0,3:0|0:0,0:0:0:0:
314,189,139811,2,0,B|350:172|350:172|429:214,1,130,0|0,3:0|0:0,0:0:0:0:
373,334,140328,1,2,3:0:0:0:
439,288,140500,1,2,0:0:0:0:
362,259,140673,1,2,3:0:0:0:
362,259,140845,1,2,0:0:0:0:
429,214,141018,1,2,0:0:0:0:
314,189,141363,6,0,P|274:237|281:305,2,130,2|10|2,0:0|0:0|3:0,0:0:0:0:
204,310,142569,2,0,L|58:286,1,130,0|0,3:0|0:0,0:0:0:0:
0,209,143087,2,0,L|95:195,1,65,0|0,3:0|0:0,0:0:0:0:
220,227,143431,2,0,L|155:217,1,65,0|0,3:0|0:0,0:0:0:0:
118,138,143776,1,2,0:0:0:0:
155,217,144294,1,2,0:0:0:0:
181,78,144811,6,0,P|143:53|103:46,1,77.999997619629,2|0,3:0|0:0,0:0:0:0:
227,152,145156,2,0,P|264:142|364:52,1,155.999995239258,8|0,0:0|0:0,0:0:0:0:
512,145,145673,1,0,3:0:0:0:
415,27,145845,1,10,0:0:0:0:
375,171,146018,1,2,0:0:0:0:
508,54,146190,1,2,3:0:0:0:
479,249,146363,1,2,0:0:0:0:
303,140,146535,2,0,P|300:184|320:230,1,77.999997619629,10|0,0:0|0:0,0:0:0:0:
419,349,146880,2,0,P|384:321|334:312,1,77.999997619629,2|0,0:0|3:0,0:0:0:0:
181,358,147225,2,0,P|214:350|284:273,1,116.999996429443,10|0,0:0|0:0,0:0:0:0:
274,295,147569,6,0,L|257:391,1,77.999997619629,2|0,3:0|0:0,0:0:0:0:
131,300,147914,2,0,L|108:122,1,155.999995239258,8|0,0:0|0:0,0:0:0:0:
42,86,148431,1,0,3:0:0:0:
207,57,148604,2,0,L|196:145,1,77.999997619629,10|0,0:0|0:0,0:0:0:0:
297,0,148949,2,0,L|306:77,1,77.999997619629,2|0,3:0|0:0,0:0:0:0:
511,181,149294,2,0,B|448:130|448:130|365:147,1,155.999995239258,8|0,0:0|0:0,0:0:0:0:
230,245,149811,1,0,3:0:0:0:
308,259,149983,1,8,0:0:0:0:
308,259,150069,2,0,L|377:267,1,38.9999988098145,0|0,3:0|0:0,0:0:0:0:
424,320,150328,6,0,L|439:373,5,38.9999988098145,2|0|0|0|0|0,0:0|0:0|0:0|0:0|0:0|0:0,0:0:0:0:
363,183,150845,2,0,L|378:130,5,38.9999988098145,2|0|0|0|0|0,0:0|0:0|0:0|0:0|0:0|0:0,0:0:0:0:
293,279,151363,2,0,L|308:332,5,38.9999988098145,2|0|0|0|0|0,0:0|0:0|0:0|0:0|0:0|0:0,0:0:0:0:
240,184,151880,2,0,L|255:131,5,38.9999988098145,2|0|0|0|0|0,0:0|0:0|0:0|0:0|0:0|0:0,0:0:0:0:
166,240,152397,2,0,L|176:277,3,38.9999988098145,2|0|0|0,0:0|0:0|0:0|0:0,0:0:0:0:
108,197,152742,2,0,L|118:159,3,38.9999988098145,2|0|0|0,0:0|0:0|0:0|0:0,0:0:0:0:
184,111,153087,6,0,P|151:84|111:78,1,65,0|0,3:0|0:0,0:0:0:0:
0,141,153431,2,0,P|29:131|52:109,1,65,8|0,0:0|3:0,0:0:0:0:
52,109,153690,1,0,3:0:0:0:
52,109,153776,1,0,3:0:0:0:
52,109,153863,1,0,3:0:0:0:
52,109,153949,1,8,0:0:0:0:
139,191,154121,2,0,L|108:201,1,32.5,0|0,3:0|3:0,0:0:0:0:
15,277,154294,2,0,L|46:286,1,32.5,0|0,3:0|0:0,0:0:0:0:
215,330,154466,5,8,0:0:0:0:
136,370,154638,1,8,0:0:0:0:
33,201,154811,5,2,0:0:0:0:
230,234,155156,1,2,0:0:0:0:
51,361,155500,1,2,0:0:0:0:
297,289,155845,6,0,P|313:212|253:144,1,155.999995239258,6|0,3:0|0:0,0:0:0:0:
116,131,156363,1,0,3:0:0:0:
116,131,156535,2,0,L|285:154,1,155.999995239258,8|2,0:0|3:0,0:0:0:0:
368,95,157052,1,2,0:0:0:0:
232,63,157225,1,2,0:0:0:0:
232,63,157397,1,2,3:0:0:0:
241,235,157569,2,0,L|99:215,1,116.999996429443,2|0,3:0|0:0,0:0:0:0:
125,218,157914,2,0,L|144:306,1,77.999997619629,10|0,0:0|0:0,0:0:0:0:
219,306,158259,2,0,L|238:394,1,77.999997619629,2|0,0:0|0:0,0:0:0:0:
343,221,158604,6,0,L|313:374,1,155.999995239258,2|0,3:0|0:0,0:0:0:0:
312,374,159121,1,0,0:0:0:0:
474,342,159294,2,0,P|432:294|409:283,1,77.999997619629,8|0,0:0|0:0,0:0:0:0:
420,124,159638,2,0,P|350:147|343:221,1,155.999995239258,0|0,3:0|0:0,0:0:0:0:
309,65,160156,1,0,3:0:0:0:
249,177,160328,2,0,L|225:88,1,77.999997619629,2|0,0:0|0:0,0:0:0:0:
182,257,160673,2,0,L|158:168,1,77.999997619629,10|0,0:0|0:0,0:0:0:0:
117,368,161018,2,0,L|82:219,1,116.999996429443,2|0,3:0|0:0,0:0:0:0:
90,254,161363,6,0,B|184:235|140:300|261:271,1,155.999995239258,6|0,3:0|0:0,0:0:0:0:
77,110,161880,1,0,3:0:0:0:
77,110,162052,2,0,B|110:159|110:159|87:264,2,155.999995239258,8|0|0,0:0|3:0|0:0,0:0:0:0:
174,121,162914,1,0,3:0:0:0:
251,210,163087,2,0,P|228:239|182:259,1,77.999997619629,2|0,3:0|0:0,0:0:0:0:
329,184,163431,2,0,P|367:205|392:235,1,77.999997619629,10|0,0:0|0:0,0:0:0:0:
274,139,163776,2,0,P|264:101|214:23,1,116.999996429443,2|0,0:0|0:0,0:0:0:0:
224,34,164121,6,0,B|289:41|289:41|314:68|314:68|395:75,1,155.999995239258,2|0,3:0|0:0,0:0:0:0:
367,72,164638,1,0,0:0:0:0:
512,142,164811,2,0,P|477:120|437:114,1,77.999997619629,8|0,0:0|0:0,0:0:0:0:
373,339,165156,2,0,P|413:283|419:246,1,77.999997619629,0|0,3:0|0:0,0:0:0:0:
495,260,165500,2,0,P|479:224|452:196,1,77.999997619629,2|0,3:0|0:0,0:0:0:0:
264,317,165845,2,0,P|299:301|327:274,1,77.999997619629,0|0,3:0|0:0,0:0:0:0:
376,158,166190,2,0,L|281:143,1,77.999997619629,10|0,0:0|0:0,0:0:0:0:
65,216,166535,2,0,L|202:198,1,116.999996429443,2|0,3:0|0:0,0:0:0:0:
181,200,166880,6,0,P|199:253|107:306,1,155.999995239258,6|0,3:0|0:0,0:0:0:0:
275,347,167397,1,0,3:0:0:0:
275,347,167569,2,0,B|202:304|202:304|114:313,1,155.999995239258,8|2,0:0|3:0,0:0:0:0:
42,284,168087,1,2,0:0:0:0:
181,201,168259,1,2,0:0:0:0:
181,201,168431,1,2,3:0:0:0:
275,347,168604,2,0,L|292:258,1,77.999997619629,2|0,3:0|0:0,0:0:0:0:
451,384,168949,2,0,L|436:307,1,77.999997619629,10|0,0:0|0:0,0:0:0:0:
352,216,169294,2,0,L|377:101,1,116.999996429443,2|0,0:0|0:0,0:0:0:0:
377,101,169638,6,0,B|295:78|313:147|229:133,1,155.999995239258,2|0,3:0|0:0,0:0:0:0:
231,133,170156,1,0,0:0:0:0:
152,61,170328,2,0,P|192:40|239:33,1,77.999997619629,8|0,2:0|2:0,0:0:0:0:
63,44,170673,2,0,P|65:111|142:153,1,155.999995239258,0|0,3:0|0:0,0:0:0:0:
123,322,171190,2,0,P|121:255|44:213,1,155.999995239258,0|0,3:0|0:0,0:0:0:0:
135,153,171707,1,10,0:0:0:0:
56,290,171880,1,2,0:0:0:0:
215,202,172052,1,2,3:0:0:0:
215,202,172225,1,2,0:0:0:0:
257,334,172397,6,0,L|412:350,1,155.999995239258,6|0,3:0|0:0,0:0:0:0:
215,202,172914,1,0,3:0:0:0:
215,202,173087,2,0,P|266:258|253:339,1,155.999995239258,8|0,0:0|3:0,0:0:0:0:
256,333,173604,1,0,0:0:0:0:
350,259,173776,1,0,0:0:0:0:
266,97,173949,1,2,3:0:0:0:
266,97,174121,2,0,L|288:185,1,77.999997619629,0|0,3:0|0:0,0:0:0:0:
377,78,174466,2,0,L|399:-10,1,77.999997619629,10|0,0:0|0:0,0:0:0:0:
185,88,174811,2,0,L|217:213,1,116.999996429443,2|0,0:0|0:0,0:0:0:0:
214,201,175156,6,0,L|126:188,1,77.999997619629,0|0,3:0|0:0,0:0:0:0:
347,227,175500,2,0,L|527:207,1,155.999995239258,8|0,0:0|0:0,0:0:0:0:
324,357,176018,1,0,3:0:0:0:
229,354,176190,2,0,P|239:317|262:286,1,77.999997619629,8|0,0:0|0:0,0:0:0:0:
403,171,176535,5,0,3:0:0:0:
347,227,176707,1,0,3:0:0:0:
326,148,176880,1,2,1:0:0:0:
326,148,177052,1,0,1:0:0:0:
424,246,177225,1,10,0:0:0:0:
273,202,177397,1,0,3:0:0:0:
386,101,177569,1,10,0:0:0:0:
347,227,177742,1,0,3:0:0:0:
176,87,177914,6,0,L|273:73,1,77.999997619629,6|0,3:0|0:0,0:0:0:0:
63,2,178259,2,0,L|74:79,1,77.999997619629,8|0,0:0|0:0,0:0:0:0:
87,96,178518,1,0,0:0:0:0:
86,109,178604,1,0,0:0:0:0:
84,122,178690,1,0,0:0:0:0:
82,135,178776,1,0,3:0:0:0:
159,255,178949,2,0,P|121:229|76:218,1,77.999997619629,8|0,0:0|0:0,0:0:0:0:
7,355,179294,6,0,P|45:329|90:318,1,77.999997619629,0|0,3:0|0:0,0:0:0:0:
238,331,179638,1,10,0:0:0:0:
159,255,179811,1,0,0:0:0:0:
159,255,179897,1,0,0:0:0:0:
159,255,179983,1,2,0:0:0:0:
146,375,180156,1,0,3:0:0:0:
242,251,180328,2,0,P|306:260|354:299,1,116.999996429443,8|0,0:0|0:0,0:0:0:0:
347,290,180673,6,0,B|371:263|371:263|418:253,1,77.999997619629,2|0,3:0|0:0,0:0:0:0:
512,177,181018,2,0,B|487:150|487:150|440:140,1,77.999997619629,8|0,0:0|0:0,0:0:0:0:
432,155,181276,1,0,0:0:0:0:
419,152,181362,1,0,0:0:0:0:
406,149,181448,1,0,0:0:0:0:
393,147,181534,1,0,3:0:0:0:
272,17,181707,2,0,P|301:42|312:85,1,77.999997619629,8|0,0:0|0:0,0:0:0:0:
265,268,182052,6,0,P|276:231|305:206,1,77.999997619629,0|0,3:0|0:0,0:0:0:0:
446,141,182397,1,10,0:0:0:0:
435,216,182569,1,0,0:0:0:0:
435,216,182656,2,0,L|423:281,1,38.9999988098145,0|2,3:0|0:0,0:0:0:0:
305,206,182914,1,0,3:0:0:0:
280,351,183087,2,0,L|410:332,1,116.999996429443,10|0,0:0|0:0,0:0:0:0:
395,334,183431,6,0,L|310:317,1,77.999997619629,6|0,3:0|0:0,0:0:0:0:
192,365,183776,1,8,0:0:0:0:
172,214,183949,1,0,0:0:0:0:
172,214,184035,1,0,0:0:0:0:
172,214,184121,1,0,0:0:0:0:
286,245,184294,1,0,3:0:0:0:
120,375,184466,2,0,P|136:317|162:295,1,77.999997619629,8|0,0:0|0:0,0:0:0:0:
244,176,184811,5,2,3:0:0:0:
103,243,184983,1,2,0:0:0:0:
73,116,185156,2,0,B|33:111|33:111|-7:136,1,77.999997619629,10|0,0:0|0:0,0:0:0:0:
158,43,185500,2,0,B|197:38|197:38|238:63,1,77.999997619629,2|0,0:0|3:0,0:0:0:0:
328,140,185845,2,0,P|393:123|365:80,1,116.999996429443,10|0,0:0|0:0,0:0:0:0:
384,91,186190,6,0,L|392:199,1,77.999997619629,2|0,3:0|0:0,0:0:0:0:
455,320,186535,1,8,0:0:0:0:
316,280,186707,1,0,0:0:0:0:
316,280,186794,1,0,0:0:0:0:
316,280,186880,1,0,0:0:0:0:
486,220,187052,1,0,3:0:0:0:
298,284,187225,2,0,P|245:266|222:240,1,77.999997619629,8|0,0:0|0:0,0:0:0:0:
159,116,187569,6,0,P|179:139|187:184,1,65,0|0,3:0|0:0,0:0:0:0:
111,292,187914,2,0,P|123:264|160:237,1,65,10|0,0:0|0:0,0:0:0:0:
149,242,188173,1,0,0:0:0:0:
149,242,188259,1,0,0:0:0:0:
143,362,188431,1,2,3:0:0:0:
67,203,188604,1,8,0:0:0:0:
159,113,188949,6,0,L|64:98,1,77.999997619629,6|0,3:0|0:0,0:0:0:0:
337,174,189294,2,0,L|260:187,1,77.999997619629,8|0,0:0|0:0,0:0:0:0:
237,193,189552,1,0,0:0:0:0:
237,193,189638,1,0,0:0:0:0:
111,292,189811,1,0,3:0:0:0:
158,115,189983,1,10,0:0:0:0:
196,256,190156,1,2,0:0:0:0:
337,174,190328,6,0,P|373:187|399:215,1,77.999997619629,2|0,3:0|0:0,0:0:0:0:
264,99,190673,2,0,P|250:62|222:36,1,77.999997619629,10|0,0:0|0:0,0:0:0:0:
237,193,191018,2,0,P|208:219|195:255,1,77.999997619629,2|0,0:0|3:0,0:0:0:0:
342,352,191363,2,0,P|326:302|266:264,1,116.999996429443,10|0,0:0|0:0,0:0:0:0:
274,265,191707,6,0,B|314:250|314:250|367:254,1,77.999997619629,2|0,3:0|0:0,0:0:0:0:
234,368,192052,2,0,B|198:370|198:370|158:355,1,77.999997619629,8|0,0:0|0:0,0:0:0:0:
133,343,192311,1,0,0:0:0:0:
133,343,192397,1,0,0:0:0:0:
156,190,192569,1,0,3:0:0:0:
39,257,192742,2,0,L|25:180,1,77.999997619629,10|0,0:0|0:0,0:0:0:0:
124,92,193087,6,0,L|47:78,1,77.999997619629,2|0,3:0|0:0,0:0:0:0:
207,118,193431,1,8,0:0:0:0:
285,99,193604,1,0,0:0:0:0:
285,99,193690,2,0,L|341:82,1,38.9999988098145,0|0,3:0|0:0,0:0:0:0:
468,117,193949,1,0,3:0:0:0:
373,257,194121,2,0,P|355:208|392:137,1,116.999996429443,8|0,0:0|0:0,0:0:0:0:
377,149,194466,6,0,L|301:178,1,65,6|0,3:0|0:0,0:0:0:0:
307,50,194811,1,8,0:0:0:0:
382,68,194983,2,0,L|244:115,1,130,2|0,3:0|0:0,0:0:0:0:
468,117,195500,1,10,0:0:0:0:
173,287,195845,2,0,L|249:315,1,65,0|2,3:0|0:0,0:0:0:0:
243,187,196190,1,8,0:0:0:0:
168,205,196362,2,0,L|306:252,1,130,0|0,3:0|0:0,0:0:0:0:
82,254,196879,1,10,0:0:0:0:
38,131,197225,6,0,P|76:162|95:193,1,65,0|0,3:0|0:0,0:0:0:0:
84,63,197569,2,0,P|122:94|141:125,1,65,0|0,3:0|0:0,0:0:0:0:
185,258,197914,1,0,3:0:0:0:
160,180,198087,1,0,3:0:0:0:
111,248,198259,1,0,1:0:0:0:
111,248,198431,1,0,1:0:0:0:
232,198,198604,5,0,1:0:0:0:
85,174,198776,1,0,1:0:0:0:
85,174,198863,1,0,1:0:0:0:
85,174,198949,1,0,1:0:0:0:
132,319,199121,1,0,1:0:0:0:
212,129,199294,1,8,0:0:0:0:
111,248,199466,1,0,3:0:0:0:
260,273,199638,1,8,0:0:0:0:
131,106,199811,1,0,3:0:0:0:
310,46,199983,6,0,L|400:32,1,77.999997619629,4|0,3:0|0:0,0:0:0:0:
512,160,200328,2,0,L|434:148,1,77.999997619629,8|0,0:0|0:0,0:0:0:0:
413,147,200587,1,0,0:0:0:0:
413,147,200673,1,0,0:0:0:0:
310,46,200845,1,0,3:0:0:0:
466,16,201018,1,8,0:0:0:0:
163,173,201363,6,0,P|132:123|134:84,1,77.999997619629,0|0,3:0|0:0,0:0:0:0:
206,25,201707,1,8,0:0:0:0:
72,37,201880,1,0,0:0:0:0:
58,50,201966,1,0,0:0:0:0:
47,67,202052,1,0,0:0:0:0:
41,85,202138,1,0,0:0:0:0:
39,104,202224,1,0,3:0:0:0:
163,173,202397,1,8,0:0:0:0:
329,358,202742,6,0,L|309:259,1,77.999997619629,0|0,3:0|0:0,0:0:0:0:
433,261,203087,2,0,L|448:184,1,77.999997619629,8|0,0:0|0:0,0:0:0:0:
456,165,203345,1,0,0:0:0:0:
456,165,203431,1,0,0:0:0:0:
313,281,203604,1,0,3:0:0:0:
452,344,203776,1,8,0:0:0:0:
121,227,204121,6,0,P|184:248|204:281,1,77.999997619629,0|0,3:0|0:0,0:0:0:0:
26,259,204466,1,8,0:0:0:0:
71,335,204638,1,0,0:0:0:0:
71,335,204725,2,0,L|60:390,1,38.9999988098145,0|0,3:0|0:0,0:0:0:0:
121,227,204983,1,0,3:0:0:0:
172,362,205156,1,8,0:0:0:0:
378,138,205500,6,0,L|291:116,1,77.999997619629,4|0,3:0|0:0,0:0:0:0:
390,259,205845,2,0,L|466:240,1,77.999997619629,8|0,0:0|0:0,0:0:0:0:
497,236,206104,1,0,0:0:0:0:
497,236,206190,1,0,0:0:0:0:
451,104,206363,1,0,3:0:0:0:
303,202,206535,1,8,0:0:0:0:
42,48,206880,6,0,P|85:88|99:127,1,77.999997619629,0|0,3:0|0:0,0:0:0:0:
144,260,207225,1,8,0:0:0:0:
113,178,207398,1,0,0:0:0:0:
97,187,207484,1,0,0:0:0:0:
82,201,207570,1,0,0:0:0:0:
71,216,207656,1,0,0:0:0:0:
61,234,207742,1,0,3:0:0:0:
22,341,207914,1,8,0:0:0:0:
300,161,208259,6,0,L|315:246,1,77.999997619629,0|0,3:0|0:0,0:0:0:0:
416,363,208604,2,0,L|431:278,1,77.999997619629,8|0,0:0|0:0,0:0:0:0:
437,262,208863,1,0,0:0:0:0:
437,262,208949,1,0,0:0:0:0:
408,106,209121,1,0,3:0:0:0:
300,161,209294,1,8,0:0:0:0:
153,39,209638,6,0,P|111:22|76:29,1,65,0|0,3:0|0:0,0:0:0:0:
33,133,209983,2,0,P|65:132|93:117,1,65,8|0,0:0|0:0,0:0:0:0:
93,117,210242,1,0,0:0:0:0:
93,117,210328,1,0,0:0:0:0:
93,117,210414,1,0,0:0:0:0:
93,117,210500,1,0,3:0:0:0:
153,39,210673,1,8,0:0:0:0:
312,101,211018,6,0,L|410:79,1,77.999997619629,6|0,3:0|0:0,0:0:0:0:
254,161,211363,1,8,0:0:0:0:
377,228,211535,1,0,0:0:0:0:
377,228,211622,1,0,0:0:0:0:
377,228,211708,1,0,0:0:0:0:
312,101,211880,1,0,3:0:0:0:
233,241,212052,1,10,0:0:0:0:
410,151,212225,1,2,0:0:0:0:
229,90,212397,6,0,P|231:129|254:161,1,77.999997619629,2|0,3:0|0:0,0:0:0:0:
180,6,212742,2,0,P|146:25|131:60,1,77.999997619629,10|0,0:0|0:0,0:0:0:0:
29,54,213087,2,0,P|28:92|47:126,1,77.999997619629,2|0,0:0|3:0,0:0:0:0:
152,186,213431,2,0,P|175:218|168:313,1,116.999996429443,10|0,0:0|0:0,0:0:0:0:
177,293,213776,6,0,L|75:279,1,77.999997619629,2|0,3:0|0:0,0:0:0:0:
268,357,214121,2,0,L|345:346,1,77.999997619629,8|0,0:0|0:0,0:0:0:0:
375,344,214380,1,0,0:0:0:0:
375,344,214466,1,0,0:0:0:0:
272,258,214638,1,0,3:0:0:0:
362,230,214811,2,0,P|337:189|269:162,1,116.999996429443,8|0,0:0|0:0,0:0:0:0:
275,162,215156,6,0,P|324:148|348:109,1,77.999997619629,0|0,3:0|0:0,0:0:0:0:
313,19,215500,1,8,0:0:0:0:
228,57,215673,1,0,0:0:0:0:
228,57,215759,2,0,L|173:45,1,38.9999988098145,0|2,3:0|0:0,0:0:0:0:
60,49,216018,1,0,3:0:0:0:
128,121,216190,2,0,P|151:167|133:261,1,116.999996429443,10|0,0:0|0:0,0:0:0:0:
148,231,216535,6,0,L|228:216,1,65,4|0,3:0|0:0,0:0:0:0:
188,337,216880,2,0,L|54:313,1,130,8|0,0:0|0:0,0:0:0:0:
152,235,217397,1,0,3:0:0:0:
152,235,217569,1,8,0:0:0:0:
395,353,217914,2,0,L|474:368,1,65,0|0,3:0|0:0,0:0:0:0:
434,247,218259,2,0,L|300:270,1,130,8|0,0:0|0:0,0:0:0:0:
398,349,218776,1,0,3:0:0:0:
398,349,218948,1,8,0:0:0:0:
152,235,219294,5,4,0:0:0:0:
256,192,219380,12,0,222052,0:0:0:0:
