osu file format v14

[General]
AudioFilename: audio.mp3
AudioLeadIn: 0
PreviewTime: 297791
Countdown: 0
SampleSet: Drum
StackLeniency: 0.5
Mode: 0
LetterboxInBreaks: 0
WidescreenStoryboard: 0

[Editor]
Bookmarks: 62,27562,49631,60665,82734,104803,121355,126872,137907,148941,159976,171010,204113,209631,215148,226182,248251,253769,275838,286872,297907,319976,331010,342044
DistanceSpacing: 1.7
BeatDivisor: 3
GridSize: 32
TimelineZoom: 2.100006

[Metadata]
Title:Prometheus
TitleUnicode:Prometheus
Artist:Rameses B
ArtistUnicode:Rameses B
Creator:lexa on osu
Version:Insane
Source:
Tags:marathon monstercat uncaged monster cat hybrid psy psytrance techstep dnb drum and n bass neurofunk psychadelic edm electronic dance english instrumental
BeatmapID:3319002
BeatmapSetID:1625642

[Difficulty]
HPDrainRate:5
CircleSize:4
OverallDifficulty:8
ApproachRate:8.8
SliderMultiplier:1.4
SliderTickRate:1

[Events]
//Background and Video events
0,0,"prometheus.jpg",0,0
//Break Periods
2,49831,55553
2,171699,203484
2,209830,214519
2,248451,252335
//Storyboard Layer 0 (Background)
//Storyboard Layer 1 (Fail)
//Storyboard Layer 2 (Pass)
//Storyboard Layer 3 (Foreground)
//Storyboard Layer 4 (Overlay)
//Storyboard Sound Samples

[TimingPoints]
-24,344.827586206897,4,3,1,10,1,0
5148,-100,4,3,1,5,0,0
5493,-100,4,3,2,30,0,0
6010,-142.857142857143,4,3,2,30,0,0
6527,-181.818181818182,4,3,2,30,0,0
7044,-250,4,3,2,30,0,0
7562,-500,4,3,2,30,0,0
11010,-142.857142857143,4,3,1,30,0,0
11527,-166.666666666667,4,3,1,30,0,0
12044,-200,4,3,1,30,0,0
12562,-250,4,3,1,30,0,0
13079,-333.333333333333,4,3,1,30,0,0
14803,-333.333333333333,4,3,2,30,0,0
17044,-142.857142857143,4,3,2,30,0,0
17562,-181.818181818182,4,3,2,30,0,0
18079,-250,4,3,2,30,0,0
18596,-500,4,3,2,30,0,0
22044,-142.857142857143,4,3,1,30,0,0
22562,-166.666666666667,4,3,1,30,0,0
23079,-200,4,3,1,30,0,0
23596,-250,4,3,1,30,0,0
24113,-333.333333333333,4,3,1,30,0,0
24803,-333.333333333333,4,3,2,30,0,0
25493,-200,4,3,2,30,0,0
27389,-200,4,3,2,5,0,0
27475,-200,4,3,1,5,0,0
27562,-200,4,3,2,40,0,0
27907,-200,4,3,1,40,0,0
28251,-125,4,3,2,40,0,0
29286,-125,4,3,1,40,0,0
29631,-333.333333333333,4,3,2,40,0,0
30665,-333.333333333333,4,3,1,40,0,0
31010,-333.333333333333,4,3,2,40,0,0
32044,-333.333333333333,4,3,1,40,0,0
32389,-333.333333333333,4,3,2,40,0,0
33424,-333.333333333333,4,3,1,40,0,0
33769,-133.333333333333,4,3,2,40,0,0
34286,-166.666666666667,4,3,2,40,0,0
34803,-166.666666666667,4,3,1,40,0,0
35148,-333.333333333333,4,3,2,40,0,0
36182,-333.333333333333,4,3,1,40,0,0
36527,-333.333333333333,4,3,2,40,0,0
37562,-333.333333333333,4,3,1,40,0,0
37907,-333.333333333333,4,3,2,40,0,0
38596,-333.333333333333,4,3,2,40,0,0
38941,-333.333333333333,4,3,1,40,0,0
39286,-333.333333333333,4,3,2,40,0,0
40320,-333.333333333333,4,3,1,40,0,0
40665,-133.333333333333,4,3,2,40,0,0
41182,-166.666666666667,4,3,2,40,0,0
41700,-166.666666666667,4,3,1,40,0,0
42044,-333.333333333333,4,3,2,40,0,0
43079,-333.333333333333,4,3,1,40,0,0
43424,-333.333333333333,4,3,2,40,0,0
44113,-100,4,3,1,40,0,0
44803,-100,4,3,2,40,0,0
45148,-117.647058823529,4,3,2,40,0,0
45838,-117.647058823529,4,3,1,40,0,0
46182,-333.333333333333,4,3,2,40,0,0
60665,-66.6666666666667,4,3,1,50,0,0
62044,-83.3333333333333,4,3,1,50,0,0
62734,-83.3333333333333,4,3,1,45,0,0
64976,-100,4,3,2,50,0,0
65493,-133.333333333333,4,3,2,50,0,0
66527,-133.333333333333,4,3,1,50,0,0
66700,-66.6666666666667,4,3,1,50,0,0
68596,-83.3333333333333,4,3,1,45,0,0
69113,-105.263157894737,4,3,1,40,0,0
71700,-105.263157894737,4,3,2,50,0,0
72044,-105.263157894737,4,3,2,46,0,0
72734,-105.263157894737,4,3,2,42,0,0
73424,-105.263157894737,4,3,2,38,0,0
74113,-105.263157894737,4,3,2,34,0,0
74286,-100,4,3,1,34,0,0
74458,-100,4,3,1,50,0,0
77217,-100,4,3,1,60,0,0
77389,-83.3333333333333,4,3,2,58,0,0
77907,-105.263157894737,4,3,2,56,0,0
78596,-133.333333333333,4,3,2,54,0,0
78941,-166.666666666667,4,3,2,54,0,0
79285,-166.666666666667,4,3,2,52,0,0
79631,-200,4,3,2,52,0,0
79976,-200,4,3,2,52,0,0
82734,-200,4,3,1,50,0,0
83079,-66.6666666666667,4,3,1,50,0,0
85320,-100,4,3,1,50,0,0
85838,-66.6666666666667,4,3,1,50,0,0
87562,-66.6666666666667,4,3,2,50,0,0
88596,-66.6666666666667,4,3,1,50,0,0
90838,-100,4,3,1,50,0,0
91355,-66.6666666666667,4,3,1,50,0,0
92044,-66.6666666666667,4,3,2,55,0,0
92734,-66.6666666666667,4,3,1,55,0,0
93079,-66.6666666666667,4,3,2,55,0,0
93769,-66.6666666666667,4,3,1,60,0,0
97217,-66.6666666666667,4,3,2,60,0,0
98251,-66.6666666666667,4,3,1,60,0,0
98596,-66.6666666666667,4,3,2,60,0,0
99286,-100,4,3,2,60,0,0
99631,-66.6666666666667,4,3,2,60,0,0
100320,-100,4,3,2,60,0,0
101010,-80,4,3,2,60,0,0
101700,-100,4,3,2,60,0,0
102389,-133.333333333333,4,3,2,60,0,0
103079,-200,4,3,2,60,0,0
103424,-200,4,3,1,60,0,0
104803,-200,4,3,2,70,0,0
105493,-90.9090909090909,4,3,1,70,0,0
107562,-90.9090909090909,4,3,1,72,0,0
107907,-83.3333333333333,4,3,1,72,0,0
109631,-83.3333333333333,4,3,2,72,0,0
110320,-76.9230769230769,4,3,1,74,0,0
113079,-71.4285714285714,4,3,1,76,0,0
114458,-71.4285714285714,4,3,2,76,0,0
115838,-71.4285714285714,4,3,1,78,0,0
116182,-66.6666666666667,4,3,1,78,0,0
118596,-66.6666666666667,4,3,1,80,0,0
119286,-66.6666666666667,4,3,2,80,0,0
119976,-66.6666666666667,4,3,1,80,0,0
121355,-66.6666666666667,4,3,1,70,0,0
125148,-100,4,3,1,70,0,0
126872,-100,4,3,1,80,0,0
127217,-83.3333333333333,4,3,1,80,0,0
132389,-83.3333333333333,4,3,1,85,0,0
132734,-76.9230769230769,4,3,1,85,0,0
134113,-74.0740740740741,4,3,1,85,0,0
135493,-71.4285714285714,4,3,1,85,0,0
136527,-71.4285714285714,4,3,2,85,0,0
137044,-68.9655172413793,4,3,2,85,0,0
137562,-133.333333333333,4,3,2,80,0,0
137907,-133.333333333333,4,3,1,100,0,1
138596,-66.6666666666667,4,3,1,100,0,1
143424,-66.6666666666667,4,3,1,95,0,1
143769,-71.4285714285714,4,3,1,95,0,1
144458,-76.9230769230769,4,3,1,95,0,1
145148,-83.3333333333333,4,3,1,95,0,1
145838,-90.9090909090909,4,3,1,95,0,1
146182,-90.9090909090909,4,3,1,90,0,1
146527,-100,4,3,1,90,0,1
148941,-100,4,3,1,60,0,0
149286,-200,4,3,1,60,0,0
154803,-133.333333333333,4,3,1,60,0,0
158596,-133.333333333333,4,3,2,60,0,0
159976,-133.333333333333,4,3,1,70,0,0
160665,-100,4,3,1,70,0,0
166182,-111.111111111111,4,3,1,70,0,0
166872,-125,4,3,1,70,0,0
167562,-142.857142857143,4,3,1,70,0,0
168251,-166.666666666667,4,3,1,70,0,0
168941,-200,4,3,1,70,0,0
204113,-133.333333333333,4,3,1,40,0,0
215838,-200,4,3,1,40,0,0
221010,-181.818181818182,4,3,1,40,0,0
222044,-166.666666666667,4,3,1,40,0,0
222504,-166.666666666667,4,3,1,40,0,0
223424,-153.846153846154,4,3,1,40,0,0
224803,-142.857142857143,4,3,1,40,0,0
226182,-133.333333333333,4,3,2,50,0,0
228596,-133.333333333333,4,3,2,50,0,0
228711,-133.333333333333,4,3,2,50,0,0
234113,-133.333333333333,4,3,2,50,0,0
234228,-133.333333333333,4,3,2,50,0,0
237907,-117.647058823529,4,3,2,50,0,0
243079,-100,4,3,2,50,0,0
243769,-100,4,3,2,50,0,0
244113,-100,4,3,2,50,0,0
245148,-100,4,3,2,50,0,0
245493,-100,4,3,2,50,0,0
251010,-100,4,2,1,50,0,0
252964,-100,4,3,1,50,0,0
253769,-66.6666666666667,4,3,1,60,0,0
254458,-133.333333333333,4,3,1,60,0,0
255838,-133.333333333333,4,3,2,60,0,0
256527,-133.333333333333,4,3,1,60,0,0
256872,-133.333333333333,4,3,1,60,0,0
257907,-66.6666666666667,4,3,1,65,0,0
259286,-66.6666666666667,4,3,1,60,0,0
259976,-333.333333333333,4,3,1,60,0,0
260320,-250,4,3,1,60,0,0
260665,-200,4,3,1,60,0,0
261010,-166.666666666667,4,3,1,60,0,0
261355,-142.857142857143,4,3,1,60,0,0
261700,-125,4,3,1,60,0,0
262044,-66.6666666666667,4,3,1,65,0,0
263424,-66.6666666666667,4,3,1,70,0,0
264803,-100,4,3,1,60,0,0
265148,-111.111111111111,4,3,1,60,0,0
265493,-125,4,3,1,60,0,0
265838,-142.857142857143,4,3,1,60,0,0
266182,-166.666666666667,4,3,1,60,0,0
266527,-200,4,3,1,60,0,0
266872,-250,4,3,1,60,0,0
267217,-333.333333333333,4,3,1,60,0,0
267562,-66.6666666666667,4,3,1,60,0,0
268251,-133.333333333333,4,3,1,60,0,0
270320,-66.6666666666667,4,3,1,60,0,0
272389,-133.333333333333,4,3,1,60,0,0
274458,-80,4,3,1,65,0,0
274803,-80,4,3,1,70,0,0
275148,-80,4,3,1,75,0,0
275838,-133.333333333333,4,3,1,80,0,0
276182,-66.6666666666667,4,3,1,80,0,0
277217,-133.333333333333,4,3,1,80,0,0
277562,-66.6666666666667,4,3,1,80,0,0
278596,-133.333333333333,4,3,1,80,0,0
278941,-66.6666666666667,4,3,1,80,0,0
281355,-133.333333333333,4,3,1,80,0,0
281700,-66.6666666666667,4,3,1,80,0,0
282044,-80,4,3,1,80,0,0
282734,-133.333333333333,4,3,1,80,0,0
283079,-66.6666666666667,4,3,1,80,0,0
284113,-133.333333333333,4,3,1,80,0,0
284458,-66.6666666666667,4,3,1,80,0,0
285493,-66.6666666666667,4,3,2,80,0,0
287217,-66.6666666666667,4,3,1,85,0,0
287562,-100,4,3,1,85,0,0
295148,-100,4,3,1,70,0,0
297102,-100,4,3,1,60,0,0
297907,-83.3333333333333,4,3,1,80,0,0
303424,-66.6666666666667,4,3,1,85,0,0
308941,-100,4,3,1,80,0,0
314458,-125,4,3,1,80,0,0
317217,-125,4,3,1,85,0,0
319976,-100,4,3,1,90,0,0
321010,-133.333333333333,4,3,1,90,0,0
321355,-100,4,3,1,90,0,0
322389,-133.333333333333,4,3,1,90,0,0
322734,-100,4,3,1,90,0,0
323769,-133.333333333333,4,3,1,90,0,0
324113,-100,4,3,1,90,0,0
324803,-83.3333333333333,4,3,1,90,0,0
325493,-83.3333333333333,4,3,1,80,0,0
326527,-133.333333333333,4,3,1,80,0,0
329631,-100,4,3,1,80,0,0
330090,-100,4,3,2,80,0,0
330320,-100,4,3,1,80,0,0
331010,-100,4,3,1,70,0,0
331355,-133.333333333333,4,3,1,70,0,0
334458,-200,4,3,1,70,0,0
335838,-200,4,3,1,70,0,0
336527,-200,4,3,1,50,0,0
339286,-100,4,3,1,60,0,0
340665,-100,4,3,1,70,0,0
342044,-166.666666666667,4,2,1,70,0,0
342389,-166.666666666667,4,2,1,40,0,0
342734,-250,4,2,1,20,0,0

[Colours]
Combo1 : 235,54,58
Combo2 : 18,198,218
Combo3 : 35,147,237
Combo4 : 81,92,240
Combo5 : 126,54,235
Combo6 : 230,77,238
Combo7 : 235,44,149

[HitObjects]
256,192,62,12,0,5148,0:0:0:0:
476,50,5493,5,6,0:0:0:0:
463,3,5665,1,2,0:0:0:0:
511,15,5838,1,4,0:0:0:0:
469,132,6010,6,0,P|455:177|447:228,1,97.9999999999999,2|0,0:0|0:2,0:0:0:0:
401,86,6527,2,0,P|375:111|350:142,1,76.9999999999999,2|4,0:0|0:0,0:0:0:0:
477,135,7044,2,0,P|474:148|471:163,2,28,2|4|4,0:0|0:0|0:0,0:0:0:0:
392,78,7562,2,0,P|369:94|357:105,1,42
325,27,8251,5,4,0:0:0:0:
270,82,8596,1,4,0:0:0:0:
195,72,8769,1,4,0:0:0:0:
140,19,9286,1,4,0:0:0:0:
65,0,9631,1,4,0:0:0:0:
1,44,9976,1,4,0:0:0:0:
23,117,10148,1,4,0:0:0:0:
3,191,10665,1,4,0:0:0:0:
65,242,11010,6,0,B|67:266|47:291|42:282|24:303|25:330,1,97.9999999999999,6|0,0:0|0:2,0:0:0:0:
139,351,11527,2,0,B|131:331|139:309|145:315|154:289|145:270,1,83.9999999999998,2|0,0:0|0:2,0:0:0:0:
231,278,12044,2,0,B|243:289|243:312|237:309|237:329|249:342,1,70,2|4,0:0|0:0,0:0:0:0:
332,281,12562,2,0,B|335:288|332:299|329:296|326:306|329:314,2,28,2|4|4,0:0|0:0|0:0,0:0:0:0:
418,313,13079,2,0,B|419:328|406:344|403:338|392:352|392:368,1,63.0000000000001
485,366,13769,85,4,0:0:0:0:
512,294,14113,1,4,0:0:0:0:
451,245,14286,1,4,0:0:0:0:
437,171,14803,1,4,0:0:0:0:
482,109,15148,1,4,0:0:0:0:
270,215,16527,69,6,0:0:0:0:
307,181,16700,1,2,0:0:0:0:
260,166,16872,1,4,0:0:0:0:
147,264,17044,6,0,P|170:242|174:179,1,97.9999999999999,6|0,0:0|0:2,0:0:0:0:
21,159,17562,2,0,P|49:134|87:136,1,76.9999999999999,2|4,0:0|0:0,0:0:0:0:
141,256,18079,2,0,P|150:241|150:229,2,28,2|4|0,0:0|0:0|0:0,0:0:0:0:
14,269,18596,2,0,P|25:284|47:292,1,42
75,218,19286,5,4,0:0:0:0:
98,144,19631,1,4,0:0:0:0:
173,119,19803,1,4,0:0:0:0:
233,170,20320,1,4,0:0:0:0:
307,196,20665,1,4,0:0:0:0:
381,166,21010,1,4,0:0:0:0:
454,190,21182,1,4,0:0:0:0:
512,137,21700,1,4,0:0:0:0:
317,36,22044,6,0,B|289:39|274:58|274:58|258:40|230:40,1,97.9999999999999,6|0,0:0|0:0,0:0:0:0:
367,98,22562,2,0,B|389:104|399:123|399:123|415:110|438:114,1,83.9999999999998,2|0,0:0|0:0,0:0:0:0:
312,163,23079,2,0,B|294:171|289:188|289:188|274:180|255:186,1,70,2|4,0:0|0:0,0:0:0:0:
375,223,23596,2,0,B|381:227|382:234|382:234|389:232|396:236,2,28,2|4|0,0:0|0:0|0:0,0:0:0:0:
334,305,24113,2,0,B|321:318|322:333|322:333|307:331|292:343,1,63.0000000000001
381,384,24803,5,0,1:0:0:0:
217,330,24976,1,0,0:0:0:0:
246,255,25148,1,4,0:0:0:0:
206,336,25320,85,0,0:0:0:0:
347,300,25493,2,0,L|386:308,1,35,2|0,0:0|0:0,0:0:0:0:
241,242,25838,2,0,L|206:234,1,35,0|4,0:0|0:0,0:0:0:0:
39,271,26182,1,4,0:0:0:0:
256,192,26269,12,0,27389,0:0:0:0:
142,108,27562,53,6,0:0:0:0:
69,123,27734,1,2,0:0:0:0:
119,178,27907,1,2,0:0:0:0:
94,53,28079,1,2,0:0:0:0:
263,10,28251,2,0,P|290:16|321:28,1,56,0|2,1:0|0:0,0:0:0:0:
380,171,28596,2,0,P|363:149|347:119,1,56,4|2,0:0|0:0,0:0:0:0:
402,56,28941,1,4,0:0:0:0:
402,56,29286,5,2,0:0:0:0:
508,101,29458,1,2,0:0:0:0:
448,269,29631,2,0,L|475:278,3,21,0|2|0|2,1:0|0:0|0:0|0:0,0:0:0:0:
429,195,30320,1,4,0:0:0:0:
429,195,30665,5,2,0:0:0:0:
388,324,30838,1,2,0:0:0:0:
205,265,31010,2,0,L|196:293,2,21,0|2|4,1:0|0:0|0:0,0:0:0:0:
178,359,31700,1,4,0:0:0:0:
178,359,32044,5,2,0:0:0:0:
62,384,32217,1,2,0:0:0:0:
26,185,32389,2,0,L|46:180,2,21,0|2|4,1:0|0:0|0:0,0:0:0:0:
130,159,33079,1,4,0:0:0:0:
130,159,33424,53,2,0:0:0:0:
101,264,33596,1,2,0:0:0:0:
273,311,33769,2,0,P|284:326|299:356,1,52.5000000000001,0|2,1:0|0:0,0:0:0:0:
217,362,34113,1,0,0:0:0:0:
248,230,34286,2,0,P|264:228|294:230,1,41.9999999999999,2|4,0:0|0:0,0:0:0:0:
264,303,34631,1,2,0:0:0:0:
202,167,34803,5,2,0:0:0:0:
320,109,34976,1,2,0:0:0:0:
404,282,35148,2,0,L|383:293,3,21,0|2|0|2,1:0|0:0|0:0|0:0,0:0:0:0:
482,252,35838,1,4,0:0:0:0:
482,252,36182,5,2,0:0:0:0:
366,215,36355,1,2,0:0:0:0:
426,46,36527,2,0,L|450:53,2,21,0|2|4,1:0|0:0|0:0,0:0:0:0:
351,18,37217,1,4,0:0:0:0:
351,18,37562,5,2,0:0:0:0:
373,123,37734,1,2,0:0:0:0:
206,160,37907,2,0,L|209:184,2,21,0|0|0,1:0|0:0|0:0,0:0:0:0:
74,0,38596,53,6,0:0:0:0:
55,75,38769,1,2,0:0:0:0:
119,124,38941,1,2,0:0:0:0:
11,141,39113,1,2,0:0:0:0:
32,284,39286,1,0,1:0:0:0:
76,219,39458,1,2,0:0:0:0:
149,195,39631,1,4,0:0:0:0:
200,135,39803,1,2,0:0:0:0:
156,202,39976,5,4,0:0:0:0:
204,264,40148,1,2,0:0:0:0:
183,340,40320,1,2,0:0:0:0:
274,223,40493,1,2,0:0:0:0:
411,324,40665,2,0,P|421:340|432:373,1,52.5000000000001,0|2,1:0|0:0,0:0:0:0:
353,378,41010,1,0,0:0:0:0:
297,311,41182,6,0,P|287:321|274:345,1,41.9999999999999,2|4,0:0|0:0,0:0:0:0:
348,366,41527,1,2,0:0:0:0:
420,313,41700,5,2,0:0:0:0:
294,299,41872,1,2,0:0:0:0:
313,129,42044,2,0,L|293:126,2,21,0|2|4,1:0|0:0|0:0,0:0:0:0:
216,112,42734,1,4,0:0:0:0:
216,112,43079,5,2,0:0:0:0:
82,155,43251,1,2,0:0:0:0:
126,307,43424,2,0,L|148:300,2,20.9999993591309,0|2|4,1:0|0:0|0:0,0:0:0:0:
276,356,44113,6,0,P|272:335|249:285,1,70,6|0,0:0|0:0,0:0:0:0:
192,363,44458,1,2,0:0:0:0:
348,384,44631,1,2,0:0:0:0:
368,206,44803,2,0,P|354:222|330:272,1,70,0|2,1:0|0:0,0:0:0:0:
454,383,45148,2,0,P|433:354|412:274,1,119,4|4,0:0|0:0,0:0:0:0:
446,193,45665,1,0,0:0:0:0:
511,234,45838,85,2,0:0:0:0:
421,266,46010,1,2,0:0:0:0:
378,146,46182,2,0,L|355:154,3,21,0|2|0|2,1:0|0:0|0:0|0:0,0:0:0:0:
256,192,46872,5,4,0:0:0:0:
256,192,47044,12,4,49631,0:0:0:0:
256,192,56182,12,0,60493,0:0:0:0:
256,44,60665,22,0,P|231:51|302:102,1,210,4|0,0:0|1:0,0:0:0:0:
130,58,61182,6,0,P|125:86|108:116,1,52.5,2|0,0:0|0:0,0:0:0:0:
17,209,61355,1,4,0:0:0:0:
0,135,61527,1,0,0:0:0:0:
184,220,61700,1,0,1:0:0:0:
161,293,61872,1,0,0:0:0:0:
109,238,62044,6,0,P|217:278|276:291,1,168,4|0,0:0|1:0,0:0:0:0:
326,340,62562,1,0,0:0:0:0:
478,251,62734,1,6,0:0:0:0:
512,322,62907,1,0,0:0:0:0:
395,266,63079,1,0,1:0:0:0:
469,244,63251,1,2,0:0:0:0:
391,256,63424,5,4,0:0:0:0:
336,200,63596,1,0,0:0:0:0:
488,83,63769,1,2,1:3:0:0:
417,48,63941,1,0,0:0:0:0:
493,70,64113,1,4,0:0:0:0:
469,143,64286,1,2,0:0:0:0:
324,105,64458,1,0,1:0:0:0:
269,161,64631,1,0,0:0:0:0:
331,116,64803,53,4,0:0:0:0:
172,50,64976,2,0,P|194:83|206:111,1,70,2|0,0:0|1:0,0:0:0:0:
257,9,65320,1,0,0:0:0:0:
118,126,65493,2,0,P|100:154|92:174,1,52.5000000000001,2|4,0:0|0:0,0:0:0:0:
40,70,65838,1,0,1:0:0:0:
102,25,66010,1,2,0:0:0:0:
177,184,66182,5,4,0:0:0:0:
427,103,66527,1,0,1:0:0:0:
383,168,66700,2,0,P|394:201|397:222,1,52.5,2|0,0:0|0:0,0:0:0:0:
302,73,66872,1,4,0:0:0:0:
375,47,67044,1,0,0:0:0:0:
314,213,67217,1,0,1:0:0:0:
253,168,67389,1,0,0:0:0:0:
309,222,67562,5,4,0:0:0:0:
295,298,67734,1,0,0:0:0:0:
401,384,67907,1,0,1:0:0:0:
487,275,68079,38,0,P|444:281|386:310,2,105,2|4|0,0:0|0:0|0:0,0:0:0:0:
220,324,68596,2,0,P|249:340|284:377,2,84,2|0|4,1:3|0:0|0:0,0:0:0:0:
62,384,69113,2,0,P|77:375|112:339,2,66.4999999999999,2|0|0,0:0|1:0|0:0,0:0:0:0:
34,309,69631,37,4,0:0:0:0:
61,235,69803,1,0,0:0:0:0:
179,129,69976,1,0,1:0:0:0:
174,206,70148,1,0,0:0:0:0:
168,125,70320,1,4,0:0:0:0:
233,81,70493,1,4,0:0:0:0:
29,165,70665,1,0,1:0:0:0:
0,94,70838,1,4,0:0:0:0:
71,63,71010,2,0,L|91:0,1,66.4999999999999,4|0,0:0|0:0,0:0:0:0:
240,87,71355,2,0,L|261:151,1,66.4999999999999,0|0,1:0|0:0,0:0:0:0:
430,0,71700,5,4,0:0:0:0:
480,63,71872,1,2,0:0:0:0:
442,185,72044,1,2,1:3:0:0:
418,113,72217,1,0,0:0:0:0:
453,179,72389,1,6,0:0:0:0:
426,251,72562,1,2,0:0:0:0:
305,211,72734,1,0,1:3:0:0:
351,274,72907,1,2,0:0:0:0:
297,218,73079,1,6,0:0:0:0:
223,243,73251,1,0,0:0:0:0:
253,377,73424,1,2,1:3:0:0:
200,318,73596,1,2,0:0:0:0:
264,368,73769,1,4,0:0:0:0:
343,352,73941,1,2,0:0:0:0:
193,327,74113,1,2,1:3:0:0:
130,384,74286,2,0,P|116:352|107:318,1,70,2|4,0:0|0:0,0:0:0:0:
282,298,74631,5,0,0:0:0:0:
282,298,74717,1,0,0:0:0:0:
282,298,74803,1,0,1:0:0:0:
186,317,74976,1,0,0:0:0:0:
86,182,75148,2,0,P|112:202|153:204,1,70,6|0,0:0|0:0,0:0:0:0:
148,205,75407,1,0,0:0:0:0:
148,205,75493,1,0,1:0:0:0:
55,260,75665,1,2,0:0:0:0:
8,152,75838,5,4,0:0:0:0:
127,114,76010,1,2,0:0:0:0:
127,114,76096,1,0,0:0:0:0:
127,114,76182,1,0,1:0:0:0:
48,87,76355,1,2,0:0:0:0:
164,215,76527,1,4,0:0:0:0:
182,218,76613,1,0,0:0:0:0:
200,228,76700,1,6,0:0:0:0:
218,231,76786,1,0,0:0:0:0:
234,239,76872,2,0,B|259:247|259:247|305:237,1,70,0|2,1:0|0:0,0:0:0:0:
256,91,77217,5,4,0:0:0:0:
355,140,77389,2,0,P|343:114|336:58,2,84,2|0|2,0:0|1:0|0:0,0:0:0:0:
483,106,77907,86,0,P|469:124|432:153,1,66.4999999999999,4|2,0:0|0:0,0:0:0:0:
435,151,78165,1,0,0:0:0:0:
435,151,78251,1,0,1:0:0:0:
429,20,78424,1,2,0:0:0:0:
359,124,78596,86,0,P|349:100|346:74,1,52.5000000000001,4|2,0:0|0:0,0:0:0:0:
468,107,78941,2,0,P|456:123|436:136,2,41.9999999999999,0|0|4,1:0|0:0|0:0,0:0:0:0:
413,27,79458,85,0,0:0:0:0:
413,27,79544,1,0,0:0:0:0:
413,27,79631,2,0,P|428:29|446:35,1,35,0|0,1:0|0:0,0:0:0:0:
272,113,79976,85,4,0:0:0:0:
193,149,80148,1,0,0:0:0:0:
356,195,80320,1,0,1:0:0:0:
261,105,80493,5,4,0:0:0:0:
201,156,80665,1,4,0:0:0:0:
285,225,80838,1,0,0:0:0:0:
249,95,81010,5,0,1:0:0:0:
213,167,81182,1,0,0:0:0:0:
276,232,81355,69,4,0:0:0:0:
209,270,81527,85,0,0:0:0:0:
261,304,81700,5,0,1:0:0:0:
216,331,81872,5,0,0:0:0:0:
246,349,82044,5,4,0:0:0:0:
227,364,82217,5,4,0:0:0:0:
239,373,82389,5,0,1:0:0:0:
233,380,82562,5,0,0:0:0:0:
236,384,82734,53,0,0:0:0:0:
236,384,83079,2,0,L|185:375,1,52.5,2|0,1:3|0:0,0:0:0:0:
135,318,83251,2,0,L|84:309,1,52.5,2|0,0:0|0:0,0:0:0:0:
32,251,83424,1,4,0:0:0:0:
68,183,83596,1,4,0:0:0:0:
238,227,83769,1,0,1:0:0:0:
193,161,83941,1,0,0:0:0:0:
251,218,84113,5,4,0:0:0:0:
251,218,84458,2,0,B|270:201|270:201|297:202,1,52.5,2|0,1:3|0:0,0:0:0:0:
325,285,84631,2,0,B|306:302|306:302|279:301,1,52.5,2|0,0:0|0:0,0:0:0:0:
158,232,84803,1,4,0:0:0:0:
114,302,84976,1,0,0:0:0:0:
41,108,85148,1,0,1:0:0:0:
96,163,85320,2,0,P|84:175|67:182,1,35,2|0,0:2|0:0,0:0:0:0:
128,43,85493,85,4,0:0:0:0:
128,43,85838,2,0,B|140:31|140:31|185:37,1,52.5,2|0,1:3|0:0,0:0:0:0:
269,0,86010,2,0,B|276:15|276:15|320:25,1,52.5,2|0,0:0|0:0,0:0:0:0:
426,46,86182,1,4,0:0:0:0:
501,26,86355,1,0,0:0:0:0:
389,154,86527,1,0,1:0:0:0:
464,171,86700,1,0,0:0:0:0:
418,36,86872,5,4,0:0:0:0:
418,36,87217,2,0,L|437:86,1,52.5,2|0,1:3|0:0,0:0:0:0:
382,164,87389,2,0,L|401:214,1,52.5,2|0,0:0|0:0,0:0:0:0:
505,237,87562,1,4,0:0:0:0:
459,301,87734,1,6,0:0:0:0:
334,270,87907,1,0,1:0:0:0:
354,345,88079,1,2,0:0:0:0:
228,374,88251,85,4,0:0:0:0:
245,298,88424,1,2,0:0:0:0:
218,383,88596,2,0,L|166:372,1,52.5,2|0,1:3|0:0,0:0:0:0:
128,302,88769,2,0,L|139:250,1,52.5,2|0,0:0|0:0,0:0:0:0:
91,187,88941,1,4,0:0:0:0:
112,110,89113,1,0,0:0:0:0:
0,50,89286,1,0,1:0:0:0:
15,124,89458,1,0,0:0:0:0:
97,0,89631,5,4,0:0:0:0:
97,0,89976,2,0,B|116:15|116:15|145:10,1,52.5,2|0,1:3|0:0,0:0:0:0:
234,90,90148,2,0,B|214:74|214:74|187:78,1,52.5,2|0,0:0|0:0,0:0:0:0:
273,0,90320,1,4,0:0:0:0:
349,16,90493,1,0,0:0:0:0:
411,148,90665,1,0,1:0:0:0:
343,181,90838,2,0,P|332:164|333:144,1,35,2|0,0:0|0:0,0:0:0:0:
424,0,91010,85,4,0:0:0:0:
424,0,91355,2,0,B|418:20|418:20|419:32|419:32|413:51,1,52.5,2|0,1:3|0:0,0:0:0:0:
479,109,91527,2,0,B|481:129|481:129|486:139|486:139|489:161,1,52.5,2|0,0:0|0:0,0:0:0:0:
409,227,91700,1,4,0:0:0:0:
458,289,91872,1,0,0:0:0:0:
244,359,92044,5,2,1:3:0:0:
292,299,92217,1,2,0:0:0:0:
236,351,92389,1,4,0:0:0:0:
189,259,92562,5,6,0:0:0:0:
231,361,92734,2,0,B|219:376|219:376|177:381,1,52.5,2|0,1:3|0:0,0:0:0:0:
121,332,92907,2,0,B|113:317|113:317|74:307,1,52.5,6|0,0:0|0:0,0:0:0:0:
3,290,93079,1,4,0:0:0:0:
25,366,93251,1,6,0:0:0:0:
179,251,93424,1,0,1:0:0:0:
32,375,93596,1,2,1:3:0:0:
79,195,93769,85,4,0:0:0:0:
79,195,94113,2,0,L|132:186,1,52.5,2|0,1:3|0:0,0:0:0:0:
194,114,94286,2,0,L|247:105,1,52.5,2|0,0:0|0:0,0:0:0:0:
331,155,94458,1,4,0:0:0:0:
406,140,94631,1,0,0:0:0:0:
457,300,94803,1,0,1:0:0:0:
385,277,94976,1,0,0:0:0:0:
512,180,95148,85,4,0:0:0:0:
512,180,95493,2,0,L|498:237,1,52.5,2|0,1:3|0:0,0:0:0:0:
393,286,95665,2,0,L|450:300,1,52.5,2|0,0:0|0:0,0:0:0:0:
510,365,95838,1,4,0:0:0:0:
434,384,96010,1,0,0:0:0:0:
319,233,96182,1,0,1:0:0:0:
242,217,96355,1,0,0:0:0:0:
147,334,96527,5,4,0:0:0:0:
147,334,96872,2,0,B|168:315|168:315|168:289,1,52.5,2|0,1:3|0:0,0:0:0:0:
81,258,97044,2,0,B|60:277|60:277|60:303,1,52.5,2|0,0:0|0:0,0:0:0:0:
149,214,97217,1,4,0:0:0:0:
90,166,97389,1,2,0:0:0:0:
90,166,97476,1,0,0:0:0:0:
90,166,97562,1,0,1:0:0:0:
145,103,97734,1,2,0:0:0:0:
257,0,97907,85,4,0:0:0:0:
257,0,98251,2,0,L|278:59,1,52.5,2|0,1:3|0:0,0:0:0:0:
351,113,98424,2,0,L|333:162,1,52.5,2|0,0:0|0:0,0:0:0:0:
230,204,98596,1,4,0:0:0:0:
262,134,98769,1,4,0:0:0:0:
262,134,98855,1,0,0:0:0:0:
262,134,98941,1,0,1:0:0:0:
328,174,99113,1,0,0:0:0:0:
265,292,99286,6,0,P|292:313|313:341,1,70,4|2,0:0|0:0,0:0:0:0:
308,374,99544,1,0,0:0:0:0:
307,373,99631,2,0,B|296:383|296:383|204:362,1,105,0|0,1:0|0:0,0:0:0:0:
46,380,99976,1,4,0:0:0:0:
38,286,100148,1,2,0:0:0:0:
38,286,100234,1,0,0:0:0:0:
38,286,100320,2,0,B|110:276,1,70,0|2,1:0|0:0,0:0:0:0:
232,147,100665,5,4,0:0:0:0:
148,206,100838,1,2,0:0:0:0:
148,206,100924,1,0,0:0:0:0:
148,206,101010,2,0,B|183:213|183:213|190:220|190:220|232:228,1,87.5,0|0,1:0|0:0,0:0:0:0:
402,275,101355,1,4,0:0:0:0:
331,214,101527,1,2,0:0:0:0:
331,214,101613,1,0,0:0:0:0:
331,214,101700,2,0,L|310:280,1,70,0|2,1:0|0:0,0:0:0:0:
474,236,102044,85,4,0:0:0:0:
458,134,102217,1,2,0:0:0:0:
458,134,102303,1,0,0:0:0:0:
458,134,102389,2,0,L|447:75,1,52.5000000000001,0|0,1:0|0:0,0:0:0:0:
393,19,102734,1,4,0:0:0:0:
478,10,102907,1,2,0:0:0:0:
478,10,102993,1,0,0:0:0:0:
478,10,103079,2,0,L|516:18,1,35,0|2,1:0|0:0,0:0:0:0:
373,121,103424,37,4,0:0:0:0:
299,148,103596,5,4,0:0:0:0:
223,136,103769,85,4,0:0:0:0:
147,154,103941,5,4,0:0:0:0:
74,131,104113,85,4,0:0:0:0:
0,151,104286,5,4,0:0:0:0:
166,78,104458,1,2,0:0:0:0:
166,78,104803,5,4,0:0:0:0:
226,125,104976,1,2,0:0:0:0:
328,13,105148,1,0,1:0:0:0:
343,86,105320,1,2,0:0:0:0:
473,25,105493,6,0,P|458:65|454:100,1,77,0|4,0:0|0:0,0:0:0:0:
487,233,105838,1,0,1:0:0:0:
508,157,106010,1,0,0:0:0:0:
396,305,106182,2,0,P|357:317|320:321,1,77,4|0,0:0|0:0,0:0:0:0:
138,194,106527,2,0,P|174:208|206:229,1,77,0|0,1:0|0:0,0:0:0:0:
192,368,106872,1,0,0:0:0:0:
251,291,107044,1,4,0:0:0:0:
68,249,107217,2,0,P|93:302|108:359,1,115.5,0|0,1:0|0:0,0:0:0:0:
102,371,107562,5,4,0:0:0:0:
6,332,107734,1,0,0:0:0:0:
132,185,107907,2,0,P|148:146|155:105,1,84,0|0,1:0|0:0,0:0:0:0:
284,18,108251,1,0,0:0:0:0:
240,95,108424,1,4,0:0:0:0:
45,0,108596,2,0,P|65:36|78:76,1,84,0|0,1:0|0:0,0:0:0:0:
37,195,108941,1,4,0:0:0:0:
4,118,109113,1,0,0:0:0:0:
214,220,109286,2,0,P|256:205|297:197,1,84,0|0,1:0|0:0,0:0:0:0:
429,266,109631,69,4,0:0:0:0:
373,210,109803,1,6,0:0:0:0:
509,118,109976,1,0,1:0:0:0:
481,194,110148,1,2,0:0:0:0:
359,94,110320,6,0,P|403:76|478:27,1,136.5,4|0,0:0|0:0,0:0:0:0:
470,19,110665,1,0,1:0:0:0:
376,0,110838,1,0,0:0:0:0:
277,114,111010,2,0,P|263:70|240:31,1,91,0|4,0:0|0:0,0:0:0:0:
123,151,111355,1,0,1:0:0:0:
113,66,111527,1,0,0:0:0:0:
279,201,111700,1,4,0:0:0:0:
243,279,111872,1,0,0:0:0:0:
117,160,112044,2,0,P|133:202|158:240,1,91,0|0,1:0|0:0,0:0:0:0:
50,351,112389,1,0,0:0:0:0:
15,262,112562,1,4,0:0:0:0:
180,352,112734,2,0,P|222:366|267:372,1,91,0|0,1:0|0:0,0:0:0:0:
476,252,113079,6,0,P|401:253|329:270,1,147,4|0,0:0|0:0,0:0:0:0:
326,282,113424,1,0,1:0:0:0:
414,334,113596,1,0,0:0:0:0:
357,182,113769,2,0,P|309:165|260:159,1,98,0|4,0:0|0:0,0:0:0:0:
398,9,114113,1,0,1:0:0:0:
443,104,114286,1,0,0:0:0:0:
243,0,114458,5,4,0:0:0:0:
194,128,114631,1,6,0:0:0:0:
311,46,114803,1,0,1:0:0:0:
181,126,114976,2,0,P|137:148|91:164,1,98,4|0,0:0|0:0,0:0:0:0:
315,58,115320,1,6,0:0:0:0:
97,72,115493,2,0,P|48:70|0:60,1,98,0|0,1:0|0:0,0:0:0:0:
176,231,115838,85,4,0:2:0:0:
176,231,116182,2,0,P|274:261|330:268,1,157.5,0|0,1:0|0:0,0:0:0:0:
336,278,116527,1,4,0:0:0:0:
395,196,116700,1,4,0:0:0:0:
467,384,116872,1,0,1:0:0:0:
496,278,117044,1,0,0:0:0:0:
276,344,117217,2,0,P|209:359|175:373,1,105,4|0,0:0|0:0,0:0:0:0:
34,241,117562,2,0,P|88:281|121:298,1,105,0|0,1:0|0:0,0:0:0:0:
194,121,117907,1,4,0:0:0:0:
92,150,118079,1,4,0:0:0:0:
307,254,118251,2,0,P|240:241|205:227,1,105,0|0,1:0|0:0,0:0:0:0:
313,48,118596,6,0,P|357:140|392:187,1,157.5,4|0,0:0|0:0,0:0:0:0:
385,197,118941,1,0,1:0:0:0:
278,164,119113,1,0,0:0:0:0:
258,0,119286,69,4,0:0:0:0:
324,42,119458,1,2,0:0:0:0:
471,22,119631,1,0,1:0:0:0:
418,78,119803,1,2,0:0:0:0:
491,191,119976,6,0,P|466:254|446:286,1,105,4|0,0:0|0:0,0:0:0:0:
294,383,120320,2,0,P|334:349|368:309,1,105,0|0,1:0|0:0,0:0:0:0:
349,114,120665,1,4,0:0:0:0:
395,205,120838,1,4,0:0:0:0:
197,298,121010,2,0,P|246:280|291:254,1,105,0|0,1:0|0:0,0:0:0:0:
194,46,121355,37,4,0:0:0:0:
319,340,121700,5,4,0:2:0:0:
323,78,122044,85,4,0:0:0:0:
190,306,122389,5,4,0:2:0:0:
416,174,122734,85,4,0:0:0:0:
96,211,123079,5,4,0:2:0:0:
431,293,123424,85,4,0:0:0:0:
80,90,123769,5,4,0:2:0:0:
332,209,124113,5,4,0:0:0:0:
204,250,124286,1,0,0:0:0:0:
233,118,124458,1,4,0:2:0:0:
280,267,124631,5,0,0:0:0:0:
181,175,124803,1,4,0:0:0:0:
309,135,124976,1,0,0:0:0:0:
204,250,125148,6,0,L|136:273,1,70,4|0,0:2|0:0,0:0:0:0:
0,355,125493,85,4,0:0:0:0:
42,364,125579,1,0,0:0:0:0:
83,373,125665,1,4,0:0:0:0:
125,383,125751,1,0,0:0:0:0:
161,353,125838,5,0,1:0:0:0:
187,347,125924,1,0,0:0:0:0:
213,341,126010,1,4,0:0:0:0:
238,336,126096,1,0,0:0:0:0:
285,362,126182,86,0,L|301:320,1,35,4|0,0:0|0:0,0:0:0:0:
418,256,126355,2,0,L|385:243,1,35,4|0,0:0|0:0,0:0:0:0:
256,192,126527,1,2,1:3:0:0:
512,115,126872,53,4,0:2:0:0:
492,201,127044,1,0,0:0:0:0:
438,54,127217,2,0,L|355:43,1,84,2|0,1:3|0:0,0:0:0:0:
192,20,127562,1,2,0:0:0:0:
211,96,127734,1,4,0:0:0:0:
287,77,127907,1,0,1:0:0:0:
268,0,128079,1,0,0:0:0:0:
208,107,128251,6,0,L|188:190,1,84,4|0,0:0|0:0,0:0:0:0:
15,220,128596,2,0,L|98:241,1,84,2|0,1:3|0:0,0:0:0:0:
135,78,128941,1,2,0:0:0:0:
0,44,129113,1,4,0:0:0:0:
57,101,129286,1,0,1:0:0:0:
77,23,129458,1,0,0:0:0:0:
15,220,129631,85,6,0:0:0:0:
96,240,129803,1,0,0:0:0:0:
58,380,129976,2,0,L|37:298,1,84,2|0,1:3|0:0,0:0:0:0:
224,340,130320,5,2,0:0:0:0:
158,384,130493,1,4,0:0:0:0:
218,260,130665,1,0,1:0:0:0:
295,373,130838,1,0,0:0:0:0:
355,249,131010,5,4,0:0:0:0:
431,286,131182,1,0,0:0:0:0:
480,159,131355,2,0,L|398:179,1,84,2|0,1:3|0:0,0:0:0:0:
281,209,131700,85,6,0:0:0:0:
284,195,131872,1,2,0:2:0:0:
168,139,132044,1,0,1:0:0:0:
177,152,132217,1,2,0:2:0:0:
328,0,132389,21,4,0:2:0:0:
203,35,132562,1,0,0:0:0:0:
383,96,132734,2,0,B|344:82|344:82|333:86|333:86|292:71,1,91,2|0,1:3|0:0,0:0:0:0:
424,186,133079,2,0,B|383:193|383:193|375:202|375:202|333:210,1,91,2|4,0:0|0:0,0:0:0:0:
504,243,133424,2,0,B|473:269|473:269|470:281|470:281|437:309,1,91,2|0,1:3|0:0,0:0:0:0:
247,384,133769,5,4,0:0:0:0:
327,307,133941,1,0,0:0:0:0:
142,341,134113,2,0,B|109:347|109:347|54:320,1,94.5,2|0,1:3|0:0,0:0:0:0:
155,189,134458,2,0,B|129:210|129:210|69:215,1,94.5,2|4,0:0|0:0,0:0:0:0:
92,52,134803,2,0,B|80:83|80:83|29:117,1,94.5,2|0,1:3|0:0,0:0:0:0:
0,0,135148,85,4,0:0:0:0:
21,125,135320,1,0,0:0:0:0:
184,20,135493,2,0,B|202:7|202:7|187:88,1,98,2|0,1:3|0:0,0:0:0:0:
303,187,135838,2,0,B|284:199|284:199|299:118,1,98,2|4,0:0|0:0,0:0:0:0:
443,23,136182,1,2,1:3:0:0:
423,130,136355,1,0,0:0:0:0:
281,47,136527,5,6,0:0:0:0:
201,166,136700,1,6,0:0:0:0:
173,15,136872,1,0,1:0:0:0:
212,174,137044,2,4,P|215:213|203:276,1,101.5,6|0,0:0|0:0,0:0:0:0:
164,23,137389,1,2,0:0:0:0:
297,125,137562,2,0,P|316:146|342:190,1,78.7500000000002,0|0,1:0|0:0,0:0:0:0:
348,207,137907,21,4,0:2:0:0:
312,344,138079,1,2,0:0:0:0:
485,242,138251,1,2,1:3:0:0:
449,379,138424,1,0,0:0:0:0:
348,207,138596,86,0,L|244:181,1,105,6|0,0:0|0:0,0:0:0:0:
106,323,138941,2,0,L|131:219,1,105,0|0,1:3|0:0,0:0:0:0:
139,10,139286,5,4,0:2:0:0:
115,113,139458,1,0,0:0:0:0:
231,83,139631,1,2,1:3:0:0:
37,39,139803,1,0,0:0:0:0:
242,79,139976,86,0,L|346:54,1,105,6|0,0:0|0:0,0:0:0:0:
512,132,140320,2,0,L|408:157,1,105,0|0,1:3|0:0,0:0:0:0:
210,258,140665,5,4,0:2:0:0:
340,291,140838,1,2,0:0:0:0:
304,162,141010,1,2,1:3:0:0:
203,266,141182,1,0,0:0:0:0:
344,302,141355,86,0,L|448:327,1,105,6|0,0:0|0:0,0:0:0:0:
208,347,141700,2,0,L|104:322,1,105,0|0,1:3|0:0,0:0:0:0:
56,181,142044,5,4,0:2:0:0:
186,148,142217,1,0,0:0:0:0:
283,236,142389,1,2,1:3:0:0:
413,203,142562,1,0,0:0:0:0:
277,226,142734,86,0,L|302:122,1,105,6|2,0:0|0:2,0:0:0:0:
286,80,142993,1,0,0:0:0:0:
286,80,143079,2,0,L|182:55,1,105,0|0,1:3|0:0,0:0:0:0:
441,92,143424,5,4,0:2:0:0:
485,244,143596,1,2,0:2:0:0:
485,244,143682,1,0,0:0:0:0:
485,244,143769,2,0,L|512:337,1,98,2|0,1:3|0:0,0:0:0:0:
318,255,144113,85,6,0:0:0:0:
370,117,144286,1,2,0:2:0:0:
370,117,144372,1,0,0:0:0:0:
370,117,144458,2,0,L|395:30,1,91,0|0,1:3|0:0,0:0:0:0:
209,103,144803,85,4,0:2:0:0:
246,233,144976,1,2,0:2:0:0:
246,233,145062,1,0,0:0:0:0:
246,233,145148,2,0,L|269:313,1,84,2|0,1:3|0:0,0:0:0:0:
92,235,145493,85,6,0:0:0:0:
136,120,145665,1,2,0:2:0:0:
136,120,145751,1,0,0:0:0:0:
136,120,145838,2,0,L|157:46,1,77,0|0,1:3|0:0,0:0:0:0:
18,206,146182,85,4,0:2:0:0:
57,310,146355,1,2,0:0:0:0:
23,194,146527,2,0,L|3:127,1,70,2|0,1:3|0:0,0:0:0:0:
154,357,146872,5,6,0:0:0:0:
187,260,147044,1,0,0:0:0:0:
94,224,147217,1,2,1:3:0:0:
129,128,147389,1,0,0:0:0:0:
50,0,147562,5,6,0:0:0:0:
83,11,147648,1,0,0:0:0:0:
116,22,147734,1,2,0:2:0:0:
149,33,147820,1,0,0:0:0:0:
178,68,147907,5,2,1:3:0:0:
206,65,147993,1,0,0:0:0:0:
235,62,148079,1,2,0:2:0:0:
263,59,148165,1,0,0:0:0:0:
299,33,148251,6,4,L|308:0,1,35,6|4,0:0|0:0,0:0:0:0:
392,144,148424,2,0,L|359:135,1,35,2|0,0:0|0:0,0:0:0:0:
256,192,148596,1,2,1:3:0:0:
256,192,148769,1,0,0:2:0:0:
403,306,148941,37,4,0:2:0:0:
430,217,149113,1,2,0:2:0:0:
320,351,149286,2,0,P|314:372|311:388,1,35,0|0,1:0|0:0,0:0:0:0:
237,316,149631,2,0,P|233:334|230:354,1,35,4|0,0:0|0:0,0:0:0:0:
135,373,149976,2,0,P|142:347|145:321,1,52.5,0|0,1:0|0:0,0:0:0:0:
138,316,150320,5,4,0:0:0:0:
22,341,150493,1,2,0:2:0:0:
31,192,150665,2,0,P|14:186|-2:186,1,35,0|0,1:0|0:0,0:0:0:0:
100,121,151010,2,0,P|96:104|85:86,1,35,4|0,0:0|0:0,0:0:0:0:
195,146,151355,2,0,P|208:136|219:118,1,35,0|0,1:0|0:0,0:0:0:0:
126,216,151700,85,4,0:2:0:0:
233,233,151872,1,2,0:2:0:0:
279,50,152044,2,0,P|263:44|245:42,1,35,0|0,1:0|0:0,0:0:0:0:
349,106,152389,2,0,P|343:122|341:140,1,35,4|0,0:0|0:0,0:0:0:0:
405,35,152734,1,0,1:0:0:0:
405,35,152907,1,2,0:2:0:0:
506,125,153079,5,4,0:0:0:0:
506,125,153251,1,2,0:2:0:0:
370,262,153424,2,0,P|386:270|403:276,1,35,0|0,1:0|0:0,0:0:0:0:
241,238,153769,2,0,P|256:245|273:251,1,35,4|4,0:0|0:0,0:0:0:0:
111,218,154113,2,0,P|126:225|143:231,1,35,0|0,1:0|0:0,0:0:0:0:
1,248,154458,5,4,0:2:0:0:
25,150,154631,1,2,0:2:0:0:
188,305,154803,2,0,P|214:309|236:322,1,52.5000000000001,0|2,1:0|0:2,0:0:0:0:
200,119,155148,2,0,P|184:140|159:153,1,52.5000000000001,4|2,0:0|0:2,0:0:0:0:
355,226,155493,2,0,P|343:199|345:173,1,52.5000000000001,0|2,1:0|0:2,0:0:0:0:
309,0,155838,5,4,0:0:0:0:
402,19,156010,1,2,0:2:0:0:
476,151,156182,2,0,P|444:151|420:138,1,52.5000000000001,0|2,1:0|0:2,0:0:0:0:
221,219,156527,2,0,P|250:218|277:232,1,52.5000000000001,4|2,0:0|0:2,0:0:0:0:
405,362,156872,2,0,P|375:362|349:349,1,52.5000000000001,0|2,1:0|0:2,0:0:0:0:
178,314,157217,5,4,0:2:0:0:
244,384,157389,1,2,0:2:0:0:
82,294,157562,2,0,P|104:275|110:242,1,52.5000000000001,0|2,1:0|0:2,0:0:0:0:
19,122,157907,2,0,P|46:135|76:133,1,52.5000000000001,4|2,0:0|0:2,0:0:0:0:
161,15,158251,2,0,P|155:45|167:73,1,52.5000000000001,0|2,1:0|0:2,0:0:0:0:
311,125,158596,85,4,0:0:0:0:
248,180,158769,1,6,0:0:0:0:
343,43,158941,85,0,1:0:0:0:
271,0,159113,1,6,0:0:0:0:
430,26,159286,86,0,P|418:65|408:110,1,78.7500000000002,4|0,0:0|0:0,0:0:0:0:
399,111,159631,1,0,1:0:0:0:
420,22,159803,1,0,0:0:0:0:
463,181,159976,53,4,0:2:0:0:
365,208,160148,1,0,0:0:0:0:
401,360,160320,1,0,1:0:0:0:
499,333,160493,1,0,0:0:0:0:
310,278,160665,6,0,L|237:257,1,70,4|2,0:0|0:2,0:0:0:0:
210,361,161010,2,0,L|283:382,1,70,0|2,1:0|0:2,0:0:0:0:
140,291,161355,85,4,0:2:0:0:
42,318,161527,1,0,0:0:0:0:
67,221,161700,1,0,1:0:0:0:
111,383,161872,1,0,0:0:0:0:
184,193,162044,6,0,L|257:172,1,70,4|2,0:0|0:2,0:0:0:0:
412,126,162389,2,0,L|339:147,1,70,0|2,1:0|0:0,0:0:0:0:
157,92,162734,85,4,0:2:0:0:
257,64,162907,1,0,0:0:0:0:
175,188,163079,1,0,1:0:0:0:
147,88,163251,1,0,0:0:0:0:
322,235,163424,6,0,L|301:308,1,70,4|2,0:0|0:2,0:0:0:0:
466,224,163769,2,0,L|393:203,1,70,0|2,1:0|0:2,0:0:0:0:
476,29,164113,85,4,0:2:0:0:
376,57,164286,1,4,0:0:0:0:
337,156,164458,1,0,1:0:0:0:
237,184,164631,1,0,0:0:0:0:
137,98,164803,6,0,L|64:77,1,70,4|4,0:0|0:0,0:0:0:0:
47,36,165062,1,0,0:0:0:0:
47,36,165148,1,0,1:0:0:0:
130,13,165320,1,2,0:2:0:0:
274,90,165493,86,0,L|351:79,1,70,4|2,0:2|0:2,0:0:0:0:
371,99,165751,1,0,0:0:0:0:
371,99,165838,1,0,1:0:0:0:
355,0,166010,1,2,0:2:0:0:
247,163,166182,6,0,L|174:152,1,63.0000000000001,0|2,1:0|0:2,0:0:0:0:
156,171,166441,1,0,0:0:0:0:
156,171,166527,1,0,1:0:0:0:
173,72,166700,1,2,0:2:0:0:
297,226,166872,86,0,L|354:217,1,56,4|2,0:2|0:2,0:0:0:0:
387,239,167131,1,0,0:0:0:0:
387,239,167217,2,0,L|378:181,1,56,0|2,1:0|0:2,0:0:0:0:
217,284,167562,6,0,L|167:276,1,48.9999999999999,0|2,1:0|0:2,0:0:0:0:
139,299,167820,1,0,0:0:0:0:
139,299,167907,2,0,L|145:250,1,48.9999999999999,0|2,1:0|0:2,0:0:0:0:
329,352,168251,6,0,L|373:345,3,41.9999999999999,4|2|0|2,2:0|0:2|1:0|0:2,0:0:0:0:
147,384,168941,6,0,L|110:378,3,35,0|0|2|0,0:0|0:0|0:2|0:0,0:0:0:0:
256,384,169631,5,2,0:0:0:0:
254,369,169717,1,0,0:0:0:0:
258,346,169803,1,0,0:0:0:0:
252,329,169889,1,0,0:0:0:0:
259,311,169976,1,0,0:0:0:0:
250,294,170062,1,0,0:0:0:0:
262,276,170148,1,2,0:2:0:0:
248,257,170234,1,0,0:0:0:0:
264,242,170320,1,0,0:0:0:0:
246,223,170407,1,0,0:0:0:0:
266,206,170493,1,0,0:0:0:0:
245,189,170579,1,0,0:0:0:0:
268,171,170665,1,0,0:0:0:0:
242,153,170751,1,0,0:0:0:0:
270,136,170838,1,0,0:0:0:0:
238,119,170924,1,0,0:0:0:0:
256,92,171010,5,4,0:1:0:0:
167,84,204113,38,0,B|154:136|62:176|20:215|13:284|41:347|124:366|188:321|197:222|116:145|13:175|13:175|107:136|230:181|258:277|211:292|274:376|399:400|486:344|486:344|395:390|274:352|245:231|285:129|365:92|471:119|523:191|501:271|445:300|393:289|380:251|394:235|402:235,1,1680,4|2,0:1|0:0,0:0:0:0:
451,25,215148,85,4,0:0:0:0:
496,104,215320,1,2,0:2:0:0:
416,97,215493,1,0,0:0:0:0:
460,35,215665,1,2,0:2:0:0:
346,163,215838,2,0,P|370:228|380:299,2,140,8|4|8,0:2|0:0|0:2,0:0:0:0:
490,318,217907,5,4,0:0:0:0:
490,318,218251,2,0,P|506:317|519:308,2,23.3333333333333,0|2|2,0:0|0:2|0:2,0:0:0:0:
428,368,218596,2,0,P|406:370|379:384,2,46.6666666666667,8|2|2,0:2|0:2|0:2,0:0:0:0:
294,296,219286,5,4,0:0:0:0:
294,296,219631,2,0,P|302:307|305:320,2,23.3333333333333,0|2|2,0:0|0:2|0:2,0:0:0:0:
195,384,219976,2,0,P|209:366|222:321,1,70,8|2,0:2|0:2,0:0:0:0:
195,252,220435,1,0,0:0:0:0:
195,252,220550,1,0,0:2:0:0:
195,252,220665,85,4,0:0:0:0:
195,252,221010,2,0,P|183:249|171:244,2,25.6666666666666,0|2|2,0:0|0:2|0:2,0:0:0:0:
305,179,221355,2,0,P|274:191|254:193,2,51.3333333333333,8|2|2,0:2|0:2|0:2,0:0:0:0:
178,109,222044,6,0,P|154:112|125:124,1,55.9999999999999,4|0,0:0|0:0,0:0:0:0:
19,209,222504,1,2,0:2:0:0:
19,209,222619,1,2,0:2:0:0:
19,209,222734,2,0,P|33:181|37:157,1,55.9999999999999,8|2,0:2|0:2,0:0:0:0:
15,84,223079,1,2,0:2:0:0:
15,84,223194,1,0,0:0:0:0:
15,84,223309,1,0,0:0:0:0:
15,84,223424,6,0,P|37:62|51:35,1,60.6666666666666,4|0,0:0|0:0,0:0:0:0:
168,12,223884,1,2,0:2:0:0:
168,12,223998,1,2,0:2:0:0:
168,12,224113,1,8,0:2:0:0:
307,42,224343,1,2,0:2:0:0:
178,23,224573,1,2,0:2:0:0:
316,30,224803,6,0,P|347:23|377:10,1,65.3333333333333,4|0,0:0|0:0,0:0:0:0:
461,158,225263,1,2,0:2:0:0:
461,158,225378,1,2,0:2:0:0:
461,158,225493,2,0,P|470:175|486:186,2,32.6666666666666,8|0|0,0:2|0:0|0:0,0:0:0:0:
503,265,225838,2,0,P|483:264|466:272,2,32.6666666666666,2|0|0,0:2|0:0|0:0,0:0:0:0:
403,224,226182,38,0,P|361:239|332:242,1,70.0000000000002,4|2,0:0|0:2,0:0:0:0:
286,300,226527,2,0,P|244:315|215:318,1,70.0000000000002,4|2,0:0|0:2,0:0:0:0:
163,372,226872,1,8,0:2:0:0:
131,197,227217,1,2,0:2:0:0:
131,197,227332,1,0,0:0:0:0:
201,107,227562,6,0,P|235:112|268:124,1,70.0000000000002,4|4,0:0|0:0,0:0:0:0:
349,163,227907,1,4,0:0:0:0:
349,163,228021,1,2,0:2:0:0:
349,163,228136,1,2,0:2:0:0:
349,163,228251,2,0,P|351:145|357:129,2,35.0000000000001,8|2|2,0:2|0:2|0:2,0:0:0:0:
456,194,228596,1,6,0:0:0:0:
456,194,228711,1,0,0:0:0:0:
456,194,228826,1,0,0:2:0:0:
456,194,228941,6,0,P|443:161|438:126,1,70.0000000000002,4|0,0:0|0:0,0:0:0:0:
497,72,229286,1,4,0:0:0:0:
497,72,229401,1,2,0:2:0:0:
497,72,229516,1,2,0:2:0:0:
497,72,229631,2,0,P|484:39|479:4,2,70.0000000000002,8|2|2,0:2|0:2|0:2,0:0:0:0:
330,25,230320,86,0,P|297:37|262:42,1,70.0000000000002,4|4,0:0|0:0,0:0:0:0:
193,19,230665,1,4,0:0:0:0:
193,19,230780,1,2,0:2:0:0:
193,19,230895,1,2,0:2:0:0:
193,19,231010,2,0,P|175:21|159:27,2,35.0000000000001,8|2|6,0:2|0:2|0:0,0:0:0:0:
157,114,231355,1,2,0:2:0:0:
157,114,231470,1,0,0:0:0:0:
157,114,231585,1,0,0:0:0:0:
157,114,231700,86,0,P|124:101|89:96,1,70.0000000000002,4|0,0:0|0:0,0:0:0:0:
15,119,232044,1,4,0:0:0:0:
15,119,232159,1,2,0:2:0:0:
15,119,232274,1,2,0:2:0:0:
15,119,232389,2,0,P|17:137|23:153,2,35.0000000000001,8|0|2,0:2|0:0|0:2,0:0:0:0:
34,34,232734,2,0,P|27:17|26:0,1,35.0000000000001,4|2,0:0|0:2,0:0:0:0:
99,183,233079,6,0,P|93:217|81:250,1,70.0000000000002,4|4,0:0|0:0,0:0:0:0:
41,320,233424,1,4,0:0:0:0:
41,320,233539,1,2,0:2:0:0:
41,320,233654,1,2,0:2:0:0:
41,320,233769,2,0,P|59:322|75:328,2,35.0000000000001,8|2|2,0:2|0:2|0:2,0:0:0:0:
148,384,234113,1,6,0:0:0:0:
148,384,234228,1,0,0:0:0:0:
148,384,234343,1,0,0:0:0:0:
148,384,234458,6,0,P|180:371|215:366,1,70.0000000000002,4|0,0:0|0:0,0:0:0:0:
278,316,234803,1,4,0:0:0:0:
278,316,234918,1,2,0:2:0:0:
278,316,235033,1,2,0:2:0:0:
278,316,235148,2,0,P|296:318|312:324,1,35.0000000000001,8|0,0:2|0:0,0:0:0:0:
269,209,235378,2,0,P|258:223|245:234,1,35.0000000000001,2|4,0:2|0:0,0:2:0:0:
366,254,235608,2,0,P|358:237|355:220,1,35.0000000000001,2|4,0:2|0:0,0:0:0:0:
476,247,235838,86,0,P|463:215|458:180,1,70.0000000000002,4|0,0:0|0:0,0:0:0:0:
481,108,236182,1,4,0:0:0:0:
481,108,236297,1,2,0:2:0:0:
481,108,236412,1,2,0:2:0:0:
481,108,236527,2,0,P|482:90|488:74,2,35.0000000000001,8|2|6,0:2|0:0|0:0,0:0:0:0:
367,58,236872,1,2,0:2:0:0:
344,64,236987,1,2,0:0:0:0:
323,77,237102,1,4,0:0:0:0:
301,82,237217,1,4,0:0:0:0:
195,5,237447,5,2,0:2:0:0:
195,5,237562,1,0,0:0:0:0:
189,26,237677,1,0,0:0:0:0:
178,48,237792,1,2,0:2:0:0:
172,68,237907,2,0,P|163:83|157:104,2,39.6666666666668,8|0|0,0:2|0:0|0:0,0:0:0:0:
254,145,238251,1,2,0:2:0:0:
242,161,238366,2,0,P|222:166|203:166,1,39.6666666666668,0|0,0:2|0:2,0:0:0:0:
57,88,238596,6,0,P|78:133|85:169,1,79.3333333333336,4|0,0:0|0:2,0:0:0:0:
23,268,238941,2,0,P|32:253|38:232,2,39.6666666666668,0|2|2,0:0|0:2|0:2,0:0:0:0:
96,363,239286,1,8,0:2:0:0:
96,363,239401,2,0,P|90:343|80:326,1,39.6666666666668,0|2,0:0|0:2,0:0:0:0:
172,293,239631,1,2,0:2:0:0:
193,309,239746,1,0,0:0:0:0:
220,313,239861,1,0,0:0:0:0:
242,326,239976,86,0,P|281:312|325:306,1,79.3333333333336,4|0,0:0|0:2,0:0:0:0:
390,340,240320,1,0,0:0:0:0:
408,320,240435,1,2,0:2:0:0:
404,291,240550,1,2,0:2:0:0:
425,319,240665,2,0,P|442:332|469:341,1,39.6666666666668,8|0,0:2|0:0,0:0:0:0:
512,239,240895,1,2,0:2:0:0:
512,239,241010,2,0,P|493:246|478:258,2,39.6666666666668,2|0|0,0:2|0:0|0:0,0:0:0:0:
381,193,241355,6,0,P|393:155|400:116,1,79.3333333333336,4|0,0:0|0:2,0:0:0:0:
483,22,241700,1,0,0:0:0:0:
512,49,241815,1,2,0:2:0:0:
475,69,241930,1,2,0:2:0:0:
438,38,242044,2,0,P|418:31|399:30,2,39.6666666666668,8|0|2,0:2|0:0|0:2,0:0:0:0:
319,75,242389,2,0,P|300:82|285:94,2,39.6666666666668,2|0|0,0:2|0:0|0:0,0:0:0:0:
214,17,242734,5,4,0:0:0:0:
134,95,242964,1,0,0:2:0:0:
164,126,243079,2,0,P|175:139|191:166,1,46.6666666666667,4|0,0:0|0:0,0:0:0:0:
58,250,243309,1,2,0:2:0:0:
69,208,243424,2,0,P|74:191|90:164,1,46.6666666666667,8|0,0:2|0:0,0:0:0:0:
229,237,243654,1,2,0:2:0:0:
187,249,243769,2,0,P|170:252|138:252,2,46.6666666666667,6|0|0,0:0|0:0|0:0,0:0:0:0:
296,352,244113,85,4,0:0:0:0:
401,279,244343,1,0,0:2:0:0:
401,279,244458,2,0,P|395:262|379:235,2,46.6666666666667,4|2|2,0:0|0:2|0:2,0:0:0:0:
278,171,244803,2,0,P|294:174|326:174,2,46.6666666666667,8|2|2,0:2|0:2|0:2,0:0:0:0:
433,118,245148,2,0,P|422:131|406:158,2,46.6666666666667,6|0|0,0:0|0:0|0:0,0:0:0:0:
512,235,245493,5,4,0:0:0:0:
423,362,245723,1,6,0:0:0:0:
423,362,245838,1,0,0:0:0:0:
383,228,246067,1,6,0:0:0:0:
383,228,246182,1,8,0:2:0:0:
296,365,246527,1,0,0:0:0:0:
256,192,246872,5,4,0:0:0:0:
256,192,246987,12,0,248251,0:0:0:0:
128,73,252964,85,2,0:2:0:0:
128,73,253079,1,0,0:0:0:0:
448,174,253424,5,4,1:2:0:0:
210,319,253769,6,0,B|139:333|139:333|102:298|102:298|14:317,1,210,6|0,0:0|1:0,0:0:0:0:
194,237,254343,37,4,0:0:0:0:
194,237,254458,2,0,P|229:240|265:249,1,70.0000000000002,4|0,0:0|0:0,0:0:0:0:
363,264,254803,2,0,P|357:247|355:229,1,35.0000000000001,2|0,1:3|0:0,0:0:0:0:
302,174,255033,1,6,0:0:0:0:
302,174,255148,6,0,P|333:159|369:148,1,70.0000000000002,6|0,0:0|0:0,0:0:0:0:
441,182,255493,2,0,P|411:174|368:150,1,70.0000000000002,2|4,1:3|0:0,0:0:0:0:
328,83,255838,1,6,0:0:0:0:
170,67,256067,1,2,0:0:0:0:
227,8,256182,1,0,1:0:0:0:
227,8,256297,1,0,0:0:0:0:
227,8,256412,1,6,0:0:0:0:
227,8,256527,6,0,P|247:62|250:84,1,70.0000000000002,4|2,0:0|0:0,0:0:0:0:
233,149,256872,1,0,1:0:0:0:
339,27,257102,1,4,0:0:0:0:
339,27,257217,2,0,P|370:13|383:9,2,35.0000000000001,4|0|4,0:0|0:0|0:0,0:0:0:0:
440,102,257562,2,0,P|469:51|484:35,1,70.0000000000002,0|2,1:0|0:0,0:0:0:0:
493,244,257907,6,0,B|420:233|420:233|408:240|408:240|351:232,1,140,4|0,0:0|0:0,0:0:0:0:
264,274,258251,1,0,1:0:0:0:
219,305,258366,1,0,0:0:0:0:
172,277,258481,1,2,0:2:0:0:
131,310,258596,2,0,B|114:333|114:333|69:348,1,70,6|0,0:0|0:0,0:0:0:0:
35,197,258826,1,6,0:0:0:0:
35,197,258941,2,0,B|64:199|64:199|98:231,1,70,2|0,1:3|0:0,0:0:0:0:
24,280,259171,1,6,0:0:0:0:
24,280,259286,54,0,B|2:246|2:246|32:76,1,210,4|0,0:2|1:0,0:0:0:0:
201,136,259861,69,0,0:0:0:0:
201,136,259976,2,0,P|209:122|224:112,1,28,4|4,0:0|0:0,0:0:0:0:
334,130,260320,6,0,P|315:132|294:127,1,37.3333333333333,0|0,1:0|0:0,0:0:0:0:
243,14,260665,6,0,P|259:29|271:53,1,46.6666666666667,4|0,0:0|0:0,0:0:0:0:
185,167,261010,6,0,P|186:141|198:114,1,55.9999999999999,0|4,1:0|0:0,0:0:0:0:
347,117,261355,6,0,P|322:135|288:144,1,65.3333333333333,4|0,0:0|0:0,0:0:0:0:
218,0,261700,6,0,P|255:14|281:40,1,74.6666666666667,0|0,1:0|0:0,0:0:0:0:
343,219,262044,6,0,B|393:201|393:201|410:206,2,70,4|0|2,0:2|0:0|0:0,0:0:0:0:
443,330,262389,2,0,B|432:318|432:318|378:308,2,70,2|0|6,1:3|0:0|0:0,0:0:0:0:
312,384,262734,2,0,B|250:371|250:371|235:382|235:382|171:369,1,140,6|6,0:0|0:0,0:0:0:0:
105,350,263079,1,0,1:0:0:0:
234,226,263309,85,2,0:0:0:0:
159,210,263424,2,0,B|178:200|178:200|203:204|203:204|219:302,1,140,4|2,0:2|0:0,0:0:0:0:
95,342,263769,2,0,B|118:329|118:329|130:281,2,70,2|2|2,1:3|0:0|0:0,0:0:0:0:
52,254,264113,1,6,0:0:0:0:
79,198,264228,1,2,0:0:0:0:
63,140,264343,1,6,0:0:0:0:
98,90,264458,1,0,1:0:0:0:
323,142,264688,5,0,0:0:0:0:
323,142,264803,2,0,P|278:155|236:177,1,93.3333333333333,4|0,0:0|0:0,0:0:0:0:
283,0,265148,86,0,P|314:27|351:47,1,84.0000000000001,0|4,1:0|0:0,0:0:0:0:
190,96,265493,86,0,P|193:58|188:21,1,74.6666666666667,4|0,0:0|0:0,0:0:0:0:
308,129,265838,86,0,P|281:145|254:169,1,65.3333333333333,0|0,1:0|0:0,0:0:0:0:
281,23,266182,86,0,P|305:34|334:41,1,55.9999999999999,4|0,0:0|0:0,0:0:0:0:
209,87,266527,86,0,P|205:66|196:42,1,46.6666666666667,0|4,1:0|0:0,0:0:0:0:
291,118,266872,86,0,P|279:130|267:148,1,37.3333333333333,4|0,0:0|0:0,0:0:0:0:
279,38,267217,6,0,P|292:40|308:40,1,28,0|0,1:0|0:0,0:0:0:0:
473,63,267562,38,0,B|445:31|445:31|458:128,1,140,4|2,0:2|0:0,0:0:0:0:
469,203,267907,1,0,1:0:0:0:
342,173,268136,1,4,0:0:0:0:
342,173,268251,2,0,P|353:201|361:243,1,70.0000000000002,4|4,0:0|0:0,0:0:0:0:
368,315,268596,1,0,1:0:0:0:
237,267,268826,85,0,0:0:0:0:
257,191,268941,2,0,P|247:220|226:257,1,70.0000000000002,4|0,0:0|0:0,0:0:0:0:
175,312,269286,1,0,1:0:0:0:
175,312,269401,1,2,0:2:0:0:
175,312,269516,1,2,0:2:0:0:
175,312,269631,1,4,0:0:0:0:
155,223,269861,1,4,0:0:0:0:
86,191,269976,2,0,P|121:197|153:210,1,70.0000000000002,0|0,1:0|0:0,0:0:0:0:
258,349,270320,22,0,B|288:353|288:353|291:359|291:359|322:377,2,70,4|2|2,0:2|0:0|0:0,0:0:0:0:
358,308,270665,1,0,1:0:0:0:
486,289,270895,1,0,0:0:0:0:
486,289,271010,1,4,0:0:0:0:
459,156,271240,1,2,0:2:0:0:
459,156,271355,1,0,1:0:0:0:
332,192,271585,1,0,0:0:0:0:
332,192,271700,86,0,B|313:195|313:195|267:174,2,70,4|2|2,0:2|0:0|0:0,0:0:0:0:
243,249,272044,1,0,1:0:0:0:
325,111,272274,1,2,0:2:0:0:
325,111,272389,2,0,P|340:108|362:95,2,35.0000000000001,4|2|0,0:0|0:2|0:0,0:0:0:0:
310,32,272734,1,0,1:0:0:0:
151,60,272964,5,0,0:0:0:0:
151,60,273079,1,4,0:0:0:0:
83,156,273309,1,0,0:0:0:0:
39,143,273424,1,0,1:0:0:0:
161,225,273654,1,0,0:0:0:0:
161,225,273769,1,4,0:0:0:0:
95,325,273998,1,0,0:0:0:0:
45,340,274113,1,0,1:0:0:0:
241,382,274343,5,2,0:0:0:0:
212,309,274458,2,0,L|191:246,1,58.3333333333333,6|0,0:0|0:0,0:0:0:0:
339,248,274688,85,2,0:0:0:0:
355,170,274803,2,0,L|369:106,1,58.3333333333333,2|0,1:3|0:0,0:0:0:0:
243,93,275033,5,2,0:0:0:0:
230,17,275148,2,0,B|221:10|221:10|170:23,2,58.3333333333333,6|2|6,0:0|0:0|0:0,0:0:0:0:
306,0,275493,1,2,1:3:0:0:
182,157,275723,21,2,0:0:0:0:
108,184,275838,2,0,L|176:168,1,70.0000000000002,0|0,0:2|0:0,0:0:0:0:
246,200,276182,2,0,L|33:158,2,210,2|4|0,1:3|0:0|1:0,0:0:0:0:
404,109,277102,5,0,0:0:0:0:
404,109,277217,2,0,B|417:143|417:143|388:171,1,70.0000000000002,4|0,0:0|0:0,0:0:0:0:
319,120,277562,2,0,B|423:89|423:89|487:168,2,210,2|4|0,1:3|0:0|1:0,0:0:0:0:
365,303,278481,5,0,0:0:0:0:
365,303,278596,2,0,P|340:320|299:307,1,70.0000000000002,4|0,0:0|0:0,0:0:0:0:
394,384,278941,2,0,P|383:320|500:280,2,210,2|4|2,1:3|0:0|1:2,0:0:0:0:
273,189,279861,69,2,0:2:0:0:
273,189,279976,1,4,0:0:0:0:
254,161,280090,1,2,0:2:0:0:
223,155,280205,1,0,0:0:0:0:
197,175,280320,2,0,B|242:170|242:170|275:142|275:142|329:135,1,140,2|0,1:3|0:0,0:0:0:0:
381,192,280665,2,0,B|401:201|401:201|422:197|422:197|448:208,2,70,4|0|4,0:0|0:0|0:0,0:0:0:0:
399,116,281010,1,0,1:0:0:0:
314,10,281240,5,0,0:0:0:0:
314,10,281355,2,0,B|325:24|325:24|380:14,1,70.0000000000002,4|0,0:0|0:0,0:0:0:0:
380,95,281700,2,0,B|366:73|366:73|246:53,1,140,2|0,1:3|0:0,0:0:0:0:
147,8,282044,38,0,P|76:24|40:47,1,116.666666666667,6|0,0:0|0:0,0:0:0:0:
100,190,282389,6,0,P|171:174|207:151,1,116.666666666667,2|0,1:3|0:0,0:0:0:0:
242,61,282734,53,4,0:0:0:0:
299,207,282964,1,2,0:2:0:0:
266,279,283079,2,0,B|315:301|368:269|360:251|405:216|459:230,2,210,2|4|0,1:3|0:0|1:0,0:0:0:0:
40,229,283998,85,0,0:0:0:0:
40,229,284113,1,4,0:0:0:0:
113,92,284343,1,2,0:2:0:0:
44,52,284458,2,0,L|147:251,2,210,2|4|0,1:3|0:0|1:0,0:0:0:0:
188,0,285378,5,0,0:0:0:0:
176,34,285493,1,4,0:0:0:0:
259,116,285723,1,6,0:0:0:0:
219,183,285838,1,0,1:0:0:0:
60,133,286067,1,6,0:0:0:0:
51,168,286182,1,4,0:0:0:0:
28,200,286297,1,2,0:0:0:0:
14,236,286412,1,6,0:0:0:0:
29,312,286527,1,0,1:0:0:0:
152,384,286757,5,0,0:0:0:0:
152,384,286872,1,4,0:0:0:0:
185,256,287102,1,2,0:2:0:0:
148,190,287217,1,2,1:3:0:0:
231,326,287447,1,0,0:0:0:0:
231,326,287562,2,0,L|304:259,1,93.3333333333333,4|0,0:0|0:0,0:0:0:0:
320,354,287907,2,0,L|225:324,1,93.3333333333333,0|0,1:0|0:0,0:0:0:0:
398,343,288251,86,0,L|445:357,1,46.6666666666667,6|0,0:0|0:0,0:0:0:0:
409,245,288481,1,2,0:2:0:0:
484,223,288596,1,2,1:3:0:0:
346,161,288826,1,0,0:0:0:0:
346,161,288941,2,0,L|261:111,1,93.3333333333333,4|0,0:0|0:0,0:0:0:0:
393,80,289286,2,0,L|343:164,1,93.3333333333333,0|0,1:0|0:0,0:0:0:0:
319,55,289631,6,0,L|308:9,1,46.6666666666667,6|0,0:0|0:0,0:0:0:0:
196,77,289861,1,2,0:2:0:0:
215,3,289976,1,2,1:3:0:0:
181,154,290205,1,0,0:0:0:0:
181,154,290320,2,0,L|236:235,1,93.3333333333333,4|0,0:0|0:0,0:0:0:0:
193,315,290665,2,0,L|235:226,1,93.3333333333333,0|0,1:0|0:0,0:0:0:0:
116,332,291010,86,0,L|71:311,1,46.6666666666667,6|0,0:0|0:0,0:0:0:0:
129,236,291240,1,2,0:2:0:0:
60,205,291355,2,0,L|40:109,1,93.3333333333333,2|0,1:3|0:0,0:0:0:0:
78,45,291700,2,0,L|68:0,2,46.6666666666667,6|0|0,0:0|0:0|0:0,0:0:0:0:
129,162,292044,2,0,L|222:192,1,93.3333333333333,2|0,1:3|0:0,0:0:0:0:
301,227,292389,5,6,0:0:0:0:
301,227,292504,1,0,0:0:0:0:
301,227,292619,1,2,0:2:0:0:
377,206,292734,1,2,1:3:0:0:
412,331,292964,1,0,0:0:0:0:
412,331,293079,1,4,0:0:0:0:
266,370,293309,1,0,0:0:0:0:
266,370,293424,1,0,1:0:0:0:
230,183,293769,85,6,0:0:0:0:
393,208,293998,1,2,0:2:0:0:
412,131,294113,1,2,1:3:0:0:
250,104,294343,1,0,0:0:0:0:
250,104,294458,1,4,0:0:0:0:
218,283,294688,1,0,0:0:0:0:
218,283,294803,1,0,1:0:0:0:
243,94,295148,37,6,0:0:0:0:
333,68,295378,85,2,0:2:0:0:
281,9,295493,1,2,1:3:0:0:
226,183,295723,85,2,0:2:0:0:
296,169,295838,1,6,0:0:0:0:
169,38,296067,5,2,0:2:0:0:
150,94,296182,2,0,L|133:146,2,46.6666666666667,2|0|0,1:3|0:0|0:0,0:0:0:0:
83,206,296527,86,0,L|100:309,1,93.3333333333333,6|2,0:0|0:2,0:0:0:0:
136,363,296872,1,0,1:0:0:0:
248,281,297102,85,0,1:0:0:0:
235,338,297217,1,0,1:0:0:0:
360,303,297447,85,0,1:0:0:0:
373,353,297562,1,0,1:0:0:0:
414,205,297792,85,0,1:0:0:0:
445,272,297907,2,0,L|475:164,1,112,4|0,0:2|0:2,0:0:0:0:
345,59,298251,2,0,L|452:89,1,112,0|0,1:0|0:2,0:0:0:0:
275,102,298596,2,0,L|245:210,1,112,4|2,0:0|0:2,0:0:0:0:
244,31,298941,2,0,L|136:0,1,112,0|0,1:0|0:0,0:0:0:0:
69,38,299286,85,4,0:0:0:0:
137,240,299516,1,0,0:2:0:0:
105,172,299631,2,0,L|213:141,1,112,0|0,1:0|0:2,0:0:0:0:
324,277,299976,2,0,L|293:169,1,112,4|2,0:0|0:2,0:0:0:0:
343,351,300320,1,0,1:0:0:0:
200,384,300550,5,0,0:0:0:0:
200,384,300665,2,0,L|231:276,1,112,4|0,0:0|0:2,0:0:0:0:
126,358,301010,1,0,1:0:0:0:
20,213,301240,1,0,0:2:0:0:
20,213,301355,2,0,L|128:244,1,112,4|2,0:0|0:2,0:0:0:0:
46,139,301700,1,0,1:0:0:0:
279,95,301930,5,2,0:2:0:0:
279,95,302044,2,0,L|387:64,1,112,4|2,0:0|0:2,0:0:0:0:
477,158,302389,2,0,L|461:104,2,56,0|0|2,1:0|0:0|0:2,0:0:0:0:
389,252,302734,2,0,L|443:236,1,56,4|2,0:0|0:2,0:0:0:0:
307,183,302964,1,2,0:2:0:0:
382,160,303079,1,0,1:0:0:0:
371,367,303309,21,0,0:0:0:0:
294,342,303424,2,0,B|232:322|232:322|223:326|223:326|155:316,1,140,4|2,0:2|0:2,0:0:0:0:
232,209,303769,2,0,B|167:222|167:222|162:230|162:230|97:255,1,140,2|2,1:3|0:2,0:0:0:0:
111,124,304113,2,0,B|61:167|61:167|61:177|61:177|18:231,1,140,6|2,0:0|0:2,0:0:0:0:
0,67,304458,1,2,1:3:0:0:
189,3,304688,5,2,0:2:0:0:
226,68,304803,2,0,B|229:45|229:45|245:29|245:29|346:-3,1,140,4|2,0:0|0:2,0:0:0:0:
345,187,305148,2,0,B|333:167|333:167|334:144|334:144|391:54,1,140,2|2,1:3|0:2,0:0:0:0:
512,200,305493,2,0,B|490:192|490:192|477:174|477:174|462:68,1,140,6|2,0:0|0:2,0:0:0:0:
423,257,305838,1,2,1:3:0:0:
276,384,306067,85,2,0:2:0:0:
259,307,306182,2,0,B|249:285|249:285|260:267|260:267|244:168,1,140,4|2,0:0|0:2,0:0:0:0:
180,328,306527,2,0,B|160:313|160:313|160:292|160:292|97:215,1,140,2|2,1:3|0:2,0:0:0:0:
122,384,306872,2,0,B|97:381|97:381|87:363|87:363|-5:327,1,140,6|2,0:0|0:2,0:0:0:0:
188,337,307217,1,2,1:3:0:0:
23,211,307447,5,2,0:2:0:0:
48,139,307562,2,0,B|66:112|66:112|62:95|62:95|91:9,1,140.000005340576,4|2,0:0|0:2,0:0:0:0:
153,96,307907,1,2,1:3:0:0:
223,59,308021,1,4,0:0:0:0:
298,62,308136,1,2,0:2:0:0:
356,15,308251,2,0,B|389:25|389:25|422:46,2,70.0000026702882,6|0|2,0:0|0:0|0:2,0:0:0:0:
479,0,308596,1,2,1:3:0:0:
490,147,308826,21,2,0:2:0:0:
490,147,308941,2,0,L|392:157,1,93.3333333333333,4|0,0:2|0:0,0:0:0:0:
392,79,309286,1,0,1:0:0:0:
485,254,309516,1,0,0:0:0:0:
408,242,309631,1,4,0:0:0:0:
275,360,309861,1,2,0:2:0:0:
292,284,309976,2,0,L|194:294,1,93.3333333333333,0|2,1:0|0:2,0:0:0:0:
118,243,310320,6,0,L|128:341,1,93.3333333333333,4|0,0:0|0:0,0:0:0:0:
68,384,310665,1,0,1:0:0:0:
51,201,310895,1,0,0:0:0:0:
123,231,311010,1,4,0:0:0:0:
102,61,311240,1,2,0:2:0:0:
43,108,311355,2,0,L|141:125,1,93.3333333333333,0|2,1:0|0:2,0:0:0:0:
230,0,311700,86,0,L|214:91,1,93.3333333333333,4|0,0:2|0:0,0:0:0:0:
199,168,312044,1,0,1:0:0:0:
331,58,312274,1,0,0:0:0:0:
346,135,312389,1,4,0:0:0:0:
488,18,312619,1,2,0:2:0:0:
473,95,312734,2,0,L|457:186,1,93.3333333333333,0|2,1:0|0:2,0:0:0:0:
402,247,313079,6,0,L|418:338,1,93.3333333333333,4|0,0:0|0:0,0:0:0:0:
487,260,313424,2,0,P|488:285|494:305,2,46.6666666666667,0|0|2,1:0|0:0|0:2,0:0:0:0:
324,289,313769,2,0,P|330:312|331:334,1,46.6666666666667,4|0,0:0|0:0,0:0:0:0:
205,267,313998,1,2,0:2:0:0:
190,339,314113,1,0,1:0:0:0:
71,220,314343,5,2,0:2:0:0:
71,220,314458,2,0,L|149:205,1,74.6666666666667,4|0,0:2|0:0,0:0:0:0:
220,193,314803,1,0,1:0:0:0:
132,290,315033,1,0,0:0:0:0:
55,308,315148,1,4,0:0:0:0:
261,365,315378,1,2,0:2:0:0:
338,347,315493,1,0,1:0:0:0:
298,176,315723,5,0,0:0:0:0:
298,176,315838,2,0,L|283:254,1,74.6666666666667,4|0,0:2|0:0,0:0:0:0:
357,271,316182,1,0,1:0:0:0:
494,179,316412,1,2,0:2:0:0:
417,161,316527,1,4,0:0:0:0:
336,30,316757,1,2,0:2:0:0:
413,48,316872,1,0,1:0:0:0:
243,120,317102,5,0,0:0:0:0:
203,55,317217,1,4,0:2:0:0:
172,67,317332,1,0,0:2:0:0:
139,69,317447,1,2,0:2:0:0:
106,83,317562,2,0,P|88:68|69:59,2,37.3333333333333,0|0|2,1:0|0:2|0:2,0:0:0:0:
151,189,317907,1,0,0:0:0:0:
192,187,318021,1,0,0:2:0:0:
229,201,318136,1,2,0:2:0:0:
262,203,318251,1,0,1:0:0:0:
286,215,318366,1,0,0:2:0:0:
313,217,318481,1,2,0:2:0:0:
334,227,318596,6,0,P|352:220|373:217,2,37.3333333333333,4|0|2,0:2|0:2|0:2,0:0:0:0:
202,326,318941,2,0,P|184:333|163:336,2,37.3333333333333,0|0|2,1:0|0:2|0:2,0:0:0:0:
314,380,319286,1,0,0:0:0:0:
306,330,319401,1,2,0:2:0:0:
271,296,319516,1,2,0:2:0:0:
260,244,319631,1,0,1:0:0:0:
233,202,319746,1,2,0:2:0:0:
231,151,319861,1,2,1:2:0:0:
205,104,319976,6,0,B|184:110|184:110|168:114|168:114|154:120,1,46.6666666666667,6|0,0:0|0:0,0:0:0:0:
58,153,320205,1,2,0:2:0:0:
58,153,320320,1,2,1:3:0:0:
166,258,320550,1,2,0:2:0:0:
166,258,320665,1,6,0:0:0:0:
331,210,320895,1,4,0:0:0:0:
331,210,321010,2,0,P|349:226|389:251,1,70.0000000000002,0|2,1:0|0:2,0:0:0:0:
483,314,321355,86,0,B|465:325|465:325|429:337,1,46.6666666666667,6|0,0:0|0:0,0:0:0:0:
322,382,321585,1,2,0:2:0:0:
322,382,321700,1,2,1:3:0:0:
416,174,321930,1,2,0:2:0:0:
416,174,322044,1,6,0:0:0:0:
258,207,322274,1,0,0:0:0:0:
258,207,322389,2,0,P|236:197|189:187,1,70.0000000000002,0|2,1:0|0:2,0:0:0:0:
106,187,322734,6,0,B|107:204|107:204|109:207|109:207|118:239,1,46.6666666666667,6|0,0:0|0:0,0:0:0:0:
143,349,322964,1,2,0:2:0:0:
143,349,323079,1,2,1:3:0:0:
327,307,323309,1,2,0:2:0:0:
327,307,323424,1,6,0:0:0:0:
300,133,323654,1,0,0:0:0:0:
300,133,323769,2,0,P|334:127|366:114,1,70.0000000000002,0|2,1:0|0:2,0:0:0:0:
467,15,324113,86,0,P|436:24|469:24,1,93.3333333333333,6|0,0:0|0:0,0:0:0:0:
363,0,324458,1,2,1:3:0:0:
271,58,324688,85,2,0:2:0:0:
271,58,324803,2,0,P|232:49|161:10,1,112,6|2,0:0|0:2,0:0:0:0:
101,55,325148,86,0,P|47:68|0:98,1,112,2|2,1:3|0:2,0:0:0:0:
15,0,325493,85,6,0:0:0:0:
55,158,325723,1,2,0:2:0:0:
55,158,325838,1,2,1:3:0:0:
171,254,326067,1,2,0:2:0:0:
171,254,326182,1,6,0:0:0:0:
312,271,326412,1,2,0:2:0:0:
312,271,326527,2,0,P|354:266|385:256,1,70.0000000000002,2|2,1:3|0:2,0:0:0:0:
488,166,326872,5,6,0:0:0:0:
314,113,327102,1,2,0:2:0:0:
314,113,327217,2,0,P|318:93|319:78,2,35.0000000000001,2|2|2,1:3|0:2|0:2,0:0:0:0:
162,164,327562,1,6,0:0:0:0:
102,295,327792,1,2,0:2:0:0:
102,295,327907,2,0,P|92:336|91:368,1,70.0000000000002,2|2,1:3|0:2,0:0:0:0:
20,245,328251,85,6,0:0:0:0:
185,348,328481,1,2,0:2:0:0:
185,348,328596,2,0,P|189:364|192:382,2,35.0000000000001,2|2|2,1:3|0:2|0:2,0:0:0:0:
320,280,328941,1,6,0:0:0:0:
427,363,329171,1,2,0:2:0:0:
427,363,329286,2,0,P|455:348|496:336,1,70.0000000000002,2|2,1:3|0:2,0:0:0:0:
397,231,329631,6,0,P|371:211|306:193,1,93.3333333333333,6|2,0:0|0:2,0:0:0:0:
230,110,329976,1,2,1:3:0:0:
195,162,330090,1,6,0:0:0:0:
144,189,330205,1,6,0:0:0:0:
85,178,330320,2,0,P|83:132|63:88,1,93.3333333333333,4|2,0:0|0:2,0:0:0:0:
8,38,330665,1,2,1:3:0:0:
49,255,330895,53,2,0:2:0:0:
49,255,331010,1,4,2:0:0:0:
160,302,331240,1,2,0:2:0:0:
160,302,331355,2,0,L|124:306,2,35.0000013351441,0|2|2,1:0|0:2|0:2,0:0:0:0:
224,350,331700,2,0,L|228:385,2,35.0000013351441,4|2|2,0:0|0:2|0:2,0:0:0:0:
272,286,332044,2,0,L|309:281,2,35.0000013351441,0|2|2,1:0|0:2|0:2,0:0:0:0:
208,238,332389,2,0,L|203:203,2,35.0000013351441,4|2|2,0:0|0:2|0:2,0:0:0:0:
160,302,332734,1,0,1:0:0:0:
311,366,332964,5,2,0:2:0:0:
311,366,333079,2,0,L|348:361,2,35.0000013351441,4|2|2,0:0|0:2|0:2,0:0:0:0:
392,267,333424,2,0,L|396:302,2,35.0000013351441,0|2|2,1:0|0:2|0:2,0:0:0:0:
459,345,333769,1,4,0:0:0:0:
487,224,333998,1,2,0:2:0:0:
487,224,334113,1,0,1:0:0:0:
512,65,334458,6,0,L|486:60,2,23.3333333333333,4|0|2,0:0|0:0|0:2,0:0:0:0:
420,125,334803,2,0,L|425:102,2,23.3333333333333,0|0|2,1:0|0:0|0:2,0:0:0:0:
376,44,335148,1,4,0:0:0:0:
357,178,335378,1,2,0:2:0:0:
357,178,335493,1,0,1:0:0:0:
145,109,335838,6,0,P|165:97|188:93,1,46.6666666666667,4|2,0:0|0:2,0:0:0:0:
270,51,336182,2,0,P|273:38|280:27,2,23.3333333333333,0|0|2,1:0|3:0|0:2,0:0:0:0:
276,143,336527,53,4,0:0:0:0:
236,241,336757,5,2,0:2:0:0:
236,241,336872,1,0,1:0:0:0:
330,170,337102,85,2,0:2:0:0:
330,170,337217,1,0,0:0:0:0:
182,214,337447,5,2,0:2:0:0:
182,214,337562,1,0,1:0:0:0:
358,224,337792,85,2,0:2:0:0:
358,224,337907,1,0,0:0:0:0:
154,160,338136,5,2,0:2:0:0:
154,160,338251,1,0,1:0:0:0:
338,281,338481,85,2,0:2:0:0:
338,281,338596,1,0,0:0:0:0:
174,103,338826,5,2,0:2:0:0:
174,103,338941,1,0,1:0:0:0:
269,316,339171,5,2,0:2:0:0:
254,318,339286,2,0,P|248:338|237:362,1,46.6666666666667,0|0,1:0|0:0,0:0:0:0:
93,266,339516,1,2,0:2:0:0:
84,253,339631,2,0,P|89:236|102:211,1,46.6666666666667,0|0,1:0|0:0,0:0:0:0:
229,192,339861,1,2,0:2:0:0:
208,240,339976,1,0,1:0:0:0:
181,268,340090,1,2,0:2:0:0:
170,300,340205,1,2,0:2:0:0:
153,322,340320,2,0,P|149:341|152:370,2,46.6666666666667,0|2|2,1:0|0:2|0:2,0:0:0:0:
232,382,340665,5,2,1:3:0:0:
263,327,340780,1,0,0:0:0:0:
281,272,340895,1,2,0:2:0:0:
292,217,341010,1,0,0:0:0:0:
297,164,341125,1,0,0:0:0:0:
290,117,341240,1,2,0:2:0:0:
279,78,341355,1,0,0:0:0:0:
262,46,341470,1,2,0:2:0:0:
246,29,341585,1,2,0:2:0:0:
232,22,341700,1,0,0:0:0:0:
221,23,341815,1,2,0:2:0:0:
215,30,341930,1,2,0:2:0:0:
214,37,342044,6,0,B|227:61|294:94|368:79,1,167.999994873047,4|2,0:3|0:0,0:0:0:0:
