osu file format v14

[General]
AudioFilename: audio.mp3
AudioLeadIn: 0
PreviewTime: 126786
Countdown: 0
SampleSet: Drum
StackLeniency: 0.7
Mode: 0
LetterboxInBreaks: 0
WidescreenStoryboard: 0

[Editor]
Bookmarks: 5493,27562,46872,60665,82734,104803,126872,137907,148941,171010
DistanceSpacing: 0.8
BeatDivisor: 6
GridSize: 8
TimelineZoom: 1.5

[Metadata]
Title:Prometheus
TitleUnicode:Prometheus
Artist:Rameses B
ArtistUnicode:Rameses B
Creator:Sotarks
Version:Line of Sight
Source:
Tags:marathon monstercat uncaged monster cat hybrid psy psytrance techstep dnb drum and n bass neurofunk psychadelic edm electronic dance english instrumental lexa on osu
BeatmapID:3680704
BeatmapSetID:1795606

[Difficulty]
HPDrainRate:6
CircleSize:4
OverallDifficulty:9
ApproachRate:9.4
SliderMultiplier:1.72
SliderTickRate:1

[Events]
//Background and Video events
0,0,"bg.jpg",0,0
Video,0,"video.mp4"
//Break Periods
2,49831,55642
2,178451,202734
2,248451,251849
//Storyboard Layer 0 (Background)
//Storyboard Layer 1 (Fail)
//Storyboard Layer 2 (Pass)
//Storyboard Layer 3 (Foreground)
//Storyboard Layer 4 (Overlay)
//Storyboard Sound Samples

[TimingPoints]
-24,344.827586206897,4,3,1,10,1,0
5148,-100,4,3,1,5,0,0
5493,-100,4,3,2,30,0,0
6010,-192.307692307692,4,3,2,30,0,0
6527,-312.5,4,3,2,30,0,0
6872,-192.307692307692,4,3,2,30,0,0
7389,-833.333333333333,4,3,2,30,0,0
8251,-192.307692307692,4,3,2,30,0,0
9286,-454.545454545455,4,3,2,30,0,0
9631,-192.307692307692,4,3,2,30,0,0
10665,-454.545454545455,4,3,2,30,0,0
11010,-192.307692307692,4,3,1,30,0,0
12907,-833.333333333333,4,3,1,30,0,0
13769,-192.307692307692,4,3,1,30,0,0
14803,-454.545454545455,4,3,2,30,0,0
17044,-192.307692307692,4,3,2,30,0,0
17562,-312.5,4,3,2,30,0,0
17907,-192.307692307692,4,3,2,30,0,0
18424,-833.333333333333,4,3,2,30,0,0
19286,-192.307692307692,4,3,2,30,0,0
20320,-454.545454545455,4,3,2,30,0,0
21182,-192.307692307692,4,3,2,30,0,0
21700,-454.545454545455,4,3,2,30,0,0
22044,-192.307692307692,4,3,1,30,0,0
23941,-833.333333333333,4,3,1,30,0,0
24803,-192.307692307692,4,3,2,30,0,0
27044,-138.888888888889,4,3,2,30,0,0
27475,-138.888888888889,4,3,1,5,0,0
27562,-138.888888888889,4,3,2,40,0,0
27907,-98.0392156862746,4,3,1,40,0,0
28251,-98.0392156862746,4,3,2,40,0,0
28596,-138.888888888889,4,3,2,40,0,0
28941,-121.951219512195,4,3,2,40,0,0
29286,-98.0392156862746,4,3,1,40,0,0
29631,-98.0392156862746,4,3,2,40,0,0
29803,-138.888888888889,4,3,2,40,0,0
30665,-98.0392156862746,4,3,1,40,0,0
31010,-98.0392156862746,4,3,2,40,0,0
31355,-138.888888888889,4,3,2,40,0,0
31700,-121.951219512195,4,3,2,40,0,0
32044,-98.0392156862746,4,3,1,40,0,0
32389,-98.0392156862746,4,3,2,40,0,0
32734,-138.888888888889,4,3,2,40,0,0
33079,-121.951219512195,4,3,2,40,0,0
33424,-98.0392156862746,4,3,1,40,0,0
33769,-75.7575757575758,4,3,2,40,0,0
34286,-89.2857142857143,4,3,2,40,0,0
34803,-98.0392156862745,4,3,1,40,0,0
35148,-98.0392156862745,4,3,2,40,0,0
35320,-138.888888888889,4,3,2,40,0,0
36182,-98.0392156862745,4,3,1,40,0,0
36527,-98.0392156862745,4,3,2,40,0,0
36872,-138.888888888889,4,3,2,40,0,0
37217,-121.951219512195,4,3,2,40,0,0
37562,-98.0392156862745,4,3,1,40,0,0
37907,-98.0392156862745,4,3,2,40,0,0
38079,-108.695652173913,4,3,2,40,0,0
38941,-98.0392156862745,4,3,1,40,0,0
39286,-98.0392156862745,4,3,2,40,0,0
39631,-138.888888888889,4,3,2,40,0,0
39976,-121.951219512195,4,3,2,40,0,0
40320,-98.0392156862745,4,3,1,40,0,0
40665,-75.7575757575758,4,3,2,40,0,0
41182,-89.2857142857143,4,3,2,40,0,0
41700,-98.0392156862745,4,3,1,40,0,0
42044,-98.0392156862745,4,3,2,40,0,0
42389,-138.888888888889,4,3,2,40,0,0
42734,-121.951219512195,4,3,2,40,0,0
43079,-98.0392156862745,4,3,1,40,0,0
43424,-98.0392156862745,4,3,2,40,0,0
43769,-138.888888888889,4,3,2,40,0,0
44113,-81.9672131147542,4,3,1,40,0,0
44458,-98.0392156862745,4,3,1,40,0,0
44803,-98.0392156862745,4,3,2,40,0,0
45148,-81.9672131147542,4,3,2,40,0,0
45493,-121.951219512195,4,3,2,40,0,0
45838,-98.0392156862744,4,3,1,40,0,0
46182,-98.0392156862744,4,3,2,40,0,0
46355,-138.888888888889,4,3,2,40,0,0
60665,-61.7283950617284,4,3,1,50,0,0
61182,-81.9672131147541,4,3,1,50,0,0
62044,-121.951219512195,4,3,1,50,0,0
62734,-121.951219512195,4,3,1,45,0,0
64286,-108.695652173913,4,3,1,45,0,0
64976,-89.2857142857142,4,3,2,50,0,0
66182,-61.7283950617284,4,3,2,50,0,0
66527,-61.7283950617284,4,3,1,50,0,0
66700,-81.9672131147541,4,3,1,50,0,0
68079,-70.4225352112676,4,3,1,50,0,0
68596,-81.9672131147541,4,3,1,45,0,0
69113,-98.0392156862745,4,3,1,40,0,0
69631,-121.951219512195,4,3,1,40,0,0
70320,-161.290322580645,4,3,1,40,0,0
70665,-121.951219512195,4,3,1,40,0,0
71010,-98.0392156862744,4,3,1,40,0,0
71355,-81.9672131147541,4,3,1,40,0,0
71699,-81.9672131147541,4,3,2,50,0,0
72044,-98.0392156862745,4,3,2,46,0,0
72734,-98.0392156862745,4,3,2,42,0,0
73424,-98.0392156862745,4,3,2,38,0,0
74113,-98.0392156862745,4,3,2,34,0,0
74286,-70.4225352112676,4,3,1,34,0,0
74458,-70.4225352112676,4,3,1,50,0,0
75665,-75.7575757575758,4,3,1,50,0,0
77044,-81.9672131147541,4,3,1,50,0,0
77216,-81.9672131147541,4,3,1,60,0,0
77389,-70.4225352112676,4,3,2,58,0,0
77907,-70.4225352112676,4,3,2,56,0,0
78079,-98.0392156862745,4,3,2,56,0,0
78424,-70.4225352112676,4,3,2,56,0,0
78596,-70.4225352112676,4,3,2,54,0,0
79286,-70.4225352112676,4,3,2,52,0,0
80320,-81.9672131147541,4,3,2,52,0,0
81355,-70.4225352112676,4,3,2,52,0,0
81700,-75.7575757575758,4,3,2,52,0,0
82044,-81.9672131147541,4,3,2,52,0,0
82389,-89.2857142857143,4,3,2,52,0,0
82734,-192.307692307692,4,3,1,50,0,0
83079,-54.9450549450549,4,3,1,50,0,0
83769,-108.695652173913,4,3,1,50,0,0
84113,-192.307692307692,4,3,1,50,0,0
84458,-54.9450549450549,4,3,1,50,0,0
85148,-108.695652173913,4,3,1,50,0,0
85493,-192.307692307692,4,3,1,50,0,0
85838,-54.9450549450549,4,3,1,50,0,0
86527,-108.695652173913,4,3,1,50,0,0
86872,-192.307692307692,4,3,1,50,0,0
87217,-54.9450549450549,4,3,1,50,0,0
87562,-54.9450549450549,4,3,2,50,0,0
87907,-108.695652173913,4,3,2,50,0,0
88251,-192.307692307692,4,3,2,50,0,0
88596,-54.9450549450549,4,3,1,50,0,0
89286,-108.695652173913,4,3,1,50,0,0
89631,-192.307692307692,4,3,1,50,0,0
89976,-54.9450549450549,4,3,1,50,0,0
90320,-89.2857142857143,4,3,1,50,0,0
90838,-70.4225352112676,4,3,1,50,0,0
91010,-192.307692307692,4,3,1,50,0,0
91355,-54.9450549450549,4,3,1,50,0,0
91700,-89.2857142857143,4,3,1,50,0,0
92044,-108.695652173913,4,3,2,55,0,0
92562,-192.307692307692,4,3,2,55,0,0
92734,-54.9450549450549,4,3,1,55,0,0
93079,-54.9450549450549,4,3,2,55,0,0
93769,-54.9450549450549,4,3,1,60,0,0
97217,-54.9450549450549,4,3,2,60,0,0
98251,-54.9450549450549,4,3,1,60,0,0
98596,-54.9450549450549,4,3,2,60,0,0
99286,-81.9672131147541,4,3,2,60,0,0
102044,-89.2857142857143,4,3,2,60,0,0
103424,-89.2857142857143,4,3,1,60,0,0
104803,-89.2857142857143,4,3,2,70,0,0
105493,-81.9672131147541,4,3,1,70,0,0
107562,-81.9672131147541,4,3,1,72,0,0
108596,-70.4225352112676,4,3,1,72,0,0
109286,-81.9672131147541,4,3,1,72,0,0
109631,-81.9672131147541,4,3,2,72,0,0
110320,-89.2857142857143,4,3,1,74,0,0
110665,-81.9672131147541,4,3,1,74,0,0
113079,-81.9672131147541,4,3,1,76,0,0
113769,-70.4225352112676,4,3,1,76,0,0
114458,-70.4225352112676,4,3,2,76,0,0
114976,-89.2857142857143,4,3,2,76,0,0
115838,-81.9672131147541,4,3,1,78,0,0
116872,-70.4225352112676,4,3,1,78,0,0
117217,-81.9672131147541,4,3,1,78,0,0
118596,-81.9672131147541,4,3,1,80,0,0
119286,-70.4225352112676,4,3,2,80,0,0
119976,-89.2857142857143,4,3,1,80,0,0
120320,-54.9450549450549,4,3,1,80,0,0
120665,-89.2857142857143,4,3,1,80,0,0
121010,-54.9450549450549,4,3,1,80,0,0
121355,-192.307692307692,4,3,1,70,0,0
121700,-138.888888888889,4,3,1,70,0,0
122734,-192.307692307692,4,3,1,70,0,0
123079,-138.888888888889,4,3,1,70,0,0
125838,-81.9672131147542,4,3,1,70,0,0
126527,-70.4225352112676,4,3,1,70,0,0
126872,-70.4225352112676,4,3,1,80,0,0
132389,-70.4225352112676,4,3,1,85,0,0
132734,-58.1395348837209,4,3,1,85,0,0
134113,-54.9450549450549,4,3,1,85,0,0
135493,-52.0833333333333,4,3,1,85,0,0
136527,-65.7894736842105,4,3,2,85,0,0
136872,-54.9450549450549,4,3,2,85,0,0
137044,-70.4225352112676,4,3,2,85,0,0
137562,-312.5,4,3,2,80,0,0
137907,-70.4225352112676,4,3,1,100,0,1
138941,-61.7283950617284,4,3,1,100,0,1
139286,-70.4225352112676,4,3,1,100,0,1
140320,-61.7283950617284,4,3,1,100,0,1
140665,-70.4225352112676,4,3,1,100,0,1
141700,-61.7283950617284,4,3,1,100,0,1
142044,-98.0392156862745,4,3,1,100,0,1
142389,-81.9672131147541,4,3,1,100,0,1
142734,-98.0392156862745,4,3,1,100,0,1
143079,-81.9672131147541,4,3,1,100,0,1
143424,-81.9672131147541,4,3,1,95,0,1
146182,-70.4225352112676,4,3,1,90,0,1
148596,-54.9450549450549,4,3,1,90,0,1
148941,-192.307692307692,4,3,1,60,0,0
158596,-81.967213114754,4,3,2,60,0,0
159286,-192.307692307692,4,3,2,60,0,0
159803,-81.967213114754,4,3,2,60,0,0
159976,-121.951219512195,4,3,1,70,0,0
165148,-108.695652173913,4,3,1,70,0,0
165493,-121.951219512195,4,3,1,70,0,0
171010,-454.545454545452,4,3,1,70,0,0
203424,-833.333333333326,4,3,1,70,0,0
204113,-833.333333333326,4,3,1,40,0,0
210090,-454.545454545452,4,3,1,40,0,0
215148,-192.307692307692,4,3,1,40,0,0
222187,-192.307692307692,4,3,1,30,0,0
222504,-192.307692307692,4,3,1,40,0,0
226182,-138.888888888889,4,3,2,50,0,0
237217,-121.951219512195,4,3,2,50,0,0
251010,-121.951219512195,4,2,1,50,0,0
252964,-121.951219512195,4,3,1,50,0,0
253424,-81.967213114754,4,3,1,50,0,0
253769,-454.545454545455,4,3,1,60,0,0
255838,-454.545454545455,4,3,2,60,0,0
256527,-454.545454545455,4,3,1,60,0,0
256785,-454.545454545455,4,3,1,40,0,0
256872,-454.545454545455,4,3,1,60,0,0
257907,-81.9672131147541,4,3,1,65,0,0
258596,-70.4225352112676,4,3,1,65,0,0
259286,-454.545454545455,4,3,1,60,0,0
262044,-81.9672131147541,4,3,1,65,0,0
263424,-75.7575757575758,4,3,1,70,0,0
264803,-454.545454545455,4,3,1,60,0,0
267562,-70.4225352112676,4,3,1,60,0,0
267907,-454.545454545455,4,3,1,60,0,0
270320,-70.4225352112676,4,3,1,60,0,0
270665,-454.545454545455,4,3,1,60,0,0
271700,-70.4225352112676,4,3,1,60,0,0
272044,-454.545454545455,4,3,1,60,0,0
273079,-54.9450549450549,4,3,1,60,0,0
273424,-454.545454545455,4,3,1,60,0,0
274458,-238.095238095238,4,3,1,65,0,0
274803,-238.095238095238,4,3,1,70,0,0
275148,-238.095238095238,4,3,1,75,0,0
275838,-54.9450549450549,4,3,1,80,0,0
285493,-54.9450549450549,4,3,2,80,0,0
287217,-45.045045045045,4,3,1,85,0,0
287562,-54.9450549450549,4,3,1,85,0,0
288596,-45.045045045045,4,3,1,85,0,0
288941,-54.9450549450549,4,3,1,85,0,0
289976,-45.045045045045,4,3,1,85,0,0
290320,-54.9450549450549,4,3,1,85,0,0
291355,-45.045045045045,4,3,1,85,0,0
293079,-54.9450549450549,4,3,1,85,0,0
294113,-45.045045045045,4,3,1,85,0,0
294458,-70.4225352112676,4,3,1,85,0,0
295148,-70.4225352112676,4,3,1,70,0,0
297102,-70.4225352112676,4,3,1,60,0,0
297907,-81.9672131147541,4,3,1,80,0,0
298251,-61.7283950617284,4,3,1,80,0,0
299286,-81.9672131147541,4,3,1,80,0,0
299630,-61.7283950617284,4,3,1,80,0,0
302044,-81.9672131147541,4,3,1,80,0,0
302388,-61.7283950617284,4,3,1,80,0,0
302389,-98.0392156862745,4,3,1,80,0,0
303079,-54.9450549450549,4,3,1,80,0,0
303424,-81.9672131147541,4,3,1,85,0,0
303769,-61.7283950617284,4,3,1,85,0,0
304803,-81.9672131147541,4,3,1,85,0,0
305148,-61.7283950617284,4,3,1,85,0,0
306182,-81.9672131147541,4,3,1,85,0,0
306527,-61.7283950617284,4,3,1,85,0,0
308251,-70.4225352112676,4,3,1,85,0,0
308596,-98.0392156862745,4,3,1,85,0,0
308941,-98.0392156862745,4,3,1,80,0,0
311700,-81.9672131147541,4,3,1,80,0,0
312734,-121.951219512195,4,3,1,80,0,0
313769,-192.307692307692,4,3,1,80,0,0
314458,-98.0392156862745,4,3,1,80,0,0
317217,-98.0392156862745,4,3,1,85,0,0
319976,-312.5,4,3,1,90,0,0
324458,-121.951219512195,4,3,1,90,0,0
324803,-70.4225352112676,4,3,1,90,0,0
325148,-121.951219512195,4,3,1,90,0,0
325493,-312.5,4,3,1,80,0,0
325838,-121.951219512195,4,3,1,80,0,0
326872,-312.5,4,3,1,80,0,0
327217,-121.951219512195,4,3,1,80,0,0
328251,-312.5,4,3,1,80,0,0
328596,-121.951219512195,4,3,1,80,0,0
329631,-312.5,4,3,1,80,0,0
329976,-121.951219512195,4,3,1,80,0,0
330090,-121.951219512195,4,3,2,80,0,0
330320,-121.951219512195,4,3,1,80,0,0
331010,-89.2857142857142,4,3,1,70,0,0
331355,-75.7575757575758,4,3,1,70,0,0
332389,-89.2857142857142,4,3,1,70,0,0
332734,-75.7575757575758,4,3,1,70,0,0
333769,-89.2857142857142,4,3,1,70,0,0
334113,-75.7575757575758,4,3,1,70,0,0
335148,-833.333333333333,4,3,1,70,0,0
336527,-833.333333333333,4,3,1,50,0,0
339286,-192.307692307692,4,3,1,60,0,0
340665,-138.888888888889,4,3,1,70,0,0
341700,-81.9672131147541,4,3,1,70,0,0
342044,-454.545454545455,4,2,1,70,0,0
342159,-833.333333333333,4,2,1,70,0,0
342389,-833.333333333333,4,2,1,40,0,0
342734,-833.333333333333,4,2,1,20,0,0

[Colours]
Combo1 : 214,73,133
Combo2 : 181,183,191
Combo3 : 183,173,209
Combo4 : 82,67,211
Combo5 : 151,205,225
Combo6 : 74,132,129
Combo7 : 70,183,166
Combo8 : 189,60,180

[HitObjects]
256,192,320,12,0,5148,0:0:0:0:
92,217,5493,5,6,0:0:0:0:
119,283,5665,1,2,0:0:0:0:
186,255,5838,1,4,0:0:0:0:
272,334,6010,6,0,P|214:343|178:368,1,89.4400000000002,2|0,0:0|0:2,0:0:0:0:
339,276,6527,102,0,P|317:258|298:252,1,41.28,2|0,0:0|0:0,0:0:0:0:
285,249,6872,6,0,L|273:194,1,44.7200000000001,4|2,0:0|0:0,0:0:0:0:
366,154,7217,1,4,0:0:0:0:
362,143,7389,102,0,L|351:94,1,46.44,4|0,0:0|0:0,0:0:0:0:
346,81,8251,6,0,L|292:94,1,44.7200000000001,4|0,0:0|0:0,0:0:0:0:
205,61,8596,1,4,0:0:0:0:
187,65,8769,1,4,0:0:0:0:
151,182,9113,1,0,0:0:0:0:
167,178,9286,102,0,L|200:171,1,28.38,4|0,0:0|0:0,0:0:0:0:
218,165,9631,6,0,L|228:217,1,44.7200000000001,4|0,0:0|0:0,0:0:0:0:
174,295,9976,1,4,0:0:0:0:
181,314,10148,1,4,0:0:0:0:
312,343,10493,1,0,0:0:0:0:
307,326,10665,2,0,L|300:297,1,28.38,4|0,0:0|0:0,0:0:0:0:
294,277,11010,102,0,P|325:255|385:253,1,89.4400000000002,6|0,0:0|0:2,0:0:0:0:
317,109,11527,2,0,P|341:146|380:165,1,89.4400000000002,2|0,0:0|0:2,0:0:0:0:
226,217,12044,2,0,P|241:184|237:139,1,67.0800000000001,2|0,0:0|0:0,0:0:0:0:
230,128,12389,5,4,0:0:0:0:
156,151,12562,1,2,0:0:0:0:
233,122,12734,1,4,0:0:0:0:
154,156,12907,102,0,L|141:112,1,46.44,4|0,0:0|0:0,0:0:0:0:
136,91,13769,6,0,L|86:79,1,44.7200000000001,4|0,0:0|0:0,0:0:0:0:
25,158,14113,1,4,0:0:0:0:
45,152,14286,1,4,0:0:0:0:
120,248,14631,1,0,0:0:0:0:
100,244,14803,102,0,L|66:238,1,28.38,4|0,0:0|0:0,0:0:0:0:
49,233,15148,5,4,0:0:0:0:
347,350,16527,101,6,0:0:0:0:
286,310,16700,1,2,0:0:0:0:
224,344,16872,1,4,0:0:0:0:
333,254,17044,6,0,P|303:226|248:216,1,89.4400000000002,6|0,0:0|0:2,0:0:0:0:
399,284,17562,102,0,P|410:261|409:236,1,41.28,2|0,0:0|0:0,0:0:0:0:
405,223,17907,6,0,L|396:175,1,44.7200000000001,4|2,0:0|0:0,0:0:0:0:
457,109,18251,1,4,0:0:0:0:
452,90,18424,102,0,L|443:44,1,46.44
438,23,19286,6,0,L|391:41,1,44.7200000000001,4|0,0:0|0:0,0:0:0:0:
298,82,19631,1,4,0:0:0:0:
279,74,19803,1,4,0:0:0:0:
173,24,20148,1,0,0:0:0:0:
160,30,20320,102,0,L|126:43,1,28.38,4|0,0:0|0:0,0:0:0:0:
110,51,20665,5,4,0:0:0:0:
84,115,20838,1,0,0:0:0:0:
129,181,21010,1,4,0:0:0:0:
82,260,21182,2,0,B|76:267|76:267|94:321|94:321|93:321|93:321|106:365|106:365|102:375,1,111.8,4|0,0:0|0:0,0:0:0:0:
121,382,21700,102,0,L|153:370,1,28.38,4|0,0:0|0:0,0:0:0:0:
172,356,22044,6,0,B|179:355|179:355|266:378,1,89.4400000000002,6|0,0:0|0:0,0:0:0:0:
188,245,22562,2,0,B|195:244|195:244|282:267,1,89.4400000000002,2|0,0:0|0:0,0:0:0:0:
196,128,23079,2,0,B|203:127|203:127|274:144,1,67.0800000000001,2|0,0:0|0:0,0:0:0:0:
281,148,23424,101,4,0:0:0:0:
271,64,23596,1,2,0:0:0:0:
286,150,23769,1,4,0:0:0:0:
267,58,23941,6,0,L|313:50,1,46.44
357,20,24803,102,0,L|346:56,1,22.36,0|0,1:0|0:0,0:0:0:0:
391,132,24976,2,0,L|384:153,1,22.36
367,220,25148,1,4,0:0:0:0:
422,323,25320,1,0,0:0:0:0:
282,278,25493,2,0,L|271:314,1,22.36,2|0,0:0|0:0,0:0:0:0:
202,351,25665,2,0,L|191:387,1,22.36
116,320,25838,1,0,0:0:0:0:
222,210,26010,1,4,0:0:0:0:
143,169,26182,1,4,0:0:0:0:
196,108,26355,2,0,L|202:86,1,22.36
152,0,26527,2,0,L|127:71,1,67.0800000000001
90,92,26872,2,0,L|96:70,1,22.36
39,9,27044,6,0,B|57:96|57:96|52:96|52:96|81:179,1,154.8,0|0,1:0|0:0,0:0:0:0:
61,182,27562,101,6,0:0:0:0:
196,108,27734,1,2,0:0:0:0:
161,292,27907,2,0,P|152:272|136:248,1,43.86,2|0,0:0|0:0,0:0:0:0:
262,196,28079,2,0,P|250:214|241:234,1,43.86,2|0,0:0|0:0,0:0:0:0:
230,377,28251,1,0,1:0:0:0:
294,297,28424,1,2,0:0:0:0:
234,363,28596,6,0,B|241:360|241:360|339:388,1,92.8799999999999,4|0,0:0|0:0,0:0:0:0:
345,372,28941,102,0,L|426:356,1,70.5200000000001,4|2,0:0|0:0,0:0:0:0:
334,192,29286,2,0,P|347:212|357:240,1,43.86,2|0,0:0|0:0,0:0:0:0:
243,180,29458,2,0,P|251:159|263:141,1,43.86,2|0,0:0|0:0,0:0:0:0:
398,66,29631,1,0,1:0:0:0:
348,0,29803,6,0,B|283:10|283:10|275:28|275:28|221:58,1,123.84,2|2,0:0|0:0,0:0:0:0:
29,196,30320,101,4,0:0:0:0:
65,115,30493,1,0,0:0:0:0:
143,290,30665,2,0,P|132:265|128:244,1,43.86,2|0,0:0|0:0,0:0:0:0:
232,167,30838,2,0,P|226:188|217:208,1,43.86,2|0,0:0|0:0,0:0:0:0:
280,330,31010,1,0,1:0:0:0:
326,242,31182,1,2,0:0:0:0:
272,318,31355,6,0,B|279:315|279:315|377:343,1,92.8799999999999,4|0,0:0|0:0,0:0:0:0:
383,327,31700,102,0,L|456:311,1,70.5200000000001,4|0,0:0|0:0,0:0:0:0:
451,114,32044,6,0,P|422:150|415:163,1,43.86,2|0,0:0|0:0,0:0:0:0:
316,52,32217,2,0,P|330:68|343:85,1,43.86,2|0,0:0|0:0,0:0:0:0:
211,171,32389,1,0,1:0:0:0:
162,71,32562,1,2,0:0:0:0:
218,161,32734,102,0,B|211:158|211:158|129:181,1,92.8799999999999,4|0,0:0|0:0,0:0:0:0:
112,179,33079,6,0,L|42:161,1,70.5200010760498,4|0,0:0|0:0,0:0:0:0:
159,355,33424,2,0,P|142:311|137:306,1,43.86,2|0,0:0|0:0,0:0:0:0:
233,230,33596,2,0,P|222:249|218:270,1,43.86,2|0,0:0|0:0,0:0:0:0:
368,358,33769,102,0,B|350:328|333:298|333:298|343:288|343:288|350:240|358:189,1,170.28,0|0,1:0|0:0,0:0:0:0:
359,179,34113,1,0,0:0:0:0:
380,351,34286,6,0,B|347:301|347:301|361:290|361:290|371:212,1,144.48,2|0,0:0|0:0,0:0:0:0:
372,194,34631,1,2,0:0:0:0:
256,58,34803,102,0,P|278:104|284:110,1,43.86,2|0,0:0|0:0,0:0:0:0:
183,191,34976,2,0,P|193:172|199:151,1,43.86,2|0,0:0|0:0,0:0:0:0:
48,57,35148,1,0,1:0:0:0:
106,145,35320,6,0,B|41:155|41:155|33:173|33:173|-21:203,1,123.84,2|2,0:0|0:0,0:0:0:0:
145,357,35838,101,4,0:0:0:0:
106,289,36010,1,0,0:0:0:0:
285,334,36182,2,0,P|306:291|314:281,1,43.86,2|0,0:0|0:0,0:0:0:0:
212,214,36355,2,0,P|222:233|230:253,1,43.86,2|0,0:0|0:0,0:0:0:0:
392,359,36527,1,0,1:0:0:0:
426,263,36700,1,2,0:0:0:0:
384,349,36872,6,0,B|391:352|391:352|472:328,1,92.8799999999999,4|0,0:0|0:0,0:0:0:0:
493,322,37217,102,0,L|504:246,1,70.5200000000001,4|0,0:0|0:0,0:0:0:0:
386,99,37562,2,0,P|404:145|411:155,1,43.86,2|0,0:0|0:0,0:0:0:0:
320,224,37734,2,0,P|329:204|334:182,1,43.86,2|0,0:0|0:0,0:0:0:0:
196,65,37907,1,0,1:0:0:0:
237,160,38079,6,0,B|198:173|53:146|109:78|163:119|155:179,1,197.8
142,194,38596,101,6,0:0:0:0:
80,287,38769,1,2,0:0:0:0:
253,256,38941,2,0,P|264:287|277:311,1,43.86,2|0,0:0|0:0,0:0:0:0:
189,382,39113,2,0,P|198:362|204:341,1,43.86,2|0,0:0|0:0,0:0:0:0:
362,237,39286,1,0,1:0:0:0:
402,329,39458,1,2,0:0:0:0:
346,246,39631,6,0,B|353:249|353:249|434:225,1,92.8799999999999,4|0,0:0|0:0,0:0:0:0:
459,230,39976,102,0,L|472:153,1,70.5200000000001,4|2,0:0|0:0,0:0:0:0:
354,26,40320,2,0,P|365:53|379:74,1,43.86,2|0,0:0|0:0,0:0:0:0:
275,138,40493,2,0,P|285:119|293:98,1,43.86,2|0,0:0|0:0,0:0:0:0:
142,45,40665,6,0,B|141:97|141:97|164:109|164:109|200:220,1,170.28,0|0,1:0|0:0,0:0:0:0:
203,221,41010,1,0,0:0:0:0:
61,98,41182,102,0,B|60:146|60:146|81:158|81:158|115:262,1,144.48,2|0,0:0|0:0,0:0:0:0:
111,247,41527,1,2,0:0:0:0:
226,370,41700,6,0,P|247:318|255:306,1,43.86,2|0,0:0|0:0,0:0:0:0:
280,224,41872,2,0,P|288:244|294:265,1,43.86,2|0,0:0|0:0,0:0:0:0:
462,353,42044,1,0,1:0:0:0:
426,244,42217,1,2,0:0:0:0:
469,342,42389,102,0,B|462:339|462:339|380:362,1,92.8799999999999,4|0,0:0|0:0,0:0:0:0:
355,356,42734,6,0,L|278:340,1,70.5200000000001,4|0,0:0|0:0,0:0:0:0:
106,272,43079,2,0,P|135:313|138:327,1,43.86,2|0,0:0|0:0,0:0:0:0:
251,221,43251,2,0,P|235:236|224:255,1,43.86,2|0,0:0|0:0,0:0:0:0:
113,132,43424,1,0,1:0:0:0:
202,81,43596,1,2,0:0:0:0:
101,128,43769,102,0,B|97:121|97:121|116:38,1,92.8799999999999,4|0,0:0|0:0,0:0:0:0:
124,17,44113,6,0,B|167:-1|205:33|184:46|231:81|293:46,1,157.38,6|0,0:0|0:0,0:0:0:0:
286,52,44458,102,0,P|297:32|299:6,1,43.86,2|0,0:0|0:0,0:0:0:0:
406,102,44631,2,0,P|395:82|393:56,1,43.86,2|0,0:0|0:0,0:0:0:0:
315,237,44803,1,0,1:0:0:0:
415,199,44976,1,2,0:0:0:0:
313,247,45148,6,0,B|270:265|232:231|253:218|206:183|144:218,1,157.38,4|0,0:0|0:0,0:0:0:0:
152,222,45493,102,0,L|134:153,1,70.5200000000001,4|0,0:0|0:0,0:0:0:0:
298,105,45838,2,0,P|276:97|249:83,1,43.86,2|0,0:0|0:0,0:0:0:0:
245,294,46010,2,0,P|264:284|285:277,1,43.86,2|0,0:0|0:0,0:0:0:0:
405,151,46182,1,0,1:0:0:0:
470,236,46355,6,0,B|498:176|498:176|487:159|487:159|492:98,1,123.84,2|2,0:0|0:0,0:0:0:0:
490,121,46872,101,4,0:0:0:0:
256,192,46958,12,4,49631,0:0:0:0:
256,192,56182,12,0,60493,0:0:0:0:
256,192,60665,54,0,B|185:177|185:177|152:255|152:255|94:270,1,208.98,4|0,0:0|0:0,0:0:0:0:
76,275,61010,1,0,1:0:0:0:
137,117,61182,2,0,B|125:96|125:96|127:94|127:94|116:64,1,52.46,2|0,0:0|0:0,0:0:0:0:
57,125,61355,1,4,0:0:0:0:
181,22,61527,1,0,0:0:0:0:
256,192,61700,1,0,1:0:0:0:
322,132,61872,1,0,0:0:0:0:
438,188,62044,6,0,P|392:194|309:230,1,105.78,4|0,0:0|0:0,0:0:0:0:
336,214,62389,1,0,1:0:0:0:
395,274,62562,1,0,0:0:0:0:
260,369,62734,101,6,0:0:0:0:
256,350,62907,1,0,0:0:0:0:
180,376,63079,1,0,1:0:0:0:
294,220,63251,5,2,0:0:0:0:
290,201,63424,1,4,0:0:0:0:
214,227,63596,1,0,0:0:0:0:
334,61,63769,101,2,1:3:0:0:
330,42,63941,1,0,0:0:0:0:
254,68,64113,1,4,0:0:0:0:
395,148,64286,6,0,B|394:138|394:138|409:101,1,39.56,2|0,0:0|0:0,0:0:0:0:
416,88,64458,1,0,1:0:0:0:
474,254,64631,2,0,B|473:244|473:244|488:207,1,39.56
494,197,64803,1,4,0:0:0:0:
281,227,64976,102,0,B|284:212|284:212|370:241,1,96.3200000000001,2|0,0:0|1:0,0:0:0:0:
198,171,65320,1,0,0:0:0:0:
229,371,65493,2,0,B|226:356|226:356|140:385,1,96.3200000000001,2|4,0:0|0:0,0:0:0:0:
312,315,65838,1,0,1:0:0:0:
91,228,66010,2,0,L|108:281,1,48.16,2|0,0:0|0:0,0:0:0:0:
114,297,66182,6,0,B|150:227|150:227|113:197|113:197|123:85,1,208.98,4|0,0:0|0:0,0:0:0:0:
124,87,66527,1,0,1:0:0:0:
281,227,66700,2,0,B|293:206|293:206|291:204|291:204|302:174,1,52.46,2|0,0:0|0:0,0:0:0:0:
215,175,66872,1,4,0:0:0:0:
361,106,67044,1,0,0:0:0:0:
292,309,67217,1,0,1:0:0:0:
359,258,67389,1,0,0:0:0:0:
281,227,67562,1,4,0:0:0:0:
283,219,67734,1,0,0:0:0:0:
478,298,67907,1,0,1:0:0:0:
397,214,68079,102,0,B|378:262|378:262|388:265|388:265|396:343|437:389,1,183.18,2|0,0:0|0:0,0:0:0:0:
427,377,68424,1,0,0:0:0:0:
301,217,68596,2,0,B|261:234|261:234|265:242|265:242|223:293|220:345,1,157.38,2|0,1:3|0:0,0:0:0:0:
221,336,68941,1,4,0:0:0:0:
245,153,69113,2,0,B|209:138|209:138|206:146|206:146|148:152|114:182,1,131.58,2|0,0:0|0:0,0:0:0:0:
126,173,69458,1,0,0:0:0:0:
255,73,69631,2,0,B|241:41|241:41|235:44|235:44|195:12|154:9,1,105.78,4|0,0:0|0:0,0:0:0:0:
178,14,69976,1,0,1:0:0:0:
333,96,70148,1,0,0:0:0:0:
464,59,70320,6,0,L|445:96,1,26.66,4|0,0:0|0:0,0:0:0:0:
462,100,70493,2,0,L|474:76,1,26.66,4|0,0:0|0:0,0:0:0:0:
323,61,70665,2,0,L|336:109,1,35.26,0|0,1:0|0:0,0:0:0:0:
372,112,70838,2,0,L|361:79,1,35.26,4|0,0:0|0:0,0:0:0:0:
199,194,71010,2,0,L|249:224,1,43.86,4|0,0:0|0:0,0:0:0:0:
305,171,71182,2,0,L|265:152,1,43.86
255,358,71355,2,0,L|321:340,1,52.46,0|0,1:0|0:0,0:0:0:0:
345,279,71527,2,0,B|312:278|312:278|296:303|296:303|235:337,1,104.92,0|4,0:0|0:0,0:0:0:0:
62,162,72044,102,0,B|74:190|74:190|73:192|73:192|87:216,1,43.86,2|0,1:3|0:0,0:0:0:0:
126,121,72217,1,0,0:0:0:0:
74,312,72389,1,6,0:0:0:0:
133,273,72562,1,2,0:0:0:0:
261,310,72734,2,0,B|266:300|266:300|265:298|265:298|277:270,1,43.86,0|0,1:3|0:0,0:0:0:0:
304,372,72907,1,2,0:0:0:0:
452,268,73079,1,6,0:0:0:0:
392,227,73251,1,0,0:0:0:0:
493,123,73424,2,0,B|487:113|487:113|488:111|488:111|476:83,1,43.86,2|0,1:3|0:0,0:0:0:0:
445,17,73596,1,2,0:0:0:0:
304,115,73769,1,4,0:0:0:0:
333,46,73941,1,2,0:0:0:0:
166,5,74113,2,0,B|178:33|178:33|177:35|177:35|182:44,1,43.86,2|0,1:3|0:0,0:0:0:0:
152,115,74286,2,0,B|119:90|119:90|74:133|74:133|38:130,1,122.12,2|4,0:0|0:0,0:0:0:0:
170,237,74631,5,0,0:0:0:0:
190,215,74717,1,0,0:0:0:0:
197,185,74803,1,0,1:0:0:0:
163,321,74976,1,0,0:0:0:0:
172,349,75062,1,0,0:0:0:0:
194,370,75148,1,6,0:0:0:0:
82,272,75320,1,0,0:0:0:0:
53,265,75407,1,0,0:0:0:0:
24,274,75493,1,0,1:0:0:0:
170,237,75665,2,0,B|200:227|200:227|204:231|204:231|230:219,1,56.76,2|0,0:0|0:0,0:0:0:0:
243,217,75838,101,4,0:0:0:0:
348,106,76010,1,2,0:0:0:0:
340,144,76096,1,0,0:0:0:0:
332,183,76182,1,0,1:0:0:0:
363,326,76355,2,0,B|393:316|393:316|397:320|397:320|423:308,1,56.76,2|0,0:0|0:0,0:0:0:0:
453,218,76527,1,4,0:0:0:0:
447,257,76613,1,0,0:0:0:0:
441,296,76700,1,6,0:0:0:0:
436,335,76786,1,0,0:0:0:0:
430,375,76872,1,0,1:0:0:0:
272,317,77044,2,0,B|324:296|324:296|373:333,1,104.92,2|4,0:0|0:0,0:0:0:0:
170,217,77389,6,0,B|166:206|166:206|101:225,1,61.06,2|0,0:0|0:0,0:0:0:0:
183,131,77562,1,0,1:0:0:0:
148,306,77734,1,2,0:0:0:0:
148,306,77820,1,0,0:0:0:0:
148,306,77907,2,0,B|152:295|152:295|217:314,1,61.06,4|0,0:0|0:0,0:0:0:0:
332,228,78079,2,0,P|311:234|290:238,1,43.86,2|0,0:0|0:0,0:0:0:0:
314,310,78251,2,0,P|335:303|357:300,1,43.86,0|0,1:0|0:0,0:0:0:0:
491,230,78424,2,0,B|487:241|487:241|439:227,1,61.06,2|0,0:0|0:0,0:0:0:0:
416,219,78596,101,4,0:0:0:0:
452,59,78769,1,2,0:0:0:0:
461,88,78855,1,0,0:0:0:0:
470,117,78941,5,0,1:0:0:0:
416,219,79113,1,0,0:0:0:0:
313,9,79286,1,4,0:0:0:0:
320,38,79372,1,0,0:0:0:0:
328,68,79458,1,0,0:0:0:0:
336,97,79544,1,0,0:0:0:0:
343,127,79631,101,0,1:0:0:0:
279,253,79803,1,0,0:0:0:0:
126,31,79976,5,4,0:0:0:0:
182,96,80148,1,0,0:0:0:0:
81,219,80320,2,0,P|111:214|136:199,1,52.46,0|0,1:0|0:0,0:0:0:0:
161,186,80493,1,4,0:0:0:0:
148,312,80665,1,4,0:0:0:0:
157,290,80838,1,0,0:0:0:0:
321,325,81010,2,0,P|291:320|266:305,1,52.46,0|0,1:0|0:0,0:0:0:0:
249,295,81182,1,0,0:0:0:0:
512,212,81355,102,0,B|479:224|479:224|464:267|463:336,1,122.12,4|0,0:0|0:0,0:0:0:0:
461,190,81700,6,0,B|426:183|426:183|391:212|356:271,1,113.52,0|0,1:0|0:0,0:0:0:0:
434,138,82044,102,0,B|407:116|407:116|362:124|302:157,1,104.92,4|4,0:0|0:0,0:0:0:0:
422,86,82389,6,0,B|410:55|410:55|370:40|305:39,1,96.32,0|0,1:0|0:0,0:0:0:0:
103,194,82734,102,0,P|96:175|105:189,1,67.0800000000001
124,311,83079,38,0,B|99:298|99:298|75:303|75:303|20:284,1,78.2600000000001,2|0,1:3|0:0,0:0:0:0:
39,85,83251,2,0,B|64:72|64:72|88:77|88:77|143:58,1,78.2600000000001,2|0,0:0|0:0,0:0:0:0:
226,235,83424,69,4,0:0:0:0:
203,139,83596,1,4,0:0:0:0:
324,219,83769,2,0,B|323:207|323:207|335:174,1,39.56,0|0,1:0|0:0,0:0:0:0:
341,154,83941,1,0,0:0:0:0:
454,199,84113,6,0,P|451:178|450:195,1,67.0800000000001,4|0,0:0|0:0,0:0:0:0:
414,81,84458,22,0,B|439:68|439:68|463:73|463:73|518:54,1,78.2600000000001,2|0,1:3|0:0,0:0:0:0:
490,318,84631,2,0,B|465:309|465:309|441:314|441:314|416:301,1,78.2600000000001,2|0,0:0|0:0,0:0:0:0:
315,135,84803,69,4,0:0:0:0:
338,231,84976,1,0,0:0:0:0:
217,151,85148,2,0,B|218:163|218:163|206:196,1,39.56,0|0,1:0|0:0,0:0:0:0:
180,228,85320,2,0,B|179:216|179:216|188:190,1,39.56,2|0,0:2|0:0,0:0:0:0:
257,30,85493,6,0,B|270:16|259:-3|259:-3|245:11|257:26,1,67.0800000000001,4|0,0:0|0:0,0:0:0:0:
163,42,85838,22,0,B|101:56|101:56|89:69,1,78.2600000000001,2|0,1:3|0:0,0:0:0:0:
353,71,86010,2,0,B|415:57|415:57|427:44,1,78.2600000000001,2|0,0:0|0:0,0:0:0:0:
183,136,86182,69,4,0:0:0:0:
310,175,86355,1,0,0:0:0:0:
213,260,86527,2,0,B|220:251|220:251|274:268,1,39.56,0|0,1:0|0:0,0:0:0:0:
270,267,86700,1,0,0:0:0:0:
257,354,86872,6,0,B|270:368|259:387|259:387|245:373|257:358,1,67.0800000000001,4|0,0:0|0:0,0:0:0:0:
154,342,87217,22,0,B|92:328|92:328|80:315,1,78.2600000000001,2|0,1:3|0:0,0:0:0:0:
360,304,87389,2,0,B|422:318|422:318|434:331,1,78.2600000000001,2|0,0:0|0:0,0:0:0:0:
193,246,87562,69,4,0:0:0:0:
312,206,87734,1,6,0:0:0:0:
213,124,87907,2,0,B|220:133|220:133|274:116,1,39.56,0|0,1:0|0:0,0:0:0:0:
277,110,88079,2,0,B|270:101|270:101|216:118,1,39.56,2|0,0:0|0:0,0:0:0:0:
104,56,88251,6,0,B|94:56|82:31|82:31|94:56|85:71,1,67.0800000000001,4|0,0:0|0:0,0:0:0:0:
14,136,88596,22,0,P|0:125|14:141,1,78.2600000000001,2|0,1:3|0:0,0:0:0:0:
163,166,88769,2,0,P|177:177|163:161,1,78.2600000000001,2|0,0:0|0:0,0:0:0:0:
38,259,88941,69,4,0:0:0:0:
122,233,89113,1,0,0:0:0:0:
31,337,89286,2,0,L|79:352,1,39.56,0|0,1:0|0:0,0:0:0:0:
94,357,89458,1,0,0:0:0:0:
232,371,89631,6,0,L|224:340,1,22.36,4|0,0:0|0:0,0:0:0:0:
249,373,89803,2,0,L|241:342,1,22.36,4|0,0:0|0:0,0:0:0:0:
326,283,89976,22,0,P|340:272|326:288,1,78.2600000000001,2|0,1:3|0:0,0:0:0:0:
192,254,90148,2,0,P|178:265|192:249,1,78.2600000000001,2|0,0:0|0:0,0:0:0:0:
288,181,90320,70,0,B|277:196|277:196|256:102|256:102|258:100|258:100|250:60,1,144.48,4|0,0:0|0:0,0:0:0:0:
247,52,90665,1,0,1:0:0:0:
368,178,90838,2,0,B|371:146|371:146|374:146|374:146|381:106,1,61.0599969253847,2|0,0:0|0:0,0:0:0:0:
406,5,91010,6,0,L|398:36,1,22.36,4|0,0:0|0:0,0:0:0:0:
423,3,91182,2,0,L|415:34,1,22.36
495,92,91355,22,0,P|509:103|495:87,1,78.2600000000001,2|0,1:3|0:0,0:0:0:0:
365,135,91527,2,0,P|351:124|365:140,1,78.2600000000001,2|0,0:0|0:0,0:0:0:0:
462,195,91700,70,0,B|451:180|451:180|430:274|430:274|432:276|432:276|424:316,1,144.48,4|0,0:0|0:0,0:0:0:0:
434,327,92044,6,0,L|378:341,1,39.56,2|0,1:3|0:0,0:0:0:0:
321,308,92217,2,0,L|265:322,1,39.56,2|0,0:0|0:0,0:0:0:0:
204,295,92389,2,0,L|148:309,1,39.56,4|0,0:0|0:0,0:0:0:0:
287,159,92562,102,0,P|293:149|283:156,1,22.36,6|0,0:0|0:0,0:0:0:0:
204,140,92734,38,0,P|177:64|158:40,1,78.2600000000001,2|0,1:3|0:0,0:0:0:0:
360,185,92907,2,0,P|387:261|406:285,1,78.2600000000001,6|0,0:0|0:0,0:0:0:0:
467,129,93079,69,4,0:0:0:0:
474,113,93251,1,6,0:0:0:0:
330,20,93424,1,0,1:0:0:0:
357,93,93596,1,2,1:3:0:0:
208,282,93769,1,4,0:0:0:0:
208,282,94113,38,0,P|136:262|103:262,1,78.2600000000001,2|0,1:3|0:0,0:0:0:0:
0,151,94286,2,0,P|72:171|105:171,1,78.2600000000001,2|0,0:0|0:0,0:0:0:0:
206,88,94458,69,4,0:0:0:0:
168,161,94631,1,0,0:0:0:0:
332,255,94803,1,0,1:0:0:0:
294,182,94976,1,0,0:0:0:0:
444,75,95148,1,4,0:0:0:0:
438,100,95320,1,0,0:0:0:0:
352,20,95493,38,0,P|388:6|427:0,1,78.2600000000001,2|0,1:3|0:0,0:0:0:0:
512,161,95665,2,0,P|473:167|436:181,1,78.2600000000001,2|0,0:0|0:0,0:0:0:0:
284,91,95838,69,4,0:0:0:0:
331,158,96010,1,0,0:0:0:0:
135,69,96182,1,0,1:0:0:0:
182,2,96355,1,0,0:0:0:0:
194,191,96527,5,4,0:0:0:0:
171,206,96700,1,4,0:0:0:0:
45,157,96872,22,0,P|73:212|84:253,1,78.2600000000001,2|0,1:3|0:0,0:0:0:0:
194,367,97044,2,0,P|180:330|160:296,1,78.2600000000001,2|0,0:0|0:0,0:0:0:0:
321,208,97217,69,4,0:0:0:0:
274,281,97389,1,2,0:0:0:0:
274,281,97476,1,0,0:0:0:0:
274,281,97562,1,0,1:0:0:0:
428,189,97734,1,2,0:0:0:0:
338,89,97907,5,4,0:0:0:0:
409,40,98079,1,2,0:0:0:0:
409,40,98165,1,0,0:0:0:0:
409,40,98251,2,0,P|418:87|438:129,1,78.2600000000001,2|0,1:3|0:0,0:0:0:0:
285,192,98424,2,0,P|257:97|217:27,1,156.52,2|4,0:0|0:0,0:0:0:0:
122,149,98769,1,4,0:0:0:0:
122,149,98855,1,0,0:0:0:0:
122,149,98941,1,0,1:0:0:0:
59,98,99113,1,0,0:0:0:0:
74,268,99286,102,0,B|93:239|93:239|107:247|107:247|174:228|216:161,1,157.38,4|0,0:0|0:0,0:0:0:0:
202,169,99631,1,0,1:0:0:0:
280,313,99803,6,0,B|272:279|272:279|288:274|288:274|322:214|304:136,1,157.38
300,152,100148,1,2,0:0:0:0:
443,211,100320,102,0,B|413:191|413:191|422:177|422:177|402:111|335:68,1,157.38,0|0,1:0|0:0,0:0:0:0:
343,83,100665,5,4,0:0:0:0:
390,269,100838,1,2,0:0:0:0:
396,294,100924,1,0,0:0:0:0:
403,319,101010,1,0,1:0:0:0:
443,211,101182,1,0,0:0:0:0:
331,383,101355,101,4,0:0:0:0:
322,347,101441,1,0,0:0:0:0:
314,311,101527,1,2,0:0:0:0:
305,275,101613,1,0,0:0:0:0:
297,240,101700,1,0,1:0:0:0:
245,346,101872,1,2,0:0:0:0:
92,226,102044,6,0,P|158:237|192:252,1,96.32,4|2,0:0|0:0,0:0:0:0:
75,239,102303,1,0,0:0:0:0:
56,246,102389,1,0,1:0:0:0:
204,259,102562,1,0,0:0:0:0:
77,320,102734,2,0,P|143:331|177:346,1,96.32,4|2,0:0|0:0,0:0:0:0:
60,333,102993,1,0,0:0:0:0:
41,340,103079,1,0,1:0:0:0:
186,353,103251,1,2,0:0:0:0:
51,153,103424,101,4,0:0:0:0:
168,48,103596,1,4,0:0:0:0:
288,182,103769,1,4,0:0:0:0:
378,86,103941,1,4,0:0:0:0:
449,151,104113,1,4,0:0:0:0:
512,100,104286,1,4,0:0:0:0:
413,369,104458,1,2,0:0:0:0:
413,369,104803,101,4,0:0:0:0:
449,287,104976,1,2,0:0:0:0:
245,219,105148,1,0,1:0:0:0:
281,301,105320,1,2,0:0:0:0:
109,382,105493,2,0,P|129:327|140:259,1,104.92,0|4,0:0|0:0,0:0:0:0:
143,246,105751,1,0,0:0:0:0:
143,246,105838,1,0,1:0:0:0:
248,384,106010,1,0,0:0:0:0:
27,217,106182,85,4,0:0:0:0:
107,156,106355,1,0,0:0:0:0:
107,156,106441,1,0,0:0:0:0:
107,156,106527,2,0,P|87:101|76:33,1,104.92,0|0,1:0|0:0,0:0:0:0:
206,172,106872,1,0,0:0:0:0:
245,49,107044,1,4,0:0:0:0:
408,125,107217,1,0,1:0:0:0:
369,2,107389,1,0,0:0:0:0:
316,158,107562,22,0,P|301:233|282:274,1,104.92,4|0,0:0|0:0,0:0:0:0:
413,351,107907,2,0,P|428:276|447:235,1,104.92,0|0,1:0|0:0,0:0:0:0:
249,352,108251,1,0,0:0:0:0:
327,283,108424,1,4,0:0:0:0:
107,207,108596,2,0,P|136:260|143:277,1,61.06,0|0,1:0|0:0,0:0:0:0:
235,165,108769,2,0,P|248:137|264:111,1,61.06
134,84,108941,85,4,0:0:0:0:
349,196,109113,1,0,0:0:0:0:
349,196,109200,1,0,0:0:0:0:
349,196,109286,2,0,P|419:168|464:162,1,104.92,0|0,1:0|0:0,0:0:0:0:
362,75,109631,1,4,0:0:0:0:
270,251,109803,1,6,0:0:0:0:
154,120,109976,1,0,1:0:0:0:
268,144,110148,1,2,0:0:0:0:
57,233,110320,22,0,P|100:286|129:370,1,144.48,4|0,0:0|0:0,0:0:0:0:
156,384,110665,2,0,P|165:317|185:273,1,104.92,0|0,1:0|0:0,0:0:0:0:
335,351,111010,1,0,0:0:0:0:
291,266,111182,1,4,0:0:0:0:
494,184,111355,1,0,1:0:0:0:
450,269,111527,1,0,0:0:0:0:
284,135,111700,86,0,P|338:102|386:83,1,104.92,4|0,0:0|0:0,0:0:0:0:
403,75,111958,1,0,0:0:0:0:
403,75,112044,1,0,1:0:0:0:
277,14,112217,1,0,0:0:0:0:
191,194,112389,1,0,0:0:0:0:
108,137,112562,1,4,0:0:0:0:
30,330,112734,1,0,1:0:0:0:
113,273,112907,1,0,0:0:0:0:
276,374,113079,21,4,0:0:0:0:
269,349,113251,1,0,0:0:0:0:
434,229,113424,2,0,P|408:298|399:345,1,104.92,0|0,1:0|0:0,0:0:0:0:
252,222,113769,2,0,P|309:194|316:188,1,61.06
335,174,113941,1,4,0:0:0:0:
108,155,114113,2,0,P|165:127|172:121,1,61.06,0|0,1:0|0:0,0:0:0:0:
268,24,114286,2,0,P|211:52|204:58,1,61.06
122,24,114458,85,4,0:0:0:0:
253,131,114631,1,6,0:0:0:0:
108,292,114803,1,0,1:0:0:0:
265,250,114976,2,0,P|182:204|78:192,1,192.64,4|6,0:0|0:0,0:0:0:0:
56,203,115407,1,0,0:0:0:0:
56,203,115493,1,0,1:0:0:0:
100,102,115665,1,0,0:0:0:0:
203,320,115838,22,0,P|267:297|362:281,1,157.38,4|0,0:2|0:0,0:0:0:0:
439,316,116182,1,0,1:0:0:0:
261,156,116355,1,0,0:0:0:0:
428,95,116527,2,0,P|391:167|379:212,1,104.92,4|4,0:0|0:0,0:0:0:0:
262,61,116872,2,0,P|246:32|237:1,1,61.06,0|0,1:0|0:0,0:0:0:0:
135,84,117044,2,0,P|144:113|159:139,1,61.06
222,262,117217,86,0,P|163:240|109:233,1,104.92,4|0,0:0|0:0,0:0:0:0:
91,234,117476,1,0,0:0:0:0:
91,234,117562,1,0,1:0:0:0:
154,356,117734,1,0,0:0:0:0:
332,202,117907,1,4,0:0:0:0:
222,262,118079,1,4,0:0:0:0:
439,354,118251,1,0,1:0:0:0:
329,294,118424,1,0,0:0:0:0:
469,192,118596,21,4,0:0:0:0:
463,216,118769,1,0,0:0:0:0:
329,110,118941,2,0,P|396:85|426:66,1,104.92,0|0,1:0|0:0,0:0:0:0:
217,183,119286,2,0,P|206:161|194:123,1,61.06,4|0,0:0|0:0,0:0:0:0:
181,96,119458,1,2,0:0:0:0:
45,206,119631,2,0,P|54:177|67:150,1,61.06,0|0,1:0|0:0,0:0:0:0:
69,0,119803,2,0,P|59:29|46:56,1,61.06,2|0,0:0|0:0,0:0:0:0:
165,232,119976,86,0,P|187:308|194:360,1,96.3200011757813,4|0,0:0|0:0,0:0:0:0:
272,359,120234,1,0,0:0:0:0:
273,334,120320,22,0,P|308:253|187:284,1,234.78,0|0,1:0|0:0,0:0:0:0:
139,153,120665,86,0,P|117:229|108:286,1,96.3200011757813,4|0,0:0|0:0,0:0:0:0:
32,274,120924,1,0,0:0:0:0:
31,255,121010,22,0,P|-4:174|117:205,1,234.78,0|0,1:0|0:0,0:0:0:0:
106,161,121355,86,0,P|97:129|91:86,1,67.0800000000001,4|0,0:0|0:0,0:0:0:0:
100,69,121700,22,0,P|136:55|171:33,1,61.92,4|0,0:2|0:0,0:0:0:0:
234,165,122044,2,0,P|210:145|183:129,1,61.92,4|0,0:0|0:0,0:0:0:0:
253,0,122389,2,0,P|247:30|246:61,1,61.92,4|0,0:2|0:0,0:0:0:0:
334,145,122734,86,0,L|412:121,1,67.0800000000001,4|0,0:0|0:0,0:0:0:0:
425,113,123079,22,0,P|413:168|411:188,1,61.92,4|0,0:2|0:0,0:0:0:0:
512,200,123424,2,0,P|500:255|498:275,1,61.92,4|0,0:0|0:0,0:0:0:0:
402,282,123769,2,0,P|390:337|388:357,1,61.92,4|0,0:2|0:0,0:0:0:0:
234,180,124113,85,4,0:0:0:0:
283,309,124286,1,0,0:0:0:0:
239,177,124458,1,4,0:2:0:0:
288,306,124631,1,0,0:0:0:0:
191,107,124803,1,4,0:0:0:0:
142,236,124976,1,0,0:0:0:0:
186,104,125148,1,4,0:2:0:0:
137,233,125320,1,0,0:0:0:0:
306,22,125493,21,4,0:0:0:0:
313,58,125579,1,0,0:0:0:0:
321,94,125665,1,4,0:0:0:0:
328,131,125751,1,0,0:0:0:0:
336,167,125838,86,0,L|403:146,1,52.4599999999999,0|0,1:0|0:0,0:0:0:0:
479,235,126010,2,0,L|428:250,1,52.4599999999999,4|0,0:0|0:0,0:0:0:0:
290,334,126182,2,0,L|311:275,1,52.4599999999999,4|0,0:0|0:0,0:0:0:0:
225,163,126355,2,0,L|204:222,1,52.4599999999999,4|0,0:0|0:0,0:0:0:0:
96,346,126527,22,0,B|70:283|70:283|86:244|86:244|58:166,1,183.18,2|0,1:3|0:0,0:0:0:0:
50,149,126872,101,4,0:2:0:0:
97,7,127044,1,0,0:0:0:0:
225,163,127217,1,2,1:3:0:0:
272,21,127389,1,0,0:0:0:0:
443,141,127562,1,2,0:0:0:0:
418,66,127734,1,4,0:0:0:0:
287,269,127907,1,0,1:0:0:0:
334,127,128079,1,0,0:0:0:0:
464,332,128251,37,4,0:0:0:0:
388,363,128424,1,0,0:0:0:0:
360,285,128596,1,2,1:3:0:0:
436,254,128769,1,0,0:0:0:0:
272,323,128941,1,2,0:0:0:0:
153,273,129113,1,4,0:0:0:0:
208,156,129286,1,0,1:0:0:0:
326,206,129458,1,0,0:0:0:0:
247,251,129631,69,6,0:0:0:0:
243,233,129803,1,0,0:0:0:0:
356,115,129976,1,2,1:3:0:0:
238,65,130148,1,0,0:0:0:0:
330,224,130320,1,2,0:0:0:0:
326,206,130493,1,4,0:0:0:0:
439,88,130665,1,0,1:0:0:0:
321,38,130838,1,0,0:0:0:0:
450,271,131010,37,4,0:0:0:0:
424,189,131182,1,0,0:0:0:0:
356,306,131355,1,2,1:3:0:0:
330,224,131527,1,0,0:0:0:0:
262,341,131700,1,6,0:0:0:0:
236,259,131872,1,2,0:2:0:0:
168,376,132044,1,0,1:0:0:0:
142,294,132217,1,2,0:2:0:0:
0,303,132389,69,4,0:2:0:0:
81,100,132562,1,0,0:0:0:0:
0,303,132734,2,0,B|33:277|33:277|23:265|23:265|55:238|61:151,1,147.92,2|0,1:3|0:0,0:0:0:0:
252,360,133079,2,0,B|256:318|256:318|241:316|241:316|244:275|187:209,1,147.92,2|4,0:0|0:0,0:0:0:0:
475,226,133424,2,0,B|449:193|449:193|437:203|437:203|410:171|323:165,1,147.92,2|0,1:3|0:0,0:0:0:0:
511,0,133769,37,4,0:0:0:0:
303,95,133941,1,0,0:0:0:0:
511,0,134113,2,0,B|478:26|478:26|488:38|488:38|456:65|449:160,1,156.52,2|0,1:3|0:0,0:0:0:0:
257,23,134458,2,0,B|252:64|252:64|267:66|267:66|264:107|324:178,1,156.52,2|4,0:0|0:0,0:0:0:0:
92,191,134803,2,0,B|118:224|118:224|130:214|130:214|157:246|249:253,1,156.52,2|0,1:3|0:0,0:0:0:0:
427,264,135148,69,4,0:0:0:0:
211,361,135320,1,0,0:0:0:0:
427,264,135493,2,0,B|424:222|424:222|409:223|409:223|405:181|346:131,1,165.12,2|0,1:3|0:0,0:0:0:0:
180,269,135838,2,0,B|207:237|207:237|196:227|196:227|222:195|216:117,1,165.12,2|4,0:0|0:0,0:0:0:0:
0,109,136182,2,0,B|41:106|41:106|40:91|40:91|82:87|133:27,1,165.12,2|0,1:3|0:0,0:0:0:0:
99,181,136527,38,0,L|78:283,1,65.36,6|0,0:0|0:0,0:0:0:0:
166,333,136700,2,0,L|179:268,1,65.36,6|0,0:0|0:0,0:0:0:0:
274,127,136872,70,0,B|290:172|290:172|288:175|288:175|305:230,1,78.2600000000001,0|0,1:0|0:0,0:0:0:0:
411,329,137044,2,4,P|402:255|268:305,1,244.24,6|2,0:0|0:0,0:0:0:0:
312,359,137476,1,0,0:0:0:0:
312,359,137562,2,0,P|320:345|310:357,1,41.28,0|0,1:0|0:0,0:0:0:0:
224,348,137907,70,0,L|154:329,1,61.06,4|0,0:2|0:0,0:0:0:0:
88,281,138079,2,0,L|146:296,1,61.06,2|0,0:0|0:0,0:0:0:0:
270,280,138251,2,0,L|233:217,1,61.06,2|0,1:3|0:0,0:0:0:0:
221,136,138424,2,0,L|251:188,1,61.06
347,255,138596,2,0,L|366:185,1,61.06,6|0,0:0|0:0,0:0:0:0:
414,119,138769,2,0,L|398:177,1,61.06
447,321,138941,102,0,P|444:286|423:247,1,69.66,0|0,1:3|0:0,0:0:0:0:
313,55,139113,2,0,P|316:90|337:129,1,69.66
512,145,139286,6,0,L|448:120,1,61.06,4|0,0:2|0:0,0:0:0:0:
392,71,139458,2,0,L|448:93,1,61.06
363,258,139631,2,0,L|335:195,1,61.06,2|0,1:3|0:0,0:0:0:0:
330,120,139803,2,0,L|354:175,1,61.06
178,234,139976,2,0,L|203:170,1,61.06,6|0,0:0|0:0,0:0:0:0:
252,113,140148,2,0,L|229:169,1,61.06
275,316,140320,102,0,P|272:272|247:232,1,69.66,0|0,1:3|0:0,0:0:0:0:
158,35,140493,2,0,P|161:79|186:119,1,69.66
64,290,140665,6,0,L|134:261,1,61.06,4|0,0:2|0:0,0:0:0:0:
178,214,140838,2,0,L|121:237,1,61.06,2|0,0:0|0:0,0:0:0:0:
252,372,141010,2,0,L|280:301,1,61.06,2|0,1:3|0:0,0:0:0:0:
278,237,141182,2,0,L|254:293,1,61.06
445,297,141355,2,0,L|415:226,1,61.06,6|0,0:0|0:0,0:0:0:0:
367,183,141527,2,0,L|390:239,1,61.06
339,377,141700,102,0,P|344:342|361:312,1,69.66,0|0,1:3|0:0,0:0:0:0:
476,97,141872,2,0,P|470:131|453:161,1,69.66
203,185,142044,6,0,L|251:171,1,43.86,4|0,0:2|0:0,0:0:0:0:
338,72,142217,1,0,0:0:0:0:
338,72,142303,1,0,0:0:0:0:
338,72,142389,2,0,L|320:150,1,52.46,2|0,1:3|0:0,0:0:0:0:
339,244,142562,2,0,L|357:166,1,52.46
178,204,142734,102,0,L|226:190,1,43.86,6|0,0:0|0:0,0:0:0:0:
313,91,142907,1,2,0:2:0:0:
313,91,142993,1,0,0:0:0:0:
313,91,143079,2,0,L|295:169,1,52.46,0|0,1:3|0:0,0:0:0:0:
314,263,143251,2,0,L|332:185,1,52.46
163,80,143424,5,4,0:2:0:0:
73,221,143596,1,2,0:2:0:0:
73,221,143682,1,0,0:0:0:0:
73,221,143769,1,2,1:3:0:0:
152,263,143941,1,0,0:0:0:0:
138,98,144113,101,6,0:0:0:0:
48,239,144286,1,2,0:2:0:0:
48,239,144372,1,0,0:0:0:0:
48,239,144458,1,0,1:3:0:0:
127,281,144631,1,0,0:0:0:0:
69,54,144803,5,4,0:2:0:0:
214,206,144976,1,2,0:2:0:0:
214,206,145062,1,0,0:0:0:0:
214,206,145148,2,0,L|233:137,1,52.46,2|0,1:3|0:0,0:0:0:0:
254,70,145320,1,0,0:0:0:0:
118,187,145493,101,6,0:0:0:0:
263,339,145665,1,2,0:2:0:0:
263,339,145751,1,0,0:0:0:0:
263,339,145838,2,0,L|282:270,1,52.46,0|0,1:3|0:0,0:0:0:0:
303,203,146010,1,0,0:0:0:0:
132,358,146182,6,0,P|185:319|195:318,1,61.06,4|0,0:2|0:0,0:0:0:0:
394,287,146355,2,0,P|341:326|331:327,1,61.06,2|0,0:0|0:0,0:0:0:0:
216,228,146527,1,2,1:3:0:0:
289,185,146700,1,0,0:0:0:0:
218,146,146872,1,6,0:0:0:0:
347,324,147044,101,0,0:0:0:0:
417,114,147217,1,2,1:3:0:0:
345,322,147389,1,0,0:0:0:0:
444,223,147562,5,6,0:0:0:0:
433,214,147648,1,0,0:0:0:0:
418,206,147734,1,2,0:2:0:0:
394,195,147820,1,0,0:0:0:0:
363,195,147907,1,2,1:3:0:0:
331,209,147993,1,0,0:0:0:0:
309,240,148079,1,2,0:2:0:0:
280,260,148165,1,0,0:0:0:0:
233,266,148251,1,6,0:0:0:0:
186,252,148338,1,4,0:0:0:0:
152,204,148424,1,2,0:0:0:0:
154,143,148510,1,0,0:0:0:0:
203,93,148596,102,0,L|231:186,1,78.2600000000001,2|0,1:3|0:0,0:0:0:0:
137,372,148769,2,0,L|113:298,1,78.2600000000001,0|0,0:2|0:0,0:0:0:0:
56,162,148941,21,4,0:2:0:0:
47,181,149113,1,2,0:2:0:0:
261,308,149286,2,0,P|247:290|225:272,1,44.7199997270508,0|0,1:0|0:0,0:0:0:0:
410,105,149631,2,0,P|401:126|397:148,1,44.7199997270508,4|0,0:0|0:0,0:0:0:0:
169,75,149976,2,0,P|191:72|213:65,1,44.7199997270508,0|0,1:0|0:0,0:0:0:0:
279,191,150320,53,4,0:0:0:0:
270,172,150492,1,2,0:2:0:0:
437,349,150665,2,0,P|451:317|462:305,1,44.7199997270508,0|0,1:0|0:0,0:0:0:0:
174,246,151010,2,0,P|186:264|194:285,1,44.7199997270508,4|0,0:0|0:0,0:0:0:0:
392,92,151355,2,0,P|399:70|412:52,1,44.7199997270508,0|0,1:0|0:0,0:0:0:0:
347,239,151700,53,4,0:2:0:0:
356,220,151872,1,2,0:2:0:0:
142,75,152044,2,0,P|182:57|189:52,1,44.7199997270508,0|0,1:0|0:0,0:0:0:0:
109,320,152389,2,0,P|91:305|72:294,1,44.7199997270508,4|0,0:0|0:0,0:0:0:0:
377,215,152734,2,0,P|372:236|372:259,1,44.7199997270508,0|2,1:0|0:2,0:0:0:0:
209,200,153079,53,4,0:0:0:0:
227,190,153251,1,2,0:2:0:0:
85,101,153424,1,0,1:0:0:0:
211,327,153596,2,0,P|159:303|120:295,1,89.4399994541016,0|4,0:0|0:0,0:0:0:0:
105,292,154027,1,0,0:0:0:0:
105,292,154113,1,0,1:0:0:0:
319,106,154286,2,0,L|330:136,1,22.3599998635254
361,220,154458,53,4,0:2:0:0:
371,200,154631,1,2,0:2:0:0:
225,44,154803,2,0,P|212:71|193:88,1,44.7199997270508,0|2,1:0|0:2,0:0:0:0:
315,338,155148,2,0,P|328:311|347:294,1,44.7199997270508,4|2,0:0|0:2,0:0:0:0:
89,220,155493,1,0,1:0:0:0:
140,301,155665,1,2,0:2:0:0:
275,191,155838,53,4,0:0:0:0:
254,178,156010,1,2,0:2:0:0:
436,20,156182,2,0,P|429:41|426:63,1,44.7199997270508,0|2,1:0|0:2,0:0:0:0:
438,342,156527,2,0,P|444:320|447:298,1,44.7199997270508,4|2,0:0|0:2,0:0:0:0:
451,274,156786,1,0,0:0:0:0:
451,274,156872,1,0,1:0:0:0:
391,178,157044,1,2,0:2:0:0:
181,299,157217,54,0,P|211:308|237:323,1,44.7199997270508,4|2,0:2|0:2,0:0:0:0:
90,86,157562,2,0,P|60:95|34:110,1,44.7199997270508,0|2,1:0|0:2,0:0:0:0:
217,149,157907,1,4,0:0:0:0:
241,73,158079,1,2,0:2:0:0:
56,285,158251,1,0,1:0:0:0:
80,361,158423,1,2,0:2:0:0:
277,231,158596,54,0,P|234:245|206:264,1,52.4599978387147,4|0,0:0|0:0,0:0:0:0:
241,73,158769,2,0,P|259:91|280:106,1,52.4599978387147,6|0,0:0|0:0,0:0:0:0:
121,172,158941,2,0,P|128:146|130:120,1,52.4599978387147,0|0,1:0|0:0,0:0:0:0:
210,162,159113,1,6,0:0:0:0:
210,162,159200,1,0,0:0:0:0:
210,162,159286,54,0,L|283:179,1,67.0799995905762,4|0,0:0|0:0,0:0:0:0:
376,104,159631,1,0,1:0:0:0:
292,334,159803,2,0,P|344:312|361:312,1,52.4599978387147
441,278,159976,53,4,0:2:0:0:
426,358,160148,1,0,0:0:0:0:
441,278,160320,1,0,1:0:0:0:
426,358,160493,1,0,0:0:0:0:
324,192,160665,1,4,0:0:0:0:
292,334,160837,1,2,0:2:0:0:
324,192,161009,1,0,1:0:0:0:
292,334,161181,1,2,0:2:0:0:
93,193,161355,53,4,0:2:0:0:
108,273,161527,1,0,0:0:0:0:
93,193,161699,1,0,1:0:0:0:
108,273,161872,1,0,0:0:0:0:
210,107,162044,1,4,0:0:0:0:
242,249,162216,1,2,0:2:0:0:
210,107,162388,1,0,1:0:0:0:
242,249,162562,1,2,0:0:0:0:
404,83,162734,53,4,0:2:0:0:
328,52,162907,1,0,0:0:0:0:
404,83,163079,1,0,1:0:0:0:
328,52,163252,1,0,0:0:0:0:
402,201,163424,1,4,0:0:0:0:
258,142,163596,1,2,0:2:0:0:
402,201,163769,1,0,1:0:0:0:
258,142,163941,1,2,0:2:0:0:
341,345,164113,53,4,0:2:0:0:
264,304,164286,1,4,0:0:0:0:
264,304,164372,1,0,0:0:0:0:
264,304,164458,1,0,1:0:0:0:
88,374,164631,1,0,0:0:0:0:
141,302,164803,1,4,0:0:0:0:
141,302,164889,1,0,0:0:0:0:
141,302,164976,1,4,0:0:0:0:
141,302,165062,1,0,0:0:0:0:
141,302,165148,2,0,P|122:234|109:210,1,79.1199973439942,0|2,1:0|0:2,0:0:0:0:
209,73,165493,54,0,P|155:100|132:104,1,70.5200010760498,4|2,0:2|0:2,0:0:0:0:
124,105,165751,1,0,0:0:0:0:
124,105,165838,1,0,1:0:0:0:
214,169,166010,1,2,0:2:0:0:
359,86,166182,1,0,1:0:0:0:
437,152,166355,1,2,0:2:0:0:
437,152,166441,1,0,0:0:0:0:
437,152,166527,2,0,P|383:179|360:183,1,70.5200010760498,0|2,1:0|0:2,0:0:0:0:
303,340,166872,54,0,P|357:313|380:309,1,70.5200010760498,4|2,0:2|0:2,0:0:0:0:
388,306,167131,1,0,0:0:0:0:
388,306,167217,1,0,1:0:0:0:
297,244,167389,1,2,0:2:0:0:
155,324,167562,1,0,1:0:0:0:
155,324,167648,1,0,0:0:0:0:
155,324,167734,1,2,0:2:0:0:
155,324,167820,1,0,0:0:0:0:
155,324,167907,2,0,P|121:334|91:353,1,70.5200010760498,0|2,1:0|0:2,0:0:0:0:
46,211,168251,53,4,2:0:0:0:
23,290,168424,1,2,0:2:0:0:
23,290,168510,1,0,0:0:0:0:
23,290,168596,1,0,1:0:0:0:
45,204,168769,1,2,0:2:0:0:
174,240,168941,1,0,0:0:0:0:
151,161,169114,1,0,0:0:0:0:
151,161,169200,1,0,0:0:0:0:
151,161,169286,1,2,0:2:0:0:
173,247,169459,1,0,0:0:0:0:
285,162,169631,53,2,0:0:0:0:
280,167,169717,1,0,0:0:0:0:
278,175,169803,1,0,0:0:0:0:
277,186,169889,1,0,0:0:0:0:
281,199,169976,1,0,0:0:0:0:
290,210,170062,1,0,0:0:0:0:
301,219,170148,1,2,0:2:0:0:
311,231,170234,1,0,0:0:0:0:
318,247,170320,1,0,0:0:0:0:
320,268,170407,1,0,0:0:0:0:
315,291,170493,1,0,0:0:0:0:
298,315,170579,1,0,0:0:0:0:
270,329,170665,1,0,0:0:0:0:
238,334,170751,1,0,0:0:0:0:
203,321,170838,1,0,0:0:0:0:
178,291,170924,1,0,0:0:0:0:
174,240,171010,86,0,B|167:186|184:140|184:140|331:208|438:78|438:78|403:24|328:4|328:4|248:-8|193:48|193:48|237:93|310:80,1,794.640024250489,4|0,0:1|0:0,0:0:0:0:
239,154,203424,22,0,P|250:172|256:194,1,41.2800010078125,0|4,0:0|0:1,0:0:0:0:
256,192,204200,12,2,209631,0:0:0:0:
408,327,210090,6,0,L|412:350,1,12.6133337182617
337,323,210320,2,0,L|347:287,1,37.8400011547852
236,363,210895,1,0,0:0:0:0:
227,349,211010,2,0,L|187:366,1,37.8400011547852
123,360,211470,2,0,L|128:341,1,12.6133337182617
75,294,211700,2,0,L|70:275,2,12.6133337182617
82,271,212044,2,0,L|77:252,2,12.6133337182617
77,190,212389,2,0,L|123:200,1,37.8400011547852
173,168,212849,2,0,L|168:149,1,12.6133337182617
241,192,213079,1,0,0:0:0:0:
241,192,213194,2,0,L|248:164,1,25.2266674365235
309,142,213539,2,0,L|312:154,1,12.6133337182617
375,186,213769,2,0,L|416:175,1,37.8400011547852
489,215,214228,1,0,0:0:0:0:
488,231,214343,1,0,0:0:0:0:
486,244,214458,2,0,L|502:239,2,12.6133337182617
484,279,214803,2,0,L|500:274,2,12.6133337182617
430,333,215148,102,0,L|349:312,1,59.6266663027344,4|0,0:0|0:0,0:0:0:0:
301,353,215493,2,0,L|290:313,2,29.8133331513672
193,311,215838,2,0,L|135:325,1,59.6266663027344,8|0,0:2|0:0,0:0:0:0:
60,305,216182,1,0,0:0:0:0:
60,305,216297,2,0,L|71:265,1,29.8133331513672
49,206,216527,2,0,L|22:108,1,89.4399994541016,4|0,0:0|0:0,0:0:0:0:
117,66,216987,1,0,0:0:0:0:
117,66,217102,1,0,0:0:0:0:
117,66,217217,2,0,L|104:134,1,59.6266663027344,8|0,0:2|0:0,0:0:0:0:
156,186,217562,2,0,L|190:175,2,29.8133331513672
276,111,217907,6,0,L|415:140,1,119.253332605469,4|2,0:0|0:2,0:0:0:0:
462,100,218481,1,2,0:2:0:0:
466,103,218596,2,0,L|488:208,1,89.4399994541016,8|0,0:2|0:0,0:0:0:0:
487,262,219056,2,0,L|452:253,1,29.8133331513672,2|0,0:2|0:0,0:0:0:0:
393,226,219286,2,0,L|296:255,1,89.4399994541016,4|0,0:0|0:0,0:0:0:0:
237,303,219746,1,2,0:2:0:0:
237,303,219861,1,2,0:2:0:0:
237,303,219976,2,0,L|163:286,1,59.6266663027344,8|0,0:2|0:0,0:0:0:0:
100,275,220320,2,0,L|110:310,2,29.8133331513672,2|0|0,0:2|0:0|0:2,0:0:0:0:
36,200,220665,102,0,L|60:98,1,89.4399994541016,4|0,0:0|0:0,0:0:0:0:
132,57,221125,1,2,0:2:0:0:
132,57,221240,1,2,0:2:0:0:
132,57,221355,2,0,L|145:109,1,29.8133331513672,8|0,0:2|0:0,0:0:0:0:
209,126,221585,2,0,L|216:97,1,29.8133331513672,2|0,0:2|0:0,0:0:0:0:
281,53,221815,2,0,L|288:81,1,29.8133331513672
357,138,222044,2,0,L|451:114,1,89.4399994541016,4|0,0:0|0:0,0:0:0:0:
507,182,222504,1,2,0:2:0:0:
507,182,222619,1,2,0:2:0:0:
507,182,222734,2,0,L|462:197,1,29.8133331513672,8|0,0:2|0:0,0:0:0:0:
412,249,222964,1,2,0:2:0:0:
412,249,223079,2,0,L|383:239,2,29.8133331513672,2|0|0,0:2|0:0|0:0,0:0:0:0:
464,320,223424,5,4,0:0:0:0:
464,320,223539,2,0,L|359:348,1,89.4399994541016,0|2,0:0|0:2,0:0:0:0:
295,316,223998,1,2,0:2:0:0:
295,316,224113,2,0,L|286:358,1,29.8133331513672,8|0,0:2|0:0,0:0:0:0:
224,374,224343,2,0,L|217:344,1,29.8133331513672,2|0,0:2|0:0,0:0:0:0:
153,312,224573,2,0,L|146:341,1,29.8133331513672,2|0,0:2|0:0,0:0:0:0:
94,254,224803,102,0,L|201:228,1,89.4399994541016,4|0,0:0|0:0,0:0:0:0:
248,183,225263,1,2,0:2:0:0:
248,183,225378,1,2,0:2:0:0:
248,183,225493,2,0,L|252:153,2,29.8133331513672,8|0|0,0:2|0:0|0:0,0:0:0:0:
310,235,225838,2,0,L|314:264,2,29.8133331513672,2|0|0,0:2|0:0|0:0,0:0:0:0:
395,157,226182,5,4,0:0:0:0:
233,26,226527,1,4,0:0:0:0:
251,42,226641,1,0,0:0:0:0:
275,48,226756,1,2,0:2:0:0:
299,45,226872,2,0,L|281:0,1,41.2800010078125,8|0,0:2|0:0,0:0:0:0:
200,53,227102,2,0,L|174:85,1,41.2800010078125,0|2,0:0|0:2,0:0:0:0:
257,130,227332,2,0,L|297:135,1,41.2800010078125
190,205,227562,101,4,0:0:0:0:
340,320,227792,1,4,0:0:0:0:
336,306,227907,2,0,L|329:260,1,41.2800010078125,4|2,0:0|0:2,0:0:0:0:
246,328,228136,1,2,0:2:0:0:
249,315,228251,5,8,0:2:0:0:
226,305,228365,1,2,0:2:0:0:
201,309,228480,1,2,0:2:0:0:
135,347,228596,1,6,0:0:0:0:
112,356,228710,1,0,0:0:0:0:
87,352,228825,1,0,0:2:0:0:
18,302,228941,102,0,B|22:304|22:304|42:197,1,82.560002015625,4|0,0:0|0:0,0:0:0:0:
55,140,229286,2,0,B|54:136|54:136|13:154,2,41.2800010078125,4|2|2,0:0|0:2|0:2,0:0:0:0:
129,197,229631,2,0,L|174:217,1,41.2800010078125,8|0,0:2|0:0,0:0:0:0:
184,138,229861,2,0,L|229:158,1,41.2800010078125,2|4,0:2|0:0,0:0:0:0:
242,77,230090,2,0,L|287:97,1,41.2800010078125,2|0,0:2|0:2,0:2:0:0:
379,46,230320,6,0,B|373:45|373:45|395:143,1,82.560002015625,4|4,0:0|0:0,0:0:0:0:
438,214,230665,1,4,0:0:0:0:
422,201,230779,1,2,0:2:0:0:
402,195,230894,1,2,0:2:0:0:
343,257,231010,1,8,0:2:0:0:
340,236,231124,1,2,0:2:0:0:
331,218,231239,1,6,0:0:0:0:
246,235,231355,1,2,0:2:0:0:
258,218,231469,1,0,0:0:0:0:
265,198,231584,1,0,0:0:0:0:
202,153,231700,102,0,B|195:152|195:152|234:293,1,123.840003023438,4|4,0:0|0:0,0:0:0:0:
176,342,232159,1,2,0:2:0:0:
158,352,232274,1,2,0:2:0:0:
139,357,232389,2,0,L|125:310,1,41.2800010078125,8|0,0:2|0:0,0:0:0:0:
43,272,232619,2,0,L|57:225,1,41.2800010078125,2|4,0:2|0:0,0:0:0:0:
119,176,232849,2,0,L|105:129,1,41.2800010078125,2|0,0:2|0:2,0:2:0:0:
51,34,233079,6,0,L|150:58,1,82.560002015625,4|4,0:0|0:0,0:0:0:0:
224,37,233424,1,4,0:0:0:0:
236,54,233538,1,2,0:2:0:0:
243,74,233653,1,2,0:2:0:0:
316,83,233769,1,8,0:2:0:0:
313,104,233883,1,2,0:2:0:0:
304,122,233998,1,2,0:2:0:0:
356,173,234114,1,6,0:0:0:0:
340,186,234228,1,0,0:0:0:0:
320,192,234343,1,0,0:0:0:0:
284,261,234458,102,0,L|159:232,1,123.840003023438,4|4,0:0|0:0,0:0:0:0:
88,266,234918,1,2,0:2:0:0:
82,249,235033,1,2,0:2:0:0:
76,232,235148,1,8,0:2:0:0:
162,341,235378,1,2,0:2:0:0:
169,323,235493,1,4,0:0:0:0:
307,298,235723,1,4,0:0:0:0:
300,280,235838,6,0,L|408:302,1,82.560002015625,4|0,0:0|0:0,0:0:0:0:
454,334,236182,1,4,0:0:0:0:
460,321,236297,1,2,0:2:0:0:
462,304,236412,1,2,0:2:0:0:
429,235,236527,1,8,0:2:0:0:
408,191,236642,1,2,0:0:0:0:
412,150,236757,1,6,0:0:0:0:
426,125,236872,1,2,0:2:0:0:
445,113,236987,1,2,0:0:0:0:
458,100,237102,1,4,0:0:0:0:
467,29,237217,102,0,L|371:6,1,94.0266681013998,4|2,0:0|0:2,0:0:0:0:
321,56,237562,1,0,0:0:0:0:
298,44,237677,1,0,0:0:0:0:
271,45,237792,1,2,0:2:0:0:
200,84,237907,2,0,L|182:31,1,47.0133340506999,8|0,0:2|0:0,0:0:0:0:
63,157,238136,1,0,0:0:0:0:
71,135,238251,2,0,L|86:85,1,47.0133340506999,2|0,0:2|0:2,0:0:0:0:
192,231,238481,1,0,0:2:0:0:
183,204,238596,1,4,0:0:0:0:
56,322,238826,5,0,0:2:0:0:
52,306,238941,1,0,0:0:0:0:
89,287,239055,1,2,0:2:0:0:
129,296,239170,1,2,0:2:0:0:
206,334,239286,1,8,0:2:0:0:
246,343,239401,1,0,0:0:0:0:
283,324,239515,1,2,0:2:0:0:
386,287,239631,1,2,0:2:0:0:
373,297,239746,1,0,0:0:0:0:
392,302,239861,1,0,0:0:0:0:
412,376,239976,102,0,L|435:215,1,141.0400021521,4|0,0:0|0:0,0:0:0:0:
397,136,240435,1,2,0:2:0:0:
422,151,240550,1,2,0:2:0:0:
452,152,240665,2,0,L|439:99,1,47.0133340506999,8|0,0:2|0:0,0:0:0:0:
293,61,240895,1,2,0:2:0:0:
320,82,241010,2,0,L|333:29,1,47.0133340506999,2|0,0:2|0:0,0:0:0:0:
186,12,241240,1,0,0:0:0:0:
172,35,241355,6,0,L|202:161,1,94.0266681013998,4|0,0:0|0:2,0:0:0:0:
167,194,241700,2,0,L|108:172,1,47.0133340506999,0|2,0:0|0:2,0:0:0:0:
162,272,241930,1,2,0:2:0:0:
287,231,242044,2,0,L|275:276,1,47.0133340506999,8|0,0:2|0:0,0:0:0:0:
360,361,242274,1,2,0:2:0:0:
418,301,242389,2,0,L|374:285,1,47.0133340506999,2|0,0:2|0:0,0:0:0:0:
452,207,242619,1,0,0:0:0:0:
392,162,242734,102,0,L|421:319,1,141.0400021521,4|4,0:0|0:0,0:0:0:0:
329,231,243194,1,0,0:0:0:0:
313,224,243309,1,2,0:2:0:0:
244,283,243424,2,0,L|129:313,1,94.0266681013998,8|2,0:2|0:2,0:0:0:0:
69,253,243769,1,6,0:0:0:0:
52,278,243884,2,0,L|32:196,1,47.0133340506999
17,149,244113,1,4,0:0:0:0:
208,38,244343,1,0,0:2:0:0:
192,63,244458,2,0,L|203:109,1,47.0133340506999,4|2,0:0|0:2,0:0:0:0:
301,177,244688,1,2,0:2:0:0:
333,112,244803,2,0,L|279:93,1,47.0133340506999,8|2,0:2|0:2,0:0:0:0:
227,212,245033,1,2,0:2:0:0:
275,274,245148,1,6,0:0:0:0:
262,295,245263,2,0,L|202:315,1,47.0133340506999
350,380,245493,1,4,0:0:0:0:
256,192,245608,12,0,248251,0:0:0:0:
458,341,252389,5,8,3:2:0:0:
316,261,252734,101,0,0:0:0:0:
213,342,252964,5,2,0:2:0:0:
206,324,253079,1,0,0:0:0:0:
43,235,253424,102,0,B|102:213|102:213|145:236|145:236|212:214,1,174.866659462382,4|0,1:2|0:0,0:0:0:0:
281,160,253769,70,0,L|274:191,1,31.5333342956543,6|0,0:0|0:0,0:0:0:0:
310,249,254113,2,0,L|318:265,1,12.6133337182617,0|0,1:0|0:0,0:0:0:0:
446,109,254343,1,4,0:0:0:0:
475,198,254458,2,0,L|469:225,1,25.2266674365235,4|0,0:0|0:0,0:0:0:0:
306,69,254803,1,2,1:3:0:0:
327,50,254918,1,0,0:0:0:0:
355,49,255033,1,6,0:0:0:0:
281,160,255148,86,0,L|247:151,1,31.5333342956543,6|0,0:0|0:0,0:0:0:0:
188,122,255493,2,0,L|158:133,1,25.2266674365235,2|4,1:3|0:0,0:0:0:0:
56,234,255838,2,0,L|32:225,1,25.2266674365235,6|2,0:0|0:0,0:0:0:0:
164,303,256182,1,0,1:0:0:0:
177,326,256297,1,0,0:0:0:0:
176,353,256412,1,6,0:0:0:0:
272,306,256527,22,0,L|305:295,1,31.5333342956543,4|0,0:0|0:0,0:0:0:0:
370,311,256872,2,0,L|397:319,1,25.2266674365235,0|4,1:0|0:0,0:0:0:0:
483,217,257217,2,0,L|467:224,1,12.6133337182617,4|0,0:0|0:0,0:0:0:0:
370,118,257447,1,4,0:0:0:0:
310,185,257562,2,0,L|294:192,1,12.6133337182617,0|0,1:0|0:0,0:0:0:0:
180,63,257792,1,2,0:0:0:0:
128,123,257907,6,0,B|186:97|186:97|226:121|226:121|299:88,1,174.866659462382,4|0,0:0|0:0,0:0:0:0:
308,87,258251,1,0,1:0:0:0:
256,209,258366,1,0,0:0:0:0:
202,333,258481,1,2,0:2:0:0:
330,319,258596,2,0,B|335:312|335:312|258:283,1,81.4133292338462,6|0,0:0|0:0,0:0:0:0:
124,202,258826,1,6,0:0:0:0:
145,278,258941,1,2,1:3:0:0:
207,219,259056,2,0,L|184:131,1,81.4133292338462,0|6,0:0|0:0,0:0:0:0:
71,24,259286,102,0,L|63:54,1,31.5333342956543,4|0,0:2|0:0,0:0:0:0:
20,112,259631,2,0,L|32:139,1,25.2266674365235,0|0,1:0|0:0,0:0:0:0:
145,278,259976,2,0,L|133:305,1,25.2266674365235,4|4,0:0|0:0,0:0:0:0:
207,219,260320,2,0,L|195:192,1,25.2266674365235,0|0,1:0|0:0,0:0:0:0:
311,330,260665,2,0,L|301:353,1,25.2266674365235,4|0,0:0|0:0,0:0:0:0:
366,166,261010,2,0,L|356:143,1,25.2266674365235,0|4,1:0|0:0,0:0:0:0:
479,334,261355,2,0,L|489:357,1,25.2266674365235,4|0,0:0|0:0,0:0:0:0:
502,127,261700,2,0,L|512:104,1,25.2266674365235,0|0,1:0|0:0,0:0:0:0:
445,238,262044,6,0,B|446:234|446:234|362:264,1,69.9466637849529,4|0,0:2|0:0,0:0:0:0:
411,140,262274,1,2,0:0:0:0:
309,171,262389,2,0,B|310:167|310:167|226:197,1,69.9466637849529,2|0,1:3|0:0,0:0:0:0:
275,73,262619,1,6,0:0:0:0:
180,109,262734,2,0,B|181:105|181:105|97:135,1,69.9466637849529,6|0,0:0|0:0,0:0:0:0:
137,17,262964,1,6,0:0:0:0:
44,65,263079,1,0,1:0:0:0:
29,94,263194,1,0,0:0:0:0:
32,129,263309,1,2,0:0:0:0:
82,198,263424,22,0,B|64:253|64:253|82:289|82:289|59:363,1,151.359999538086,4|2,0:2|0:0,0:0:0:0:
160,276,263769,85,2,1:3:0:0:
210,330,263884,1,2,0:0:0:0:
283,303,263998,1,2,0:0:0:0:
267,201,264113,21,6,0:0:0:0:
229,187,264228,1,2,0:0:0:0:
235,222,264343,1,6,0:0:0:0:
268,119,264458,2,0,B|272:115|272:115|252:34,1,75.679999769043,0|0,1:0|0:0,0:0:0:0:
181,86,264688,1,0,0:0:0:0:
98,42,264803,70,0,L|107:73,1,25.2266674365235,4|0,0:0|0:0,0:0:0:0:
253,82,265148,1,0,1:0:0:0:
270,44,265263,1,0,0:0:0:0:
226,50,265378,1,4,0:0:0:0:
126,137,265493,86,0,L|135:168,1,25.2266674365235,4|0,0:0|0:0,0:0:0:0:
272,202,265838,1,0,1:0:0:0:
285,171,265953,1,0,0:0:0:0:
250,176,266068,1,0,0:0:0:0:
154,233,266182,22,0,L|163:264,1,25.2266674365235,4|0,0:0|0:0,0:0:0:0:
290,316,266527,1,0,1:0:0:0:
298,296,266642,1,0,0:0:0:0:
276,299,266757,1,4,0:0:0:0:
184,331,266872,86,0,L|193:362,1,25.2266674365235,4|0,0:0|0:0,0:0:0:0:
381,384,267217,2,0,L|373:359,1,25.2266674365235,0|0,1:0|0:0,0:0:0:0:
254,158,267562,54,0,B|238:157|238:157|278:308,1,162.826658467692,4|2,0:2|0:0,0:0:0:0:
363,211,267907,86,0,L|332:204,1,25.2266674365235,0|4,1:0|0:0,0:0:0:0:
186,275,268251,2,0,L|161:269,1,25.2266674365235,4|4,0:0|0:0,0:0:0:0:
240,158,268596,2,0,L|247:179,1,12.6133337182617,0|0,1:0|0:0,0:0:0:0:
275,298,268826,1,0,0:0:0:0:
387,216,268941,86,0,L|356:209,1,25.2266674365235,4|0,0:0|0:0,0:0:0:0:
421,74,269286,1,0,1:0:0:0:
443,99,269401,1,2,0:2:0:0:
452,135,269516,1,2,0:2:0:0:
335,61,269631,2,0,L|345:34,1,25.2266674365235,4|4,0:0|0:0,0:0:0:0:
176,115,269976,2,0,L|172:103,1,12.6133337182617,0|0,1:0|0:0,0:0:0:0:
275,142,270205,1,0,0:0:0:0:
183,332,270320,54,0,B|167:333|167:333|207:182,1,162.826658467692,4|2,0:2|0:0,0:0:0:0:
299,279,270665,86,0,L|269:289,1,25.2266674365235,0|0,1:0|0:0,0:0:0:0:
102,247,271010,2,0,L|72:257,1,25.2266674365235,4|2,0:0|0:2,0:0:0:0:
193,108,271355,2,0,L|200:85,1,12.6133337182617,0|0,1:0|0:0,0:0:0:0:
134,49,271585,1,0,0:0:0:0:
286,171,271700,22,0,B|302:172|302:172|264:30,1,162.826658467692,4|2,0:2|0:0,0:0:0:0:
209,192,272044,86,0,L|219:225,1,25.2266674365235,0|2,1:0|0:2,0:0:0:0:
412,264,272389,1,4,0:0:0:0:
387,201,272504,2,0,L|381:181,1,12.6133337182617,2|0,0:2|0:0,0:0:0:0:
315,332,272734,1,0,1:0:0:0:
287,269,272849,2,0,L|281:249,1,12.6133337182617
168,325,273079,22,0,B|237:336|181:380|140:338|213:304|228:274|207:186,1,208.69334033903,4|0,0:0|0:0,0:0:0:0:
200,175,273424,5,0,1:0:0:0:
38,245,273654,5,0,0:0:0:0:
45,217,273769,1,4,0:0:0:0:
124,257,273998,101,0,0:0:0:0:
131,229,274113,1,0,1:0:0:0:
70,49,274343,5,2,0:0:0:0:
122,94,274458,2,0,L|110:124,1,24.0799992651367,6|0,0:0|0:0,0:0:0:0:
239,0,274688,1,2,0:0:0:0:
291,45,274803,2,0,L|279:75,2,24.0799992651367,2|0|2,1:3|0:0|0:0,0:0:0:0:
347,248,275148,101,6,0:0:0:0:
220,156,275263,1,2,0:0:0:0:
369,96,275378,1,6,0:0:0:0:
310,179,275493,5,2,1:3:0:0:
303,164,275608,1,0,0:0:0:0:
321,165,275723,1,2,0:0:0:0:
285,290,275838,6,0,B|264:168|273:166|249:21,1,260.866675423788,0|0,0:2|0:0,0:0:0:0:
242,128,276182,2,0,B|234:85|240:86|227:-4,1,104.346670169515,2|0,1:3|0:0,0:0:0:0:
54,134,276412,1,0,0:0:0:0:
87,206,276527,2,0,B|104:118|95:117|112:0,1,208.69334033903,4|2,0:0|0:2,0:0:0:0:
204,231,276872,2,0,B|221:143|212:142|229:24,1,208.69334033903,0|0,1:0|0:0,0:0:0:0:
432,270,277217,2,0,B|411:148|420:146|396:1,1,260.866675423788,4|0,0:0|0:0,0:0:0:0:
435,103,277562,2,0,B|426:52|435:52|423:0,1,104.346670169515,2|0,1:3|0:0,0:0:0:0:
294,186,277792,1,0,0:0:0:0:
342,243,277907,2,0,B|317:150|330:147|307:36,1,208.69334033903,4|0,0:0|0:0,0:0:0:0:
219,232,278251,2,0,B|210:181|219:181|207:128,1,104.346670169515,0|0,1:0|0:0,0:0:0:0:
57,290,278481,1,0,0:0:0:0:
94,356,278596,2,0,B|115:234|106:232|130:87,1,260.866675423788,4|0,0:0|0:0,0:0:0:0:
92,183,278941,2,0,B|104:136|97:132|108:79,1,104.346670169515,2|0,1:3|0:0,0:0:0:0:
272,262,279171,1,0,0:0:0:0:
242,333,279286,2,0,B|217:240|230:237|207:127,1,208.69334033903,4|0,0:0|0:0,0:0:0:0:
336,383,279631,2,0,B|361:290|348:287|370:177,1,208.69334033903,2|2,1:2|0:2,0:0:0:0:
512,321,279976,2,0,B|491:199|500:197|476:52,1,260.866675423788,4|0,0:0|0:0,0:0:0:0:
470,155,280320,2,0,B|458:108|465:104|453:51,1,104.346670169515,2|0,1:3|0:0,0:0:0:0:
299,198,280550,1,0,0:0:0:0:
335,262,280665,2,0,B|347:215|340:211|351:158,1,104.346670169515,4|0,0:0|0:0,0:0:0:0:
183,221,280895,1,4,0:0:0:0:
242,263,281010,2,0,B|233:215|224:214|212:162,1,104.346670169515,0|0,1:0|0:0,0:0:0:0:
91,292,281240,1,0,0:0:0:0:
162,305,281355,6,0,B|100:229|100:229|90:230|90:230|23:127,1,208.69334033903,4|0,0:0|0:0,0:0:0:0:
309,217,281700,2,0,B|200:207|200:207|198:212|198:212|84:189,1,208.69334033903,2|0,1:3|0:0,0:0:0:0:
355,55,282044,2,0,B|272:125|272:125|279:129|279:129|177:194,1,208.69334033903,6|0,0:0|0:0,0:0:0:0:
250,3,282389,2,0,B|252:61|252:61|247:63|247:63|244:122,1,104.346670169515,2|0,1:3|0:0,0:0:0:0:
480,52,282619,1,0,0:0:0:0:
431,38,282734,2,0,B|460:154|460:154|451:159|451:159|477:297,1,260.866675423788,4|0,0:0|0:0,0:0:0:0:
420,158,283079,2,0,B|436:215|436:215|432:221|432:221|445:288,1,104.346670169515,2|0,1:3|0:0,0:0:0:0:
298,115,283309,1,0,0:0:0:0:
346,59,283424,2,0,B|322:165|322:165|331:171|331:171|310:264,1,208.69334033903,4|0,0:0|0:0,0:0:0:0:
155,173,283769,1,0,1:0:0:0:
191,111,283884,2,0,B|204:165|204:165|200:170|200:170|216:241,1,104.346670169515
57,27,284113,2,0,B|30:155|30:155|38:156|38:156|8:316,1,260.866675423788,4|0,0:0|0:0,0:0:0:0:
64,155,284458,2,0,B|48:212|48:212|53:219|53:219|39:285,1,104.346670169515,2|0,1:3|0:0,0:0:0:0:
227,148,284688,1,0,0:0:0:0:
171,86,284803,2,0,B|192:193|192:193|186:202|186:202|206:291,1,208.69334033903,4|0,0:0|0:0,0:0:0:0:
330,125,285148,2,0,B|316:178|316:178|321:184|321:184|305:255,1,104.346670169515,0|0,1:0|0:0,0:0:0:0:
461,165,285378,1,0,0:0:0:0:
415,90,285493,2,0,B|447:218|447:218|440:226|440:226|466:381,1,260.866675423788,4|0,0:0|0:0,0:0:0:0:
413,231,285838,2,0,B|429:288|422:290|438:361,1,104.346670169515,0|0,1:0|0:0,0:0:0:0:
264,235,286067,1,6,0:0:0:0:
325,193,286182,2,0,B|312:249|312:249|315:255|315:255|300:323,1,104.346670169515,4|2,0:0|0:0,0:0:0:0:
160,155,286412,1,6,0:0:0:0:
233,142,286527,2,0,B|196:187|196:187|198:194|198:194|155:249,1,104.346670169515,0|0,1:0|0:0,0:0:0:0:
106,42,286757,1,0,0:0:0:0:
177,61,286872,2,0,L|61:125,1,104.346670169515,4|0,0:0|0:0,0:0:0:0:
301,2,287102,1,2,0:2:0:0:
319,73,287217,54,0,B|342:85|342:85|361:295|361:295|398:322,1,254.560006214844,2|0,1:3|0:0,0:0:0:0:
478,252,287562,54,0,L|365:226,1,104.346670169515,4|0,0:0|0:0,0:0:0:0:
320,369,287792,1,0,0:0:0:0:
281,299,287907,2,0,L|179:275,1,104.346670169515,0|0,1:0|0:0,0:0:0:0:
59,353,288136,1,0,0:0:0:0:
87,265,288251,1,6,0:0:0:0:
58,258,288366,1,0,0:0:0:0:
31,266,288481,1,2,0:2:0:0:
165,384,288596,54,0,B|142:372|142:372|123:162|123:162|86:135,1,254.560006214844,2|0,1:3|0:0,0:0:0:0:
34,83,288941,54,0,L|135:59,1,104.346670169515,4|0,0:0|0:0,0:0:0:0:
204,190,289171,1,0,0:0:0:0:
256,72,289286,1,0,1:0:0:0:
315,123,289401,2,0,L|416:99,1,104.346670169515
495,154,289631,1,6,0:0:0:0:
511,123,289746,1,0,0:0:0:0:
512,85,289889,1,2,0:2:0:0:
370,15,289976,54,0,B|384:25|384:25|403:235|403:235|426:247,1,254.560006214844,2|0,1:3|0:0,0:0:0:0:
472,341,290320,54,0,L|370:317,1,104.346670169515,4|0,0:0|0:0,0:0:0:0:
304,178,290550,1,0,0:0:0:0:
277,258,290665,2,0,L|175:281,1,104.346670169515,0|0,1:0|0:0,0:0:0:0:
40,155,290895,1,0,0:0:0:0:
2,234,291010,1,6,0:0:0:0:
32,245,291125,1,0,0:0:0:0:
67,239,291240,1,2,0:2:0:0:
168,149,291355,54,0,B|153:159|153:159|134:369|134:369|111:381,1,254.560006214844,2|0,1:3|0:0,0:0:0:0:
306,255,291700,1,6,0:0:0:0:
242,208,291815,2,0,B|225:219|225:219|242:314|242:314|213:330,1,127.280003107422
401,384,292044,2,0,B|391:378|391:378|408:283|408:283|391:272,1,127.280003107422,2|0,1:3|0:0,0:0:0:0:
424,121,292274,1,0,0:0:0:0:
370,181,292389,1,6,0:0:0:0:
403,201,292504,1,0,0:0:0:0:
438,200,292619,1,2,0:2:0:0:
512,79,292734,2,0,B|497:69|497:69|293:123|293:123|274:105,1,254.560006214844,2|0,1:3|0:0,0:0:0:0:
177,49,293079,54,0,L|205:170,1,104.346670169515,4|0,0:0|0:0,0:0:0:0:
45,247,293309,1,0,0:0:0:0:
111,190,293424,2,0,L|139:311,1,104.346670169515,0|0,1:0|0:0,0:0:0:0:
265,346,293654,1,0,0:0:0:0:
200,283,293769,1,6,0:0:0:0:
174,309,293884,1,0,0:0:0:0:
171,343,293998,1,2,0:2:0:0:
373,261,294113,54,0,B|355:276|355:276|152:222|152:222|135:237,1,254.560006214844,2|0,1:3|0:0,0:0:0:0:
329,181,294458,54,0,L|298:17,1,162.826658467692,4|0,0:0|0:0,0:0:0:0:
206,3,294803,2,0,L|236:162,1,162.826658467692,0|0,1:0|0:0,0:0:0:0:
429,61,295148,5,6,0:0:0:0:
370,17,295262,1,0,0:0:0:0:
298,21,295378,1,2,0:2:0:0:
218,132,295493,5,2,1:3:0:0:
264,97,295607,1,0,0:0:0:0:
320,100,295722,1,2,0:2:0:0:
380,195,295838,101,6,0:0:0:0:
348,171,295952,1,0,0:0:0:0:
311,173,296067,1,2,0:2:0:0:
269,258,296182,5,2,1:3:0:0:
290,241,296296,1,0,0:0:0:0:
315,243,296411,1,2,0:2:0:0:
353,308,296527,101,6,0:0:0:0:
260,232,296757,5,2,0:2:0:0:
269,258,296872,1,0,1:0:0:0:
389,169,297102,101,0,1:0:0:0:
380,195,297217,1,0,1:0:0:0:
209,106,297447,5,0,1:0:0:0:
218,132,297562,1,0,1:0:0:0:
438,35,297792,101,0,1:0:0:0:
429,61,297907,22,0,B|424:48|424:48|417:52|417:52|372:8|277:28,1,139.893327569906,4|0,0:2|0:2,0:0:0:0:
103,127,298251,54,0,B|95:120|95:120|89:126|89:126|60:85|69:32,1,92.8800022675782,0|0,1:0|0:0,0:0:0:0:
324,178,298481,1,0,0:2:0:0:
387,142,298596,2,0,B|386:131|386:131|379:133|379:133|354:91|290:100,1,92.8800022675782,4|0,0:0|0:0,0:0:0:0:
161,238,298826,1,2,0:2:0:0:
96,202,298941,2,0,B|97:191|97:191|104:193|104:193|129:151|193:160,1,92.8800022675782,0|0,1:0|0:0,0:0:0:0:
395,224,299171,1,0,0:0:0:0:
335,294,299286,53,4,0:0:0:0:
293,241,299400,1,0,0:0:0:0:
313,177,299515,1,0,0:2:0:0:
166,345,299631,2,0,B|157:348|157:348|156:340|156:340|107:335|98:298,1,92.8800022675782,0|0,1:0|0:0,0:0:0:0:
293,241,299861,1,0,0:2:0:0:
334,294,299976,2,0,B|342:297|342:297|343:289|343:289|392:284|401:247,1,92.8800022675782,4|0,0:0|0:0,0:0:0:0:
166,158,300205,1,2,0:2:0:0:
124,211,300320,2,0,B|115:214|115:214|114:206|114:206|65:201|56:164,1,92.8800022675782,0|0,1:0|0:0,0:0:0:0:
341,94,300550,1,0,0:0:0:0:
313,177,300665,53,4,0:0:0:0:
258,137,300779,1,0,0:0:0:0:
259,70,300894,1,0,0:2:0:0:
401,167,301010,2,0,B|409:188|409:188|403:194|403:194|411:232|366:274,1,92.8800022675782,0|0,1:0|0:0,0:0:0:0:
187,281,301240,1,0,0:2:0:0:
231,204,301355,2,0,B|249:216|249:216|248:224|248:224|276:251|263:311,1,92.8800022675782,4|0,0:0|0:0,0:0:0:0:
19,372,301585,1,2,0:2:0:0:
10,283,301700,2,0,B|32:282|32:282|36:290|36:290|74:295|98:352,1,92.8800022675782,0|0,1:0|0:0,0:0:0:0:
242,362,301930,1,2,0:2:0:0:
187,281,302044,54,0,B|185:262|185:262|192:263|192:263|175:200|229:129,1,139.893327569906,4|2,0:0|0:2,0:0:0:0:
121,157,302389,54,0,B|118:154|118:154|56:176,2,58.4800003569336,0|0|2,1:0|0:0|0:2,0:0:0:0:
274,231,302734,2,0,B|277:234|277:234|339:212,1,58.4800003569336,4|2,0:0|0:2,0:0:0:0:
224,382,302964,1,2,0:2:0:0:
396,338,303079,54,0,B|339:294|339:294|284:316|284:316|180:284,1,208.69334033903,0|0,1:0|0:0,0:0:0:0:
66,172,303424,54,0,B|85:191|85:191|81:196|81:196|122:242|109:338,1,139.893327569906,4|2,0:2|0:2,0:0:0:0:
164,127,303769,54,0,B|169:117|169:117|173:118|173:118|193:86|199:17,1,92.8800022675782,2|0,1:3|0:0,0:0:0:0:
195,44,303998,1,2,0:2:0:0:
248,163,304113,2,0,B|258:159|258:159|260:163|260:163|297:154|350:109,1,92.8800022675782,6|0,0:0|0:0,0:0:0:0:
328,127,304342,1,2,0:2:0:0:
280,251,304458,2,0,B|290:256|290:256|289:259|289:259|320:280|390:286,1,92.8800022675782,2|0,1:3|0:0,0:0:0:0:
362,282,304687,1,2,0:2:0:0:
178,261,304803,54,0,B|197:280|197:280|193:285|193:285|234:331|221:427,1,139.893327569906,4|2,0:0|0:2,0:0:0:0:
66,279,305148,54,0,B|71:269|71:269|75:270|75:270|95:238|101:169,1,92.8800022675782,2|0,1:3|0:0,0:0:0:0:
97,196,305378,1,2,0:2:0:0:
232,200,305493,2,0,B|228:189|228:189|232:187|232:187|223:150|178:97,1,92.8800022675782,6|0,0:0|0:0,0:0:0:0:
196,119,305723,1,2,0:2:0:0:
330,54,305838,2,0,B|320:48|320:48|321:45|321:45|288:25|220:19,1,92.8800022675782,2|0,1:3|0:0,0:0:0:0:
247,22,306068,1,2,0:2:0:0:
347,163,306182,54,0,B|373:163|373:163|374:157|374:157|436:154|496:78,1,139.893327569906,4|2,0:0|0:2,0:0:0:0:
408,256,306527,54,0,B|410:297|430:329|430:329|434:328|434:328|439:338,1,92.8800022675782,2|0,1:3|0:0,0:0:0:0:
439,338,306757,1,2,0:2:0:0:
287,224,306872,2,0,B|259:255|251:292|251:292|254:294|254:294|251:304,1,92.8800022675782,6|0,0:0|0:0,0:0:0:0:
251,304,307102,1,2,0:2:0:0:
237,112,307217,2,0,B|195:114|163:134|163:134|164:138|164:138|154:143,1,92.8800022675782,2|0,1:3|0:0,0:0:0:0:
154,143,307447,1,2,0:2:0:0:
275,0,307562,53,4,0:0:0:0:
129,262,307792,1,2,0:2:0:0:
83,196,307907,1,2,1:3:0:0:
212,264,308021,1,4,0:0:0:0:
93,335,308136,1,2,0:2:0:0:
129,262,308251,54,0,B|206:277|206:277|209:282|209:282|331:305,1,162.826658467692,6|2,0:0|0:2,0:0:0:0:
457,243,308596,2,0,B|490:233|490:233|491:234|491:234|533:220,2,58.4800003569336,2|0|2,1:3|0:0|0:2,0:0:0:0:
397,347,308941,21,4,0:2:0:0:
258,215,309171,1,0,0:0:0:0:
261,209,309286,1,0,1:0:0:0:
422,82,309516,1,0,0:0:0:0:
419,76,309631,1,4,0:0:0:0:
258,0,309861,1,2,0:2:0:0:
261,6,309976,1,0,1:0:0:0:
220,75,310090,1,0,0:0:0:0:
146,74,310205,1,2,0:2:0:0:
91,0,310320,53,4,0:0:0:0:
180,174,310550,1,0,0:0:0:0:
177,180,310665,1,0,1:0:0:0:
54,317,310895,1,0,0:0:0:0:
57,323,311010,1,4,0:0:0:0:
287,252,311240,1,2,0:2:0:0:
290,258,311355,1,0,1:0:0:0:
249,327,311470,1,0,0:0:0:0:
175,326,311585,1,2,0:2:0:0:
90,242,311700,54,0,B|87:242|87:242|117:140,1,69.9466637849529,4|0,0:2|0:0,0:0:0:0:
232,162,311930,2,0,B|235:162|235:162|205:60,1,69.9466637849529,0|0,0:0|1:0,0:0:0:0:
17,144,312159,2,0,B|14:144|14:144|44:42,1,69.9466637849529
122,64,312389,2,0,B|125:64|125:64|95:-38,1,69.9466637849529,4|0,0:0|0:0,0:0:0:0:
216,97,312619,1,2,0:2:0:0:
220,87,312734,54,0,B|267:71|267:71|314:123,1,94.0266681013998,0|2,1:0|0:2,0:0:0:0:
373,8,313079,53,4,0:0:0:0:
499,114,313309,1,0,0:0:0:0:
502,108,313424,1,0,1:0:0:0:
289,201,313654,1,2,0:2:0:0:
293,208,313769,54,0,L|309:261,2,29.8133331513672,4|0|2,0:0|0:0|0:2,0:0:0:0:
339,342,314113,2,0,L|330:313,2,29.8133331513672,0|0|2,1:0|0:0|0:2,0:0:0:0:
227,291,314458,54,0,B|189:300|158:306|158:306|135:343|135:343|98:352|61:364,1,175.440001070801,4|0,0:2|1:0,0:0:0:0:
361,144,315148,2,0,B|399:153|430:159|430:159|453:196|453:196|490:205|527:217,1,175.440001070801,4|0,0:0|1:0,0:0:0:0:
195,110,315723,53,0,0:0:0:0:
152,166,315838,2,0,B|109:150|109:150|81:160|81:160|27:140,1,116.960000713867,4|0,0:2|0:0,0:0:0:0:
192,274,316182,2,0,B|235:258|235:258|263:268|263:268|301:253,1,116.960000713867,0|2,1:0|0:2,0:0:0:0:
75,359,316527,2,0,P|100:294|99:237,1,116.960000713867,4|2,0:0|0:2,0:0:0:0:
227,42,316872,2,0,P|229:100|252:153,1,116.960000713867,0|0,1:0|0:0,0:0:0:0:
429,292,317217,53,4,0:2:0:0:
436,282,317332,1,0,0:2:0:0:
432,270,317447,1,2,0:2:0:0:
404,203,317562,53,0,1:0:0:0:
392,203,317677,1,0,0:2:0:0:
382,209,317792,1,2,0:2:0:0:
376,219,317907,1,0,0:0:0:0:
377,236,318021,1,0,0:2:0:0:
387,250,318136,1,2,0:2:0:0:
432,313,318251,53,0,1:0:0:0:
455,311,318366,1,0,0:2:0:0:
472,295,318481,1,2,0:2:0:0:
476,272,318596,1,4,0:2:0:0:
466,250,318711,1,0,0:2:0:0:
445,238,318826,1,2,0:2:0:0:
377,178,318941,53,0,1:0:0:0:
342,208,319055,1,0,0:2:0:0:
336,253,319170,1,2,0:2:0:0:
360,292,319285,1,0,0:0:0:0:
404,307,319400,1,2,0:2:0:0:
446,289,319515,1,2,0:2:0:0:
484,193,319631,53,0,1:0:0:0:
472,135,319745,1,2,0:2:0:0:
460,78,319860,1,2,1:2:0:0:
448,21,319976,54,0,P|446:6|445:21,1,36.6933333333333,6|2,0:0|0:2,0:0:0:0:
361,109,320320,53,2,1:3:0:0:
361,85,320435,1,0,0:0:0:0:
379,96,320550,1,2,0:2:0:0:
289,43,320665,53,6,0:0:0:0:
277,36,320780,1,0,0:0:0:0:
277,51,320895,1,4,0:0:0:0:
198,103,321010,53,0,1:0:0:0:
198,95,321125,1,0,0:0:0:0:
192,99,321240,1,2,0:2:0:0:
122,53,321355,54,0,P|118:38|129:48,1,36.6933333333333,6|2,0:0|0:2,0:0:0:0:
71,133,321700,53,2,1:3:0:0:
51,121,321815,1,0,0:0:0:0:
51,146,321930,1,2,0:2:0:0:
133,220,322044,53,6,0:0:0:0:
133,205,322159,1,0,0:0:0:0:
121,212,322274,1,0,0:0:0:0:
52,289,322389,53,0,1:0:0:0:
52,279,322504,1,0,0:0:0:0:
59,284,322619,1,2,0:2:0:0:
128,359,322734,54,0,P|117:368|120:354,1,36.6933333333333,6|2,0:0|0:2,0:0:0:0:
221,319,323079,53,2,1:3:0:0:
221,292,323194,1,0,0:0:0:0:
197,305,323309,1,2,0:2:0:0:
299,359,323424,53,6,0:0:0:0:
311,366,323539,1,0,0:0:0:0:
311,351,323654,1,0,0:0:0:0:
382,292,323769,53,0,1:0:0:0:
382,301,323884,1,0,0:0:0:0:
389,297,323999,1,2,0:2:0:0:
322,245,324113,54,0,P|318:230|329:240,1,36.6933333333333,6|0,0:0|0:0,0:0:0:0:
349,164,324458,54,0,L|368:93,1,47.0133340506999,2|0,1:3|0:0,0:0:0:0:
197,152,324688,1,2,0:2:0:0:
241,95,324803,54,0,B|245:90|245:90|68:52,1,162.826658467692,6|2,0:0|0:2,0:0:0:0:
140,239,325148,54,0,L|152:284,1,47.0133340506999,2|0,1:3|0:0,0:0:0:0:
45,195,325378,1,2,0:2:0:0:
237,254,325493,54,0,P|240:239|229:249,1,36.6933333333333,6|2,0:0|0:2,0:0:0:0:
258,326,325838,54,0,L|270:371,1,47.0133340506999,2|0,1:3|0:0,0:0:0:0:
408,252,326067,1,2,0:2:0:0:
347,210,326182,2,0,L|334:255,1,47.0133340506999,6|0,0:0|0:0,0:0:0:0:
452,147,326412,1,2,0:2:0:0:
307,103,326527,2,0,L|232:81,1,47.0133340506999,2|0,1:3|0:0,0:0:0:0:
354,47,326757,1,2,0:2:0:0:
244,190,326872,54,0,P|232:199|236:185,1,36.6933333333333,6|2,0:0|0:2,0:0:0:0:
171,116,327217,53,2,1:3:0:0:
99,96,327332,1,2,0:2:0:0:
35,134,327447,1,2,0:2:0:0:
99,219,327562,2,0,L|113:159,1,47.0133340506999,6|0,0:0|0:0,0:0:0:0:
184,320,327792,1,2,0:2:0:0:
64,324,327907,2,0,L|124:302,1,47.0133340506999,2|0,1:3|0:0,0:0:0:0:
280,251,328136,1,2,0:2:0:0:
249,180,328251,54,0,P|237:170|241:184,1,36.6933333333333,6|2,0:0|0:2,0:0:0:0:
374,303,328596,53,2,1:3:0:0:
385,233,328710,1,2,0:2:0:0:
396,163,328825,1,2,0:2:0:0:
347,31,328941,2,0,B|355:18|355:18|380:105,1,94.0266681013998,6|2,0:0|0:2,0:0:0:0:
292,182,329286,1,2,1:3:0:0:
280,251,329401,1,2,0:2:0:0:
269,321,329515,1,2,0:2:0:0:
184,368,329631,54,0,P|180:382|191:372,1,36.6933333333333,6|2,0:0|0:2,0:0:0:0:
129,316,329976,53,2,1:3:0:0:
212,210,330090,53,6,0:0:0:0:
118,126,330205,53,6,0:0:0:0:
216,24,330320,54,0,B|208:11|208:11|183:98,1,94.0266681013998,4|2,0:0|0:2,0:0:0:0:
212,210,330665,2,0,B|220:223|220:223|245:136,1,94.0266681013998,2|2,1:3|0:2,0:0:0:0:
412,38,331010,70,0,B|343:29|371:88|272:74,1,128.426668234375,4|2,2:0|0:2,0:0:0:0:
364,189,331355,54,0,P|395:161|404:112,2,75.679999769043,0|2|2,1:0|0:2|0:2,0:0:0:0:
334,266,331700,2,0,P|376:268|417:240,2,75.679999769043,4|2|2,0:0|0:2|0:2,0:0:0:0:
259,300,332044,2,0,P|287:331|336:340,2,75.679999769043,0|2|2,1:0|0:2|0:2,0:0:0:0:
145,226,332389,54,0,B|111:255|111:255|163:362,1,128.426668234375,4|2,0:0|0:2,0:0:0:0:
239,108,332734,54,0,B|238:102|238:102|273:7,2,75.679999769043,0|0|2,1:0|0:0|0:2,0:0:0:0:
224,195,333079,2,0,B|229:197|229:197|294:274,2,75.679999769043,4|2|2,0:0|0:2|0:2,0:0:0:0:
152,140,333424,2,0,B|147:143|147:143|47:161,2,75.679999769043,0|2|2,1:0|0:2|0:2,0:0:0:0:
361,93,333769,53,4,0:0:0:0:
358,136,333884,1,0,0:0:0:0:
361,93,333998,1,2,0:2:0:0:
358,136,334113,2,0,B|350:158|350:158|361:268|361:268|347:295,1,151.359999538086,0|2,1:0|0:2,0:0:0:0:
276,368,334458,1,4,0:0:0:0:
272,326,334573,1,0,0:0:0:0:
276,368,334687,1,2,0:2:0:0:
272,326,334803,2,0,B|264:304|264:304|275:194|275:194|261:167,1,151.359999538086,0|2,1:0|0:2,0:0:0:0:
210,90,335148,54,0,L|215:100,2,6.88000016796876,4|0|2,0:0|0:0|0:2,0:0:0:0:
97,275,335493,2,0,L|102:285,2,6.88000016796876,0|0|2,1:0|0:0|0:2,0:0:0:0:
375,192,335838,2,0,L|380:202,2,6.88000016796876,4|0|2,0:0|0:0|0:2,0:0:0:0:
262,377,336183,2,0,L|267:387,2,6.88000016796876,0|0|2,1:0|3:0|0:2,0:0:0:0:
334,355,336527,53,4,0:0:0:0:
242,277,336757,1,2,0:2:0:0:
242,277,336872,1,0,1:0:0:0:
335,205,337102,1,2,0:2:0:0:
335,205,337217,1,0,0:0:0:0:
237,105,337447,1,2,0:2:0:0:
237,105,337562,1,0,1:0:0:0:
323,0,337792,1,2,0:2:0:0:
340,67,337907,54,0,L|343:81,1,13.7600003359375,0|2,0:0|0:2,0:0:0:0:
210,27,338251,1,0,1:0:0:0:
193,34,338366,1,0,0:0:0:0:
176,41,338481,1,2,0:2:0:0:
70,80,338596,2,0,L|73:66,1,13.7600003359375,0|2,0:0|0:2,0:0:0:0:
207,134,338941,1,0,1:0:0:0:
224,141,339056,1,0,0:0:0:0:
241,148,339171,1,2,0:2:0:0:
342,225,339286,54,0,L|327:172,2,29.8133331513672,0|0|2,1:0|0:0|0:2,0:0:0:0:
224,286,339631,2,0,L|239:233,2,29.8133331513672,0|0|2,1:0|0:0|0:2,0:0:0:0:
292,372,339976,1,0,1:0:0:0:
308,347,340090,1,2,0:2:0:0:
305,318,340205,1,2,0:2:0:0:
370,273,340320,53,0,1:0:0:0:
364,244,340434,1,2,0:2:0:0:
342,225,340549,1,2,0:2:0:0:
251,176,340665,53,2,1:3:0:0:
260,135,340779,1,0,0:0:0:0:
269,95,340894,1,2,0:2:0:0:
297,5,341010,53,0,0:0:0:0:
328,33,341124,1,0,0:0:0:0:
358,61,341239,1,2,0:2:0:0:
432,127,341355,53,0,0:0:0:0:
392,139,341469,1,2,0:2:0:0:
353,151,341584,1,2,0:2:0:0:
269,95,341700,53,0,0:0:0:0:
194,61,341814,1,2,0:2:0:0:
118,92,341929,1,2,0:2:0:0:
98,77,342044,86,0,B|31:150|39:228|61:311|116:378|205:400|309:392|393:343|458:266|469:203|472:110|439:77|386:22|314:-4|240:-4|192:11|127:46|59:114|38:162|110:303|162:331|270:303|298:263|375:196|321:132|227:137|201:158|256:249,1,1362.24004157227,4|0,0:3|0:0,0:0:0:0:
256,192,354573,12,0,361355,0:0:0:0:
