osu file format v14

[General]
AudioFilename: audio.mp3
AudioLeadIn: 0
PreviewTime: 125597
Countdown: 0
SampleSet: Normal
StackLeniency: 0.5
Mode: 0
LetterboxInBreaks: 0
WidescreenStoryboard: 0

[Editor]
Bookmarks: 105942,149045,182148,188010,197493
DistanceSpacing: 0.9
BeatDivisor: 4
GridSize: 8
TimelineZoom: 2.2

[Metadata]
Title:Prometheus
TitleUnicode:Prometheus
Artist:Rameses B
ArtistUnicode:Rameses B
Creator:AsaBen
Version:Find Him
Source:
Tags:
BeatmapID:1911028
BeatmapSetID:915039

[Difficulty]
HPDrainRate:5
CircleSize:4
OverallDifficulty:8
ApproachRate:9.5
SliderMultiplier:1.4
SliderTickRate:1

[Events]
//Background and Video events
0,0,"Prometheus.jpg",0,0
//Break Periods
2,49935,60244
2,171314,181623
2,204417,214727
//Storyboard Layer 0 (Background)
//Storyboard Layer 1 (Fail)
//Storyboard Layer 2 (Pass)
//Storyboard Layer 3 (Foreground)
//Storyboard Sound Samples

[TimingPoints]
80,344.827586206897,4,1,0,100,1,0
27666,-66.6666666666667,4,1,0,60,0,0
60769,-66.6666666666667,4,1,0,100,0,0
60769,-66.6666666666667,4,1,0,100,0,0
61286,-25,4,1,0,100,0,0
61373,-25,4,1,0,5,0,0
61459,-66.6666666666667,4,1,0,100,0,0
65424,-80,4,1,0,100,0,0
66114,-100,4,1,0,100,0,0
66804,-25,4,1,0,100,0,0
66890,-25,4,1,0,5,0,0
66976,-66.6666666666667,4,1,0,100,0,0
68700,-80,4,1,0,100,0,0
69045,-66.6666666666667,4,1,0,100,0,0
74390,-25,4,1,0,100,0,0
74476,-25,4,1,0,5,0,0
74562,-66.6666666666667,4,1,0,100,0,0
75252,-25,4,1,0,100,0,0
75338,-25,4,1,0,5,0,0
75424,-66.6666666666667,4,1,0,100,0,0
75769,-25,4,1,0,100,0,0
75855,-25,4,1,0,5,0,0
75942,-66.6666666666667,4,1,0,100,0,0
76114,-66.6666666666667,4,1,0,50,0,0
76200,-66.6666666666667,4,1,0,60,0,0
76286,-66.6666666666667,4,1,0,70,0,0
76373,-66.6666666666667,4,1,0,80,0,0
76459,-66.6666666666667,4,1,0,90,0,0
82838,-200,4,1,0,90,0,0
83183,-25,4,1,0,90,0,0
83269,-25,4,1,0,5,0,0
83355,-66.6666666666667,4,1,0,100,0,0
84562,-25,4,1,0,100,0,0
84648,-25,4,1,0,5,0,0
84735,-66.6666666666667,4,1,0,100,0,0
85424,-25,4,1,0,100,0,0
85511,-25,4,1,0,5,0,0
85597,-66.6666666666667,4,1,0,100,0,0
85942,-25,4,1,0,100,0,0
86028,-25,4,1,0,5,0,0
86114,-66.6666666666667,4,1,0,100,0,0
87321,-25,4,1,0,100,0,0
87407,-25,4,1,0,5,0,0
87493,-66.6666666666667,4,1,0,100,0,0
88355,-200,4,1,0,100,0,0
88700,-25,4,1,0,100,0,0
88786,-25,4,1,0,5,0,0
88873,-66.6666666666667,4,1,0,100,0,0
90080,-25,4,1,0,100,0,0
90166,-25,4,1,0,5,0,0
90252,-66.6666666666667,4,1,0,100,0,0
90942,-25,4,1,0,100,0,0
91028,-25,4,1,0,5,0,0
91114,-66.6666666666667,4,1,0,100,0,0
91459,-25,4,1,0,100,0,0
91545,-25,4,1,0,5,0,0
91631,-66.6666666666667,4,1,0,100,0,0
93873,-200,4,1,0,100,0,0
94562,-66.6666666666667,4,1,0,100,0,0
95597,-25,4,1,0,100,0,0
95683,-25,4,1,0,5,0,0
95769,-66.6666666666667,4,1,0,100,0,0
99907,-80,4,1,0,100,0,0
100424,-100,4,1,0,100,0,0
100942,344.827586206897,4,1,0,100,1,0
100942,-133.333333333333,4,1,0,100,0,0
101459,-100,4,1,0,100,0,0
101976,-66.6666666666667,4,1,0,100,0,0
104562,-133.333333333333,4,1,0,100,0,0
105252,-66.6666666666667,4,1,0,100,0,0
121459,-133.333333333333,4,1,0,100,0,0
121804,-66.6666666666667,4,1,0,100,0,0
138010,-57.1428571428571,4,1,0,100,0,0
146459,-66.6666666666667,4,1,0,100,0,0
149045,-36.3636363636364,4,1,0,100,0,1
149390,-40,4,1,0,100,0,1
149735,-44.4444444444445,4,1,0,100,0,1
150424,-36.3636363636364,4,1,0,100,0,1
150769,-40,4,1,0,100,0,1
151114,-44.4444444444445,4,1,0,100,0,1
151804,-36.3636363636364,4,1,0,100,0,1
152148,-40,4,1,0,100,0,1
152493,-44.4444444444445,4,1,0,100,0,1
153183,-36.3636363636364,4,1,0,100,0,1
154907,-40,4,1,0,100,0,1
155252,-44.4444444444445,4,1,0,100,0,1
155942,-36.3636363636364,4,1,0,100,0,1
156286,-40,4,1,0,100,0,1
156631,-44.4444444444445,4,1,0,100,0,1
157321,-36.3636363636364,4,1,0,100,0,1
157666,-40,4,1,0,100,0,1
158010,-44.4444444444445,4,1,0,100,0,1
158700,-40,4,1,0,100,0,1
159735,-100,4,1,0,100,0,1
160424,-66.6666666666667,4,1,0,100,0,0
182148,-133.333333333333,4,1,0,100,0,0
204217,-303.030303030303,4,1,0,25,0,0
215252,-151.515151515152,4,1,0,25,0,0
215597,-400,4,1,0,25,0,0
216459,-151.515151515152,4,1,0,25,0,0
216976,-400,4,1,0,25,0,0
218010,-151.515151515152,4,1,0,25,0,0
218355,-400,4,1,0,25,0,0
219045,-151.515151515152,4,1,0,25,0,0
219735,-400,4,1,0,25,0,0
220769,-151.515151515152,4,1,0,25,0,0
221114,-400,4,1,0,25,0,0
221804,-151.515151515152,4,1,0,25,0,0
222493,-400,4,1,0,25,0,0
223183,-250,4,1,0,25,0,0
223528,-151.515151515152,4,1,0,25,0,0
224907,-133.333333333333,4,1,0,25,0,0
226286,-100,4,1,0,60,0,0
227321,-200,4,1,0,60,0,0
227666,-100,4,1,0,60,0,0
229045,-200,4,1,0,60,0,0
229390,-100,4,1,0,60,0,0
231804,-200,4,1,0,60,0,0
232148,-100,4,1,0,60,0,0
234562,-200,4,1,0,60,0,0
234907,-100,4,1,0,60,0,0
235942,-200,4,1,0,60,0,0

[Colours]
Combo1 : 0,128,64
Combo2 : 0,64,128
Combo3 : 125,0,63

[HitObjects]
240,75,27666,5,2,0:3:0:0:
341,209,27838,1,0,0:0:0:0:
350,123,28011,2,0,P|291:136|256:178,1,105.000004005432
162,293,28355,2,0,P|227:297|285:273,1,105.000004005432
441,222,28700,2,0,B|385:228|385:228|316:197,1,105.000004005432
396,32,29045,2,0,B|398:97|398:97|368:131,1,105.000004005432
202,52,29390,5,0,0:0:0:0:
315,174,29562,1,0,0:0:0:0:
68,178,29735,2,0,P|135:138|202:144,1,105.000004005432
286,255,30080,2,0,B|217:249|217:249|158:205,1,105.000004005432
397,237,30424,2,0,B|373:303|373:303|322:341,1,105.000004005432
240,168,30769,5,0,0:0:0:0:
410,141,30942,1,0,0:0:0:0:
307,280,31114,1,0,0:0:0:0:
319,89,31286,1,0,0:0:0:0:
186,233,31459,2,0,B|136:262|136:262|75:264,1,105.000004005432
112,55,31804,6,0,P|124:121|97:169,1,105.000004005432
224,64,32148,2,0,P|284:63|327:102,1,105.000004005432
201,232,32493,2,0,B|219:167|219:167|269:129,1,105.000004005432
396,250,32838,2,0,P|335:247|293:212,1,105.000004005432
477,181,33183,6,0,B|495:237|495:237|489:287,1,105.000004005432
269,299,33528,1,0,0:0:0:0:
396,250,33700,1,0,0:0:0:0:
249,210,33873,2,0,P|202:190|165:118,1,105.000004005432
354,69,34217,2,0,B|306:100|306:100|228:106,1,105.000004005432
154,34,34562,5,0,0:0:0:0:
216,211,34735,1,0,0:0:0:0:
81,112,34907,1,0,0:0:0:0:
241,75,35080,1,0,0:0:0:0:
176,211,35252,2,0,B|135:260|135:260|89:277,1,105.000004005432
226,122,35597,2,0,P|261:176|256:235,1,105.000004005432
156,23,35942,6,0,B|231:28|231:28|288:54,1,105.000004005432
338,152,36286,1,0,0:0:0:0:
363,39,36459,1,0,0:0:0:0:
249,163,36631,1,0,0:0:0:0:
443,91,36804,1,0,0:0:0:0:
353,247,36976,2,0,P|400:203|451:186,1,105.000004005432
344,348,37321,6,0,B|289:319|289:319|250:270,1,105.000004005432
260,153,37666,2,0,P|226:209|165:232,1,105.000004005432
121,55,38011,2,0,B|163:97|163:97|177:141,1,105.000004005432
11,203,38355,2,0,P|48:157|96:135,1,105.000004005432
182,306,38700,5,0,0:0:0:0:
98,213,38873,1,0,0:0:0:0:
273,210,39045,1,0,0:0:0:0:
122,194,39217,1,0,0:0:0:0:
266,64,39390,2,0,P|234:120|193:145,1,105.000004005432
362,34,39735,2,0,B|373:93|373:93|347:150,1,105.000004005432
270,233,40080,6,0,P|342:227|410:253,1,105.000004005432
333,336,40424,1,0,0:0:0:0:
460,214,40597,1,0,0:0:0:0:
286,110,40769,2,0,B|342:71|342:71|416:73,1,105.000004005432
271,208,41114,2,0,P|211:173|184:118,1,105.000004005432
54,165,41459,6,0,B|85:111|85:111|133:69,1,105.000004005432
331,75,41804,1,0,0:0:0:0:
184,140,41976,1,0,0:0:0:0:
391,146,42148,2,0,B|366:206|366:206|369:257,1,105.000004005432
428,353,42493,2,0,P|372:330|299:337,1,105.000004005432
204,363,42838,6,0,B|231:308|231:308|224:238,1,105.000004005432
36,243,43183,1,0,0:0:0:0:
146,286,43355,1,0,0:0:0:0:
131,80,43528,2,0,P|118:136|121:189,1,105.000004005432
306,143,43873,2,0,B|246:125|246:125|198:135,1,105.000004005432
276,313,44217,6,0,P|269:253|249:209,1,105.000004005432
162,275,44562,1,0,0:0:0:0:
333,131,44735,2,0,P|276:99|216:103,1,105.000004005432
191,255,45080,1,0,0:0:0:0:
181,26,45252,2,0,P|133:68|118:138,1,105.000004005432
333,131,45597,6,0,B|282:98|282:98|225:98,1,105.000004005432
193,293,45942,1,0,0:0:0:0:
258,177,46114,1,0,0:0:0:0:
59,135,46286,2,0,P|103:179|163:194,1,105.000004005432
281,79,46631,2,0,B|253:128|253:128|259:192,1,105.000004005432
442,166,46976,6,0,P|385:140|334:139,1,105.000004005432
376,341,47321,2,0,B|387:280|387:280|374:228,1,105.000004005432
369,232,47580,1,0,0:0:0:0:
362,226,47666,1,0,0:0:0:0:
183,289,47838,1,0,0:0:0:0:
280,126,48011,2,0,P|226:124|174:149,1,105.000004005432
301,308,48355,6,0,B|284:244|284:244|241:201,1,105.000004005432
68,129,48700,2,0,P|119:167|170:183,1,105.000004005432
317,31,49045,2,0,P|281:100|283:147,1,105.000004005432
438,256,49390,1,0,0:0:0:0:
230,261,49562,1,0,0:0:0:0:
399,155,49735,1,0,0:0:0:0:
401,167,60769,6,0,P|319:138|222:174,1,157.500006008148,0|0,0:0|2:0,0:0:0:0:
225,176,61114,1,0,0:0:0:0:
315,247,61286,2,0,B|288:280|315:311|315:311|346:282|316:247,1,140
318,217,61459,5,0,0:0:0:0:
436,268,61631,1,0,0:0:0:0:
240,338,61804,1,0,0:0:0:0:
436,268,61976,1,0,0:0:0:0:
430,73,62148,6,0,B|441:138|441:138|422:178,1,105.000004005432
238,101,62493,2,0,P|308:95|357:111,1,105.000004005432,0|0,0:0|2:0,0:0:0:0:
305,285,62838,2,0,B|285:219|285:219|288:156,1,105.000004005432,0|0,0:0|2:0,0:0:0:0:
436,268,63183,1,0,0:0:0:0:
245,347,63355,2,0,L|201:296,1,52.5000020027161,0|0,0:0|2:0,0:0:0:0:
158,357,63528,6,0,B|113:303|113:303|106:229,1,105.000004005432
271,187,63873,2,0,B|203:176|203:176|189:145|166:128,1,105.000004005432
57,80,64217,2,0,B|81:144|81:144|61:172|59:207,1,105.000004005432
59,301,64562,2,0,B|108:252|108:252|135:262|172:246,1,105.000004005432
285,314,64907,5,0,0:0:0:0:
376,134,65080,2,0,B|389:192|389:192|376:241,1,105.000004005432
275,323,65424,5,0,0:0:0:0:
408,157,65597,2,0,B|395:215|395:215|365:247,1,87.5
267,332,65942,5,0,0:0:0:0:
422,184,66114,2,0,B|385:231|385:231|347:247,1,70
259,342,66459,5,0,0:0:0:0:
190,185,66631,1,0,0:0:0:0:
109,307,66804,2,0,B|66:301|54:340|54:340|95:351|109:307,1,140
137,293,66976,6,0,P|198:281|263:231,1,105.000004005432
143,111,67321,1,0,0:0:0:0:
257,236,67493,1,0,0:0:0:0:
304,93,67666,2,0,B|254:109|254:109|212:155,1,105.000004005432
315,312,68011,5,0,0:0:0:0:
404,150,68183,2,0,B|351:153|351:153|299:187,1,105.000004005432
315,312,68528,5,0,0:0:0:0:
455,238,68700,2,0,B|408:227|408:227|358:243,1,87.5
315,312,69045,6,0,B|263:278|263:278|186:273,1,105.000004005432
150,340,69390,1,0,0:0:0:0:
107,227,69562,1,0,0:0:0:0:
36,309,69735,1,0,0:0:0:0:
69,137,69907,1,0,0:0:0:0:
130,254,70080,1,0,0:0:0:0:
214,68,70252,2,0,L|204:163,1,52.5000020027161,0|0,0:0|2:0,0:0:0:0:
199,193,70424,5,0,0:0:0:0:
305,92,70597,1,0,0:0:0:0:
288,258,70769,1,0,0:0:0:0:
370,162,70942,2,0,B|397:124|449:121|449:121|477:159|462:216,1,157.500006008148
468,211,71286,1,0,0:0:0:0:
431,344,71459,2,0,P|411:293|325:243,1,157.500006008148,0|0,0:0|2:0,0:0:0:0:
292,248,71804,6,0,B|225:254|225:254|192:280|192:280|117:283,1,157.500006008148,0|0,0:0|2:0,0:0:0:0:
104,285,72148,5,0,0:0:0:0:
156,143,72321,1,0,0:0:0:0:
313,126,72493,2,0,B|275:175|275:175|230:189,1,105.000004005432
74,193,72838,1,0,0:0:0:0:
160,50,73011,1,0,0:0:0:0:
270,232,73183,6,0,P|250:171|204:132,1,105.000004005432
173,302,73528,1,0,0:0:0:0:
378,258,73700,1,0,0:0:0:0:
289,133,73873,2,0,B|263:187|263:187|271:239,1,105.000004005432
410,278,74217,1,0,0:0:0:0:
429,140,74390,2,0,B|451:103|421:76|421:76|394:109|429:140,1,140
432,172,74562,5,0,0:0:0:0:
327,228,74735,1,0,0:0:0:0:
361,102,74907,1,0,0:0:0:0:
316,214,75080,1,0,0:0:0:0:
220,96,75252,6,0,B|177:90|165:129|165:129|206:140|220:96,1,140
257,80,75424,1,0,0:0:0:0:
177,221,75597,1,0,0:0:0:0:
116,348,75769,6,0,B|159:353|171:315|171:315|130:304|116:348,1,140
81,365,75942,5,0,0:0:0:0:
238,288,76114,1,0,0:0:0:0:
267,278,76200,1,0,0:0:0:0:
298,276,76286,1,0,0:0:0:0:
329,277,76373,1,0,0:0:0:0:
359,282,76459,1,0,0:0:0:0:
484,330,76631,6,0,B|488:273|488:273|448:216,1,105.000004005432
437,211,76890,1,0,0:0:0:0:
412,190,76976,1,0,0:0:0:0:
282,66,77148,1,0,0:0:0:0:
260,227,77321,5,0,0:0:0:0:
146,52,77493,2,0,B|147:112|147:112|173:159,1,105.000004005432
267,232,77838,5,0,0:0:0:0:
25,214,78011,2,0,L|61:270,1,52.5000020027161
110,207,78183,2,0,L|146:263,1,52.5000020027161
185,316,78355,1,0,0:0:0:0:
274,238,78528,1,0,0:0:0:0:
396,335,78700,5,0,0:0:0:0:
450,185,78873,2,0,P|398:131|348:114,1,105.000004005432
387,321,79217,1,0,0:0:0:0:
358,139,79390,1,0,0:0:0:0:
327,133,79476,1,0,0:0:0:0:
295,131,79562,1,0,0:0:0:0:
246,307,79735,2,0,B|287:252|287:252|294:203,1,105.000004005432
167,58,80080,5,0,0:0:0:0:
111,275,80252,1,0,0:0:0:0:
173,205,80424,1,0,0:0:0:0:
287,338,80597,5,0,0:0:0:0:
263,133,80769,1,0,0:0:0:0:
336,196,80942,1,0,0:0:0:0:
428,65,81114,5,0,0:0:0:0:
479,236,81286,1,0,0:0:0:0:
493,128,81459,5,0,0:0:0:0:
400,295,81631,1,0,0:0:0:0:
350,100,81804,1,0,0:0:0:0:
424,206,81976,1,0,0:0:0:0:
250,171,82148,1,0,0:0:0:0:
387,98,82321,1,0,0:0:0:0:
192,53,82493,1,0,0:0:0:0:
338,175,82666,1,0,0:0:0:0:
175,181,82838,6,0,L|120:187,1,52.5
89,214,83183,6,0,B|62:248|90:278|90:278|120:248|89:214,1,140
91,178,83355,1,0,0:0:0:0:
244,70,83528,2,0,B|197:107|197:107|184:155,1,105.000004005432
375,195,83873,2,0,P|323:160|269:147,1,105.000004005432
222,306,84217,2,0,B|278:274|278:274|293:230,1,105.000004005432
178,169,84562,6,0,B|176:125|135:120|135:120|132:162|178:169,1,140
199,202,84735,1,0,0:0:0:0:
376,299,84907,2,0,B|334:250|334:250|285:227,1,105.000004005432
454,212,85252,1,0,0:0:0:0:
363,90,85424,2,0,B|320:84|308:123|308:123|349:134|363:90,1,140
392,72,85597,5,0,0:0:0:0:
299,212,85769,1,0,0:0:0:0:
211,102,85942,6,0,B|209:58|168:53|168:53|165:95|211:102,1,140
228,126,86114,1,0,0:0:0:0:
83,183,86286,2,0,B|95:245|95:245|144:295,1,105.000004005432
249,261,86631,1,0,0:0:0:0:
384,69,86804,2,0,L|403:127,1,52.5000020027161
323,121,86976,2,0,B|352:209|352:209|333:288,1,157.500006008148
356,309,87321,6,0,B|388:338|421:313|421:313|393:281|356:309,1,140
313,307,87493,2,0,P|249:278|141:305,1,157.500006008148,0|0,0:0|2:0,0:0:0:0:
140,308,87838,1,0,0:0:0:0:
191,108,88011,2,0,B|217:165|217:165|199:233,1,105.000004005432
33,79,88355,6,0,L|92:81,1,52.5
125,72,88700,6,0,B|168:75|178:35|178:35|137:27|125:72,1,140
110,107,88873,1,0,0:0:0:0:
153,215,89045,1,0,0:0:0:0:
246,74,89217,1,0,0:0:0:0:
187,141,89390,1,0,0:0:0:0:
348,87,89562,2,0,L|309:137,1,52.5000020027161,0|0,0:0|2:0,0:0:0:0:
398,149,89735,6,0,L|333:237,1,105.000004005432
289,238,90080,6,0,B|287:194|246:189|246:189|243:231|289:238,1,140
314,268,90252,1,0,0:0:0:0:
491,324,90424,2,0,B|455:275|455:275|377:238,1,105.000004005432
321,357,90769,1,0,0:0:0:0:
303,220,90942,6,0,B|301:176|260:171|260:171|257:213|303:220,1,140
330,252,91114,2,0,P|283:290|202:284,1,105.000004005432
148,159,91459,6,0,B|168:116|138:94|138:94|113:128|148:159,1,140
152,195,91631,1,0,0:0:0:0:
97,334,91804,2,0,B|65:281|65:281|61:230,1,105.000004005432
133,53,92148,5,0,0:0:0:0:
78,152,92321,1,0,0:0:0:0:
260,98,92493,1,0,0:0:0:0:
168,158,92666,1,0,0:0:0:0:
341,157,92838,1,0,0:0:0:0:
240,64,93011,2,0,B|299:41|299:41|377:57,1,105.000004005432
471,182,93355,5,0,0:0:0:0:
403,92,93528,1,0,0:0:0:0:
387,295,93700,1,0,0:0:0:0:
234,215,93873,6,0,L|299:201,1,52.5,0|0,0:0|2:0,0:0:0:0:
321,195,94217,1,0,0:0:0:0:
185,358,94390,1,0,0:0:0:0:
68,166,94562,2,0,B|123:202|123:202|116:237|135:272,1,105.000004005432
185,358,94907,2,0,B|188:292|188:292|222:280|243:246,1,105.000004005432
297,154,95252,2,0,B|238:183|238:183|211:160|171:159,1,105.000004005432
100,94,95597,6,0,B|120:51|90:29|90:29|65:63|100:94,1,140
104,128,95769,1,0,0:0:0:0:
66,308,95942,2,0,P|131:294|167:258,1,105.000004005432
233,97,96286,1,0,0:0:0:0:
185,246,96459,1,0,0:0:0:0:
271,89,96631,2,0,B|286:150|286:150|328:194,1,105.000004005432
453,261,96976,5,0,0:0:0:0:
403,147,97148,1,0,0:0:0:0:
340,323,97321,1,0,0:0:0:0:
387,169,97493,1,0,0:0:0:0:
236,299,97666,1,0,0:0:0:0:
376,186,97838,1,0,0:0:0:0:
176,217,98011,1,0,0:0:0:0:
365,203,98183,1,0,0:0:0:0:
169,108,98355,6,0,B|274:137|284:53|395:90,1,210.000008010865
219,32,98873,1,0,0:0:0:0:
157,188,99045,2,0,P|102:153|84:98,1,105.000004005432
286,148,99390,6,0,P|263:212|214:240,1,105.000004005432
131,43,99735,1,0,0:0:0:0:
299,180,99907,6,0,P|251:228|200:230,1,87.5
144,43,100252,1,0,0:0:0:0:
297,209,100424,6,0,P|233:232|204:224,1,70
161,44,100769,1,0,0:0:0:0:
284,232,100942,6,0,P|232:232|213:221,1,52.5000020027161
176,44,101286,1,0,0:0:0:0:
358,98,101459,2,0,L|342:66,1,35,0|0,0:0|2:0,0:0:0:0:
377,225,101631,1,0,0:0:0:0:
363,241,101717,1,0,0:0:0:0:
351,258,101804,1,0,0:0:0:0:
492,128,101976,5,0,0:0:0:0:
407,346,102148,2,0,L|340:241,1,105.000004005432
328,77,102493,2,0,B|305:130|305:130|246:174,1,105.000004005432
57,153,102838,2,0,B|114:146|114:146|182:175,1,105.000004005432
268,331,103183,2,0,B|233:284|233:284|224:211,1,105.000004005432
340,68,103528,5,0,0:0:0:0:
406,173,103700,1,0,0:0:0:0:
242,138,103873,1,0,0:0:0:0:
420,279,104045,1,0,0:0:0:0:
348,93,104217,1,0,0:0:0:0:
493,202,104390,1,0,0:0:0:0:
343,115,104562,6,0,L|325:204,1,78.7500030040742,0|0,0:0|2:0,0:0:0:0:
323,218,104907,5,0,0:0:0:0:
223,343,105079,1,0,0:0:0:0:
106,124,105252,2,0,B|115:180|115:180|134:232,1,105.000004005432
323,201,105597,5,0,0:0:0:0:
223,331,105769,1,0,0:0:0:0:
108,114,105942,2,0,B|153:99|153:99|210:91,1,105.000004005432
409,188,106286,5,0,0:0:0:0:
241,322,106459,2,0,B|212:264|212:264|218:194,1,105.000004005432
420,189,106804,1,0,0:0:0:0:
180,318,106976,2,0,B|189:253|189:253|234:199,1,105.000004005432
430,190,107321,2,0,B|369:213|369:213|300:201,1,105.000004005432
195,49,107666,5,0,0:0:0:0:
108,176,107838,2,0,L|96:293,1,105.000004005432
195,60,108183,1,0,0:0:0:0:
276,175,108355,2,0,L|288:292,1,105.000004005432
196,72,108700,1,0,0:0:0:0:
108,176,108873,1,0,0:0:0:0:
276,175,109045,2,0,L|288:292,1,105.000004005432
108,176,109390,5,0,0:0:0:0:
286,279,109562,1,0,0:0:0:0:
339,94,109735,2,0,P|290:143|273:186,1,105.000004005432
462,228,110079,2,0,B|426:186|426:186|345:167,1,105.000004005432
172,191,110424,5,0,0:0:0:0:
271,343,110597,1,0,0:0:0:0:
266,98,110769,1,0,0:0:0:0:
163,330,110942,1,0,0:0:0:0:
70,172,111114,2,0,P|133:176|184:198,1,105.000004005432
291,343,111459,2,0,P|329:278|391:228,1,105.000004005432
474,202,111804,5,0,0:0:0:0:
270,130,111976,1,0,0:0:0:0:
461,203,112148,1,0,0:0:0:0:
341,35,112321,1,0,0:0:0:0:
445,203,112493,2,0,B|378:207|378:207|309:178,1,105.000004005432
462,29,112838,2,0,P|446:89|413:129,1,105.000004005432
193,146,113183,5,0,0:0:0:0:
330,52,113355,1,0,0:0:0:0:
191,158,113528,1,0,0:0:0:0:
75,38,113700,1,0,0:0:0:0:
191,170,113873,2,0,B|181:225|181:225|125:269,1,105.000004005432
86,66,114217,2,0,B|150:48|150:48|231:66,1,105.000004005432
302,179,114562,5,0,0:0:0:0:
379,294,114735,1,0,0:0:0:0:
416,74,114907,1,0,0:0:0:0:
304,191,115079,2,0,L|206:303,1,105.000004005432
233,76,115424,1,0,0:0:0:0:
223,289,115597,2,0,B|284:250|355:343|413:257,1,157.500006008148,0|0,0:0|2:0,0:0:0:0:
397,284,115942,6,0,P|441:209|376:151,1,157.500006008148,0|0,0:0|2:0,0:0:0:0:
377,149,116286,5,0,0:0:0:0:
227,268,116459,1,0,0:0:0:0:
311,56,116631,2,0,P|271:100|262:160,1,105.000004005432
405,244,116976,1,0,0:0:0:0:
231,243,117148,1,0,0:0:0:0:
421,244,117321,6,0,B|449:183|449:183|440:111,1,105.000004005432
226,126,117666,1,0,0:0:0:0:
368,169,117838,1,0,0:0:0:0:
222,33,118010,2,0,P|166:52|126:114,1,105.000004005432
263,299,118355,2,0,P|275:248|260:198,1,105.000004005432
41,132,118700,5,0,0:0:0:0:
196,244,118873,1,0,0:0:0:0:
196,65,119045,2,0,B|147:105|147:105|117:160,1,105.000004005432
244,329,119390,1,0,0:0:0:0:
61,229,119562,1,0,0:0:0:0:
252,300,119735,6,0,P|325:314|395:297,1,105.000004005432
416,127,120079,1,0,0:0:0:0:
318,239,120252,1,0,0:0:0:0:
450,111,120424,2,0,B|425:64|425:64|358:40,1,105.000004005432
187,186,120769,2,0,B|240:187|240:187|294:141,1,105.000004005432
92,35,121114,2,0,B|63:80|63:80|76:150,1,105.000004005432
280,259,121459,6,0,L|198:279,1,78.7500030040742,0|0,0:0|2:0,0:0:0:0:
57,266,121804,2,0,B|98:208|98:208|209:178,1,157.500006008148,0|0,0:0|2:0,0:0:0:0:
216,179,122148,1,0,0:0:0:0:
166,358,122321,1,0,0:0:0:0:
353,180,122493,1,0,0:0:0:0:
191,269,122666,1,0,0:0:0:0:
344,318,122838,2,0,L|277:227,1,105.000004005432
323,28,123183,2,0,B|308:87|308:87|264:131,1,105.000004005432
55,135,123528,6,0,B|113:118|113:118|173:134,1,105.000004005432
284,290,123873,6,0,B|240:247|240:247|224:187,1,105.000004005432
349,49,124217,5,0,0:0:0:0:
306,275,124390,1,0,0:0:0:0:
389,203,124562,1,0,0:0:0:0:
154,284,124735,5,0,0:0:0:0:
289,103,124907,1,0,0:0:0:0:
297,189,125079,1,0,0:0:0:0:
139,64,125252,5,0,0:0:0:0:
306,275,125424,1,0,0:0:0:0:
391,192,125597,5,0,0:0:0:0:
367,170,125683,1,0,0:0:0:0:
340,152,125769,1,0,0:0:0:0:
309,143,125855,1,0,0:0:0:0:
277,141,125942,1,0,0:0:0:0:
246,149,126028,1,0,0:0:0:0:
214,147,126114,1,0,0:0:0:0:
183,138,126200,1,0,0:0:0:0:
208,120,126286,5,0,0:0:0:0:
239,118,126373,1,0,0:0:0:0:
268,129,126459,1,0,0:0:0:0:
285,155,126545,1,0,0:0:0:0:
285,186,126631,5,4,0:0:0:0:
285,186,126976,5,0,0:0:0:0:
201,312,127148,1,0,0:0:0:0:
321,302,127321,1,0,0:0:0:0:
207,182,127493,1,0,0:0:0:0:
107,314,127666,5,0,0:0:0:0:
256,250,127838,1,0,0:0:0:0:
73,219,128010,1,0,0:0:0:0:
203,326,128183,1,0,0:0:0:0:
231,154,128355,5,0,0:0:0:0:
63,181,128528,1,0,0:0:0:0:
144,59,128700,1,0,0:0:0:0:
210,233,128873,1,0,0:0:0:0:
60,98,129045,5,0,0:0:0:0:
132,242,129217,1,0,0:0:0:0:
211,52,129390,1,0,0:0:0:0:
164,167,129562,1,0,0:0:0:0:
120,35,129735,5,0,0:0:0:0:
290,104,129907,1,0,0:0:0:0:
164,167,130079,1,0,0:0:0:0:
259,35,130252,1,0,0:0:0:0:
301,202,130424,5,0,0:0:0:0:
463,88,130597,1,0,0:0:0:0:
290,104,130769,1,0,0:0:0:0:
462,206,130942,1,0,0:0:0:0:
376,78,131114,5,0,0:0:0:0:
322,259,131286,1,0,0:0:0:0:
407,157,131459,1,0,0:0:0:0:
435,326,131631,1,0,0:0:0:0:
269,185,131804,5,0,0:0:0:0:
455,250,131976,1,0,0:0:0:0:
291,341,132148,1,0,0:0:0:0:
355,167,132321,1,0,0:0:0:0:
172,230,132493,5,0,0:0:0:0:
380,285,132666,1,0,0:0:0:0:
294,137,132838,1,0,0:0:0:0:
299,333,133010,1,0,0:0:0:0:
431,180,133183,5,0,0:0:0:0:
211,119,133355,1,0,0:0:0:0:
407,53,133528,1,0,0:0:0:0:
273,190,133700,1,0,0:0:0:0:
222,30,133873,5,0,0:0:0:0:
171,216,134045,1,0,0:0:0:0:
304,83,134217,1,0,0:0:0:0:
144,132,134390,1,0,0:0:0:0:
350,168,134562,5,0,0:0:0:0:
195,73,134735,1,0,0:0:0:0:
252,271,134907,1,0,0:0:0:0:
275,129,135079,1,0,0:0:0:0:
376,287,135252,5,0,0:0:0:0:
178,212,135424,1,0,0:0:0:0:
298,330,135597,1,0,0:0:0:0:
140,342,135769,1,0,0:0:0:0:
258,171,135942,5,0,0:0:0:0:
71,283,136114,1,0,0:0:0:0:
199,98,136286,1,0,0:0:0:0:
226,298,136459,1,0,0:0:0:0:
98,178,136631,5,0,0:0:0:0:
341,154,136804,1,0,0:0:0:0:
120,66,136976,1,0,0:0:0:0:
303,248,137148,1,0,0:0:0:0:
303,248,137493,5,0,0:0:0:0:
303,248,137666,1,0,0:0:0:0:
303,248,138010,5,0,0:0:0:0:
310,346,138183,1,0,0:0:0:0:
127,177,138355,2,0,P|199:181|262:137,1,122.500001168251
69,36,138700,5,0,0:0:0:0:
251,163,138873,1,0,0:0:0:0:
11,173,139045,2,0,B|58:125|58:125|113:105,1,122.500001168251
75,319,139390,5,0,0:0:0:0:
240,169,139562,1,0,0:0:0:0:
175,366,139735,2,0,B|181:296|181:296|158:232,1,122.500001168251
89,91,140079,5,0,0:0:0:0:
331,92,140252,1,0,0:0:0:0:
109,228,140424,2,0,B|149:175|149:175|215:139,1,122.500001168251
359,327,140769,5,0,0:0:0:0:
311,94,140942,1,0,0:0:0:0:
213,322,141114,2,0,B|253:267|253:267|344:216,1,122.500001168251
144,81,141459,5,0,0:0:0:0:
412,239,141631,1,0,0:0:0:0:
102,211,141804,2,0,B|178:202|178:202|251:158,1,122.500001168251
51,66,142148,5,0,0:0:0:0:
183,345,142321,1,0,0:0:0:0:
175,56,142493,2,0,B|158:131|158:131|99:198,1,122.500001168251
41,318,142838,5,0,0:0:0:0:
301,140,143010,1,0,0:0:0:0:
44,182,143183,2,0,B|95:230|95:230|173:246,1,122.500001168251
396,183,143528,5,0,0:0:0:0:
326,259,143700,1,0,0:0:0:0:
323,111,143873,1,0,0:0:0:0:
403,212,144045,1,0,0:0:0:0:
286,335,144217,5,0,0:0:0:0:
269,166,144390,1,0,0:0:0:0:
150,274,144562,1,0,0:0:0:0:
306,318,144735,1,0,0:0:0:0:
177,163,144907,5,0,0:0:0:0:
56,351,145079,1,0,0:0:0:0:
65,154,145252,1,0,0:0:0:0:
171,309,145424,1,0,0:0:0:0:
46,229,145597,5,0,0:0:0:0:
180,187,145769,1,0,0:0:0:0:
67,113,145942,1,0,0:0:0:0:
179,216,146114,1,0,0:0:0:0:
165,62,146286,5,0,0:0:0:0:
299,75,146459,2,0,L|223:158,1,105.000004005432,8|0,0:0|0:0,0:0:0:0:
116,248,146804,1,0,0:0:0:0:
60,95,146976,2,0,L|158:179,1,105.000004005432,8|0,0:0|0:0,0:0:0:0:
271,267,147321,5,0,0:0:0:0:
190,342,147493,1,0,0:0:0:0:
252,101,147666,5,0,0:0:0:0:
218,125,147752,1,0,0:0:0:0:
190,156,147838,1,0,0:0:0:0:
150,169,147924,1,0,0:0:0:0:
139,209,148010,5,0,0:0:0:0:
161,244,148097,1,0,0:0:0:0:
198,263,148183,1,0,0:0:0:0:
239,271,148269,1,0,0:0:0:0:
280,266,148355,5,0,0:0:0:0:
321,275,148442,1,0,0:0:0:0:
359,290,148528,1,0,0:0:0:0:
399,280,148614,1,0,0:0:0:0:
438,266,148700,2,0,P|465:212|456:135,1,105.000004005432
237,201,149045,6,0,B|333:255|412:106|405:191|381:229,1,192.500001835823
312,122,149390,2,0,B|282:159|207:145|349:72|232:14,1,175
186,194,149735,2,0,B|199:219|243:227|211:167|174:157|200:81,1,157.500006008148
95,119,150079,1,0,0:0:0:0:
95,119,150252,1,0,0:0:0:0:
75,228,150424,6,0,B|107:271|35:338|118:365|118:365|95:329|115:283,1,192.500001835823
272,349,150769,2,0,B|251:327|211:328|178:324|178:324|173:294|154:279|154:279|159:258|150:179,1,175
356,340,151114,2,0,B|327:246|259:274|212:271|268:214|273:245,1,157.500006008148
437,235,151459,1,0,0:0:0:0:
437,235,151631,1,0,0:0:0:0:
359,35,151804,6,0,B|339:82|361:123|402:134|434:153|434:153|389:154|339:207,1,192.500001835823
247,240,152148,2,0,B|306:234|292:181|327:171|327:171|301:149|286:109,1,175
138,121,152493,2,0,B|184:103|218:108|218:108|224:72|243:54|274:47|299:50,1,157.500006008148
195,182,152838,1,0,0:0:0:0:
195,182,153010,1,0,0:0:0:0:
388,276,153183,5,0,0:0:0:0:
388,276,153355,1,0,0:0:0:0:
403,72,153528,2,0,B|379:140|389:195|389:195|333:190|296:263,1,192.500001835823
202,356,153873,2,0,B|268:351|315:306|315:306|339:357|420:353,1,192.500001835823
388,276,154217,2,0,B|417:264|394:225|285:185|479:223|460:87,1,192.500001835823
316,8,154562,6,0,B|331:67|392:90|392:90|383:126|360:139|332:133|306:125|282:98,1,192.500001835823
139,75,154907,2,0,B|215:97|247:44|247:44|256:70|279:91,1,175
57,98,155252,2,0,B|92:162|156:155|156:155|185:169|175:196|159:201|141:178|172:161,1,157.500006008148
83,252,155597,1,0,0:0:0:0:
83,252,155769,1,0,0:0:0:0:
226,331,155942,6,0,B|213:273|148:295|148:295|174:245|145:199,1,192.500001835823
330,197,156286,2,0,B|282:222|277:262|277:262|256:235|232:227|232:227|229:198|207:162,1,175
380,363,156631,2,0,B|382:312|353:271|353:271|390:293|420:288,1,157.500006008148
469,170,156976,1,0,0:0:0:0:
469,170,157148,1,0,0:0:0:0:
413,46,157321,6,0,B|436:106|366:111|381:192|381:192|362:168|330:164,1,192.500001835823
182,240,157666,2,0,B|201:192|249:252|282:182|282:182|292:228|343:240,1,175
417,336,158010,2,0,B|373:298|372:255|372:255|355:287|312:295,1,157.500006008148
170,341,158355,1,0,0:0:0:0:
170,341,158528,1,0,0:0:0:0:
165,188,158700,6,0,B|123:129|110:221|87:155,1,87.5,0|0,0:0|2:0,0:0:0:0:
165,188,158873,2,0,B|224:146|132:133|198:110,1,87.5,0|0,2:0|2:0,2:0:0:0:
165,188,159045,2,0,B|207:247|220:155|243:221,1,87.5,0|0,0:0|2:0,0:0:0:0:
165,188,159217,2,0,B|106:230|198:243|132:266,1,87.5,0|0,0:0|2:0,0:0:0:0:
165,188,159390,1,0,0:0:0:0:
165,188,159735,6,0,B|174:299,1,105,0|0,0:0|2:0,0:0:0:0:
176,319,160079,1,0,0:0:0:0:
293,151,160252,1,0,0:0:0:0:
62,174,160424,2,0,B|125:192|125:192|192:184,1,105.000004005432
137,37,160769,5,0,0:0:0:0:
64,174,160942,1,0,0:0:0:0:
297,155,161114,2,0,B|245:116|245:116|180:101,1,105.000004005432
205,277,161459,5,0,0:0:0:0:
394,210,161631,1,0,0:0:0:0:
200,122,161804,2,0,B|252:152|252:152|339:156,1,105.000004005432
161,21,162148,5,0,0:0:0:0:
95,194,162321,1,0,0:0:0:0:
301,100,162493,2,0,B|236:104|236:104|181:130,1,105.000004005432
374,184,162838,5,0,0:0:0:0:
307,331,163010,1,0,0:0:0:0:
468,224,163183,2,0,B|420:191|420:191|346:179,1,105.000004005432
411,348,163528,5,0,0:0:0:0:
217,286,163700,1,0,0:0:0:0:
403,87,163873,2,0,B|402:143|402:143|360:201,1,105.000004005432
153,60,164217,5,0,0:0:0:0:
305,93,164390,1,0,0:0:0:0:
103,228,164562,2,0,B|98:167|98:167|120:122,1,105.000004005432
269,330,164907,5,0,0:0:0:0:
181,177,165079,1,0,0:0:0:0:
413,154,165252,2,0,B|326:180|324:128|246:169,1,157.500006008148
227,167,165597,5,0,0:0:0:0:
227,187,165769,1,0,0:0:0:0:
383,321,165942,1,0,0:0:0:0:
361,298,166114,1,0,0:0:0:0:
113,293,166286,5,0,0:0:0:0:
154,288,166459,1,0,0:0:0:0:
368,194,166631,1,0,0:0:0:0:
315,194,166804,1,0,0:0:0:0:
81,62,166976,5,0,0:0:0:0:
137,109,167148,1,0,0:0:0:0:
337,47,167321,1,0,0:0:0:0:
286,126,167493,1,0,0:0:0:0:
202,323,167666,5,0,0:0:0:0:
269,229,167838,1,0,0:0:0:0:
131,98,168010,1,0,0:0:0:0:
179,226,168183,1,0,0:0:0:0:
254,70,168355,5,0,0:0:0:0:
254,70,168528,1,0,0:0:0:0:
254,70,168700,1,0,0:0:0:0:
254,70,168873,1,0,0:0:0:0:
254,70,169045,1,0,0:0:0:0:
254,70,169217,1,0,0:0:0:0:
254,70,169390,1,0,0:0:0:0:
254,70,169562,1,0,0:0:0:0:
257,161,169735,5,0,0:0:0:0:
280,181,169821,1,0,0:0:0:0:
297,207,169907,1,0,0:0:0:0:
305,237,169993,1,0,0:0:0:0:
305,268,170079,1,0,0:0:0:0:
297,298,170166,1,0,0:0:0:0:
281,325,170252,1,0,0:0:0:0:
260,348,170338,1,0,0:0:0:0:
228,313,170424,5,0,0:0:0:0:
227,265,170510,1,0,0:0:0:0:
214,218,170597,1,0,0:0:0:0:
244,181,170683,1,0,0:0:0:0:
273,144,170769,1,0,0:0:0:0:
319,148,170855,1,0,0:0:0:0:
366,149,170942,1,0,0:0:0:0:
407,171,171028,1,0,0:0:0:0:
454,173,171114,1,0,0:0:0:0:
152,268,182148,6,0,B|177:284|176:346|176:346|187:293|192:230|146:164|146:164|155:91|113:40|-15:53|-35:172|58:248|126:189|126:189|202:141|251:143|273:283|465:219|360:220|297:234|297:234|284:323|338:348|420:339|483:320|508:273|510:212|483:184|460:161|460:161|338:174|258:86|210:94|210:94|261:99|290:70|290:70,1,1680.00006408692,0|0,0:0|0:0,2:0:0:0:
401,33,187838,6,0,B|370:113|468:90|454:160|454:160|505:188|510:253|487:304|435:333|381:335|341:318|341:318|449:311|441:249|441:249|363:250|348:206|348:206|341:129|272:96|180:113|148:196|184:295|259:292|282:270|282:270|254:296|264:339|264:339|212:306|164:327|164:327|107:249|114:172|124:130|189:76|189:76|148:126|87:103|75:176|65:233,1,1732.50006608963,0|0,0:0|2:0,0:0:0:0:
66,318,193700,6,0,B|115:303|161:326|161:326|124:258|96:211|132:129|132:129|119:208|172:238|172:238,1,420.000016021729,0|0,0:0|2:0,0:0:0:0:
217,284,195252,6,0,B|249:241|237:196|211:173|211:173|187:159|215:129|209:80|192:55|125:59|100:39|100:39|195:74|268:27|268:27|264:80|308:115|369:97,1,630.000024032594,0|0,0:0|2:0,0:0:0:0:
343,29,197493,6,0,B|410:18|455:70|450:133|416:174|371:182|334:175|334:175|380:178|421:215,1,367.500014019013,0|0,0:0|2:0,0:0:0:0:
287,243,198873,6,0,B|338:237|373:274|373:274|298:285|227:353|227:353|248:214|209:167|209:167|201:252|114:304|-21:242|-10:98|92:24|187:85|187:85|241:-2|322:131|412:36,1,1155.00004405976,0|0,0:0|2:0,0:0:0:0:
415,135,202838,2,0,P|475:187|458:269,1,157.500006008148,0|0,0:0|2:0,0:0:0:0:
406,212,203528,2,0,L|228:216,1,157.500006008148
248,215,204217,5,0,0:0:0:0:
210,245,215252,6,0,L|141:229,1,61.5999998120117,0|0,0:0|2:0,0:0:0:0:
76,212,215597,2,0,L|64:209,2,11.6666666666667
76,212,215942,1,0,0:0:0:0:
208,69,216286,6,0,L|212:53,2,11.6666666666667
188,139,216631,2,0,L|170:212,1,61.5999998120117
151,270,216976,2,0,L|147:284,2,11.6666666666667
151,270,217321,1,0,0:0:0:0:
321,203,217666,6,0,L|336:207,2,11.6666666666667
243,182,218010,2,0,L|170:164,1,61.5999998120117
111,145,218355,2,0,L|100:142,2,11.6666666666667
111,145,218700,1,0,0:0:0:0:
196,251,219045,6,0,L|266:264,1,61.5999998120117
335,201,219390,2,0,L|270:187,1,61.5999998120117
201,169,219735,2,0,L|188:166,2,11.6666666666667
201,169,220079,1,0,0:0:0:0:
342,105,220424,6,0,L|348:90,2,11.6666666666667
313,172,220769,2,0,L|287:236,1,61.5999998120117
259,293,221114,2,0,L|254:306,2,11.6666666666667
259,293,221458,1,0,0:0:0:0:
440,177,221804,6,0,L|433:240,1,61.5999998120117,0|0,0:0|2:0,0:0:0:0:
326,289,222148,2,0,L|343:222,1,61.5999998120117,0|0,0:0|2:0,0:0:0:0:
360,155,222493,2,0,L|363:140,2,11.6666666666667
261,186,222838,2,0,L|257:198,2,11.6666666666667
219,78,223183,2,0,L|224:53,2,18.6666666666667
93,97,223528,6,0,L|117:169,1,61.5999998120117
112,155,223873,1,0,0:0:0:0:
48,227,223987,2,0,L|77:240,1,30.7999999060059
189,329,224217,2,0,L|215:270,2,61.5999998120117
314,295,224907,2,0,B|305:219|392:223|354:163|350:111|350:111|337:154|292:215|188:189,1,385.000014686585
51,71,226286,6,0,P|108:59|153:74,1,93.3333333333333
104,221,226631,1,0,0:0:0:0:
104,221,226746,2,0,P|92:164|107:119,1,93.3333333333333
394,168,227321,2,0,L|341:169,1,46.6666666666667
308,177,227666,6,0,P|337:227|336:274,1,93.3333333333333
181,273,228011,1,0,0:0:0:0:
181,273,228126,2,0,P|231:243|278:244,1,93.3333333333333
290,340,228470,1,0,0:0:0:0:
290,340,228585,2,0,P|253:320|238:303,2,46.6666666666667
357,142,229045,6,0,L|412:138,1,46.6666666666667
467,63,229390,2,0,P|484:78|496:98,2,46.6666666666667
470,273,229735,2,0,P|467:214|477:179,1,93.3333333333333
325,203,230079,1,0,0:0:0:0:
325,203,230194,2,0,P|358:184|385:176,1,46.6666666666667
370,329,230424,6,0,P|317:322|273:282,1,93.3333333333333
223,166,230769,1,0,0:0:0:0:
223,166,230884,2,0,P|245:198|249:214,2,46.6666666666667
122,254,231229,1,0,0:0:0:0:
122,254,231344,2,0,P|83:257|67:252,2,46.6666666666667
60,91,231689,1,0,0:0:0:0:
60,91,231804,6,0,L|106:102,1,46.6666666666667
200,160,232148,1,0,0:0:0:0:
200,160,232263,2,0,P|178:187|154:198,2,46.6666666666667
285,109,232608,2,0,P|287:145|279:173,1,46.6666666666667
345,30,232838,2,0,P|378:73|383:131,1,93.3333333333333
272,240,233183,2,0,P|310:211|368:204,1,93.3333333333333
440,322,233528,5,0,0:0:0:0:
440,322,233643,2,0,P|420:285|419:266,2,46.6666666666667
309,276,233987,1,0,0:0:0:0:
309,276,234102,2,0,P|315:236|328:216,2,46.6666666666667
207,137,234447,1,0,0:0:0:0:
207,137,234562,6,0,L|258:137,1,46.6666666666667
120,71,234907,1,0,0:0:0:0:
120,71,235022,2,0,P|152:52|179:47,1,46.6666666666667
118,201,235252,2,0,P|123:173|138:147,1,46.6666666666667
214,275,235482,1,0,0:0:0:0:
214,275,235597,2,0,P|199:240|198:213,1,46.6666666666667
381,253,235827,1,0,0:0:0:0:
381,253,235942,6,0,L|335:240,1,46.6666666666667
