osu file format v14

[General]
AudioFilename: Rameses B - Neon Rainbow (feat. Anna Yvette).mp3
AudioLeadIn: 0
PreviewTime: 43867
Countdown: 0
SampleSet: Soft
StackLeniency: 0.7
Mode: 0
LetterboxInBreaks: 1
EpilepsyWarning: 1
WidescreenStoryboard: 1

[Editor]
Bookmarks: 86970,132487
DistanceSpacing: 1.8
BeatDivisor: 4
GridSize: 4
TimelineZoom: 2.3

[Metadata]
Title:Neon Rainbow (ft. Anna Yvette)
TitleUnicode:Neon Rainbow (ft. Anna Yvette)
Artist:Rameses B
ArtistUnicode:Rameses B
Creator:Aia
Version:Spectrum
Source:
Tags:dnb drum and bass cut version milan- marianna cbh come[back]home -Tochi
BeatmapID:958661
BeatmapSetID:446332

[Difficulty]
HPDrainRate:6.7
CircleSize:4
OverallDifficulty:8.5
ApproachRate:9.2
SliderMultiplier:1.7
SliderTickRate:1

[Events]
//Background and Video events
0,0,"BG.jpg",0,0
//Break Periods
//Storyboard Layer 0 (Background)
//Storyboard Layer 1 (Fail)
//Storyboard Layer 2 (Pass)
//Storyboard Layer 3 (Foreground)
//Storyboard Sound Samples

[TimingPoints]
22143,344.827586206897,4,2,1,45,1,0
22143,-133.333333333333,4,2,1,45,0,0
41453,-133.333333333333,4,3,1,50,0,0
43867,-125,4,2,2,50,0,0
44211,-100,4,2,2,76,0,1
54901,-100,4,2,2,76,0,0
55246,-100,4,2,2,76,0,1
63522,-117.647058823529,4,2,2,70,0,0
65418,-117.647058823529,4,3,2,65,0,0
66280,-117.647058823529,4,2,2,60,0,0
66625,-117.647058823529,4,2,2,65,0,0
70074,-117.647058823529,4,2,2,60,0,0
70418,-117.647058823529,4,2,2,65,0,0
76625,-117.647058823529,4,3,2,60,0,0
77315,-117.647058823529,4,2,2,65,0,0
88349,-117.647058823529,4,2,2,55,0,0
88694,-117.647058823529,4,2,2,60,0,0
107660,-117.647058823529,4,3,2,65,0,0
108349,-133.333333333333,4,3,2,65,0,0
109729,-133.333333333333,4,2,2,60,0,0
110418,-117.647058823529,4,2,2,75,0,0
120591,-117.647058823529,4,2,2,65,0,0
121108,-117.647058823529,4,2,2,70,0,0
121453,-117.647058823529,4,2,2,75,0,1
126970,-117.647058823529,4,1,2,70,0,0
128349,-117.647058823529,4,1,2,73,0,0
129729,-166.666666666667,4,2,2,65,0,0
131108,-166.666666666667,4,2,2,45,0,0
131884,-166.666666666667,4,2,2,10,0,0
131970,-166.666666666667,4,2,2,50,0,0
132487,-166.666666666667,4,2,2,45,0,0

[Colours]
Combo1 : 255,85,170
Combo2 : 113,255,113
Combo3 : 255,255,102
Combo4 : 108,255,255

[HitObjects]
206,188,22143,6,0,P|237:195|297:196,1,63.7500024318696,6|0,0:0|0:0,0:0:0:0:
385,161,22488,1,8,0:0:0:0:
313,69,22661,1,0,0:0:0:0:
313,69,22747,1,0,0:0:0:0:
313,69,22833,2,0,L|266:63,1,31.8750012159348,0|0,0:0|0:0,0:0:0:0:
236,40,23006,1,0,0:0:0:0:
140,130,23178,5,8,0:0:0:0:
191,217,23350,1,0,0:0:0:0:
191,217,23437,1,0,0:0:0:0:
191,217,23523,1,0,0:0:0:0:
147,309,23695,1,0,0:0:0:0:
292,238,23868,5,8,0:0:0:0:
117,143,24040,1,0,0:0:0:0:
115,152,24126,1,0,0:0:0:0:
112,162,24212,1,0,0:0:0:0:
110,171,24299,1,0,0:0:0:0:
108,180,24385,1,0,0:0:0:0:
44,70,24557,5,8,0:0:0:0:
145,15,24730,1,0,0:0:0:0:
157,17,24816,1,0,0:0:0:0:
169,20,24902,2,0,P|174:54|173:92,1,63.7500024318696,0|0,0:0|0:0,0:0:0:0:
105,212,25247,5,8,0:0:0:0:
244,156,25419,1,0,0:0:0:0:
256,154,25506,1,0,0:0:0:0:
268,152,25592,2,0,L|304:161,1,31.8750012159348,0|0,0:0|0:0,0:0:0:0:
348,148,25764,1,0,0:0:0:0:
272,39,25937,5,8,0:0:0:0:
203,224,26109,1,0,0:0:0:0:
203,224,26195,1,0,0:0:0:0:
203,224,26281,1,0,0:0:0:0:
334,143,26454,1,0,0:0:0:0:
265,326,26626,5,8,0:0:0:0:
181,196,26799,1,0,0:0:0:0:
176,184,26885,1,0,0:0:0:0:
173,171,26971,1,0,0:0:0:0:
173,158,27057,1,0,0:0:0:0:
176,145,27143,1,0,0:0:0:0:
332,48,27316,6,0,L|324:120,1,63.7500024318696,8|0,0:0|0:0,0:0:0:0:
352,200,27575,1,0,0:0:0:0:
352,200,27661,2,0,P|387:198|428:188,1,63.7500024318696,2|0,0:0|0:0,0:0:0:0:
496,93,28006,5,8,0:0:0:0:
406,44,28178,1,0,0:0:0:0:
393,43,28264,1,0,0:0:0:0:
380,42,28350,1,0,0:0:0:0:
367,41,28437,1,0,0:0:0:0:
354,40,28523,1,0,0:0:0:0:
269,96,28695,6,0,P|265:137|267:174,1,63.7500024318696,8|0,0:0|0:0,0:0:0:0:
290,204,28954,1,0,0:0:0:0:
290,204,29040,1,0,0:0:0:0:
402,132,29212,1,0,0:0:0:0:
250,77,29385,5,8,0:0:0:0:
356,259,29557,1,0,0:0:0:0:
343,273,29643,1,0,0:0:0:0:
327,283,29729,1,0,0:0:0:0:
309,290,29815,1,0,0:0:0:0:
290,292,29901,1,0,0:0:0:0:
153,195,30075,5,8,0:0:0:0:
245,118,30247,1,0,0:0:0:0:
245,118,30333,1,0,0:0:0:0:
245,118,30419,1,0,0:0:0:0:
75,147,30592,1,0,0:0:0:0:
233,254,30764,5,8,0:0:0:0:
314,186,30937,1,0,0:0:0:0:
315,166,31023,1,0,0:0:0:0:
317,147,31109,1,0,0:0:0:0:
318,128,31195,1,0,0:0:0:0:
320,109,31281,1,0,0:0:0:0:
231,3,31454,5,8,0:0:0:0:
161,76,31626,2,0,B|112:89|112:89|32:77,1,127.500004863739,0|0,0:0|0:0,0:0:0:0:
201,187,32143,2,0,L|139:170,1,63.7500024318696,8|0,0:0|0:0,0:0:0:0:
109,282,32488,2,0,B|158:269|158:269|238:281,1,127.500004863739,0|8,0:0|0:0,0:0:0:0:
380,201,33006,1,8,0:0:0:0:
380,201,33092,1,0,0:0:0:0:
380,201,33178,6,0,B|393:150|393:150|375:67,1,127.500004863739,6|8,0:0|1:2,0:0:0:0:
158,31,33868,2,0,B|145:84|145:84|163:167,1,127.500004863739,0|8,1:0|1:2,0:0:0:0:
260,235,34385,1,0,1:0:0:0:
260,235,34471,1,0,0:0:0:0:
260,235,34557,2,0,L|278:160,1,63.7500024318696,0|0,1:0|1:0,0:0:0:0:
317,316,34902,5,8,1:2:0:0:
139,271,35075,1,0,0:0:0:0:
135,251,35161,1,0,0:0:0:0:
132,232,35247,1,0,1:0:0:0:
129,213,35333,1,0,0:0:0:0:
126,194,35419,1,0,0:0:0:0:
175,75,35592,1,8,1:2:0:0:
263,179,35764,1,0,0:0:0:0:
263,179,35850,1,0,0:0:0:0:
263,179,35937,6,0,B|316:185|316:185|397:167,1,127.500004863739,0|0,1:0|0:0,0:0:0:0:
232,28,36626,2,0,B|179:22|179:22|98:40,1,127.500004863739,0|8,1:0|1:2,0:0:0:0:
29,141,37144,1,0,0:0:0:0:
29,141,37230,1,0,0:0:0:0:
29,141,37316,2,0,P|27:177|32:213,1,63.7500024318696,0|0,1:0|0:0,0:0:0:0:
125,312,37661,1,8,1:2:0:0:
125,312,38006,2,0,B|154:314|154:314|211:304,2,63.7500024318696,0|0|0,1:0|0:0|0:0,0:0:0:0:
353,143,38695,6,0,L|346:76,1,63.7500024318696,0|0,1:0|1:0,0:0:0:0:
152,33,39040,2,0,L|146:97,1,63.7500024318696,8|0,1:2|0:0,0:0:0:0:
283,244,39385,1,0,1:0:0:0:
225,119,39557,1,0,1:0:0:0:
165,296,39730,1,8,1:2:0:0:
344,174,39902,1,0,1:0:0:0:
344,174,39988,1,0,1:0:0:0:
344,174,40075,5,0,1:0:0:0:
142,118,40247,1,0,1:0:0:0:
269,325,40419,1,8,1:2:0:0:
347,70,40592,1,0,1:0:0:0:
192,251,40764,5,0,1:0:0:0:
437,132,40936,1,0,1:0:0:0:
288,348,41109,1,8,1:2:0:0:
237,65,41281,1,0,1:0:0:0:
472,205,41454,6,0,L|469:240,3,31.8750012159348,0|0|0|0,1:0|0:0|1:0|0:0,0:0:0:0:
371,285,41799,2,0,L|368:253,3,31.8750012159348,8|0|0|0,1:2|0:0|1:0|0:0,0:0:0:0:
287,147,42143,2,0,L|290:112,3,31.8750012159348,0|0|0|0,1:0|0:0|1:0|0:0,0:0:0:0:
207,259,42487,2,0,L|210:294,3,31.8750012159348,8|0|0|0,1:2|0:0|1:0|0:0,0:0:0:0:
118,150,42832,5,0,1:0:0:0:
86,146,42918,1,0,0:0:0:0:
55,154,43004,1,0,1:0:0:0:
29,172,43090,1,0,0:0:0:0:
11,198,43176,1,0,1:0:0:0:
2,228,43263,1,0,0:0:0:0:
5,260,43349,1,0,0:0:0:0:
19,288,43435,1,0,0:0:0:0:
42,311,43522,5,0,0:0:0:0:
79,306,43608,1,0,0:0:0:0:
117,301,43694,1,0,0:0:0:0:
155,296,43780,1,0,0:0:0:0:
197,291,43867,6,0,L|210:245,1,34,2|0,0:0|0:0,0:0:0:0:
302,349,44040,2,0,L|291:305,1,34,2|0,0:0|0:0,0:0:0:0:
415,281,44212,6,0,P|435:243|440:188,1,85,6|0,0:1|0:0,0:0:0:0:
336,58,44557,1,10,0:1:0:0:
510,139,44730,1,0,0:0:0:0:
510,139,44816,1,0,0:0:0:0:
510,139,44902,1,2,0:1:0:0:
306,200,45075,1,0,0:0:0:0:
415,281,45247,1,10,0:1:0:0:
192,337,45419,6,0,P|133:305|147:210,1,170,2|2,0:1|0:1,0:0:0:0:
345,177,45937,1,10,0:1:0:0:
120,123,46109,1,0,0:0:0:0:
120,123,46195,1,0,0:0:0:0:
120,123,46281,1,2,0:0:0:0:
345,177,46454,1,2,0:0:0:0:
256,32,46626,2,0,L|162:48,1,85,10|2,0:0|0:0,0:0:0:0:
363,80,46971,5,6,0:1:0:0:
363,80,47144,1,0,0:0:0:0:
243,212,47316,2,0,P|200:200|152:199,1,85,10|0,0:1|0:0,0:0:0:0:
133,232,47575,1,0,0:0:0:0:
133,232,47660,2,0,P|179:224|232:190,1,85,2|0,0:1|0:0,0:0:0:0:
24,129,48006,1,10,0:1:0:0:
181,27,48178,6,0,P|254:50|217:150,1,170,2|2,0:1|0:1,0:0:0:0:
124,225,48695,2,0,L|70:216,1,42.5,10|0,0:1|0:0,0:0:0:0:
12,117,48868,2,0,L|66:108,1,42.5,0|0,0:0|0:0,0:0:0:0:
193,179,49040,1,2,0:1:0:0:
2,227,49212,1,2,0:0:0:0:
191,58,49385,2,0,P|188:101|176:144,1,85,10|0,0:0|0:0,0:0:0:0:
59,292,49730,6,0,P|47:251|45:208,1,85,6|0,0:1|0:0,0:0:0:0:
267,124,50075,1,10,0:1:0:0:
208,242,50247,1,0,0:0:0:0:
208,242,50333,1,0,0:0:0:0:
208,242,50419,1,2,0:1:0:0:
157,114,50592,1,0,0:0:0:0:
59,292,50764,1,10,0:1:0:0:
241,151,50937,6,0,P|240:74|169:21,1,170,2|2,0:1|0:1,0:0:0:0:
22,84,51453,1,10,0:1:0:0:
157,114,51626,1,0,0:0:0:0:
157,114,51712,1,0,0:0:0:0:
157,114,51799,1,2,0:0:0:0:
17,203,51971,1,2,0:0:0:0:
241,159,52144,2,0,P|282:153|333:159,1,85,0|0,0:0|0:0,0:0:0:0:
281,310,52488,5,6,0:1:0:0:
124,245,52661,1,0,0:0:0:0:
222,370,52833,1,10,0:1:0:0:
279,223,53006,1,0,0:0:0:0:
279,223,53092,1,0,0:0:0:0:
279,223,53178,1,2,0:1:0:0:
227,381,53350,1,0,0:0:0:0:
404,264,53523,1,10,0:1:0:0:
326,140,53695,6,0,B|272:133|272:133|213:152|213:152|155:141,1,170,2|2,0:1|0:1,0:0:0:0:
33,44,54212,1,10,0:1:0:0:
203,60,54385,1,0,0:0:0:0:
203,60,54471,1,8,0:3:0:0:
203,60,54557,1,2,0:1:0:0:
23,151,54730,1,4,0:3:0:0:
262,142,54901,1,8,0:0:0:0:
33,44,55074,1,2,0:0:0:0:
152,265,55246,6,0,P|193:261|238:241,1,85,6|0,0:1|0:0,0:0:0:0:
339,95,55591,1,10,0:1:0:0:
182,174,55763,1,0,0:0:0:0:
182,174,55849,1,0,0:0:0:0:
182,174,55936,1,2,0:1:0:0:
365,298,56109,1,0,0:0:0:0:
263,68,56281,1,10,0:1:0:0:
146,280,56454,6,0,P|231:276|292:199,1,170,0|2,0:0|0:1,0:0:0:0:
249,51,56971,1,10,0:1:0:0:
383,211,57144,1,0,0:0:0:0:
383,211,57230,1,0,0:0:0:0:
383,211,57316,1,2,0:1:0:0:
179,120,57488,1,2,0:0:0:0:
423,69,57661,1,0,0:0:0:0:
163,245,57833,1,2,0:0:0:0:
262,104,58006,6,0,P|306:106|366:130,1,85,6|0,0:1|0:0,0:0:0:0:
133,88,58350,1,10,0:1:0:0:
235,265,58523,1,0,0:0:0:0:
235,265,58609,1,0,0:0:0:0:
235,265,58695,1,2,0:1:0:0:
49,159,58868,1,0,0:0:0:0:
300,85,59040,1,10,0:1:0:0:
148,219,59211,6,0,P|142:299|204:360,1,170,2|2,0:1|0:1,0:0:0:0:
376,282,59730,1,10,0:1:0:0:
273,106,59902,1,0,0:0:0:0:
273,106,59988,1,0,0:0:0:0:
273,106,60075,1,0,0:0:0:0:
235,265,60247,1,0,0:0:0:0:
384,111,60419,1,10,0:0:0:0:
156,205,60592,1,0,0:0:0:0:
396,124,60764,6,0,P|418:166|423:225,1,85,6|0,0:1|0:0,0:0:0:0:
319,350,61109,1,10,0:1:0:0:
198,198,61281,1,0,0:0:0:0:
198,198,61368,1,0,0:0:0:0:
198,198,61454,1,2,0:1:0:0:
170,379,61626,1,0,0:0:0:0:
306,196,61799,1,0,0:0:0:0:
45,301,61971,6,0,B|32:236|32:236|58:124,1,170,2|2,0:1|0:1,0:0:0:0:
206,19,62487,1,10,0:1:0:0:
265,189,62660,1,0,0:0:0:0:
265,189,62746,1,0,0:0:0:0:
265,189,62832,1,2,0:0:0:0:
41,113,63006,1,0,0:0:0:0:
310,36,63178,1,0,0:0:0:0:
310,36,63350,1,2,0:0:0:0:
114,170,63522,6,0,P|95:223|113:283,1,108.375002067089,0|0,1:0|0:0,0:0:0:0:
168,310,63867,1,8,0:0:0:0:
257,162,64038,1,0,0:0:0:0:
257,162,64125,1,0,0:0:0:0:
257,162,64211,2,0,P|251:127|230:85,1,72.2500013780594
168,310,64557,1,8,0:0:0:0:
168,310,64730,1,0,0:0:0:0:
327,228,64902,6,0,P|337:193|340:157,1,72.2500013780594,4|0,0:3|0:0,0:0:0:0:
256,8,65247,1,2,0:0:0:0:
131,121,65418,1,2,0:2:0:0:
112,151,65504,1,0,0:0:0:0:
110,187,65590,1,8,0:3:0:0:
126,218,65676,1,0,0:0:0:0:
156,238,65762,1,8,0:3:0:0:
191,241,65849,1,0,0:0:0:0:
227,230,65937,2,0,P|239:195|242:138,1,72.2500013780594,4|0,0:3|0:0,0:0:0:0:
173,6,66281,5,2,1:3:0:0:
173,6,66626,5,8,0:0:0:0:
137,172,66799,1,0,0:0:0:0:
137,172,66885,1,0,0:0:0:0:
137,172,66971,2,0,P|172:191|218:197,1,72.2500013780594,0|0,0:0|0:0,0:0:0:0:
339,261,67316,2,0,P|303:268|272:286,1,72.2500013780594,8|0,0:0|0:0,0:0:0:0:
102,177,67661,6,0,P|162:203|258:181,1,144.500002756119,2|8,0:3|0:0,0:0:0:0:
301,95,68178,1,0,0:0:0:0:
301,95,68264,1,0,0:0:0:0:
301,95,68350,2,0,L|288:16,1,72.2500013780594,0|0,0:0|0:0,0:0:0:0:
423,153,68695,1,8,0:0:0:0:
423,153,68868,1,0,0:0:0:0:
289,297,69040,6,0,P|254:291|214:271,1,72.2500013780594,2|0,0:3|0:0,0:0:0:0:
77,127,69385,1,8,0:0:0:0:
77,127,69557,1,0,0:0:0:0:
259,190,69730,1,0,0:0:0:0:
33,254,69902,1,0,0:0:0:0:
186,63,70075,1,2,1:3:0:0:
131,330,70247,1,0,0:0:0:0:
259,190,70419,6,0,P|323:203|289:269,1,144.500002756119,2|8,0:3|0:0,0:0:0:0:
108,223,70936,1,0,0:0:0:0:
102,202,71022,1,0,0:0:0:0:
98,180,71108,1,0,0:0:0:0:
98,159,71194,1,0,0:0:0:0:
101,137,71280,1,0,0:0:0:0:
303,30,71454,1,8,0:0:0:0:
205,153,71626,1,0,0:0:0:0:
376,128,71799,6,0,P|411:131|454:150,1,72.2500013780594,2|0,0:3|0:0,0:0:0:0:
390,279,72144,2,0,P|356:292|320:295,1,72.2500013780594,8|0,0:0|0:0,0:0:0:0:
226,229,72488,1,0,0:0:0:0:
299,140,72661,1,0,0:0:0:0:
214,240,72833,2,0,P|178:240|126:225,1,72.2500013780594,10|0,0:0|0:0,0:0:0:0:
64,145,73178,6,0,P|76:89|160:72,1,144.500002756119,2|8,0:0|0:0,0:0:0:0:
248,133,73695,1,0,0:0:0:0:
248,133,73781,1,0,0:0:0:0:
248,133,73868,2,0,B|280:138|280:138|348:128,1,72.2500013780594,0|0,0:0|0:0,0:0:0:0:
451,41,74212,1,8,0:0:0:0:
336,16,74385,1,0,0:0:0:0:
407,195,74557,6,0,P|458:219|437:167,1,144.500002756119,2|8,0:0|0:0,0:0:0:0:
324,138,75075,1,0,0:0:0:0:
239,216,75247,2,0,B|209:219|209:219|167:210,1,72.2500013780594,2|0,0:0|0:0,0:0:0:0:
303,272,75592,1,10,0:0:0:0:
212,139,75764,1,0,0:0:0:0:
212,139,75850,1,0,0:0:0:0:
212,139,75937,1,2,0:0:0:0:
374,217,76109,1,0,0:0:0:0:
187,285,76281,1,8,0:0:0:0:
187,285,76626,5,0,0:0:0:0:
182,279,76712,1,0,0:0:0:0:
177,273,76799,1,0,0:0:0:0:
172,267,76885,1,0,0:0:0:0:
167,261,76971,1,8,0:0:0:0:
165,225,77057,1,0,0:0:0:0:
182,194,77143,1,8,0:0:0:0:
214,177,77229,1,0,0:0:0:0:
249,179,77316,6,0,B|278:183|278:183|332:172,1,72.2500013780594,6|0,0:0|0:0,0:0:0:0:
416,109,77661,1,8,0:0:0:0:
356,9,77833,1,0,0:3:0:0:
356,9,77919,1,0,0:0:0:0:
356,9,78006,1,0,0:0:0:0:
249,179,78178,1,0,0:0:0:0:
153,57,78350,2,0,P|189:55|225:60,1,72.2500013780594,8|0,0:0|0:0,0:0:0:0:
46,125,78695,5,2,0:0:0:0:
126,233,78868,1,0,0:0:0:0:
33,123,79040,1,8,0:0:0:0:
232,198,79212,1,0,0:0:0:0:
232,198,79299,1,0,0:0:0:0:
232,198,79385,1,0,0:0:0:0:
25,257,79557,1,0,0:0:0:0:
188,109,79730,1,8,0:0:0:0:
91,326,79902,1,0,0:0:0:0:
86,115,80075,6,0,P|96:78|137:38,1,72.2500013780594,2|0,0:0|0:0,0:0:0:0:
318,38,80419,1,8,0:0:0:0:
243,167,80592,1,0,0:0:0:0:
243,167,80678,1,0,0:0:0:0:
243,167,80764,1,0,0:0:0:0:
200,0,80937,1,0,0:0:0:0:
353,127,81109,2,0,P|390:120|429:102,1,72.2500013780594,8|0,0:0|0:0,0:0:0:0:
499,262,81454,6,0,P|489:203|412:241,1,144.500002756119,2|8,0:0|0:0,0:0:0:0:
366,348,81971,1,0,0:0:0:0:
366,348,82057,1,0,0:0:0:0:
366,348,82144,1,0,0:0:0:0:
288,212,82316,1,0,0:0:0:0:
180,375,82488,1,8,0:0:0:0:
284,309,82661,1,0,0:0:0:0:
99,280,82833,6,0,P|86:246|83:190,1,72.2500013780594,6|0,0:0|0:0,0:0:0:0:
129,20,83178,1,8,0:0:0:0:
194,128,83350,1,0,0:0:0:0:
194,128,83437,1,0,0:0:0:0:
194,128,83523,1,0,0:0:0:0:
44,56,83695,1,0,0:0:0:0:
110,190,83868,1,8,0:0:0:0:
139,10,84040,1,0,0:0:0:0:
101,204,84212,5,2,0:0:0:0:
239,64,84385,1,0,0:0:0:0:
7,136,84557,1,8,0:0:0:0:
265,163,84730,2,0,P|319:130|339:49,1,144.500002756119,0|0,0:0|0:0,0:0:0:0:
236,5,85246,1,8,0:0:0:0:
225,18,85591,6,0,L|138:5,1,72.2500013780594,2|0,0:3|0:0,0:0:0:0:
80,140,85936,1,8,0:0:0:0:
189,105,86108,1,2,1:3:0:0:
94,229,86280,1,0,0:0:0:0:
134,51,86453,1,0,0:0:0:0:
172,258,86625,1,8,0:0:0:0:
37,167,86798,1,0,0:0:0:0:
197,112,86970,5,2,1:3:0:0:
197,112,87832,1,8,3:2:0:0:
154,219,88004,1,8,3:2:0:0:
154,219,88090,1,8,3:2:0:0:
154,219,88177,1,8,3:2:0:0:
209,104,88349,6,0,P|245:105|293:121,1,72.2500013780594,0|2,1:0|0:0,0:0:0:0:
381,233,88694,1,8,0:0:0:0:
283,296,88867,1,2,0:0:0:0:
283,296,88953,1,0,0:0:0:0:
283,296,89039,1,0,0:0:0:0:
366,148,89211,1,2,0:0:0:0:
208,244,89384,1,8,0:0:0:0:
424,215,89556,1,0,0:0:0:0:
230,128,89729,6,0,P|217:94|211:46,1,72.2500013780594,2|0,0:0|0:0,0:0:0:0:
366,148,90074,1,8,0:0:0:0:
366,148,90246,1,0,0:0:0:0:
297,251,90418,2,0,L|224:234,1,72.2500013780594,0|0,0:0|0:0,0:0:0:0:
126,100,90763,1,8,0:0:0:0:
287,124,90936,1,0,0:0:0:0:
113,109,91108,5,2,0:1:0:0:
277,30,91280,1,0,0:0:0:0:
155,193,91453,1,10,0:1:0:0:
155,193,91625,1,0,0:0:0:0:
293,26,91798,1,2,0:1:0:0:
121,91,91970,1,0,0:0:0:0:
349,126,92143,1,10,0:1:0:0:
70,159,92315,6,0,P|34:101|70:23,1,144.500002756119,2|2,0:1|0:1,0:0:0:0:
215,0,92832,1,10,0:1:0:0:
153,139,93005,1,0,0:0:0:0:
292,50,93177,2,0,P|328:56|363:69,1,72.2500013780594,2|2,0:3|0:0,0:0:0:0:
153,139,93522,1,2,1:3:0:0:
153,139,93694,1,2,0:0:0:0:
320,306,93867,6,0,P|286:318|250:324,1,72.2500013780594,6|2,0:0|0:0,0:0:0:0:
83,282,94211,1,8,0:0:0:0:
254,176,94384,1,2,0:0:0:0:
254,176,94470,1,0,0:0:0:0:
254,176,94556,1,0,0:0:0:0:
38,205,94729,1,2,0:0:0:0:
320,306,94901,2,0,P|333:271|334:226,1,72.2500013780594,8|0,0:0|0:0,0:0:0:0:
192,96,95246,6,0,P|195:133|208:168,1,72.2500013780594,2|0,0:0|0:0,0:0:0:0:
280,15,95591,1,8,0:0:0:0:
280,15,95763,1,0,0:0:0:0:
340,168,95936,1,0,0:0:0:0:
192,96,96108,1,0,0:0:0:0:
384,34,96280,1,8,0:0:0:0:
384,34,96453,1,0,0:0:0:0:
180,108,96625,6,0,P|177:146|184:192,1,72.2500013780594,2|0,0:1|0:0,0:0:0:0:
285,325,96970,1,10,0:1:0:0:
340,168,97143,1,0,0:0:0:0:
155,298,97315,6,0,P|184:273|224:257,1,72.2500013780594,2|0,0:1|0:0,0:0:0:0:
425,312,97660,1,10,0:1:0:0:
425,312,97832,6,0,B|435:255|435:255|419:160,1,144.500002756119,2|2,0:1|0:1,0:0:0:0:
292,289,98349,1,10,0:1:0:0:
222,167,98522,1,0,0:0:0:0:
222,167,98608,1,0,1:0:0:0:
222,167,98694,2,0,P|186:173|153:188,1,72.2500013780594,2|2,0:1|0:0,0:0:0:0:
292,289,99039,2,0,P|305:258|310:203,1,72.2500013780594,10|0,0:0|0:0,0:0:0:0:
211,24,99384,5,6,0:0:0:0:
153,187,99556,1,2,0:0:0:0:
319,36,99729,1,8,0:0:0:0:
103,90,99901,1,2,0:0:0:0:
103,90,99987,1,0,0:0:0:0:
103,90,100074,1,0,0:0:0:0:
241,180,100246,1,2,0:0:0:0:
88,282,100418,2,0,L|12:270,1,72.2500013780594,10|0,0:0|0:0,0:0:0:0:
255,171,100763,5,2,0:0:0:0:
203,299,100936,1,0,0:0:0:0:
147,127,101108,1,8,0:0:0:0:
307,248,101280,1,0,0:0:0:0:
317,282,101366,1,0,0:0:0:0:
315,317,101452,1,0,0:0:0:0:
302,350,101538,1,0,0:0:0:0:
280,378,101624,1,0,0:0:0:0:
406,226,101798,1,8,0:0:0:0:
203,299,101970,1,0,0:0:0:0:
420,358,102143,5,2,0:1:0:0:
291,190,102315,1,0,0:0:0:0:
316,384,102487,1,10,0:1:0:0:
385,141,102660,1,0,0:0:0:0:
385,141,102746,1,0,0:0:0:0:
385,141,102832,1,2,0:1:0:0:
254,326,103005,1,0,0:0:0:0:
451,242,103177,1,10,0:1:0:0:
241,335,103349,6,0,P|178:306|155:214,1,144.500002756119,2|2,0:1|0:1,0:0:0:0:
404,208,103867,2,0,L|395:279,1,72.2500013780594,10|0,0:1|0:0,0:0:0:0:
404,298,104124,1,0,0:0:0:0:
404,298,104211,1,2,0:3:0:0:
323,136,104384,1,2,0:0:0:0:
483,235,104556,1,2,1:3:0:0:
307,318,104729,1,2,0:0:0:0:
448,144,104901,6,0,P|446:110|436:64,1,72.2500013780594,6|2,0:0|0:0,0:0:0:0:
284,32,105246,2,0,P|276:67|274:103,1,72.2500013780594,8|2,0:0|0:0,0:0:0:0:
283,120,105505,1,0,0:0:0:0:
283,120,105591,1,0,0:0:0:0:
396,13,105763,1,2,0:0:0:0:
322,203,105936,2,0,P|286:208|234:199,1,72.2500013780594,8|0,0:0|0:0,0:0:0:0:
146,120,106280,6,0,L|137:43,1,72.2500013780594,2|0,0:0|0:0,0:0:0:0:
37,173,106625,2,0,L|46:96,1,72.2500013780594,8|0,0:0|0:0,0:0:0:0:
35,86,106884,1,0,0:0:0:0:
35,86,106970,1,0,0:0:0:0:
110,254,107143,1,0,0:0:0:0:
221,140,107315,1,8,0:0:0:0:
27,184,107487,1,0,0:0:0:0:
274,246,107660,5,2,1:2:0:0:
224,23,108005,1,8,0:2:0:0:
163,347,108349,5,2,1:2:0:0:
213,124,108694,1,8,0:2:0:0:
213,124,109039,5,2,1:0:0:0:
275,236,109211,1,2,1:0:0:0:
136,126,109384,1,2,1:0:0:0:
346,209,109556,1,2,1:0:0:0:
78,178,109729,2,0,P|58:116|106:54,1,127.500004863739,2|0,1:2|0:0,0:0:0:0:
181,26,110246,1,2,0:0:0:0:
325,189,110418,6,0,P|365:185|397:169,1,72.2500013780594,4|2,0:1|0:1,0:0:0:0:
264,46,110763,1,0,0:0:0:0:
136,126,110936,1,2,0:1:0:0:
136,126,111022,1,0,0:0:0:0:
136,126,111108,2,0,P|100:124|51:106,1,72.2500013780594,0|0,0:0|0:0,0:0:0:0:
264,46,111453,2,0,P|289:81|296:120,1,72.2500013780594,10|0,0:1|0:0,0:0:0:0:
101,213,111798,6,0,P|110:178|132:150,1,72.2500013780594,2|2,0:1|0:1,0:0:0:0:
239,237,112143,2,0,L|188:226,1,36.1250006890297,8|0,0:1|0:0,0:0:0:0:
299,174,112315,2,0,L|350:163,1,36.1250006890297,2|0,0:1|0:0,0:0:0:0:
255,273,112487,2,0,P|221:281|183:283,1,72.2500013780594,0|0,0:0|0:0,0:0:0:0:
326,88,112832,2,0,P|362:96|402:118,1,72.2500013780594,10|0,0:1|0:0,0:0:0:0:
467,262,113177,5,4,0:0:0:0:
467,262,113349,1,2,0:1:0:0:
226,358,113522,2,0,L|232:322,1,36.1250006890297,8|0,0:0|0:0,0:0:0:0:
327,324,113694,2,0,L|318:288,1,36.1250006890297,2|0,0:1|0:0,0:0:0:0:
87,234,113867,2,0,P|89:271|99:310,1,72.2500013780594,0|0,0:0|0:0,0:0:0:0:
126,128,114211,6,0,P|94:111|58:103,1,72.2500013780594,10|0,0:1|0:0,0:0:0:0:
201,260,114556,1,2,0:1:0:0:
201,260,114729,1,2,0:1:0:0:
323,93,114901,1,0,0:0:0:0:
216,46,115074,2,0,B|194:41|174:31|174:31|204:75|215:132,1,144.500002756119,2|2,0:1|0:1,0:0:0:0:
377,221,115591,2,0,L|395:134,1,72.2500013780594,10|2,0:1|0:1,0:0:0:0:
420,307,115936,5,6,0:1:0:0:
305,151,116108,1,2,0:1:0:0:
502,226,116280,1,8,0:0:0:0:
330,309,116453,1,2,0:1:0:0:
330,309,116539,1,0,0:0:0:0:
330,309,116625,2,0,P|296:312|230:298,1,72.2500013780594,0|0,0:0|0:0,0:0:0:0:
155,232,116970,1,10,0:1:0:0:
175,224,117315,6,0,P|183:189|183:134,1,72.2500013780594,2|2,0:1|0:1,0:0:0:0:
118,16,117660,1,0,0:0:0:0:
29,94,117832,1,2,0:1:0:0:
33,129,117918,1,0,0:0:0:0:
37,165,118005,2,0,L|90:177,2,36.1250006890297,0|0|0,0:0|0:0|0:0,0:0:0:0:
96,284,118349,2,0,L|180:272,1,72.2500013780594,10|0,0:1|0:0,0:0:0:0:
262,175,118694,5,4,0:0:0:0:
129,138,118867,1,2,0:1:0:0:
278,286,119039,1,8,0:0:0:0:
43,189,119211,1,2,0:1:0:0:
29,155,119297,1,0,0:0:0:0:
29,118,119383,1,0,0:0:0:0:
45,85,119469,1,0,0:0:0:0:
71,60,119555,1,0,0:0:0:0:
231,23,119729,1,10,0:1:0:0:
242,37,120074,6,0,P|237:75|214:121,1,72.2500013780594,2|2,0:1|0:1,0:0:0:0:
129,138,120418,2,0,P|115:104|110:68,1,72.2500013780594,8|2,0:0|0:1,0:0:0:0:
134,51,120677,2,0,L|252:35,1,108.375002067089,0|2,1:0|0:0,0:0:0:0:
382,86,121108,6,0,P|379:112|367:140,1,36.1250006890297,8|0,1:0|1:0,0:0:0:0:
256,192,121280,2,0,P|251:174|250:156,1,36.1250006890297,8|0,1:0|1:0,0:0:0:0:
420,194,121453,6,0,P|457:189|501:166,1,72.2500013780594,4|0,0:0|0:0,0:0:0:0:
290,82,121798,1,8,0:0:0:0:
390,277,121970,1,2,0:1:0:0:
390,277,122056,1,0,0:0:0:0:
390,277,122143,1,0,0:0:0:0:
424,47,122315,1,0,0:0:0:0:
297,266,122487,1,10,0:1:0:0:
488,174,122660,1,0,0:0:0:0:
286,272,122832,6,0,P|250:260|214:224,1,72.2500013780594,2|2,0:1|0:1,0:0:0:0:
176,52,123177,1,8,0:0:0:0:
298,169,123349,1,2,0:1:0:0:
298,169,123436,1,0,0:0:0:0:
298,169,123522,1,0,0:0:0:0:
95,123,123694,1,0,0:0:0:0:
339,68,123867,1,10,0:1:0:0:
201,229,124039,1,0,0:0:0:0:
203,41,124211,6,0,P|237:29|295:22,1,72.2500013780594,4|2,0:0|0:1,0:0:0:0:
443,121,124556,1,0,0:0:0:0:
282,209,124729,1,2,0:1:0:0:
282,209,124815,1,0,0:0:0:0:
282,209,124901,1,0,0:0:0:0:
392,16,125074,1,0,0:0:0:0:
361,277,125246,1,10,0:1:0:0:
225,39,125418,1,0,0:0:0:0:
417,101,125591,6,0,P|415:138|400:178,1,72.2500013780594,2|2,0:1|0:1,0:0:0:0:
226,308,125936,1,8,0:0:0:0:
460,276,126108,1,2,0:1:0:0:
460,276,126194,1,0,0:0:0:0:
460,276,126280,1,2,0:0:0:0:
302,171,126453,1,2,0:0:0:0:
423,358,126625,1,10,0:0:0:0:
375,101,126798,1,2,0:0:0:0:
342,320,126970,6,0,P|306:317|265:298,1,72.2500013780594,0|0,0:0|0:0,0:0:0:0:
233,188,127315,2,0,P|266:174|302:171,1,72.2500013780594,8|0,0:0|0:0,0:0:0:0:
174,277,127660,1,0,0:0:0:0:
320,304,127832,1,0,0:0:0:0:
214,184,128005,1,8,0:0:0:0:
275,371,128177,1,0,0:0:0:0:
320,148,128349,5,0,0:0:0:0:
303,116,128435,1,0,0:0:0:0:
277,91,128521,1,0,0:0:0:0:
244,75,128607,1,0,0:0:0:0:
209,71,128693,1,8,0:0:0:0:
173,78,128780,1,0,0:0:0:0:
142,96,128866,1,0,0:0:0:0:
118,123,128952,1,0,0:0:0:0:
108,158,129039,6,0,L|121:218,1,36.1250006890297,0|0,0:0|0:0,0:0:0:0:
219,247,129211,2,0,L|222:212,1,36.1250006890297,0|0,0:0|0:0,0:0:0:0:
126,322,129384,1,8,0:0:0:0:
131,326,129470,1,0,0:0:0:0:
136,330,129556,1,0,0:0:0:0:
141,334,129643,1,0,0:0:0:0:
145,337,129729,6,0,B|187:342|187:342|261:325,1,101.999996887207,0|0,0:0|0:0,0:0:0:0:
177,150,130418,2,0,P|166:199|172:249,1,101.999996887207,0|0,0:0|0:0,0:0:0:0:
312,156,131108,6,0,P|295:59|205:19,1,203.999993774414,0|0,0:0|0:0,0:0:0:0:
72,134,131970,1,8,1:0:0:0:
212,125,132143,1,8,1:0:0:0:
212,125,132229,1,8,1:0:0:0:
212,125,132315,1,8,1:0:0:0:
20,52,132487,5,6,0:0:0:0:
