osu file format v14

[General]
AudioFilename: audio.ogg
AudioLeadIn: 0
PreviewTime: 44267
Countdown: 1
SampleSet: Normal
StackLeniency: 0.7
Mode: 1
LetterboxInBreaks: 0
WidescreenStoryboard: 1

[Editor]
Bookmarks: 474,11508,17025,22542,33577,44611,55646,67025,77715,88749,99784,110818,121853,132887,143922,154956,177025,188060,199439,210129,221163,232198
DistanceSpacing: 0.1
BeatDivisor: 12
GridSize: 32
TimelineZoom: 1.600006

[Metadata]
Title:Neon Rainbow (feat. Anna Yvette)
TitleUnicode:Neon Rainbow (feat. Anna Yvette)
Artist:Rameses B
ArtistUnicode:Rameses B
Creator:gaston_2199
Version:SWAKE's Oni
Source:
Tags:featured artist fa monstercat liquicity 027 - cataclysm dnb drum and bass d&b electronic english SWAKE Stingy Tachibana_
BeatmapID:3639166
BeatmapSetID:925261

[Difficulty]
HPDrainRate:5
CircleSize:2
OverallDifficulty:6
ApproachRate:10
SliderMultiplier:1.4
SliderTickRate:1

[Events]
//Background and Video events
0,0,"BG.jpg",0,-40
//Break Periods
//Storyboard Layer 0 (Background)
//Storyboard Layer 1 (Fail)
//Storyboard Layer 2 (Pass)
//Storyboard Layer 3 (Foreground)
//Storyboard Layer 4 (Overlay)
//Storyboard Sound Samples

[TimingPoints]
474,344.827586206897,4,1,0,40,1,0
474,-133.333333333333,4,1,0,40,0,0
5986,-117.647058823529,4,1,0,70,0,0
6331,-118.518518518519,4,1,0,69,0,0
6503,-118.959107806691,4,1,0,68,0,0
6589,-119.180704167273,4,1,0,67,0,0
6675,-119.402985074627,4,1,0,65,0,0
6848,-119.850187265918,4,1,0,64,0,0
7020,-120.300751879699,4,1,0,63,0,0
7193,-120.754716981132,4,1,0,62,0,0
7365,-121.212121212121,4,1,0,61,0,0
7710,-122.137404580153,4,1,0,60,0,0
7882,-122.605363984674,4,1,0,58,0,0
8227,-123.552123552124,4,1,0,57,0,0
8400,-124.031007751938,4,1,0,56,0,0
8744,-125,4,1,0,55,0,0
9089,-125.984251968504,4,1,0,54,0,0
9262,-126.482213438735,4,1,0,53,0,0
9348,-126.73275357323,4,1,0,52,0,0
9434,-126.984126984127,4,1,0,50,0,0
9606,-127.490039840637,4,1,0,49,0,0
9779,-128,4,1,0,48,0,0
9951,-128.5140562249,4,1,0,47,0,0
10124,-129.032258064516,4,1,0,46,0,0
10469,-130.081300813008,4,1,0,45,0,0
10641,-130.612244897959,4,1,0,43,0,0
10986,-131.687242798354,4,1,0,42,0,0
11158,-132.231404958678,4,1,0,41,0,0
11503,-111.111111111111,4,1,0,60,0,0
17020,-111.111111111111,4,1,0,60,0,0
17365,-112.280701754386,4,1,0,60,0,0
17537,-112.874715837903,4,1,0,60,0,0
17624,-113.17415011872,4,1,0,60,0,0
17710,-113.475177304965,4,1,0,60,0,0
17882,-114.082061508484,4,1,0,60,0,0
18055,-114.695340501792,4,1,0,60,0,0
18227,-115.315248827244,4,1,0,60,0,0
18400,-115.942028985507,4,1,0,60,0,0
18572,-116.575659934811,4,1,0,60,0,0
18658,-116.894943007871,4,1,0,60,0,0
18744,-117.216117216117,4,1,0,60,0,0
18917,-117.863650614423,4,1,0,60,0,0
19262,-119.180704167273,4,1,0,60,0,0
19434,-119.850187265918,4,1,0,60,0,0
19520,-120.187829540005,4,1,0,60,0,0
19606,-120.52723433387,4,1,0,60,0,0
19779,-121.212121212121,4,1,0,60,0,0
20124,-122.605363984674,4,1,0,60,0,0
20296,-123.31398947885,4,1,0,60,0,0
20382,-123.671459347955,4,1,0,60,0,0
20469,-124.031007751938,4,1,0,60,0,0
20641,-124.756413103416,4,1,0,60,0,0
20813,-125.490196078431,4,1,0,60,0,0
20986,-126.232661943882,4,1,0,60,0,0
21158,-126.984126984127,4,1,0,60,0,0
21244,-127.363224633067,4,1,0,60,0,0
21331,-127.744592571396,4,1,0,60,0,0
21503,-128.5140562249,4,1,0,60,0,0
21675,-129.292845709676,4,1,0,60,0,0
22020,-130.879431250344,4,1,0,60,0,0
22193,-131.687242798354,4,1,0,60,0,0
22279,-132.094986863154,4,1,0,60,0,0
22365,-132.505088195387,4,1,0,60,0,0
22537,-133.333333333333,4,1,0,60,0,0
22624,-133.333333333333,4,1,0,50,0,0
33572,-100,4,1,0,60,0,0
33658,-117.647058823529,4,1,0,60,0,0
39089,-117.647058823529,4,1,0,90,0,0
39262,-116.91134262155,4,1,0,90,0,0
39434,-116.184770964961,4,1,0,90,0,0
39606,-115.467041087792,4,1,0,90,0,0
39779,-114.758255995832,4,1,0,90,0,0
39951,-114.05811945535,4,1,0,90,0,0
40124,-113.366474132605,4,1,0,90,0,0
40296,-112.683166487125,4,1,0,90,0,0
40382,-112.344529214633,4,1,0,90,0,0
40469,-112.008046658072,4,1,0,90,0,0
40641,-111.340844386696,4,1,0,90,0,0
40813,-110.681666246076,4,1,0,90,0,0
40986,-110.030247314987,4,1,0,90,0,0
41158,-109.38645139413,4,1,0,90,0,0
41503,-108.121082638025,4,1,0,90,0,0
41675,-107.499371128679,4,1,0,90,0,0
41848,-106.88476859982,4,1,0,90,0,0
41934,-106.580038411446,4,1,0,90,0,0
42020,-106.277153812799,4,1,0,90,0,0
42106,-105.975873532632,4,1,0,90,0,0
42193,-105.676408270236,4,1,0,90,0,0
42365,-105.082416138978,4,1,0,90,0,0
42537,-104.494954983573,4,1,0,90,0,0
42710,-103.914133673063,4,1,0,90,0,0
42796,-103.626191312602,4,1,0,90,0,0
42882,-103.339733507495,4,1,0,90,0,0
43055,-102.771648590847,4,1,0,90,0,0
43227,-102.209775342914,4,1,0,90,0,0
43313,-101.931084393841,4,1,0,90,0,0
43400,-101.653909101074,4,1,0,90,0,0
43486,-101.378339909408,4,1,0,90,0,0
43572,-101.104158515144,4,1,0,90,0,0
43744,-100.560322114824,4,1,0,90,0,0
43917,-100.022304974009,4,1,0,90,0,0
44262,-100,4,1,0,90,0,0
44348,-105.263157894737,4,1,0,90,0,0
44434,-111.111111111111,4,1,0,90,0,0
44611,-95.2380952380952,4,1,0,90,0,1
46848,-98.3165261231926,4,1,0,90,0,1
47020,-101.600512879389,4,1,0,90,0,1
47106,-103.326279592646,4,1,0,90,0,1
47193,-105.111575937858,4,1,0,90,0,1
47365,-95.2380952380952,4,1,0,90,0,1
49606,-98.3165261231926,4,1,0,90,0,1
49779,-101.600512879389,4,1,0,90,0,1
49865,-103.326279592646,4,1,0,90,0,1
49951,-105.111575937858,4,1,0,90,0,1
50124,-95.2380952380952,4,1,0,90,0,1
52365,-98.3165261231926,4,1,0,90,0,1
52537,-101.600512879389,4,1,0,90,0,1
52624,-103.326279592646,4,1,0,90,0,1
52710,-105.111575937858,4,1,0,90,0,1
52882,-95.2380952380952,4,1,0,90,0,1
54262,-95.2380952380952,4,1,0,90,0,1
54434,-96.5438275186595,4,1,0,90,0,1
54606,-97.8858611704408,4,1,0,90,0,1
54779,-99.2658299218976,4,1,0,90,0,1
54865,-99.9704087590073,4,1,0,90,0,1
54951,-100.685162531024,4,1,0,90,0,1
55124,-102.145671985732,4,1,0,90,0,1
55301,-103.649176559117,4,1,0,90,0,0
55382,-104.417704230588,4,1,0,90,0,0
55469,-105.197603177809,4,1,0,90,0,0
55646,-95.2380952380952,4,1,0,90,0,1
57882,-98.3165261231926,4,1,0,90,0,1
58055,-101.600512879389,4,1,0,90,0,1
58141,-103.326279592646,4,1,0,90,0,1
58227,-105.111575937858,4,1,0,90,0,1
58400,-95.2380952380952,4,1,0,90,0,1
60641,-98.3165261231926,4,1,0,90,0,1
60813,-101.600512879389,4,1,0,90,0,1
60900,-103.326279592646,4,1,0,90,0,1
60986,-105.111575937858,4,1,0,90,0,1
61158,-95.2380952380952,4,1,0,90,0,1
63400,-98.3165261231926,4,1,0,90,0,1
63572,-101.600512879389,4,1,0,90,0,1
63658,-103.326279592646,4,1,0,90,0,1
63744,-105.111575937858,4,1,0,90,0,1
63917,-95.2380952380952,4,1,0,70,0,1
64242,-97.5609756097561,4,1,0,71,0,1
64414,-98.7654320987654,4,1,0,71,0,1
64759,-101.26582278481,4,1,0,72,0,1
64931,-102.564102564103,4,1,0,73,0,1
65276,-105.263157894737,4,1,0,73,0,1
65621,-108.108108108108,4,1,0,74,0,1
65793,-109.58904109589,4,1,0,75,0,1
65880,-110.344827586207,4,1,0,75,0,1
65966,-111.111111111111,4,1,0,76,0,1
66138,-112.676056338028,4,1,0,77,0,1
66311,-114.285714285714,4,1,0,77,0,1
66397,-115.107913669065,4,1,0,78,0,1
66483,-115.942028985507,4,1,0,79,0,1
66680,-117.647058823529,4,1,0,79,0,0
67020,-105.263157894737,4,1,0,80,0,0
77020,-133.333333333333,4,1,0,60,0,0
77106,-129.075227624164,4,1,0,60,0,0
77193,-125.080520585127,4,1,0,60,0,0
77279,-121.325799810004,4,1,0,60,0,0
77365,-117.789931081111,4,1,0,60,0,0
77537,-111.302303735083,4,1,0,60,0,0
77710,-105.492131341923,4,1,0,80,0,0
88227,-105.263157894737,4,1,0,80,0,0
88400,-109.090869421502,4,1,0,80,0,0
88486,-111.111111111111,4,1,0,80,0,0
88572,-113.207589889657,4,1,0,80,0,0
88744,-105.263157894737,4,1,0,70,0,0
93572,-95.2380952380952,4,1,0,70,0,0
93744,-100,4,1,0,70,0,0
93917,-105.263157894737,4,1,0,70,0,0
99262,-100,4,1,0,70,0,0
99434,-95.2380952380952,4,1,0,70,0,0
99779,-100,4,1,0,80,0,0
104606,-95.2380952380952,4,1,0,80,0,0
104778,-100,4,1,0,80,0,0
104951,-105.263157894737,4,1,0,80,0,0
105296,-100,4,1,0,80,0,0
109434,-100,4,1,0,70,0,0
109606,-102.923225449208,4,1,0,70,0,0
109779,-106.022614623699,4,1,0,70,0,0
109951,-109.314347617439,4,1,0,70,0,0
110124,-112.817029956306,4,1,0,70,0,0
110469,-120.542053506207,4,1,0,60,0,0
110641,-124.815429184094,4,1,0,60,0,0
110813,-100,4,1,0,90,0,0
121848,-100,4,1,0,90,0,0
122020,-100.392131666289,4,1,0,90,0,0
122106,-100.58935301934,4,1,0,90,0,0
122193,-100.787350784327,4,1,0,90,0,0
122365,-101.185796347395,4,1,0,90,0,0
122451,-101.386151462799,4,1,0,90,0,0
122537,-101.587301587302,4,1,0,90,0,0
122710,-101.99200586658,4,1,0,90,0,0
122882,-102.400052428827,4,1,0,90,0,0
123227,-103.225806451613,4,1,0,90,0,0
123400,-103.643697841309,4,1,0,90,0,0
123486,-103.853914929104,4,1,0,90,0,0
123572,-104.064986502771,4,1,0,90,0,0
123744,-104.489823213668,4,1,0,90,0,0
123831,-104.703490186142,4,1,0,90,0,0
123917,-104.918032786885,4,1,0,90,0,0
124089,-105.349766492243,4,1,0,90,0,0
124262,-105.785179919434,4,1,0,90,0,0
124606,-106.666666666667,4,1,0,90,0,0
124779,-107.112942028334,4,1,0,90,0,0
124865,-107.337483000426,4,1,0,90,0,0
124951,-107.562967361093,4,1,0,90,0,0
125124,-108.016906806253,4,1,0,90,0,0
125210,-108.245257775257,4,1,0,90,0,0
125296,-108.474576271186,4,1,0,90,0,0
125469,-108.936140545051,4,1,0,90,0,0
125641,-109.401769245412,4,1,0,90,0,0
125986,-110.344827586207,4,1,0,90,0,0
126158,-110.822480118447,4,1,0,90,0,0
126244,-111.062860468397,4,1,0,90,0,0
126331,-111.304285882832,4,1,0,90,0,0
126503,-111.790424255839,4,1,0,90,0,0
126589,-112.035026630726,4,1,0,90,0,0
126675,-112.280701754386,4,1,0,90,0,0
126848,-112.775298600797,4,1,0,90,0,0
127020,-113.274400438598,4,1,0,90,0,0
127193,-113.777810141244,4,1,0,90,0,0
127355,-114.285714285714,4,1,0,70,0,0
127527,-114.798173331466,4,1,0,68,0,0
127700,-115.315248827244,4,1,0,67,0,0
127872,-115.837137617995,4,1,0,66,0,0
128045,-116.363636363636,4,1,0,64,0,0
128217,-116.894943007871,4,1,0,62,0,0
128390,-117.431261611016,4,1,0,61,0,0
128562,-117.972385024114,4,1,0,60,0,0
128734,-118.518518518519,4,1,0,58,0,0
128821,-118.79348584041,4,1,0,56,0,0
128907,-119.069731997847,4,1,0,55,0,0
128993,-119.347265933158,4,1,0,54,0,0
129079,-119.626096672241,4,1,0,52,0,0
129252,-120.187829540005,4,1,0,50,0,0
129424,-120.754716981132,4,1,0,49,0,0
129510,-121.040170811889,4,1,0,48,0,0
129596,-121.32697741741,4,1,0,46,0,0
129683,-121.615146436798,4,1,0,44,0,0
129769,-121.904836208662,4,1,0,43,0,0
129941,-122.488075785822,4,1,0,42,0,0
130114,-123.076923076923,4,1,0,40,0,0
130469,-124.271767442785,4,1,0,40,0,0
130813,-125.490196078431,4,1,0,40,0,0
131158,-126.73275357323,4,1,0,40,0,0
131503,-128,4,1,0,40,0,0
132365,-131.282008194623,4,1,0,40,0,0
132537,-131.958849952231,4,1,0,40,0,0
132624,-132.299807239181,4,1,0,40,0,0
132710,-132.64253103172,4,1,0,30,0,0
132882,-133.333333333333,4,1,0,30,0,0
143917,-133.333333333333,4,1,0,40,0,0
154951,-133.333333333333,4,1,0,50,0,0
165986,-117.647058823529,4,1,0,70,0,0
171331,-117.647058823529,4,1,0,60,0,0
171503,-116.814105536872,4,1,0,90,0,0
171675,-115.992998662601,4,1,0,90,0,0
171848,-115.183221951158,4,1,0,90,0,0
172020,-114.384804207531,4,1,0,90,0,0
172193,-113.597250037771,4,1,0,90,0,0
172365,-112.820466535193,4,1,0,90,0,0
172537,-112.054359811032,4,1,0,90,0,0
172710,-111.298463524711,4,1,0,90,0,0
172796,-110.924388390654,4,1,0,90,0,0
172882,-110.552819373276,4,1,0,90,0,0
173055,-109.816979022761,4,1,0,90,0,0
173227,-109.090869421502,4,1,0,90,0,0
173400,-108.3744162683,4,1,0,90,0,0
173572,-107.667196389273,4,1,0,90,0,0
173917,-106.280203505334,4,1,0,90,0,0
174089,-105.599966208011,4,1,0,90,0,0
174262,-104.928491233225,4,1,0,90,0,0
174348,-104.595836458134,4,1,0,90,0,0
174434,-104.265392960626,4,1,0,90,0,0
174520,-103.937030789267,4,1,0,90,0,0
174606,-103.610622989954,4,1,0,90,0,0
174779,-102.96413141518,4,1,0,90,0,0
174951,-102.325552839381,4,1,0,90,0,0
175124,-101.694949727102,4,1,0,90,0,0
175210,-101.382451103244,4,1,0,90,0,0
175296,-101.071969306464,4,1,0,90,0,0
175469,-100.456575133984,4,1,0,90,0,0
175813,-99.2480964215106,4,1,0,90,0,0
175986,-98.6547439120158,4,1,0,90,0,0
176331,-97.4888813930771,4,1,0,90,0,0
176675,-96.3503452714623,4,1,0,90,0,0
176762,-96.0698773860155,4,1,0,90,0,0
176848,-95.7910375989402,4,1,0,90,0,0
177025,-95.2380952380952,4,1,0,90,0,1
179262,-98.3165261231926,4,1,0,90,0,1
179434,-101.600512879389,4,1,0,90,0,1
179520,-103.326279592646,4,1,0,90,0,1
179607,-105.111575937858,4,1,0,90,0,1
179779,-95.2380952380952,4,1,0,90,0,1
182020,-98.3165261231926,4,1,0,90,0,1
182193,-101.600512879389,4,1,0,90,0,1
182279,-103.326279592646,4,1,0,90,0,1
182365,-105.111575937858,4,1,0,90,0,1
182538,-95.2380952380952,4,1,0,90,0,1
184779,-98.3165261231926,4,1,0,90,0,1
184951,-101.600512879389,4,1,0,90,0,1
185037,-103.326279592646,4,1,0,90,0,1
185124,-105.111575937858,4,1,0,90,0,1
185296,-95.2380952380952,4,1,0,90,0,1
186676,-95.2380952380952,4,1,0,90,0,1
186848,-96.5438275186595,4,1,0,90,0,1
187020,-97.8858611704408,4,1,0,90,0,1
187193,-99.2658299218976,4,1,0,90,0,1
187279,-99.9704087590073,4,1,0,90,0,1
187365,-100.685162531024,4,1,0,90,0,1
187542,-102.145671985732,4,1,0,90,0,0
187710,-103.649176559117,4,1,0,90,0,0
187796,-104.417704230588,4,1,0,90,0,0
187883,-105.197603177809,4,1,0,90,0,0
188060,-95.2380952380952,4,1,0,90,0,1
190296,-98.3165261231926,4,1,0,90,0,1
190469,-101.600512879389,4,1,0,90,0,1
190555,-103.326279592646,4,1,0,90,0,1
190641,-105.111575937858,4,1,0,90,0,1
190814,-95.2380952380952,4,1,0,90,0,1
193055,-98.3165261231926,4,1,0,90,0,1
193227,-101.600512879389,4,1,0,90,0,1
193313,-103.326279592646,4,1,0,90,0,1
193400,-105.111575937858,4,1,0,90,0,1
193572,-95.2380952380952,4,1,0,90,0,1
195814,-98.3165261231926,4,1,0,90,0,1
195986,-101.600512879389,4,1,0,90,0,1
196072,-103.326279592646,4,1,0,90,0,1
196158,-105.111575937858,4,1,0,90,0,1
196336,-105.111575937858,4,1,0,70,0,0
197020,-95.2380952380952,4,1,0,70,0,0
197193,-96.9098360576303,4,1,0,70,0,0
197365,-98.641314533614,4,1,0,70,0,0
197537,-100.435891770283,4,1,0,70,0,0
197710,-102.296871659368,4,1,0,70,0,0
197796,-103.253411750858,4,1,0,70,0,0
197882,-104.228117827803,4,1,0,70,0,0
198055,-106.233686489518,4,1,0,70,0,0
198227,-108.317952184123,4,1,0,70,0,0
198313,-109.391118097557,4,1,0,70,0,0
198400,-110.48576169989,4,1,0,70,0,0
198572,-112.741986581449,4,1,0,70,0,0
198744,-115.092280990899,4,1,0,70,0,0
198831,-116.304629738396,4,1,0,70,0,0
198917,-117.542653290313,4,1,0,70,0,0
199089,-95.2380952380952,4,1,0,70,0,0
199175,-105.263157894737,4,1,0,70,0,0
219779,-105.263157894737,4,1,0,70,0,0
220641,-112.676056338028,4,1,0,70,0,0
220813,-114.285714285714,4,1,0,70,0,0
220900,-115.107913669065,4,1,0,70,0,0
220986,-115.942028985507,4,1,0,70,0,0
221158,-117.647058823529,4,1,0,60,0,0
232537,-105.263157894737,4,1,0,70,0,0
237710,-105.263157894737,4,1,0,70,0,0
238055,-103.899558219078,4,1,0,70,0,0
238227,-103.231027943607,4,1,0,70,0,0
238400,-102.570940626811,4,1,0,70,0,0
238486,-102.244052463468,4,1,0,70,0,0
238572,-101.919241231633,4,1,0,70,0,0
238744,-101.275770885849,4,1,0,70,0,0
238917,-100.640475989195,4,1,0,70,0,0
239003,-100.325757735367,4,1,0,70,0,0
239089,-100.01300169022,4,1,0,70,0,0
239262,-99.3933032767984,4,1,0,70,0,0
239434,-98.7812370967009,4,1,0,70,0,0
239606,-98.1767594011611,4,1,0,70,0,0
239693,-97.8772384524434,4,1,0,70,0,0
239779,-97.579539522153,4,1,0,70,0,0
239951,-96.9895416177274,4,1,0,70,0,0
240124,-96.4066354759065,4,1,0,70,0,0
240210,-96.1178019781044,4,1,0,70,0,0
240296,-95.83078583161,4,1,0,70,0,0
240382,-95.545387403105,4,1,0,70,0,0
240469,-95.2616838455237,4,1,0,70,0,0
240555,-117.647058823529,4,1,0,60,0,0
242710,-98.3165261231926,4,1,0,60,0,0
242882,-101.600512879389,4,1,0,60,0,0
242969,-103.326279592646,4,1,0,60,0,0
243055,-105.111575937858,4,1,0,60,0,0
243227,-95.2380952380952,4,1,0,30,0,0

[HitObjects]
255,294,474,5,0,0:0:0:0:
255,294,818,1,8,0:0:0:0:
255,294,991,1,0,0:0:0:0:
255,294,1077,1,0,0:0:0:0:
255,294,1163,1,8,0:0:0:0:
225,176,1336,1,0,0:0:0:0:
226,184,1508,1,8,0:0:0:0:
201,149,1680,1,8,0:0:0:0:
226,184,1853,1,0,0:0:0:0:
226,184,2198,1,8,0:0:0:0:
226,185,2370,1,0,0:0:0:0:
226,184,2715,1,0,0:0:0:0:
226,184,2887,1,8,0:0:0:0:
226,184,3232,1,0,0:0:0:0:
225,170,3577,1,8,0:0:0:0:
225,171,3749,1,8,0:0:0:0:
225,171,3836,1,0,0:0:0:0:
223,171,3922,1,8,0:0:0:0:
225,171,4094,1,0,0:0:0:0:
204,115,4267,1,8,0:0:0:0:
213,142,4439,1,8,0:0:0:0:
245,103,4611,1,0,0:0:0:0:
261,124,4956,1,8,0:0:0:0:
259,127,5129,1,0,0:0:0:0:
259,127,5474,1,0,0:0:0:0:
259,127,5646,1,8,0:0:0:0:
261,124,5991,1,8,0:0:0:0:
259,127,6336,1,8,0:0:0:0:
259,127,6508,1,8,0:0:0:0:
259,127,6594,1,8,0:0:0:0:
259,127,6680,1,8,0:0:0:0:
261,124,6853,1,0,0:0:0:0:
261,124,7025,1,8,0:0:0:0:
242,144,7198,1,8,0:0:0:0:
259,127,7370,1,0,0:0:0:0:
259,127,7715,1,8,0:0:0:0:
231,97,7887,1,0,0:0:0:0:
231,97,8232,1,0,0:0:0:0:
231,97,8405,1,8,0:0:0:0:
231,97,8749,1,0,0:0:0:0:
231,97,9094,1,8,0:0:0:0:
231,97,9267,1,8,0:0:0:0:
231,97,9353,1,8,0:0:0:0:
231,97,9439,1,0,0:0:0:0:
231,97,9611,1,0,0:0:0:0:
231,97,9784,1,8,0:0:0:0:
244,152,9956,1,8,0:0:0:0:
231,97,10129,1,0,0:0:0:0:
231,97,10474,1,8,0:0:0:0:
231,97,10646,1,0,0:0:0:0:
231,97,10991,1,0,0:0:0:0:
231,97,11163,1,8,0:0:0:0:
238,217,11508,5,4,0:0:0:0:
238,217,11853,1,8,0:0:0:0:
238,217,12025,1,0,0:0:0:0:
261,72,12111,1,0,0:0:0:0:
234,224,12198,1,8,0:0:0:0:
238,227,12370,1,0,0:0:0:0:
252,119,12542,1,8,0:0:0:0:
252,159,12715,1,8,0:0:0:0:
252,119,12887,1,0,0:0:0:0:
174,147,13060,1,8,0:0:0:0:
229,132,13146,1,8,0:0:0:0:
248,124,13232,1,0,0:0:0:0:
246,124,13405,1,0,0:0:0:0:
246,124,13749,1,0,0:0:0:0:
246,124,13922,1,8,0:0:0:0:
195,187,14008,1,8,0:0:0:0:
195,187,14094,1,8,0:0:0:0:
227,110,14267,1,0,0:0:0:0:
226,112,14611,1,8,0:0:0:0:
206,111,14784,1,8,0:0:0:0:
206,112,14870,1,0,0:0:0:0:
206,112,14956,1,8,0:0:0:0:
206,114,15129,1,0,0:0:0:0:
207,117,15301,1,8,0:0:0:0:
188,139,15474,1,8,0:0:0:0:
206,120,15646,1,0,0:0:0:0:
206,121,15818,1,0,0:0:0:0:
190,141,15905,1,0,0:0:0:0:
206,121,15991,1,8,0:0:0:0:
206,123,16163,1,0,0:0:0:0:
206,120,16508,1,0,0:0:0:0:
206,120,16680,1,8,0:0:0:0:
179,135,16767,1,8,0:0:0:0:
206,121,16853,1,8,0:0:0:0:
206,121,17025,1,0,0:0:0:0:
151,211,17370,1,8,0:0:0:0:
225,128,17542,1,0,0:0:0:0:
225,128,17629,1,0,0:0:0:0:
221,120,17715,1,8,0:0:0:0:
221,120,17887,1,0,0:0:0:0:
221,120,18060,1,8,0:0:0:0:
206,130,18232,1,8,0:0:0:0:
205,113,18405,1,0,0:0:0:0:
223,102,18577,1,8,0:0:0:0:
223,105,18663,1,8,0:0:0:0:
223,105,18749,1,0,0:0:0:0:
191,104,18922,1,8,0:0:0:0:
191,104,19267,1,0,0:0:0:0:
191,104,19439,1,8,0:0:0:0:
207,140,19525,1,8,0:0:0:0:
191,74,19611,1,8,0:0:0:0:
191,104,19784,1,0,0:0:0:0:
179,100,20129,1,8,0:0:0:0:
179,100,20301,1,8,0:0:0:0:
212,71,20387,1,8,0:0:0:0:
178,100,20474,1,0,0:0:0:0:
177,100,20646,1,0,0:0:0:0:
191,78,20818,1,8,0:0:0:0:
176,100,20991,1,8,0:0:0:0:
171,95,21163,1,0,0:0:0:0:
169,65,21249,1,0,0:0:0:0:
232,64,21336,1,0,0:0:0:0:
231,49,21508,1,8,0:0:0:0:
232,64,21680,1,0,0:0:0:0:
273,78,22025,1,0,0:0:0:0:
220,98,22198,1,8,0:0:0:0:
220,98,22284,1,8,0:0:0:0:
220,98,22370,1,8,0:0:0:0:
197,165,22542,5,0,0:0:0:0:
197,172,22887,1,8,0:0:0:0:
198,174,23232,1,0,0:0:0:0:
198,174,23577,1,8,0:0:0:0:
197,172,23749,1,0,0:0:0:0:
198,174,24094,1,0,0:0:0:0:
198,174,24267,1,8,0:0:0:0:
198,174,24611,1,0,0:0:0:0:
198,174,24956,1,8,0:0:0:0:
198,174,25301,1,0,0:0:0:0:
198,174,25646,1,8,0:0:0:0:
198,174,25991,1,0,0:0:0:0:
198,174,26336,1,0,0:0:0:0:
198,174,26508,1,8,0:0:0:0:
198,174,26853,1,8,0:0:0:0:
198,174,27025,1,0,0:0:0:0:
194,179,27370,1,8,0:0:0:0:
226,138,28060,1,0,0:0:0:0:
226,138,28405,1,8,0:0:0:0:
219,135,28749,1,0,0:0:0:0:
218,135,29094,1,8,0:0:0:0:
216,134,29267,1,0,0:0:0:0:
216,134,29611,1,8,0:0:0:0:
219,135,29784,1,0,0:0:0:0:
257,144,30129,1,8,0:0:0:0:
257,144,30474,1,8,0:0:0:0:
257,144,30818,1,0,0:0:0:0:
257,144,31163,1,8,0:0:0:0:
257,144,31508,1,0,0:0:0:0:
257,144,31853,1,0,0:0:0:0:
257,144,32025,1,8,0:0:0:0:
257,144,32370,1,0,0:0:0:0:
257,144,32542,1,8,0:0:0:0:
257,144,32887,1,0,0:0:0:0:
194,215,33577,1,4,0:0:0:0:
194,215,33922,1,8,0:0:0:0:
175,216,34094,1,8,0:0:0:0:
175,218,34267,1,0,0:0:0:0:
175,218,34611,1,0,0:0:0:0:
175,219,34784,1,8,0:0:0:0:
216,158,34870,1,8,0:0:0:0:
212,155,34956,1,0,0:0:0:0:
175,216,35129,1,8,0:0:0:0:
175,218,35301,1,0,0:0:0:0:
211,202,35646,1,0,0:0:0:0:
211,202,35818,1,0,0:0:0:0:
211,202,35991,1,8,0:0:0:0:
237,109,36163,1,8,0:0:0:0:
211,202,36336,1,0,0:0:0:0:
211,111,36680,1,8,0:0:0:0:
216,148,36853,1,0,0:0:0:0:
211,111,37025,1,8,0:0:0:0:
211,111,37370,1,8,0:0:0:0:
211,111,37542,1,0,0:0:0:0:
263,94,37629,1,0,0:0:0:0:
263,94,37715,1,8,0:0:0:0:
198,135,37887,1,8,0:0:0:0:
198,136,38060,1,0,0:0:0:0:
198,136,38405,1,0,0:0:0:0:
198,136,38577,1,8,0:0:0:0:
198,135,38749,1,0,0:0:0:0:
198,136,39094,1,0,0:0:0:0:
198,136,39267,1,0,0:0:0:0:
244,177,39439,5,8,0:0:0:0:
245,135,39611,1,0,0:0:0:0:
245,135,39784,1,8,0:0:0:0:
245,135,39956,1,8,0:0:0:0:
245,135,40129,1,0,0:0:0:0:
245,135,40301,1,0,0:0:0:0:
307,126,40387,1,0,0:0:0:0:
245,135,40474,1,8,0:0:0:0:
245,135,40646,1,0,0:0:0:0:
245,135,40818,1,8,0:0:0:0:
245,135,40991,1,8,0:0:0:0:
245,135,41163,1,0,0:0:0:0:
245,135,41508,1,8,0:0:0:0:
246,254,41680,1,8,0:0:0:0:
218,108,41853,1,0,0:0:0:0:
232,101,41939,1,0,0:0:0:0:
208,222,42025,1,8,0:0:0:0:
212,123,42111,1,8,0:0:0:0:
218,108,42198,1,0,0:0:0:0:
218,108,42370,1,0,0:0:0:0:
218,108,42542,1,8,0:0:0:0:
218,108,42715,1,8,0:0:0:0:
218,108,42801,1,8,0:0:0:0:
218,108,42887,1,0,0:0:0:0:
218,108,43060,1,8,0:0:0:0:
218,108,43232,1,0,0:0:0:0:
191,46,43318,1,0,0:0:0:0:
219,128,43405,1,0,0:0:0:0:
220,128,43491,1,0,0:0:0:0:
221,129,43577,1,8,0:0:0:0:
220,128,43749,1,8,0:0:0:0:
218,108,43922,1,0,0:0:0:0:
218,108,44267,1,8,0:0:0:0:
218,108,44353,1,8,0:0:0:0:
218,108,44439,1,8,0:0:0:0:
229,232,44611,5,4,0:0:0:0:
229,232,44956,1,8,0:0:0:0:
294,181,45129,1,0,0:0:0:0:
291,117,45301,1,8,0:0:0:0:
294,181,45387,1,8,0:0:0:0:
227,154,45474,1,8,0:0:0:0:
227,154,45646,1,0,0:0:0:0:
227,154,45818,1,8,0:0:0:0:
217,151,45905,1,8,0:0:0:0:
169,206,45991,1,0,0:0:0:0:
169,206,46163,1,0,0:0:0:0:
169,206,46336,1,8,0:0:0:0:
258,80,46422,1,0,0:0:0:0:
299,168,46508,1,0,0:0:0:0:
299,168,46680,1,8,0:0:0:0:
201,199,46853,1,0,0:0:0:0:
202,199,47025,1,8,0:0:0:0:
201,199,47111,1,8,0:0:0:0:
202,199,47198,1,8,0:0:0:0:
249,107,47370,1,0,0:0:0:0:
326,133,47715,1,8,0:0:0:0:
267,110,47887,1,0,0:0:0:0:
260,221,48060,1,8,0:0:0:0:
336,135,48146,1,8,0:0:0:0:
260,221,48232,1,8,0:0:0:0:
296,120,48405,1,8,0:0:0:0:
296,124,48491,1,8,0:0:0:0:
296,125,48577,1,0,0:0:0:0:
295,121,48663,1,0,0:0:0:0:
295,121,48749,1,8,0:0:0:0:
276,146,48922,1,0,0:0:0:0:
276,146,49094,1,0,0:0:0:0:
205,157,49180,1,0,0:0:0:0:
205,157,49267,1,8,0:0:0:0:
225,159,49439,1,8,0:0:0:0:
225,159,49611,1,0,0:0:0:0:
225,159,49784,1,8,0:0:0:0:
217,155,49870,1,8,0:0:0:0:
217,154,49956,1,8,0:0:0:0:
229,232,50129,5,0,0:0:0:0:
229,232,50474,1,8,0:0:0:0:
294,181,50646,1,0,0:0:0:0:
291,117,50818,1,8,0:0:0:0:
294,181,50905,1,8,0:0:0:0:
227,154,50991,1,8,0:0:0:0:
227,154,51163,1,8,0:0:0:0:
227,154,51336,1,0,0:0:0:0:
217,151,51422,1,0,0:0:0:0:
169,206,51508,1,8,0:0:0:0:
169,206,51680,1,0,0:0:0:0:
169,206,51853,1,8,0:0:0:0:
258,80,51939,1,0,0:0:0:0:
299,168,52025,1,8,0:0:0:0:
299,168,52198,1,8,0:0:0:0:
201,199,52370,1,0,0:0:0:0:
202,199,52542,1,8,0:0:0:0:
201,199,52629,1,8,0:0:0:0:
202,199,52715,1,8,0:0:0:0:
249,107,52887,1,0,0:0:0:0:
326,133,53232,1,8,0:0:0:0:
267,110,53405,1,0,0:0:0:0:
260,221,53577,1,8,0:0:0:0:
336,135,53663,1,8,0:0:0:0:
260,221,53749,1,8,0:0:0:0:
296,120,53922,1,8,0:0:0:0:
296,124,54008,1,0,0:0:0:0:
296,125,54094,1,8,0:0:0:0:
295,121,54180,1,8,0:0:0:0:
295,121,54267,1,0,0:0:0:0:
276,146,54439,1,0,0:0:0:0:
276,146,54611,1,8,0:0:0:0:
205,157,54784,1,0,0:0:0:0:
205,157,54870,1,0,0:0:0:0:
225,159,54956,1,8,0:0:0:0:
225,159,55129,1,0,0:0:0:0:
225,159,55301,1,8,0:0:0:0:
217,155,55387,1,0,0:0:0:0:
217,154,55474,1,8,0:0:0:0:
229,232,55646,5,4,0:0:0:0:
229,232,55991,1,8,0:0:0:0:
294,181,56163,1,0,0:0:0:0:
291,117,56336,1,8,0:0:0:0:
294,181,56422,1,8,0:0:0:0:
227,154,56508,1,0,0:0:0:0:
227,154,56680,1,0,0:0:0:0:
227,154,56853,1,8,0:0:0:0:
217,151,56939,1,0,0:0:0:0:
169,206,57025,1,8,0:0:0:0:
169,206,57198,1,0,0:0:0:0:
169,206,57370,1,8,0:0:0:0:
258,80,57456,1,8,0:0:0:0:
299,168,57542,1,0,0:0:0:0:
299,168,57715,1,8,0:0:0:0:
201,199,57887,1,0,0:0:0:0:
202,199,58060,1,8,0:0:0:0:
201,199,58146,1,8,0:0:0:0:
202,199,58232,1,0,0:0:0:0:
249,107,58405,1,0,0:0:0:0:
326,133,58749,1,8,0:0:0:0:
267,110,58922,1,0,0:0:0:0:
260,221,59094,1,8,0:0:0:0:
336,135,59180,1,8,0:0:0:0:
260,221,59267,1,0,0:0:0:0:
296,120,59439,1,0,0:0:0:0:
296,124,59525,1,0,0:0:0:0:
296,125,59611,1,8,0:0:0:0:
295,121,59698,1,8,0:0:0:0:
295,121,59784,1,0,0:0:0:0:
276,146,59956,1,0,0:0:0:0:
276,146,60129,1,8,0:0:0:0:
205,157,60215,1,0,0:0:0:0:
205,157,60301,1,8,0:0:0:0:
225,159,60474,1,8,0:0:0:0:
225,159,60646,1,0,0:0:0:0:
225,159,60818,1,8,0:0:0:0:
217,155,60905,1,8,0:0:0:0:
217,154,60991,1,0,0:0:0:0:
229,232,61163,5,0,0:0:0:0:
229,232,61508,1,8,0:0:0:0:
108,156,61680,1,0,0:0:0:0:
291,117,61853,1,8,0:0:0:0:
294,181,61939,1,8,0:0:0:0:
227,154,62025,1,0,0:0:0:0:
227,154,62198,1,8,0:0:0:0:
227,154,62370,1,0,0:0:0:0:
217,151,62456,1,0,0:0:0:0:
189,126,62542,1,8,0:0:0:0:
169,206,62715,1,0,0:0:0:0:
169,206,62887,1,8,0:0:0:0:
258,80,62974,1,0,0:0:0:0:
299,168,63060,1,8,0:0:0:0:
299,168,63232,1,8,0:0:0:0:
201,199,63405,1,0,0:0:0:0:
202,199,63577,1,8,0:0:0:0:
201,199,63663,1,8,0:0:0:0:
202,199,63749,1,0,0:0:0:0:
249,107,63922,1,0,0:0:0:0:
326,133,64267,1,8,0:0:0:0:
122,187,64439,1,0,0:0:0:0:
260,221,64784,1,0,0:0:0:0:
302,183,64956,1,8,0:0:0:0:
295,121,65301,1,0,0:0:0:0:
276,146,65646,1,8,0:0:0:0:
205,157,65818,1,0,0:0:0:0:
205,157,65905,1,0,0:0:0:0:
225,159,65991,1,8,0:0:0:0:
225,159,66163,1,0,0:0:0:0:
225,159,66336,1,8,0:0:0:0:
217,155,66422,1,0,0:0:0:0:
217,154,66508,1,8,0:0:0:0:
217,155,66680,1,0,0:0:0:0:
169,81,67025,1,12,0:0:0:0:
227,103,67198,1,0,0:0:0:0:
227,103,67284,1,0,0:0:0:0:
227,103,67370,1,0,0:0:0:0:
227,103,67542,1,0,0:0:0:0:
139,225,67715,1,8,0:0:0:0:
219,113,68060,1,8,0:0:0:0:
221,121,68232,1,0,0:0:0:0:
139,225,68405,1,8,0:0:0:0:
263,154,68577,1,8,0:0:0:0:
263,154,68663,1,8,0:0:0:0:
245,147,68749,1,0,0:0:0:0:
236,145,68922,1,0,0:0:0:0:
246,133,69094,1,8,0:0:0:0:
338,147,69267,1,8,0:0:0:0:
253,96,69439,1,0,0:0:0:0:
139,225,69784,1,8,0:0:0:0:
273,123,69956,1,0,0:0:0:0:
236,120,70301,1,0,0:0:0:0:
187,73,70474,1,8,0:0:0:0:
236,123,70646,1,0,0:0:0:0:
214,112,70732,1,0,0:0:0:0:
276,103,70818,1,8,0:0:0:0:
282,88,70991,1,0,0:0:0:0:
139,225,71163,1,8,0:0:0:0:
203,80,71336,1,8,0:0:0:0:
215,87,71422,1,8,0:0:0:0:
266,106,71508,1,0,0:0:0:0:
255,96,71680,1,8,0:0:0:0:
247,109,71853,1,0,0:0:0:0:
239,104,72025,1,8,0:0:0:0:
292,127,72198,1,0,0:0:0:0:
139,225,72542,1,8,0:0:0:0:
216,101,72715,1,0,0:0:0:0:
205,90,72887,1,8,0:0:0:0:
272,117,72974,1,0,0:0:0:0:
227,85,73060,1,0,0:0:0:0:
139,225,73232,1,8,0:0:0:0:
216,124,73405,1,0,0:0:0:0:
206,76,73577,1,8,0:0:0:0:
175,69,73663,1,8,0:0:0:0:
238,62,73749,1,0,0:0:0:0:
139,225,73922,1,0,0:0:0:0:
253,77,74094,1,8,0:0:0:0:
261,87,74180,1,8,0:0:0:0:
242,80,74267,1,8,0:0:0:0:
261,87,74439,1,0,0:0:0:0:
139,225,74611,1,8,0:0:0:0:
139,225,74956,1,8,0:0:0:0:
220,95,75129,1,0,0:0:0:0:
208,74,75215,1,0,0:0:0:0:
139,225,75301,1,8,0:0:0:0:
209,82,75474,1,0,0:0:0:0:
209,82,75646,1,8,0:0:0:0:
212,89,75818,1,8,0:0:0:0:
215,79,75905,1,0,0:0:0:0:
210,89,75991,1,8,0:0:0:0:
211,79,76163,1,8,0:0:0:0:
139,225,76336,1,0,0:0:0:0:
227,70,76680,1,8,0:0:0:0:
139,225,77025,1,0,0:0:0:0:
240,80,77111,1,0,0:0:0:0:
231,109,77198,1,0,0:0:0:0:
228,61,77284,1,0,0:0:0:0:
208,62,77370,1,8,0:0:0:0:
139,225,77542,1,8,0:0:0:0:
139,225,77715,1,4,0:0:0:0:
253,227,78060,1,8,0:0:0:0:
253,227,78405,1,8,0:0:0:0:
253,227,78577,1,0,0:0:0:0:
271,159,78749,1,8,0:0:0:0:
271,159,78836,1,8,0:0:0:0:
253,227,78922,1,0,0:0:0:0:
271,159,79094,1,0,0:0:0:0:
147,124,79267,1,8,0:0:0:0:
253,160,79439,1,8,0:0:0:0:
232,157,79611,1,0,0:0:0:0:
232,157,79698,1,0,0:0:0:0:
246,160,79784,1,8,0:0:0:0:
231,157,79956,1,0,0:0:0:0:
191,59,80129,1,8,0:0:0:0:
230,157,80301,1,8,0:0:0:0:
204,155,80474,1,0,0:0:0:0:
196,154,80818,1,8,0:0:0:0:
196,154,80991,1,8,0:0:0:0:
196,154,81163,1,0,0:0:0:0:
195,154,81249,1,0,0:0:0:0:
194,154,81336,1,0,0:0:0:0:
192,155,81508,1,8,0:0:0:0:
196,154,81680,1,0,0:0:0:0:
196,154,81853,1,8,0:0:0:0:
227,161,81939,1,0,0:0:0:0:
226,162,82025,1,8,0:0:0:0:
226,162,82198,1,8,0:0:0:0:
226,162,82370,1,0,0:0:0:0:
215,157,82715,1,0,0:0:0:0:
252,81,82887,1,8,0:0:0:0:
221,56,83060,1,8,0:0:0:0:
226,58,83146,1,8,0:0:0:0:
215,157,83232,1,0,0:0:0:0:
215,102,83405,1,0,0:0:0:0:
228,63,83577,1,8,0:0:0:0:
290,161,83749,1,8,0:0:0:0:
290,161,83836,1,8,0:0:0:0:
290,161,83922,1,0,0:0:0:0:
285,143,84094,1,0,0:0:0:0:
285,143,84267,1,8,0:0:0:0:
284,143,84439,1,0,0:0:0:0:
239,133,84525,1,0,0:0:0:0:
239,133,84611,1,8,0:0:0:0:
231,127,84784,1,0,0:0:0:0:
222,48,84956,1,8,0:0:0:0:
230,130,85129,1,8,0:0:0:0:
230,130,85301,1,0,0:0:0:0:
261,108,85474,1,8,0:0:0:0:
261,109,85646,1,0,0:0:0:0:
261,110,85732,1,8,0:0:0:0:
257,110,85818,1,0,0:0:0:0:
257,110,85991,1,8,0:0:0:0:
249,107,86336,1,8,0:0:0:0:
245,104,86508,1,0,0:0:0:0:
245,104,86853,1,0,0:0:0:0:
300,98,87025,1,8,0:0:0:0:
300,98,87198,1,8,0:0:0:0:
270,94,87370,1,0,0:0:0:0:
260,89,88232,1,8,0:0:0:0:
260,89,88405,1,8,0:0:0:0:
260,89,88491,1,8,0:0:0:0:
260,89,88577,1,8,0:0:0:0:
260,89,88749,1,0,0:0:0:0:
266,199,89094,1,8,0:0:0:0:
203,84,89267,1,8,0:0:0:0:
266,199,89439,1,8,0:0:0:0:
266,199,89611,1,0,0:0:0:0:
257,147,89784,1,8,0:0:0:0:
201,97,89956,1,8,0:0:0:0:
236,122,90129,1,0,0:0:0:0:
236,122,90474,1,8,0:0:0:0:
238,57,90646,1,0,0:0:0:0:
209,117,90991,1,0,0:0:0:0:
209,117,91163,1,8,0:0:0:0:
201,134,91249,1,8,0:0:0:0:
201,134,91336,1,8,0:0:0:0:
171,127,91508,1,0,0:0:0:0:
254,110,91853,1,8,0:0:0:0:
254,110,92025,1,0,0:0:0:0:
254,110,92198,1,8,0:0:0:0:
210,140,92370,1,0,0:0:0:0:
248,130,92542,1,0,0:0:0:0:
248,130,92715,1,8,0:0:0:0:
257,152,93060,1,8,0:0:0:0:
257,153,93232,1,0,0:0:0:0:
257,153,93577,1,8,0:0:0:0:
257,153,93749,1,8,0:0:0:0:
257,152,93922,1,0,0:0:0:0:
257,153,94267,1,0,0:0:0:0:
223,71,94439,1,0,0:0:0:0:
278,92,94611,1,8,0:0:0:0:
278,92,94784,1,0,0:0:0:0:
278,92,94956,1,8,0:0:0:0:
241,91,95129,1,8,0:0:0:0:
241,91,95301,1,0,0:0:0:0:
241,91,95474,1,8,0:0:0:0:
241,91,95646,1,8,0:0:0:0:
196,132,95991,1,8,0:0:0:0:
196,132,96163,1,0,0:0:0:0:
196,132,96508,1,0,0:0:0:0:
196,132,96680,1,8,0:0:0:0:
261,83,96767,1,8,0:0:0:0:
183,136,96853,1,8,0:0:0:0:
183,136,97025,1,0,0:0:0:0:
232,98,97370,1,8,0:0:0:0:
232,98,97542,1,8,0:0:0:0:
232,98,97715,1,0,0:0:0:0:
167,167,97887,1,0,0:0:0:0:
232,98,98060,1,8,0:0:0:0:
232,98,98232,1,8,0:0:0:0:
232,98,98577,1,0,0:0:0:0:
232,98,98749,1,8,0:0:0:0:
264,107,99094,1,0,0:0:0:0:
264,107,99267,1,8,0:0:0:0:
264,108,99439,1,8,0:0:0:0:
260,89,99784,1,0,0:0:0:0:
266,199,100129,1,8,0:0:0:0:
203,84,100301,1,0,0:0:0:0:
249,138,100387,1,0,0:0:0:0:
266,199,100474,1,8,0:0:0:0:
266,199,100646,1,0,0:0:0:0:
257,147,100818,1,8,0:0:0:0:
201,97,100991,1,8,0:0:0:0:
236,122,101163,1,0,0:0:0:0:
344,169,101336,1,0,0:0:0:0:
236,122,101508,1,8,0:0:0:0:
238,57,101680,1,0,0:0:0:0:
186,116,101853,1,8,0:0:0:0:
209,117,102025,1,0,0:0:0:0:
209,117,102198,1,8,0:0:0:0:
201,134,102284,1,8,0:0:0:0:
201,134,102370,1,8,0:0:0:0:
171,127,102542,1,0,0:0:0:0:
254,110,102887,1,8,0:0:0:0:
254,110,103060,1,0,0:0:0:0:
254,110,103232,1,0,0:0:0:0:
228,88,103318,1,0,0:0:0:0:
265,107,103405,1,8,0:0:0:0:
248,130,103577,1,0,0:0:0:0:
248,130,103749,1,8,0:0:0:0:
224,142,103922,1,0,0:0:0:0:
257,152,104094,1,8,0:0:0:0:
257,153,104267,1,8,0:0:0:0:
257,153,104611,1,0,0:0:0:0:
257,153,104784,1,8,0:0:0:0:
257,152,104956,1,0,0:0:0:0:
257,153,105301,1,0,0:0:0:0:
223,71,105474,1,0,0:0:0:0:
198,126,105560,1,0,0:0:0:0:
278,92,105646,1,8,0:0:0:0:
278,92,105818,1,0,0:0:0:0:
278,92,105991,1,8,0:0:0:0:
196,145,106077,1,8,0:0:0:0:
241,91,106163,1,8,0:0:0:0:
241,91,106336,1,0,0:0:0:0:
241,91,106508,1,8,0:0:0:0:
241,91,106680,1,8,0:0:0:0:
290,186,106853,1,0,0:0:0:0:
196,132,107025,1,8,0:0:0:0:
196,132,107198,1,0,0:0:0:0:
199,57,107370,1,8,0:0:0:0:
196,132,107542,1,0,0:0:0:0:
196,132,107715,1,8,0:0:0:0:
261,83,107801,1,8,0:0:0:0:
183,136,107887,1,8,0:0:0:0:
183,136,108060,1,0,0:0:0:0:
232,98,108405,1,8,0:0:0:0:
232,98,108577,1,8,0:0:0:0:
232,98,108749,1,0,0:0:0:0:
232,98,109094,1,8,0:0:0:0:
232,98,109439,1,8,0:0:0:0:
232,98,109611,1,8,0:0:0:0:
232,98,109784,1,0,0:0:0:0:
209,94,109956,1,0,0:0:0:0:
264,107,110129,1,0,0:0:0:0:
264,108,110474,5,8,0:0:0:0:
176,35,110646,1,0,0:0:0:0:
242,253,110818,5,4,0:0:0:0:
249,261,110991,1,8,0:0:0:0:
249,261,111077,1,8,0:0:0:0:
243,217,111163,1,0,0:0:0:0:
249,261,111336,1,8,0:0:0:0:
249,261,111422,1,8,0:0:0:0:
243,217,111508,1,0,0:0:0:0:
213,149,111680,1,0,0:0:0:0:
188,216,111853,1,8,0:0:0:0:
218,190,112198,1,0,0:0:0:0:
174,177,112370,1,0,0:0:0:0:
174,177,112456,1,0,0:0:0:0:
174,177,112542,1,8,0:0:0:0:
174,177,112715,1,0,0:0:0:0:
174,177,112801,1,0,0:0:0:0:
164,170,112887,1,8,0:0:0:0:
195,149,113060,1,0,0:0:0:0:
195,148,113232,1,8,0:0:0:0:
152,157,113577,1,0,0:0:0:0:
143,169,113749,1,8,0:0:0:0:
147,166,113836,1,8,0:0:0:0:
147,166,113922,1,0,0:0:0:0:
146,170,114094,1,0,0:0:0:0:
146,170,114180,1,0,0:0:0:0:
146,171,114267,1,8,0:0:0:0:
217,87,114439,1,0,0:0:0:0:
217,87,114611,1,8,0:0:0:0:
247,90,114956,1,0,0:0:0:0:
223,80,115129,1,8,0:0:0:0:
221,80,115215,1,8,0:0:0:0:
224,80,115301,1,8,0:0:0:0:
174,79,115474,1,0,0:0:0:0:
171,92,115560,1,0,0:0:0:0:
171,92,115646,1,0,0:0:0:0:
171,95,115818,1,0,0:0:0:0:
171,95,115991,1,8,0:0:0:0:
220,193,116163,1,8,0:0:0:0:
236,70,116336,1,4,0:0:0:0:
320,94,116508,1,8,0:0:0:0:
218,52,116680,1,0,0:0:0:0:
302,95,116853,1,8,0:0:0:0:
261,98,117198,1,0,0:0:0:0:
277,122,117370,1,8,0:0:0:0:
260,98,117456,1,8,0:0:0:0:
260,98,117542,1,0,0:0:0:0:
309,85,117715,1,0,0:0:0:0:
191,98,117887,1,8,0:0:0:0:
189,55,118060,1,8,0:0:0:0:
191,98,118232,1,0,0:0:0:0:
236,127,118577,1,0,0:0:0:0:
236,127,118749,1,8,0:0:0:0:
162,73,118836,1,8,0:0:0:0:
248,112,118922,1,0,0:0:0:0:
244,115,119094,1,0,0:0:0:0:
261,106,119267,1,8,0:0:0:0:
217,117,119439,1,0,0:0:0:0:
189,37,119611,1,8,0:0:0:0:
193,138,119956,1,0,0:0:0:0:
193,140,120129,1,0,0:0:0:0:
182,90,120215,1,0,0:0:0:0:
191,145,120301,1,8,0:0:0:0:
270,105,120474,1,0,0:0:0:0:
249,91,120646,1,8,0:0:0:0:
229,96,120818,1,8,0:0:0:0:
229,96,120991,1,0,0:0:0:0:
153,30,121336,1,0,0:0:0:0:
229,123,121508,1,8,0:0:0:0:
230,127,121594,1,0,0:0:0:0:
229,123,121680,1,8,0:0:0:0:
191,97,121853,1,0,0:0:0:0:
271,162,122025,1,8,0:0:0:0:
229,79,122111,1,8,0:0:0:0:
271,162,122198,1,0,0:0:0:0:
271,162,122370,1,8,0:0:0:0:
229,79,122456,1,8,0:0:0:0:
271,162,122542,1,0,0:0:0:0:
247,61,122715,1,0,0:0:0:0:
247,65,122887,1,8,0:0:0:0:
242,92,123232,1,0,0:0:0:0:
237,97,123405,1,0,0:0:0:0:
237,97,123491,1,0,0:0:0:0:
237,97,123577,1,8,0:0:0:0:
237,97,123749,1,0,0:0:0:0:
237,97,123836,1,0,0:0:0:0:
237,97,123922,1,8,0:0:0:0:
217,103,124094,1,0,0:0:0:0:
217,103,124267,1,8,0:0:0:0:
221,141,124611,1,0,0:0:0:0:
218,72,124784,1,8,0:0:0:0:
218,72,124870,1,8,0:0:0:0:
215,73,124956,1,0,0:0:0:0:
214,73,125129,1,0,0:0:0:0:
214,75,125215,1,0,0:0:0:0:
175,40,125301,1,8,0:0:0:0:
242,85,125474,1,0,0:0:0:0:
242,85,125646,1,8,0:0:0:0:
235,75,125991,1,0,0:0:0:0:
187,85,126163,1,8,0:0:0:0:
179,96,126249,1,8,0:0:0:0:
180,96,126336,1,8,0:0:0:0:
181,109,126508,1,0,0:0:0:0:
166,96,126594,1,0,0:0:0:0:
170,89,126680,1,0,0:0:0:0:
230,66,126853,1,0,0:0:0:0:
230,66,127025,1,8,0:0:0:0:
228,47,127198,1,8,0:0:0:0:
251,213,127370,5,0,0:0:0:0:
251,213,127542,1,0,0:0:0:0:
251,213,127715,1,8,0:0:0:0:
251,213,127887,1,0,0:0:0:0:
251,213,128060,1,0,0:0:0:0:
251,213,128232,1,0,0:0:0:0:
251,213,128405,1,8,0:0:0:0:
211,122,128577,1,0,0:0:0:0:
251,213,128749,1,0,0:0:0:0:
178,280,128836,1,0,0:0:0:0:
265,159,128922,5,0,0:0:0:0:
265,159,129008,1,0,0:0:0:0:
265,159,129094,1,8,0:0:0:0:
265,159,129267,1,0,0:0:0:0:
254,161,129439,1,0,0:0:0:0:
265,159,129525,1,0,0:0:0:0:
265,159,129611,1,0,0:0:0:0:
265,159,129698,1,0,0:0:0:0:
253,160,129784,1,8,0:0:0:0:
265,167,129956,1,8,0:0:0:0:
249,117,130129,1,0,0:0:0:0:
210,152,130474,1,0,0:0:0:0:
210,152,130818,1,8,0:0:0:0:
210,152,131163,1,0,0:0:0:0:
197,184,131508,1,8,0:0:0:0:
220,88,132370,1,8,0:0:0:0:
207,98,132542,1,8,0:0:0:0:
206,98,132629,1,8,0:0:0:0:
199,98,132715,1,8,0:0:0:0:
220,150,132887,1,0,0:0:0:0:
220,150,133060,1,0,0:0:0:0:
220,150,133232,1,8,0:0:0:0:
220,150,133405,1,0,0:0:0:0:
191,141,133749,1,0,0:0:0:0:
191,141,133922,1,8,0:0:0:0:
250,56,135646,1,0,0:0:0:0:
294,114,135818,1,0,0:0:0:0:
294,114,135991,1,0,0:0:0:0:
294,114,136163,1,8,0:0:0:0:
263,109,136680,1,8,0:0:0:0:
267,108,138405,1,0,0:0:0:0:
272,123,138577,1,8,0:0:0:0:
272,123,138749,1,0,0:0:0:0:
272,123,138922,1,8,0:0:0:0:
271,123,139267,1,0,0:0:0:0:
271,123,139439,1,8,0:0:0:0:
256,118,140818,1,8,0:0:0:0:
256,118,141163,1,0,0:0:0:0:
209,103,141508,1,0,0:0:0:0:
219,117,141853,1,8,0:0:0:0:
219,117,142198,1,8,0:0:0:0:
216,116,142542,1,0,0:0:0:0:
219,117,142887,1,8,0:0:0:0:
219,117,143232,1,0,0:0:0:0:
216,116,143577,1,8,0:0:0:0:
219,117,143922,1,0,0:0:0:0:
234,284,144094,1,0,0:0:0:0:
234,284,144267,1,8,0:0:0:0:
234,284,144439,1,0,0:0:0:0:
234,284,144784,1,0,0:0:0:0:
234,284,144956,1,8,0:0:0:0:
241,176,146336,1,8,0:0:0:0:
241,176,146680,1,0,0:0:0:0:
241,176,146853,1,0,0:0:0:0:
241,176,147025,1,8,0:0:0:0:
241,176,147198,1,8,0:0:0:0:
299,118,147715,1,0,0:0:0:0:
236,100,148749,1,8,0:0:0:0:
236,100,149439,1,8,0:0:0:0:
261,106,149611,1,0,0:0:0:0:
261,106,149784,1,8,0:0:0:0:
261,106,149956,1,8,0:0:0:0:
249,102,150474,1,0,0:0:0:0:
243,101,151853,1,8,0:0:0:0:
243,101,152198,1,8,0:0:0:0:
243,101,152542,1,0,0:0:0:0:
207,93,153232,1,0,0:0:0:0:
207,93,153577,1,8,0:0:0:0:
207,93,154267,1,0,0:0:0:0:
281,175,154956,1,0,0:0:0:0:
263,169,156336,1,8,0:0:0:0:
279,130,156680,1,8,0:0:0:0:
279,130,156853,1,0,0:0:0:0:
279,130,157198,1,8,0:0:0:0:
279,130,157542,1,0,0:0:0:0:
280,130,158922,1,0,0:0:0:0:
280,130,159094,1,8,0:0:0:0:
287,103,159439,1,0,0:0:0:0:
286,103,159611,1,0,0:0:0:0:
284,107,159956,1,8,0:0:0:0:
287,103,160301,1,0,0:0:0:0:
284,107,160818,1,0,0:0:0:0:
287,103,161163,1,8,0:0:0:0:
284,107,161508,1,0,0:0:0:0:
284,107,161853,1,8,0:0:0:0:
284,107,162370,1,8,0:0:0:0:
284,107,163232,1,0,0:0:0:0:
276,64,163577,1,0,0:0:0:0:
276,64,163922,1,8,0:0:0:0:
276,64,164267,1,0,0:0:0:0:
276,64,164611,1,8,0:0:0:0:
276,64,165301,1,8,0:0:0:0:
193,315,165991,1,0,0:0:0:0:
215,237,166336,1,8,0:0:0:0:
215,237,166680,1,0,0:0:0:0:
236,153,167025,1,8,0:0:0:0:
236,153,167198,1,0,0:0:0:0:
236,153,167284,1,0,0:0:0:0:
236,153,167370,1,8,0:0:0:0:
236,153,167542,1,0,0:0:0:0:
236,153,167715,1,0,0:0:0:0:
199,78,167887,5,8,0:0:0:0:
317,124,168060,1,0,0:0:0:0:
250,192,168232,1,8,0:0:0:0:
322,219,168405,1,8,0:0:0:0:
240,187,168577,1,8,0:0:0:0:
240,187,168749,1,0,0:0:0:0:
217,147,169094,1,8,0:0:0:0:
217,147,169439,1,8,0:0:0:0:
217,147,169784,1,0,0:0:0:0:
221,139,169956,1,8,0:0:0:0:
206,131,170042,1,0,0:0:0:0:
206,131,170129,1,8,0:0:0:0:
191,126,170301,1,8,0:0:0:0:
191,126,170474,1,0,0:0:0:0:
191,127,170646,1,8,0:0:0:0:
204,108,170818,1,8,0:0:0:0:
242,128,170991,1,0,0:0:0:0:
235,114,171163,1,0,0:0:0:0:
208,121,171336,1,8,0:0:0:0:
244,47,171508,1,0,0:0:0:0:
234,116,171680,1,0,0:0:0:0:
234,116,171853,1,8,0:0:0:0:
234,116,172025,1,0,0:0:0:0:
234,116,172198,1,8,0:0:0:0:
233,117,172370,1,8,0:0:0:0:
234,116,172542,1,0,0:0:0:0:
234,116,172715,1,8,0:0:0:0:
221,118,172801,1,8,0:0:0:0:
234,116,172887,1,0,0:0:0:0:
234,116,173060,1,8,0:0:0:0:
234,116,173232,1,8,0:0:0:0:
218,118,173405,1,0,0:0:0:0:
218,118,173577,1,8,0:0:0:0:
217,119,173922,1,0,0:0:0:0:
183,153,174094,1,0,0:0:0:0:
249,118,174267,1,8,0:0:0:0:
249,118,174353,1,8,0:0:0:0:
194,39,174439,1,0,0:0:0:0:
216,137,174525,1,0,0:0:0:0:
248,118,174611,1,8,0:0:0:0:
248,118,174784,1,0,0:0:0:0:
249,118,174956,1,8,0:0:0:0:
249,118,175129,1,8,0:0:0:0:
198,51,175215,1,8,0:0:0:0:
249,118,175301,1,0,0:0:0:0:
249,118,175474,1,8,0:0:0:0:
261,79,175818,1,0,0:0:0:0:
261,79,175991,1,8,0:0:0:0:
261,79,176336,1,0,0:0:0:0:
250,64,176680,1,8,0:0:0:0:
250,64,176767,1,0,0:0:0:0:
240,60,176853,1,8,0:0:0:0:
229,232,177025,5,4,0:0:0:0:
229,232,177370,1,8,0:0:0:0:
294,181,177542,1,0,0:0:0:0:
291,117,177715,1,8,0:0:0:0:
294,181,177801,1,8,0:0:0:0:
227,154,177887,1,8,0:0:0:0:
227,154,178060,1,0,0:0:0:0:
227,154,178232,1,8,0:0:0:0:
217,151,178318,1,8,0:0:0:0:
169,206,178405,1,0,0:0:0:0:
169,206,178577,1,0,0:0:0:0:
169,206,178749,1,8,0:0:0:0:
258,80,178836,1,0,0:0:0:0:
299,168,178922,1,0,0:0:0:0:
299,168,179094,1,8,0:0:0:0:
201,199,179267,1,0,0:0:0:0:
202,199,179439,1,8,0:0:0:0:
201,199,179525,1,8,0:0:0:0:
202,199,179611,1,8,0:0:0:0:
249,107,179784,1,0,0:0:0:0:
326,133,180129,1,8,0:0:0:0:
267,110,180301,1,0,0:0:0:0:
260,221,180474,1,8,0:0:0:0:
336,135,180560,1,8,0:0:0:0:
260,221,180646,1,8,0:0:0:0:
296,120,180818,1,8,0:0:0:0:
296,124,180905,1,8,0:0:0:0:
296,125,180991,1,0,0:0:0:0:
295,121,181077,1,0,0:0:0:0:
295,121,181163,1,8,0:0:0:0:
276,146,181336,1,0,0:0:0:0:
276,146,181508,1,0,0:0:0:0:
205,157,181594,1,0,0:0:0:0:
205,157,181680,1,8,0:0:0:0:
225,159,181853,1,8,0:0:0:0:
225,159,182025,1,0,0:0:0:0:
225,159,182198,1,8,0:0:0:0:
217,155,182284,1,8,0:0:0:0:
217,154,182370,1,8,0:0:0:0:
229,232,182542,5,0,0:0:0:0:
229,232,182887,1,8,0:0:0:0:
294,181,183060,1,0,0:0:0:0:
291,117,183232,1,8,0:0:0:0:
294,181,183318,1,8,0:0:0:0:
227,154,183405,1,8,0:0:0:0:
227,154,183577,1,8,0:0:0:0:
227,154,183749,1,0,0:0:0:0:
217,151,183836,1,0,0:0:0:0:
169,206,183922,1,8,0:0:0:0:
169,206,184094,1,0,0:0:0:0:
169,206,184267,1,8,0:0:0:0:
258,80,184353,1,0,0:0:0:0:
299,168,184439,1,8,0:0:0:0:
299,168,184611,1,8,0:0:0:0:
201,199,184784,1,0,0:0:0:0:
202,199,184956,1,8,0:0:0:0:
201,199,185042,1,8,0:0:0:0:
202,199,185129,1,8,0:0:0:0:
249,107,185301,1,0,0:0:0:0:
326,133,185646,1,8,0:0:0:0:
267,110,185818,1,0,0:0:0:0:
260,221,185991,1,8,0:0:0:0:
336,135,186077,1,8,0:0:0:0:
260,221,186163,1,8,0:0:0:0:
296,120,186336,1,8,0:0:0:0:
296,124,186422,1,0,0:0:0:0:
296,125,186508,1,8,0:0:0:0:
295,121,186594,1,8,0:0:0:0:
295,121,186680,1,0,0:0:0:0:
276,146,186853,1,0,0:0:0:0:
276,146,187025,1,8,0:0:0:0:
205,157,187198,1,0,0:0:0:0:
205,157,187284,1,0,0:0:0:0:
225,159,187370,1,8,0:0:0:0:
225,159,187542,1,0,0:0:0:0:
217,154,187887,1,8,0:0:0:0:
229,232,188060,5,4,0:0:0:0:
229,232,188405,1,8,0:0:0:0:
294,181,188577,1,0,0:0:0:0:
291,117,188749,1,8,0:0:0:0:
294,181,188836,1,8,0:0:0:0:
227,154,188922,1,0,0:0:0:0:
227,154,189094,1,0,0:0:0:0:
227,154,189267,1,8,0:0:0:0:
217,151,189353,1,0,0:0:0:0:
169,206,189439,1,8,0:0:0:0:
169,206,189611,1,0,0:0:0:0:
169,206,189784,1,8,0:0:0:0:
258,80,189870,1,8,0:0:0:0:
299,168,189956,1,0,0:0:0:0:
299,168,190129,1,8,0:0:0:0:
201,199,190301,1,0,0:0:0:0:
202,199,190474,1,8,0:0:0:0:
201,199,190560,1,8,0:0:0:0:
202,199,190646,1,0,0:0:0:0:
249,107,190818,1,0,0:0:0:0:
326,133,191163,1,8,0:0:0:0:
267,110,191336,1,0,0:0:0:0:
260,221,191508,1,8,0:0:0:0:
336,135,191594,1,8,0:0:0:0:
260,221,191680,1,0,0:0:0:0:
296,120,191853,1,0,0:0:0:0:
296,124,191939,1,0,0:0:0:0:
296,125,192025,1,8,0:0:0:0:
295,121,192111,1,8,0:0:0:0:
295,121,192198,1,0,0:0:0:0:
276,146,192370,1,0,0:0:0:0:
276,146,192542,1,8,0:0:0:0:
205,157,192629,1,0,0:0:0:0:
205,157,192715,1,8,0:0:0:0:
225,159,192887,1,8,0:0:0:0:
225,159,193060,1,0,0:0:0:0:
225,159,193232,1,8,0:0:0:0:
217,155,193318,1,8,0:0:0:0:
217,154,193405,1,0,0:0:0:0:
229,232,193577,5,0,0:0:0:0:
229,232,193922,5,8,0:0:0:0:
294,181,194094,1,0,0:0:0:0:
291,117,194267,1,8,0:0:0:0:
227,154,194439,1,0,0:0:0:0:
227,154,194611,1,0,0:0:0:0:
258,80,194698,1,0,0:0:0:0:
227,154,194784,1,8,0:0:0:0:
169,206,194956,1,8,0:0:0:0:
169,206,195129,1,0,0:0:0:0:
169,206,195301,1,8,0:0:0:0:
258,80,195387,1,8,0:0:0:0:
299,168,195474,1,0,0:0:0:0:
299,168,195646,1,8,0:0:0:0:
201,199,195818,1,0,0:0:0:0:
202,199,195991,1,8,0:0:0:0:
364,198,196077,1,8,0:0:0:0:
366,240,196163,1,8,0:0:0:0:
249,107,196336,1,0,0:0:0:0:
154,135,197025,1,0,0:0:0:0:
248,167,197198,1,8,0:0:0:0:
296,120,197370,1,8,0:0:0:0:
153,106,197542,1,0,0:0:0:0:
295,121,197715,1,8,0:0:0:0:
166,95,197801,1,0,0:0:0:0:
166,95,197887,1,8,0:0:0:0:
276,146,198060,1,8,0:0:0:0:
205,157,198232,1,8,0:0:0:0:
162,105,198318,1,8,0:0:0:0:
199,39,198405,1,0,0:0:0:0:
225,159,198577,1,0,0:0:0:0:
225,159,198749,1,8,0:0:0:0:
279,107,198836,1,8,0:0:0:0:
217,154,198922,1,8,0:0:0:0:
139,225,199094,1,4,0:0:0:0:
253,227,199439,1,8,0:0:0:0:
253,227,199784,1,8,0:0:0:0:
253,227,199956,1,0,0:0:0:0:
271,159,200129,1,8,0:0:0:0:
220,123,200215,1,8,0:0:0:0:
253,227,200301,1,8,0:0:0:0:
271,159,200474,1,0,0:0:0:0:
305,165,200646,1,0,0:0:0:0:
253,160,200818,1,8,0:0:0:0:
232,157,200991,1,8,0:0:0:0:
232,157,201077,1,0,0:0:0:0:
246,160,201163,1,8,0:0:0:0:
231,157,201336,1,8,0:0:0:0:
187,94,201508,1,0,0:0:0:0:
230,157,201680,1,0,0:0:0:0:
204,155,201853,1,8,0:0:0:0:
196,154,202198,1,8,0:0:0:0:
196,154,202370,1,0,0:0:0:0:
194,154,202715,1,0,0:0:0:0:
192,155,202887,1,8,0:0:0:0:
196,154,203060,1,0,0:0:0:0:
284,142,203146,1,0,0:0:0:0:
196,154,203232,1,8,0:0:0:0:
226,162,203405,1,8,0:0:0:0:
226,162,203577,1,0,0:0:0:0:
226,162,203749,1,8,0:0:0:0:
274,131,203836,1,0,0:0:0:0:
230,175,203922,1,0,0:0:0:0:
215,157,204094,1,8,0:0:0:0:
252,81,204267,1,0,0:0:0:0:
221,56,204439,1,8,0:0:0:0:
215,157,204611,1,0,0:0:0:0:
228,63,204956,1,8,0:0:0:0:
290,161,205129,1,8,0:0:0:0:
290,161,205215,1,8,0:0:0:0:
290,161,205301,1,0,0:0:0:0:
285,143,205474,1,8,0:0:0:0:
285,143,205646,1,0,0:0:0:0:
284,143,205818,1,0,0:0:0:0:
231,140,205905,1,0,0:0:0:0:
239,133,205991,1,8,0:0:0:0:
307,206,206163,1,0,0:0:0:0:
231,127,206336,1,8,0:0:0:0:
230,130,206508,1,8,0:0:0:0:
219,86,206594,1,0,0:0:0:0:
230,130,206680,1,8,0:0:0:0:
261,108,206853,1,0,0:0:0:0:
261,109,207025,1,8,0:0:0:0:
139,225,207370,1,8,0:0:0:0:
220,95,207542,1,0,0:0:0:0:
208,74,207629,1,0,0:0:0:0:
139,225,207715,1,8,0:0:0:0:
209,82,207887,1,0,0:0:0:0:
209,82,208060,1,8,0:0:0:0:
212,89,208232,1,8,0:0:0:0:
215,79,208318,1,0,0:0:0:0:
210,89,208405,1,8,0:0:0:0:
211,79,208577,1,8,0:0:0:0:
139,225,208749,1,0,0:0:0:0:
272,204,208922,1,0,0:0:0:0:
286,113,209094,1,8,0:0:0:0:
236,54,209267,1,8,0:0:0:0:
228,77,209353,1,8,0:0:0:0:
228,77,209439,1,0,0:0:0:0:
260,89,209611,1,8,0:0:0:0:
260,89,210129,1,4,0:0:0:0:
311,223,210474,1,8,0:0:0:0:
331,219,210818,1,0,0:0:0:0:
331,219,210991,1,0,0:0:0:0:
331,219,211163,1,8,0:0:0:0:
214,107,211249,1,8,0:0:0:0:
331,219,211336,1,0,0:0:0:0:
331,219,211508,1,8,0:0:0:0:
377,171,211680,1,0,0:0:0:0:
331,219,211853,1,8,0:0:0:0:
331,219,212025,1,0,0:0:0:0:
258,116,212111,1,0,0:0:0:0:
259,218,212198,1,8,0:0:0:0:
331,219,212370,1,0,0:0:0:0:
259,218,212542,1,8,0:0:0:0:
331,219,212715,1,8,0:0:0:0:
331,219,212887,1,0,0:0:0:0:
331,219,213232,1,8,0:0:0:0:
331,219,213405,1,8,0:0:0:0:
331,219,213577,1,0,0:0:0:0:
373,123,213663,1,0,0:0:0:0:
331,219,213749,1,0,0:0:0:0:
331,219,213922,1,8,0:0:0:0:
331,219,214094,1,0,0:0:0:0:
253,217,214180,1,8,0:0:0:0:
331,219,214267,1,0,0:0:0:0:
297,186,214439,1,8,0:0:0:0:
331,219,214611,1,0,0:0:0:0:
331,219,214784,1,8,0:0:0:0:
331,219,215129,1,8,0:0:0:0:
331,219,215301,1,0,0:0:0:0:
331,219,215474,1,8,0:0:0:0:
250,217,215560,1,8,0:0:0:0:
331,219,215646,1,0,0:0:0:0:
250,217,215818,1,0,0:0:0:0:
331,219,215991,1,8,0:0:0:0:
331,219,216163,1,8,0:0:0:0:
245,182,216249,1,8,0:0:0:0:
331,219,216336,1,0,0:0:0:0:
250,217,216508,1,8,0:0:0:0:
331,219,216680,1,0,0:0:0:0:
331,219,216853,1,8,0:0:0:0:
253,104,216939,1,8,0:0:0:0:
236,188,217025,1,8,0:0:0:0:
331,219,217198,1,0,0:0:0:0:
277,217,217370,1,8,0:0:0:0:
324,222,217542,1,0,0:0:0:0:
277,217,217629,1,0,0:0:0:0:
324,222,217715,1,8,0:0:0:0:
258,200,217887,1,8,0:0:0:0:
258,200,218060,1,0,0:0:0:0:
258,200,218232,1,8,0:0:0:0:
258,200,218405,1,0,0:0:0:0:
248,124,219784,1,0,0:0:0:0:
285,156,220646,5,8,0:0:0:0:
285,156,220818,1,8,0:0:0:0:
285,156,220905,1,8,0:0:0:0:
285,156,220991,1,8,0:0:0:0:
286,145,221163,1,4,0:0:0:0:
222,82,221336,1,0,0:0:0:0:
361,183,221508,1,8,0:0:0:0:
314,171,221680,1,0,0:0:0:0:
266,77,222025,1,0,0:0:0:0:
314,171,222198,1,8,0:0:0:0:
266,77,222370,1,8,0:0:0:0:
269,167,222542,1,0,0:0:0:0:
187,128,222715,1,8,0:0:0:0:
178,115,222887,1,8,0:0:0:0:
269,167,223060,1,0,0:0:0:0:
266,176,223405,1,8,0:0:0:0:
266,176,223577,1,0,0:0:0:0:
266,176,223749,1,8,0:0:0:0:
266,176,223922,1,0,0:0:0:0:
207,108,224094,1,0,0:0:0:0:
266,176,224267,1,8,0:0:0:0:
266,176,224439,1,8,0:0:0:0:
266,176,224784,1,8,0:0:0:0:
266,176,224956,1,0,0:0:0:0:
266,176,225129,1,8,0:0:0:0:
266,176,225301,1,8,0:0:0:0:
214,128,225474,1,0,0:0:0:0:
266,176,225646,1,8,0:0:0:0:
266,176,225818,1,8,0:0:0:0:
194,103,225991,1,0,0:0:0:0:
280,129,226163,1,0,0:0:0:0:
251,107,226336,1,8,0:0:0:0:
251,107,226508,1,8,0:0:0:0:
251,107,226680,1,0,0:0:0:0:
228,96,226853,1,8,0:0:0:0:
228,96,227025,1,8,0:0:0:0:
228,96,227198,1,0,0:0:0:0:
219,88,227542,1,0,0:0:0:0:
218,88,227715,1,8,0:0:0:0:
218,88,227887,1,8,0:0:0:0:
218,88,228060,1,0,0:0:0:0:
216,88,228232,1,0,0:0:0:0:
221,90,228405,1,8,0:0:0:0:
219,88,228577,1,0,0:0:0:0:
218,88,228922,1,0,0:0:0:0:
218,88,229094,1,8,0:0:0:0:
216,88,229267,1,8,0:0:0:0:
210,86,229439,1,0,0:0:0:0:
208,85,229611,1,8,0:0:0:0:
207,85,229784,1,8,0:0:0:0:
207,85,229956,1,0,0:0:0:0:
207,85,230301,1,8,0:0:0:0:
210,86,230474,1,8,0:0:0:0:
208,85,230646,1,0,0:0:0:0:
207,85,230818,1,8,0:0:0:0:
207,85,230991,1,0,0:0:0:0:
207,85,231163,1,8,0:0:0:0:
247,112,231336,1,0,0:0:0:0:
247,112,231422,1,0,0:0:0:0:
247,112,231508,1,8,0:0:0:0:
247,112,231680,1,0,0:0:0:0:
247,112,231853,1,8,0:0:0:0:
240,114,231939,1,8,0:0:0:0:
240,114,232025,1,0,0:0:0:0:
139,225,232198,5,0,0:0:0:0:
253,227,232542,1,8,0:0:0:0:
315,149,232887,1,8,0:0:0:0:
231,128,233060,1,0,0:0:0:0:
243,134,233232,1,8,0:0:0:0:
243,134,233405,1,0,0:0:0:0:
226,84,233491,1,0,0:0:0:0:
226,84,233577,1,8,0:0:0:0:
194,117,233749,1,0,0:0:0:0:
194,117,233922,1,8,0:0:0:0:
194,117,234094,1,8,0:0:0:0:
275,162,234267,1,0,0:0:0:0:
317,97,234439,1,0,0:0:0:0:
234,79,234611,1,8,0:0:0:0:
317,97,234784,1,8,0:0:0:0:
317,97,234956,1,0,0:0:0:0:
232,87,235301,1,8,0:0:0:0:
231,86,235474,1,8,0:0:0:0:
231,86,235646,1,0,0:0:0:0:
232,87,235732,1,0,0:0:0:0:
230,97,235818,1,8,0:0:0:0:
230,97,235991,1,0,0:0:0:0:
230,98,236163,1,0,0:0:0:0:
230,98,236336,1,8,0:0:0:0:
240,131,236508,1,8,0:0:0:0:
202,122,236680,1,0,0:0:0:0:
202,121,236853,1,8,0:0:0:0:
202,122,237198,1,0,0:0:0:0:
202,122,237370,1,0,0:0:0:0:
202,122,237542,1,8,0:0:0:0:
202,122,237629,1,8,0:0:0:0:
202,121,237715,1,0,0:0:0:0:
281,102,238060,5,8,0:0:0:0:
236,122,238232,1,0,0:0:0:0:
281,102,238405,1,8,0:0:0:0:
192,91,238491,1,8,0:0:0:0:
236,122,238577,1,0,0:0:0:0:
281,102,238749,1,8,0:0:0:0:
236,122,238922,1,0,0:0:0:0:
229,126,239008,1,0,0:0:0:0:
281,102,239094,1,8,0:0:0:0:
236,122,239267,1,0,0:0:0:0:
281,102,239439,1,8,0:0:0:0:
236,122,239611,1,8,0:0:0:0:
219,70,239698,1,8,0:0:0:0:
281,102,239784,1,0,0:0:0:0:
236,122,239956,1,0,0:0:0:0:
206,64,240129,1,8,0:0:0:0:
196,67,240215,1,8,0:0:0:0:
202,63,240301,1,8,0:0:0:0:
201,64,240387,1,8,0:0:0:0:
197,68,240474,1,0,0:0:0:0:
197,68,240818,1,8,0:0:0:0:
197,68,241163,1,0,0:0:0:0:
197,68,241508,1,0,0:0:0:0:
197,68,241680,1,8,0:0:0:0:
197,68,242025,1,0,0:0:0:0:
197,68,242198,1,8,0:0:0:0:
197,68,242542,1,0,0:0:0:0:
208,72,242715,1,8,0:0:0:0:
208,75,242887,1,8,0:0:0:0:
208,77,242974,1,8,0:0:0:0:
194,81,243060,1,8,0:0:0:0:
197,68,243232,1,0,0:0:0:0:
