osu file format v14

[General]
AudioFilename: audio.mp3
AudioLeadIn: 0
PreviewTime: 44165
Countdown: 0
SampleSet: Normal
StackLeniency: 0.6
Mode: 0
LetterboxInBreaks: 0
WidescreenStoryboard: 1

[Editor]
Bookmarks: 22096,44165,66234,88303,110372,132441
DistanceSpacing: 1
BeatDivisor: 4
GridSize: 32
TimelineZoom: 1.4

[Metadata]
Title:Neon Rainbow (feat. Anna Yvette)
TitleUnicode:Neon Rainbow (feat. Anna Yvette)
Artist:Rameses B
ArtistUnicode:Rameses B
Creator:WinSpirit
Version:Expert
Source:
Tags:drum n bass
BeatmapID:980854
BeatmapSetID:457749

[Difficulty]
HPDrainRate:6
CircleSize:4
OverallDifficulty:8
ApproachRate:9.3
SliderMultiplier:1.6
SliderTickRate:1

[Events]
//Background and Video events
0,0,"Neon Miku.jpg",0,0
//Break Periods
//Storyboard Layer 0 (Background)
//Storyboard Layer 1 (Fail)
//Storyboard Layer 2 (Pass)
//Storyboard Layer 3 (Foreground)
//Storyboard Sound Samples

[TimingPoints]
28,344.827586206897,4,1,0,50,1,0
44165,-66.6666666666667,4,1,0,60,0,1
66234,-100,4,1,0,60,0,0
110372,-66.6666666666667,4,2,0,50,0,0

[Colours]
Combo1 : 172,65,177
Combo2 : 255,0,0
Combo3 : 249,124,0
Combo4 : 255,251,66
Combo5 : 61,239,29
Combo6 : 33,239,250
Combo7 : 20,20,222

[HitObjects]
132,104,28,6,0,P|172:120|216:120,1,80
357,64,372,1,0,0:0:0:0:
449,194,545,1,0,0:0:0:0:
449,194,631,1,0,0:0:0:0:
449,194,717,1,0,0:0:0:0:
288,191,890,1,0,0:0:0:0:
208,121,1062,2,0,P|168:119|132:104,1,80
279,333,1407,5,0,0:0:0:0:
144,247,1579,1,0,0:0:0:0:
389,272,1752,1,0,0:0:0:0:
291,145,1924,2,0,L|250:127,2,40
444,97,2269,1,0,0:0:0:0:
387,153,2441,1,0,0:0:0:0:
331,209,2614,1,0,0:0:0:0:
95,260,2786,6,0,L|130:186,1,80
129,187,3131,1,0,0:0:0:0:
60,43,3303,1,0,0:0:0:0:
60,43,3390,1,0,0:0:0:0:
60,43,3476,2,0,L|136:70,1,80
294,45,3821,2,0,L|360:98,1,80
151,273,4165,6,0,L|71:245,2,80
304,221,4683,1,0,0:0:0:0:
304,221,4769,1,0,0:0:0:0:
304,221,4855,2,0,L|368:173,1,80
162,41,5200,1,0,0:0:0:0:
162,41,5372,1,0,0:0:0:0:
144,254,5545,6,0,P|186:249|222:219,1,80
348,317,5890,2,0,P|380:294|419:290,1,80
419,290,6148,1,0,0:0:0:0:
448,262,6234,1,0,0:0:0:0:
456,222,6321,1,0,0:0:0:0:
450,182,6407,1,0,0:0:0:0:
338,68,6579,2,0,P|295:78|249:64,1,80
37,142,6924,6,0,L|101:189,1,80
205,311,7269,1,0,0:0:0:0:
205,311,7441,1,0,0:0:0:0:
239,289,7528,1,0,0:0:0:0:
273,268,7614,1,0,0:0:0:0:
307,247,7700,1,0,0:0:0:0:
341,226,7786,1,0,0:0:0:0:
434,95,7959,2,0,P|392:99|349:83,1,80
128,67,8303,6,0,P|117:109|121:154,2,80
203,115,8821,1,0,0:0:0:0:
230,144,8907,1,0,0:0:0:0:
232,183,8993,1,0,0:0:0:0:
220,221,9079,1,0,0:0:0:0:
190,247,9165,1,0,0:0:0:0:
60,341,9338,1,0,0:0:0:0:
256,304,9510,1,0,0:0:0:0:
245,77,9683,6,0,L|266:113,2,40
156,94,10028,2,0,L|135:58,2,40
54,208,10372,6,0,L|28:167,1,40
117,119,10545,2,0,L|124:66,1,40
221,73,10717,2,0,L|243:37,1,40
337,71,10890,2,0,L|380:53,1,40
232,141,11062,5,0,0:0:0:0:
428,175,11234,1,0,0:0:0:0:
265,292,11407,2,0,P|238:259|228:207,1,80
227,183,11665,1,0,0:0:0:0:
235,135,11752,1,0,0:0:0:0:
262,95,11838,1,0,0:0:0:0:
297,62,11924,2,0,P|331:43|385:34,1,80
399,234,12269,5,0,0:0:0:0:
399,234,12355,1,0,0:0:0:0:
399,234,12441,2,0,L|310:185,1,80
253,68,12786,2,0,P|215:92|174:90,1,80
140,93,13045,1,0,0:0:0:0:
107,115,13131,1,0,0:0:0:0:
94,152,13217,1,0,0:0:0:0:
100,191,13303,1,0,0:0:0:0:
290,257,13476,2,0,P|328:233|369:235,1,80
265,83,13821,5,0,0:0:0:0:
265,83,13907,1,0,0:0:0:0:
265,83,13993,2,0,P|222:108|176:106,1,80
45,44,14338,1,0,0:0:0:0:
41,83,14424,1,0,0:0:0:0:
37,122,14510,1,0,0:0:0:0:
33,161,14596,1,0,0:0:0:0:
29,201,14683,1,0,0:0:0:0:
146,309,14855,2,0,P|181:285|226:272,1,80
431,187,15200,6,0,L|405:152,2,40
271,169,15545,1,0,0:0:0:0:
410,92,15717,1,0,0:0:0:0:
376,70,15803,1,0,0:0:0:0:
336,62,15890,1,0,0:0:0:0:
296,65,15976,1,0,0:0:0:0:
261,84,16062,1,0,0:0:0:0:
211,235,16234,2,0,P|177:261|119:272,1,80
115,75,16579,5,0,0:0:0:0:
68,270,16752,1,0,0:0:0:0:
167,96,16924,5,0,0:0:0:0:
211,290,17096,1,0,0:0:0:0:
231,90,17269,5,0,0:0:0:0:
380,222,17441,1,0,0:0:0:0:
289,42,17614,5,0,0:0:0:0:
486,72,17786,1,0,0:0:0:0:
233,155,17959,6,0,P|272:142|295:111,1,80
358,301,18303,2,0,P|319:314|296:345,1,80
432,196,18648,2,0,P|393:183|370:152,1,80
188,236,18993,2,0,P|227:249|250:280,1,80
94,338,19338,6,0,P|65:259|88:190,1,160
173,104,19855,1,0,0:0:0:0:
202,131,19941,1,0,0:0:0:0:
238,147,20028,1,0,0:0:0:0:
277,154,20114,1,0,0:0:0:0:
316,151,20200,1,0,0:0:0:0:
454,71,20372,1,0,0:0:0:0:
451,231,20545,1,0,0:0:0:0:
312,310,20717,6,0,L|270:239,1,80
117,193,21062,2,0,L|199:194,1,80
236,187,21321,1,0,0:0:0:0:
273,172,21407,5,0,0:0:0:0:
298,141,21493,1,0,0:0:0:0:
303,101,21579,1,0,0:0:0:0:
286,64,21665,1,0,0:0:0:0:
252,41,21752,1,0,0:0:0:0:
212,43,21838,1,0,0:0:0:0:
183,70,21924,1,0,0:0:0:0:
167,106,22010,1,0,0:0:0:0:
172,189,22096,6,0,L|245:149,1,80
437,195,22441,2,0,L|364:235,1,80
266,220,22700,1,0,0:0:0:0:
266,220,22786,2,0,L|195:258,1,80
225,60,23131,1,0,0:0:0:0:
42,141,23303,1,0,0:0:0:0:
155,155,23476,5,0,0:0:0:0:
90,343,23648,1,0,0:0:0:0:
280,281,23821,2,0,P|320:272|353:241,1,80
364,210,24079,1,0,0:0:0:0:
368,170,24165,1,0,0:0:0:0:
358,130,24252,1,0,0:0:0:0:
337,96,24338,1,0,0:0:0:0:
202,182,24510,1,0,0:0:0:0:
93,63,24683,1,0,0:0:0:0:
277,115,24855,6,0,P|299:155|301:201,1,80
101,181,25200,2,0,P|106:220|126:254,1,80
277,115,25545,2,0,P|299:155|301:201,1,80
202,182,25890,1,0,0:0:0:0:
321,341,26062,1,0,0:0:0:0:
321,341,26234,6,0,L|394:303,1,80
469,119,26579,1,0,0:0:0:0:
269,141,26752,1,0,0:0:0:0:
237,165,26838,1,0,0:0:0:0:
201,183,26924,1,0,0:0:0:0:
162,191,27010,1,0,0:0:0:0:
122,195,27096,1,0,0:0:0:0:
159,38,27269,1,0,0:0:0:0:
304,102,27441,1,0,0:0:0:0:
486,186,27614,6,0,P|441:200|411:228,1,80
246,115,27959,2,0,P|213:88|199:42,1,80
255,245,28303,2,0,P|222:272|208:318,1,80
83,149,28648,1,0,0:0:0:0:
280,111,28821,1,0,0:0:0:0:
72,338,28993,5,0,0:0:0:0:
263,281,29165,1,0,0:0:0:0:
67,236,29338,2,0,P|111:219|140:188,1,80
154,161,29596,1,0,0:0:0:0:
168,123,29683,1,0,0:0:0:0:
173,83,29769,1,0,0:0:0:0:
165,43,29855,1,0,0:0:0:0:
339,141,30028,2,0,P|379:127|424:128,1,80
93,290,30372,5,0,0:0:0:0:
258,177,30545,1,0,0:0:0:0:
178,300,30717,1,0,0:0:0:0:
366,230,30890,1,0,0:0:0:0:
259,323,31062,1,0,0:0:0:0:
457,306,31234,1,0,0:0:0:0:
259,323,31407,1,0,0:0:0:0:
386,62,31579,1,0,0:0:0:0:
102,79,31752,6,0,P|76:112|75:164,1,80
210,308,32096,1,0,0:0:0:0:
198,107,32269,1,0,0:0:0:0:
228,132,32355,1,0,0:0:0:0:
264,148,32441,1,0,0:0:0:0:
304,152,32528,1,0,0:0:0:0:
342,142,32614,1,0,0:0:0:0:
461,302,32786,2,0,P|420:318|377:321,1,80
140,290,33131,6,0,L|81:226,1,80
210,130,33476,2,0,L|187:47,1,80
348,152,33821,2,0,L|371:69,1,80
418,312,34165,2,0,L|477:248,1,80
474,212,34424,1,0,0:0:0:0:
462,173,34510,6,0,L|391:117,1,80
267,215,34855,1,0,0:0:0:0:
286,55,35028,1,0,0:0:0:0:
149,137,35200,1,0,0:0:0:0:
51,10,35372,1,0,0:0:0:0:
69,169,35545,2,0,P|61:213|41:248,1,80
253,339,35890,6,0,P|246:295|265:256,1,80
259,45,36234,2,0,P|266:89|247:128,1,80
396,193,36579,1,0,0:0:0:0:
116,193,36752,1,0,0:0:0:0:
259,263,36924,2,0,P|284:232|331:218,1,80
360,214,37183,1,0,0:0:0:0:
399,220,37269,6,0,P|446:214|475:185,1,80
409,140,37614,1,0,0:0:0:0:
284,39,37786,1,0,0:0:0:0:
272,199,37959,1,0,0:0:0:0:
366,70,38131,1,0,0:0:0:0:
206,74,38303,1,0,0:0:0:0:
206,74,38648,5,0,0:0:0:0:
102,246,38821,1,0,0:0:0:0:
294,194,38993,1,0,0:0:0:0:
127,84,39165,1,0,0:0:0:0:
223,304,39338,1,0,0:0:0:0:
285,72,39510,1,0,0:0:0:0:
66,172,39683,1,0,0:0:0:0:
302,207,39855,1,0,0:0:0:0:
95,330,40028,5,0,0:0:0:0:
363,252,40200,1,0,0:0:0:0:
143,79,40372,1,0,0:0:0:0:
249,339,40545,1,0,0:0:0:0:
394,100,40717,1,0,0:0:0:0:
131,199,40890,1,0,0:0:0:0:
397,284,41062,1,0,0:0:0:0:
292,24,41234,1,0,0:0:0:0:
95,42,41407,5,0,0:0:0:0:
101,89,41493,1,0,0:0:0:0:
88,135,41579,1,0,0:0:0:0:
65,177,41665,1,0,0:0:0:0:
59,225,41752,1,0,0:0:0:0:
74,270,41838,1,0,0:0:0:0:
109,301,41924,1,0,0:0:0:0:
154,316,42010,1,0,0:0:0:0:
201,316,42096,5,0,0:0:0:0:
246,298,42183,1,0,0:0:0:0:
275,260,42269,1,0,0:0:0:0:
277,212,42355,1,0,0:0:0:0:
258,167,42441,1,0,0:0:0:0:
260,118,42528,1,0,0:0:0:0:
293,83,42614,1,0,0:0:0:0:
339,70,42700,1,0,0:0:0:0:
392,84,42786,5,0,0:0:0:0:
424,129,42872,1,0,0:0:0:0:
418,185,42959,1,0,0:0:0:0:
385,230,43045,1,0,0:0:0:0:
334,254,43131,1,0,0:0:0:0:
278,246,43217,1,0,0:0:0:0:
231,214,43303,1,0,0:0:0:0:
174,210,43390,1,0,0:0:0:0:
136,251,43476,5,0,0:0:0:0:
142,306,43562,1,0,0:0:0:0:
186,340,43648,1,0,0:0:0:0:
241,343,43734,1,0,0:0:0:0:
348,276,43821,6,0,L|382:231,1,40
273,175,43993,2,0,L|239:220,1,40
110,105,44165,6,0,P|79:163|82:230,1,120.000004577637
318,238,44510,2,0,P|349:180|346:113,1,120.000004577637
209,170,44855,1,0,0:0:0:0:
418,51,45028,1,0,0:0:0:0:
318,238,45200,1,0,0:0:0:0:
203,27,45372,1,0,0:0:0:0:
68,167,45545,6,0,P|111:212|136:276,1,120.000004577637
299,89,45890,2,0,P|358:114|426:110,1,120.000004577637
274,308,46234,1,0,0:0:0:0:
228,71,46407,1,0,0:0:0:0:
442,178,46579,2,0,B|395:204|369:166|312:202,1,120.000004577637
192,319,46924,6,0,P|160:272|97:245,1,120.000004577637
326,153,47269,2,0,P|271:128|238:79,1,120.000004577637
329,302,47614,2,0,L|233:217,1,120.000004577637
471,160,47959,1,0,0:0:0:0:
239,222,48131,1,0,0:0:0:0:
239,222,48303,6,0,P|182:189|121:192,1,120.000004577637
342,77,48648,2,0,P|399:110|460:107,1,120.000004577637
337,321,48993,1,0,0:0:0:0:
230,106,49165,1,0,0:0:0:0:
462,152,49338,2,0,B|386:180|445:194|356:228,1,120.000004577637
253,312,49683,5,0,0:0:0:0:
147,96,49855,1,0,0:0:0:0:
253,312,50028,5,0,0:0:0:0:
255,72,50200,1,0,0:0:0:0:
253,312,50372,5,0,0:0:0:0:
365,96,50545,1,0,0:0:0:0:
253,312,50717,2,0,P|190:308|135:333,1,120.000004577637
251,70,51062,6,0,P|196:93|137:89,1,120.000004577637
283,244,51407,2,0,P|275:187|307:128,1,120.000004577637
99,262,51752,2,0,P|107:205|75:146,1,120.000004577637
191,193,52096,1,0,0:0:0:0:
191,193,52269,1,0,0:0:0:0:
400,308,52441,6,0,P|419:250|470:206,1,120.000004577637
400,308,52786,2,0,P|387:248|409:184,1,120.000004577637
400,308,53131,2,0,P|359:262|346:196,1,120.000004577637
124,111,53476,1,0,0:0:0:0:
466,199,53648,1,0,0:0:0:0:
351,43,53821,5,0,0:0:0:0:
156,182,53993,1,0,0:0:0:0:
391,223,54165,1,0,0:0:0:0:
230,43,54338,1,0,0:0:0:0:
225,282,54424,1,0,0:0:0:0:
225,282,54510,2,0,P|268:241|282:178,1,120.000004577637
97,29,54855,2,0,P|54:70|40:133,1,120.000004577637
282,183,55200,6,0,P|267:241|225:282,1,120.000004577637
131,165,55545,1,0,0:0:0:0:
350,68,55717,1,0,0:0:0:0:
345,308,55890,1,0,0:0:0:0:
194,36,56062,1,0,0:0:0:0:
395,164,56234,2,0,P|407:224|444:272,1,120.000004577637
248,126,56579,6,0,P|236:66|199:18,1,120.000004577637
247,256,56924,2,0,P|292:215|316:159,1,120.000004577637
134,321,57269,2,0,P|191:340|252:332,1,120.000004577637
116,132,57614,1,0,0:0:0:0:
249,333,57786,1,0,0:0:0:0:
411,98,57959,5,0,0:0:0:0:
171,94,58131,1,0,0:0:0:0:
411,98,58303,5,0,0:0:0:0:
207,225,58476,1,0,0:0:0:0:
411,98,58648,5,0,0:0:0:0:
325,323,58821,1,0,0:0:0:0:
411,98,58993,2,0,P|349:107|292:79,1,120.000004577637
325,323,59338,6,0,P|263:314|206:342,1,120.000004577637
228,96,59683,2,0,P|166:105|109:77,1,120.000004577637
79,320,60028,1,0,0:0:0:0:
256,159,60200,1,0,0:0:0:0:
211,293,60372,1,0,0:0:0:0:
437,211,60545,1,0,0:0:0:0:
211,293,60717,6,0,P|174:340|116:353,1,120.000004577637
232,141,61062,2,0,P|209:85|227:28,1,120.000004577637
351,235,61407,2,0,P|410:243|450:287,1,120.000004577637
369,323,61752,1,0,0:0:0:0:
283,76,61924,1,0,0:0:0:0:
283,76,62096,5,0,0:0:0:0:
62,172,62269,1,0,0:0:0:0:
294,115,62441,1,0,0:0:0:0:
54,140,62614,1,0,0:0:0:0:
292,160,62786,2,0,B|325:207|351:179|388:227,1,120.000004577637
159,302,63131,1,0,0:0:0:0:
388,227,63303,1,0,0:0:0:0:
187,94,63476,6,0,B|176:126|110:143|110:143|147:162,1,120.000004577637
365,215,63821,2,0,B|376:183|442:166|442:166|405:147,1,120.000004577637
203,257,64165,1,0,0:0:0:0:
350,67,64338,1,0,0:0:0:0:
175,230,64510,1,0,0:0:0:0:
376,98,64683,1,0,0:0:0:0:
283,168,64855,6,0,L|254:143,4,30.0000011444092
45,130,65200,5,0,0:0:0:0:
215,298,65372,1,0,0:0:0:0:
215,298,65459,1,0,0:0:0:0:
215,298,65545,1,0,0:0:0:0:
246,60,65717,5,0,0:0:0:0:
303,74,65803,1,0,0:0:0:0:
348,113,65890,1,0,0:0:0:0:
384,160,65976,1,0,0:0:0:0:
409,214,66062,1,0,0:0:0:0:
424,271,66148,1,0,0:0:0:0:
400,321,66234,6,0,P|367:289|321:283,1,80
294,275,66493,1,0,0:0:0:0:
254,271,66579,2,0,P|215:260|188:231,1,80
72,106,66924,1,0,0:0:0:0:
220,47,67096,1,0,0:0:0:0:
191,204,67269,1,0,0:0:0:0:
72,106,67441,1,0,0:0:0:0:
307,57,67614,6,0,P|332:92|373:108,1,80
303,255,67959,2,0,P|278:220|237:204,1,80
169,345,68303,1,0,0:0:0:0:
179,184,68476,1,0,0:0:0:0:
98,321,68648,1,0,0:0:0:0:
52,167,68821,1,0,0:0:0:0:
308,49,68993,6,0,P|343:74|381:78,2,80
284,207,69510,1,0,0:0:0:0:
233,54,69683,1,0,0:0:0:0:
200,210,69855,1,0,0:0:0:0:
46,162,70028,1,0,0:0:0:0:
255,332,70200,5,0,0:0:0:0:
412,308,70372,2,0,P|386:274|383:236,1,80
226,200,70717,2,0,P|239:162|229:119,1,80
391,126,71062,2,0,P|396:86|428:56,1,80
476,123,71407,1,0,0:0:0:0:
346,216,71579,1,0,0:0:0:0:
468,319,71752,5,0,0:0:0:0:
308,322,71924,1,0,0:0:0:0:
409,198,72096,2,0,P|375:173|351:130,1,80
194,147,72441,2,0,P|228:172|252:215,1,80
108,282,72786,1,0,0:0:0:0:
268,271,72959,1,0,0:0:0:0:
85,113,73131,6,0,P|128:106|165:82,1,80
318,74,73476,2,0,P|295:112|297:149,1,80
451,186,73821,2,0,P|474:148|472:111,1,80
380,127,74165,1,0,0:0:0:0:
387,287,74338,1,0,0:0:0:0:
138,329,74510,6,0,L|59:294,1,80
191,198,74855,2,0,L|137:129,1,80
302,138,75200,2,0,L|296:49,1,80
439,131,75545,2,0,L|464:49,1,80
368,184,75890,5,0,0:0:0:0:
242,282,76062,1,0,0:0:0:0:
395,325,76234,1,0,0:0:0:0:
288,204,76407,1,0,0:0:0:0:
336,51,76579,5,0,0:0:0:0:
299,67,76665,1,0,0:0:0:0:
267,92,76752,1,0,0:0:0:0:
240,121,76838,1,0,0:0:0:0:
219,155,76924,1,0,0:0:0:0:
203,191,77010,1,0,0:0:0:0:
194,229,77096,1,0,0:0:0:0:
190,269,77183,1,0,0:0:0:0:
189,308,77269,6,0,P|231:294|273:294,1,80
367,168,77614,2,0,P|325:182|283:182,1,80
307,23,77959,1,0,0:0:0:0:
170,105,78131,1,0,0:0:0:0:
329,106,78303,1,0,0:0:0:0:
265,253,78476,1,0,0:0:0:0:
86,80,78648,6,0,L|169:66,1,80
312,129,78993,2,0,L|229:143,1,80
116,252,79338,2,0,L|199:238,1,80
338,309,79683,2,0,L|259:322,1,80
437,114,80028,6,0,P|394:124|352:121,1,80
303,272,80372,1,0,0:0:0:0:
253,119,80545,1,0,0:0:0:0:
162,250,80717,2,0,P|119:260|77:257,1,80
100,98,81062,1,0,0:0:0:0:
246,161,81234,1,0,0:0:0:0:
352,40,81407,5,0,0:0:0:0:
462,155,81579,1,0,0:0:0:0:
352,40,81752,1,0,0:0:0:0:
332,198,81924,1,0,0:0:0:0:
228,76,82096,2,0,P|179:72|146:53,2,80
468,44,82614,1,0,0:0:0:0:
254,241,82786,5,0,0:0:0:0:
120,151,82959,1,0,0:0:0:0:
278,136,83131,2,0,P|321:128|360:98,1,80
338,268,83476,2,0,P|371:246|410:240,1,80
492,102,83821,1,0,0:0:0:0:
354,182,83993,1,0,0:0:0:0:
179,45,84165,5,0,0:0:0:0:
154,203,84338,1,0,0:0:0:0:
292,281,84510,2,0,P|286:240|306:197,1,80
457,173,84855,2,0,P|463:214|443:257,1,80
372,224,85200,1,0,0:0:0:0:
372,64,85372,1,0,0:0:0:0:
128,215,85545,5,0,0:0:0:0:
263,130,85717,1,0,0:0:0:0:
257,290,85890,1,0,0:0:0:0:
163,113,86062,1,0,0:0:0:0:
328,224,86234,1,0,0:0:0:0:
138,289,86407,1,0,0:0:0:0:
283,99,86579,1,0,0:0:0:0:
356,328,86752,1,0,0:0:0:0:
255,192,86924,5,0,0:0:0:0:
256,192,87010,12,0,87614,0:0:0:0:
416,92,87786,5,0,0:0:0:0:
255,79,87959,1,0,0:0:0:0:
255,79,88045,1,0,0:0:0:0:
255,79,88131,1,0,0:0:0:0:
170,214,88303,6,0,P|141:182|104:178,1,80
33,320,88648,2,0,P|62:352|99:356,1,80
249,306,88993,1,0,0:0:0:0:
117,216,89165,1,0,0:0:0:0:
275,243,89338,1,0,0:0:0:0:
140,156,89510,1,0,0:0:0:0:
417,68,89683,5,0,0:0:0:0:
323,197,89855,1,0,0:0:0:0:
277,43,90028,1,0,0:0:0:0:
421,110,90200,1,0,0:0:0:0:
172,103,90372,2,0,L|254:139,1,80
379,223,90717,2,0,L|297:259,1,80
372,109,91062,6,0,P|414:103|453:80,1,80
322,187,91407,2,0,P|363:195|408:187,1,80
246,235,91752,2,0,P|282:257|326:264,1,80
161,291,92096,1,0,0:0:0:0:
186,132,92269,1,0,0:0:0:0:
44,308,92441,5,0,0:0:0:0:
174,214,92614,1,0,0:0:0:0:
42,124,92786,1,0,0:0:0:0:
188,59,92959,1,0,0:0:0:0:
301,171,93131,2,0,P|335:141|376:129,1,80
451,266,93476,2,0,P|417:296|376:308,1,80
383,220,93821,5,0,0:0:0:0:
247,304,93993,1,0,0:0:0:0:
362,194,94165,1,0,0:0:0:0:
202,215,94338,1,0,0:0:0:0:
349,153,94510,1,0,0:0:0:0:
190,127,94683,1,0,0:0:0:0:
348,105,94855,1,0,0:0:0:0:
200,41,95028,1,0,0:0:0:0:
442,64,95200,6,0,P|459:108|456:151,2,80
291,118,95717,1,0,0:0:0:0:
142,178,95890,2,0,P|125:134|128:91,2,80
291,118,96407,1,0,0:0:0:0:
400,234,96579,6,0,L|336:284,1,80
307,125,96924,2,0,L|272:202,1,80
200,54,97269,2,0,L|186:144,1,80
82,12,97614,2,0,L|90:105,1,80
32,329,97959,5,0,0:0:0:0:
221,268,98131,1,0,0:0:0:0:
73,133,98303,1,0,0:0:0:0:
32,329,98476,1,0,0:0:0:0:
107,233,98562,1,0,0:0:0:0:
107,233,98648,2,0,L|164:157,1,80
352,136,98993,2,0,L|295:212,1,80
168,348,99338,5,0,0:0:0:0:
335,240,99510,1,0,0:0:0:0:
142,182,99683,1,0,0:0:0:0:
297,306,99855,1,0,0:0:0:0:
275,106,100028,2,0,P|312:92|351:51,1,80
414,251,100372,2,0,P|443:224|480:210,1,80
249,304,100717,6,0,P|216:279|161:274,1,80
314,186,101062,2,0,P|272:180|222:204,1,80
76,193,101407,2,0,P|117:187|167:211,1,80
79,58,101752,2,0,P|117:74|148:119,1,80
384,68,102096,5,0,0:0:0:0:
235,202,102269,1,0,0:0:0:0:
405,105,102441,1,0,0:0:0:0:
213,164,102614,1,0,0:0:0:0:
408,149,102786,1,0,0:0:0:0:
210,120,102959,1,0,0:0:0:0:
396,192,103131,2,0,P|396:237|413:267,1,80
230,181,103476,6,0,P|230:136|213:106,1,80
19,54,103821,2,0,P|19:99|36:129,1,80
198,243,104165,1,0,0:0:0:0:
198,243,104338,1,0,0:0:0:0:
150,49,104510,1,0,0:0:0:0:
150,49,104683,1,0,0:0:0:0:
190,244,104855,6,0,P|231:219|266:216,2,80
261,313,105372,1,0,0:0:0:0:
202,121,105545,2,0,P|161:146|126:149,2,80
131,52,106062,1,0,0:0:0:0:
423,69,106234,5,0,0:0:0:0:
236,143,106407,1,0,0:0:0:0:
434,162,106579,1,0,0:0:0:0:
319,327,106752,1,0,0:0:0:0:
279,131,106924,1,0,0:0:0:0:
420,272,107096,1,0,0:0:0:0:
221,245,107269,1,0,0:0:0:0:
360,101,107441,1,0,0:0:0:0:
266,339,107614,6,0,L|214:333,3,40
224,233,107959,2,0,L|183:203,3,40
241,123,108303,2,0,L|212:87,3,40
311,60,108648,2,0,L|302:16,3,40
474,129,108993,6,0,L|422:145,1,40
406,256,109165,2,0,L|360:218,1,40
279,304,109338,2,0,L|257:257,1,40
142,272,109510,2,0,L|141:230,1,40
58,143,109683,1,0,0:0:0:0:
58,143,110028,1,0,0:0:0:0:
244,71,110200,1,0,0:0:0:0:
58,143,110372,5,0,0:0:0:0:
244,294,110545,1,0,0:0:0:0:
153,72,110717,2,0,P|213:94|276:80,1,120.000004577637
357,306,111062,2,0,P|297:284|234:298,1,120.000004577637
153,72,111407,2,0,P|213:94|276:80,1,120.000004577637
210,216,111752,5,0,0:0:0:0:
433,130,111924,1,0,0:0:0:0:
209,44,112096,1,0,0:0:0:0:
306,264,112269,1,0,0:0:0:0:
396,42,112441,2,0,P|342:75|278:83,1,120.000004577637
254,322,112786,2,0,P|308:289|372:281,1,120.000004577637
190,192,113131,5,0,0:0:0:0:
429,192,113303,1,0,0:0:0:0:
429,193,113476,2,0,P|467:246|467:305,1,120.000004577637
190,192,113821,2,0,P|152:139|152:80,1,120.000004577637
363,194,114165,2,0,P|401:141|401:82,1,120.000004577637
281,122,114510,5,0,0:0:0:0:
167,334,114683,1,0,0:0:0:0:
373,213,114855,1,0,0:0:0:0:
132,212,115028,1,0,0:0:0:0:
328,348,115200,2,0,P|279:315|266:249,1,120.000004577637
362,254,115545,1,0,0:0:0:0:
362,254,115717,1,0,0:0:0:0:
191,84,115890,6,0,P|126:89|61:138,1,120.000004577637
321,84,116234,2,0,P|386:89|451:138,1,120.000004577637
172,192,116579,2,0,P|118:228|86:303,1,120.000004577637
340,192,116924,2,0,P|393:228|425:303,1,120.000004577637
184,327,117269,6,0,P|127:309|81:263,1,120.000004577637
328,327,117614,2,0,P|385:309|431:263,1,120.000004577637
198,193,117959,2,0,P|157:148|140:86,1,120.000004577637
314,193,118303,2,0,P|354:148|371:86,1,120.000004577637
127,156,118648,5,0,0:0:0:0:
330,304,118820,1,0,0:0:0:0:
253,64,118993,1,0,0:0:0:0:
174,304,119166,1,0,0:0:0:0:
379,155,119338,1,0,0:0:0:0:
127,156,119510,1,0,0:0:0:0:
330,304,119682,1,0,0:0:0:0:
253,64,119855,1,0,0:0:0:0:
189,296,120028,6,0,P|131:289|74:244,1,120.000004577637
168,194,120372,1,0,0:0:0:0:
389,100,120545,1,0,0:0:0:0:
389,100,120631,1,0,0:0:0:0:
389,100,120717,1,0,0:0:0:0:
390,340,120890,1,0,0:0:0:0:
263,136,121062,2,0,P|227:132|201:140,1,60.0000022888184
170,149,121234,1,0,0:0:0:0:
140,170,121321,1,0,0:0:0:0:
121,200,121407,5,0,0:0:0:0:
306,309,121579,1,0,0:0:0:0:
67,341,121752,2,0,P|125:326|174:283,1,120.000004577637
445,341,122096,2,0,P|387:326|338:283,1,120.000004577637
254,63,122441,1,0,0:0:0:0:
256,303,122614,1,0,0:0:0:0:
409,192,122786,5,0,0:0:0:0:
189,93,122959,1,0,0:0:0:0:
409,192,123131,2,0,P|352:215|313:259,1,120.000004577637
459,66,123476,2,0,P|398:64|340:93,1,120.000004577637
207,285,123821,1,0,0:0:0:0:
102,69,123993,1,0,0:0:0:0:
272,137,124165,6,0,P|330:143|395:117,1,120.000004577637
252,321,124510,2,0,P|307:300|367:306,1,120.000004577637
272,137,124855,2,0,P|330:143|395:117,1,120.000004577637
168,222,125200,1,0,0:0:0:0:
405,248,125372,1,0,0:0:0:0:
201,119,125545,6,0,B|160:103|116:107|116:107|148:98|156:79,1,120.000004577637
332,244,125890,2,0,B|373:260|417:256|417:256|385:265|377:284,1,120.000004577637
147,271,126234,1,0,0:0:0:0:
346,136,126407,1,0,0:0:0:0:
107,118,126579,2,0,P|160:152|220:151,1,120.000004577637
354,98,126924,5,0,0:0:0:0:
263,319,127096,1,0,0:0:0:0:
131,117,127269,1,0,0:0:0:0:
363,174,127441,1,0,0:0:0:0:
78,273,127614,1,0,0:0:0:0:
259,34,127786,1,0,0:0:0:0:
373,312,127959,1,0,0:0:0:0:
139,124,128131,1,0,0:0:0:0:
367,168,128303,5,0,0:0:0:0:
335,204,128389,1,0,0:0:0:0:
298,235,128476,1,0,0:0:0:0:
256,259,128562,1,0,0:0:0:0:
210,274,128648,1,0,0:0:0:0:
162,270,128734,1,0,0:0:0:0:
123,241,128820,1,0,0:0:0:0:
106,195,128907,1,0,0:0:0:0:
109,135,128993,5,0,0:0:0:0:
149,90,129079,1,0,0:0:0:0:
206,73,129165,1,0,0:0:0:0:
263,90,129251,1,0,0:0:0:0:
291,143,129338,1,0,0:0:0:0:
337,180,129424,1,0,0:0:0:0:
396,182,129510,1,0,0:0:0:0:
438,139,129596,1,0,0:0:0:0:
429,79,129683,5,0,1:1:0:0:
177,226,130028,5,0,1:1:0:0:
282,50,130372,5,0,1:1:0:0:
343,308,130717,5,0,1:1:0:0:
256,192,131062,12,0,131752,1:1:0:0:
88,108,131924,5,0,1:1:0:0:
243,94,132096,1,0,1:1:0:0:
243,94,132183,1,0,1:1:0:0:
243,94,132269,1,0,1:1:0:0:
187,239,132441,1,0,1:1:0:0:
