osu file format v14

[General]
AudioFilename: audio.mp3
AudioLeadIn: 0
PreviewTime: 66677
Countdown: 0
SampleSet: Soft
StackLeniency: 0.7
Mode: 2
LetterboxInBreaks: 0
WidescreenStoryboard: 1

[Editor]
Bookmarks: 31105,66762,132591,154534
DistanceSpacing: 0.5
BeatDivisor: 4
GridSize: 8
TimelineZoom: 2.3

[Metadata]
Title:Mountains (feat. Veela)
TitleUnicode:Mountains (feat. Veela)
Artist:Rameses B
ArtistUnicode:Rameses B
Creator:Dapulezatos
Version:Is It Worth It?
Source:
Tags:electronic english dnb d&b drum and bass edm monstercat fa featured artist mappers guild mpg 3 digit catch world cup 2022 3dcwc2022 ro16 round of 16 sixteen dt1 doubletime1 double time dapu dapuluous
BeatmapID:3711550
BeatmapSetID:1809578

[Difficulty]
HPDrainRate:5
CircleSize:4
OverallDifficulty:8.5
ApproachRate:8.5
SliderMultiplier:1.9
SliderTickRate:2

[Events]
//Background and Video events
0,0,"pexels-pixabay-417173.jpg",0,0
//Break Periods
2,110991,120591
2,138762,153505
//Storyboard Layer 0 (Background)
//Storyboard Layer 1 (Fail)
//Storyboard Layer 2 (Pass)
//Storyboard Layer 3 (Foreground)
//Storyboard Layer 4 (Overlay)
//Storyboard Sound Samples

[TimingPoints]
249,342.857142857143,4,2,1,35,1,0
934,-100,4,2,1,35,0,0
11906,-90.9090909090909,4,2,1,35,0,0
22877,342.857142857143,4,2,1,50,1,0
33848,-100,4,2,2,50,0,0
41391,-100,4,2,1,50,0,0
44819,-100,4,2,1,50,0,0
65391,-100,4,2,1,50,0,0
66762,-100,4,2,2,70,0,1
77048,-100,4,2,1,70,0,1
77734,-100,4,2,2,70,0,1
85962,-100,4,2,1,50,0,1
87334,-100,4,2,1,50,0,0
88705,-100,4,2,2,50,0,0
121619,-100,4,2,1,50,0,0
176477,-100,4,2,2,50,0,0
199448,-100,4,2,2,70,0,1
217277,-100,4,2,1,70,0,1
217619,-100,4,2,1,50,0,0
242305,-100,4,2,2,60,0,0
258762,-100,4,2,1,50,0,0
265619,-100,4,2,1,40,0,0
266991,-100,4,2,1,30,0,0
268362,-100,4,2,1,20,0,0
269734,-100,4,2,1,10,0,0

[Colours]
Combo1 : 23,119,189
Combo2 : 50,140,190
Combo3 : 190,180,185

[HitObjects]
40,192,249,5,0,0:0:0:0:
40,192,591,1,0,0:0:0:0:
320,192,934,1,2,0:0:0:0:
256,192,1277,12,0,10877,0:0:0:0:
256,192,11220,5,2,0:0:0:0:
256,192,11563,2,0,L|256:288,1,95,2|0,0:0|0:0,0:0:0:0:
120,56,11906,2,0,L|120:160,1,104.500003189087,2|0,0:0|0:0,0:0:0:0:
248,56,12249,2,0,L|248:160,1,104.500003189087,2|0,0:0|0:0,0:0:0:0:
376,56,12591,6,0,L|376:168,1,104.500003189087,2|0,0:0|0:0,0:0:0:0:
216,208,12934,2,0,L|112:208,2,104.500003189087,2|0|2,0:0|0:0|0:0,0:0:0:0:
376,248,13449,2,0,L|480:248,2,104.500003189087,0|2|0,0:0|0:0|0:0,0:0:0:0:
216,208,13963,6,0,L|88:208,2,104.500003189087,2|0|2,0:0|0:0|0:0,0:0:0:0:
376,208,14477,2,0,B|464:264|464:264|376:328,1,209.000006378174,2|0,0:0|0:0,0:0:0:0:
104,88,15163,2,0,L|104:304,1,209.000006378174,2|0,0:0|0:0,0:0:0:0:
408,88,15849,2,0,L|232:208,2,209.000006378174,2|0|2,0:0|0:0|0:0,0:0:0:0:
144,192,16706,6,0,P|72:248|144:312,1,209.000006378174,2|0,0:0|0:0,0:0:0:0:
416,192,17391,2,0,P|488:248|416:312,1,209.000006378174,2|0,0:0|0:0,0:0:0:0:
128,40,18077,6,0,L|24:40,1,104.500003189087,2|0,0:0|0:0,0:0:0:0:
288,120,18591,2,0,L|184:120,1,104.500003189087,2|0,0:0|0:0,0:0:0:0:
496,192,19277,1,2,0:0:0:0:
128,64,19791,6,0,P|48:128|232:264,1,418.000012756348,2|2,0:0|0:0,0:0:0:0:
424,104,20991,2,0,L|104:104,1,313.500009567261,2|2,0:0|0:0,0:0:0:0:
320,104,21849,1,2,0:0:0:0:
168,104,22020,6,0,B|64:104|64:104|64:320,1,313.500009567261,2|0,0:0|0:0,0:0:0:0:
496,88,22877,1,4,0:0:0:0:
200,88,23219,1,2,0:0:0:0:
200,160,23391,1,0,0:0:0:0:
200,232,23561,1,0,0:0:0:0:
432,192,23905,1,2,0:0:0:0:
144,40,24248,6,0,L|336:40,1,190,0|2,0:0|0:0,0:0:0:0:
96,168,24934,2,0,L|24:248,2,95,0|0|2,0:0|0:0|0:0,0:0:0:0:
392,128,25619,6,0,P|456:184|392:248,1,190,0|2,0:0|0:0,0:0:0:0:
256,192,26134,1,0,0:0:0:0:
392,128,26305,2,0,L|392:256,1,95
248,136,26648,6,0,P|184:192|248:256,1,190,2|0,0:0|0:0,0:0:0:0:
472,256,27334,1,2,0:0:0:0:
184,80,27677,1,0,0:0:0:0:
280,72,27848,1,0,0:0:0:0:
376,64,28019,1,2,0:0:0:0:
96,192,28362,6,0,B|96:288|96:288|192:288,1,190,0|2,0:0|0:0,0:0:0:0:
304,288,28877,1,0,0:0:0:0:
160,56,29048,2,0,L|160:152,1,95
304,72,29391,2,0,L|416:72,1,95,2|0,0:0|0:0,0:0:0:0:
256,136,29734,6,0,L|152:136,1,95
288,192,30077,2,0,L|288:384,1,190,2|0,0:0|0:0,0:0:0:0:
488,192,30762,1,2,0:0:0:0:
88,64,31105,2,0,L|88:168,1,95
232,159,31448,1,2,0:0:0:0:
88,159,31619,1,0,0:0:0:0:
344,256,31962,1,0,0:0:0:0:
200,256,32134,1,2,0:0:0:0:
440,56,32305,5,0,0:0:0:0:
104,128,32819,2,0,L|200:128,1,95,2|0,0:0|0:0,0:0:0:0:
344,192,33162,2,0,L|344:288,1,95,2|0,0:0|0:0,0:0:0:0:
200,224,33505,2,0,L|96:224,1,95,2|0,0:0|0:0,0:0:0:0:
368,48,33848,6,0,B|368:144|368:144|264:144,1,190,4|8,0:0|0:0,0:0:0:0:
88,152,34362,1,0,0:0:0:0:
98,198,34447,1,0,0:0:0:0:
109,244,34533,1,0,0:0:0:0:
120,290,34619,1,0,0:0:0:0:
130,337,34704,1,2,0:0:0:0:
272,240,34877,2,0,L|168:240,1,95,8|0,0:0|0:0,0:0:0:0:
416,160,35219,5,2,0:0:0:0:
288,160,35391,2,0,L|160:160,1,95,0|8,0:0|0:0,0:0:0:0:
336,40,35734,1,0,0:0:0:0:
379,55,35819,1,0,0:0:0:0:
398,97,35905,1,0,0:0:0:0:
382,141,35991,1,0,0:0:0:0:
340,159,36076,1,2,0:0:0:0:
200,160,36248,2,0,L|200:264,1,95,8|0,0:0|0:0,0:0:0:0:
440,304,36591,6,0,L|248:304,1,190,2|8,0:0|0:0,0:0:0:0:
104,40,37105,1,0,0:0:0:0:
60,55,37190,1,0,0:0:0:0:
41,97,37276,1,0,0:0:0:0:
57,141,37362,1,0,0:0:0:0:
96,160,37448,2,0,L|200:160,1,95,2|8,0:0|0:0,0:0:0:0:
432,72,37791,6,0,L|312:72,2,95,0|2|0,0:0|0:0|0:0,0:0:0:0:
184,72,38305,2,0,L|72:72,1,95,8|0,0:0|0:0,0:0:0:0:
232,152,38648,1,0,0:0:0:0:
279,155,38733,1,0,0:0:0:0:
326,158,38819,1,2,0:0:0:0:
184,192,38991,2,0,L|184:296,1,95,8|0,0:0|0:0,0:0:0:0:
432,288,39334,6,0,L|240:288,1,190,2|8,0:0|0:0,0:0:0:0:
384,48,39848,1,0,0:0:0:0:
408,88,39933,1,0,0:0:0:0:
432,136,40019,1,0,0:0:0:0:
376,136,40104,1,0,0:0:0:0:
320,136,40190,1,2,0:0:0:0:
160,160,40362,2,0,L|160:264,1,95,8|0,0:0|0:0,0:0:0:0:
288,120,40705,5,2,0:0:0:0:
331,135,40790,1,0,0:0:0:0:
350,177,40876,1,0,0:0:0:0:
334,221,40962,1,0,0:0:0:0:
292,239,41047,1,8,0:0:0:0:
144,128,41219,1,0,0:0:0:0:
288,320,41391,5,2,0:0:0:0:
240,323,41476,1,2,0:0:0:0:
193,326,41562,1,2,0:0:0:0:
145,329,41648,1,2,0:0:0:0:
98,332,41733,1,2,0:0:0:0:
51,335,41819,1,2,0:0:0:0:
98,332,41905,1,2,0:0:0:0:
344,192,42077,5,4,0:0:0:0:
256,192,43277,1,2,0:0:0:0:
256,192,43791,1,2,0:0:0:0:
256,192,44134,1,0,0:0:0:0:
424,192,44477,1,2,0:0:0:0:
160,40,44819,6,0,P|104:104|168:168,1,190,4|2,0:0|0:0,0:0:0:0:
216,168,45248,1,0,0:0:0:0:
240,208,45334,1,0,0:0:0:0:
216,232,45419,1,0,0:0:0:0:
144,232,45505,1,0,0:0:0:0:
288,320,45677,1,2,0:0:0:0:
160,192,45848,2,0,L|160:288,1,95,8|0,0:0|0:0,0:0:0:0:
304,104,46191,6,0,L|408:104,2,95,2|0|8,0:0|0:0|0:0,0:0:0:0:
48,112,46877,2,0,L|48:216,1,95,0|2,0:0|0:0,0:0:0:0:
192,144,47219,2,0,L|88:144,1,95,8|0,0:0|0:0,0:0:0:0:
328,192,47562,6,0,P|392:248|328:304,1,190,0|8,0:0|0:0,0:0:0:0:
232,192,48077,1,0,0:0:0:0:
368,48,48248,2,0,L|368:144,1,95,0|2,0:0|0:0,0:0:0:0:
256,48,48591,2,0,L|160:48,1,95,8|0,0:0|0:0,0:0:0:0:
304,128,48934,6,0,L|112:128,1,190,2|8,0:0|0:0,0:0:0:0:
304,224,49619,2,0,L|200:224,1,95,0|2,0:0|0:0,0:0:0:0:
272,184,49877,1,0,0:0:0:0:
320,184,49962,2,0,L|368:184,1,47.5,8|0,0:0|0:0,0:0:0:0:
367,184,50134,1,0,0:0:0:0:
136,192,50305,6,0,P|72:248|144:304,1,190,2|8,0:0|0:0,0:0:0:0:
280,304,50819,1,0,0:0:0:0:
176,64,50991,2,0,L|72:64,1,95,0|2,0:0|0:0,0:0:0:0:
232,128,51334,2,0,L|128:128,1,95,8|0,0:0|0:0,0:0:0:0:
296,128,51677,6,0,P|360:184|288:240,1,190,2|8,0:0|0:0,0:0:0:0:
136,192,52362,2,0,L|256:192,1,95,0|2,0:0|0:0,0:0:0:0:
80,80,52705,2,0,L|80:192,1,95,8|0,0:0|0:0,0:0:0:0:
328,80,53048,6,0,L|136:80,1,190,2|8,0:0|0:0,0:0:0:0:
178,102,53476,1,0,0:0:0:0:
195,145,53562,1,0,0:0:0:0:
179,189,53648,1,0,0:0:0:0:
136,216,53734,2,0,L|232:216,2,95,0|2|8,0:0|0:0|0:0,0:0:0:0:
280,216,54248,1,0,0:0:0:0:
144,192,54419,5,2,0:0:0:0:
99,206,54504,1,0,0:0:0:0:
80,247,54590,1,0,0:0:0:0:
96,290,54676,1,0,0:0:0:0:
139,308,54761,1,8,0:0:0:0:
288,160,54934,5,0,0:0:0:0:
305,203,55019,1,0,0:0:0:0:
297,249,55105,1,2,0:0:0:0:
265,284,55191,1,0,0:0:0:0:
220,296,55276,1,2,0:0:0:0:
80,48,55448,2,0,L|48:96,2,47.5,8|0|0,0:0|0:0|0:0,0:0:0:0:
312,48,55791,5,2,0:0:0:0:
496,192,56134,2,0,L|384:192,1,95,8|0,0:0|0:0,0:0:0:0:
248,192,56477,2,0,L|248:296,1,95,0|2,0:0|0:0,0:0:0:0:
360,296,56819,2,0,L|464:296,1,95,8|0,0:0|0:0,0:0:0:0:
208,40,57162,6,0,P|144:96|216:152,1,190,2|8,0:0|0:0,0:0:0:0:
464,160,57848,1,2,0:0:0:0:
336,160,58019,1,0,0:0:0:0:
184,240,58191,1,8,0:0:0:0:
328,240,58362,1,0,0:0:0:0:
88,48,58534,6,0,B|88:144|88:144|184:144,1,190,2|8,0:0|0:0,0:0:0:0:
296,192,59048,2,0,L|192:192,2,95,0|0|2,0:0|0:0|0:0,0:0:0:0:
160,48,59562,2,0,L|160:144,1,95,8|0,0:0|0:0,0:0:0:0:
296,176,59905,6,0,B|296:272|296:272|200:272,1,190,2|8,0:0|0:0,0:0:0:0:
96,272,60419,1,0,0:0:0:0:
248,64,60591,1,2,0:0:0:0:
288,88,60676,1,0,0:0:0:0:
248,112,60762,1,2,0:0:0:0:
376,136,60934,1,8,0:0:0:0:
432,136,61019,1,0,0:0:0:0:
432,136,61105,1,0,0:0:0:0:
376,136,61191,1,0,0:0:0:0:
184,192,61277,6,0,P|120:248|184:304,1,190,4|8,0:0|0:0,0:0:0:0:
240,304,61705,1,0,0:0:0:0:
312,296,61791,1,0,0:0:0:0:
336,240,61877,1,0,0:0:0:0:
312,192,61962,1,0,0:0:0:0:
160,192,62134,1,2,0:0:0:0:
288,72,62305,2,0,L|392:72,1,95,8|0,0:0|0:0,0:0:0:0:
144,96,62648,6,0,L|64:160,2,95,4|0|8,0:0|0:0|0:0,0:0:0:0:
296,192,63162,1,0,0:0:0:0:
152,272,63334,2,0,L|48:280,1,95,0|2,0:0|0:0,0:0:0:0:
208,168,63677,2,0,L|96:176,1,95,8|0,0:0|0:0,0:0:0:0:
376,80,64019,5,4,0:0:0:0:
419,97,64104,1,0,0:0:0:0:
445,136,64190,1,0,0:0:0:0:
446,183,64276,1,0,0:0:0:0:
421,222,64361,1,8,0:0:0:0:
248,167,64534,5,2,0:0:0:0:
203,151,64619,1,0,0:0:0:0:
156,153,64705,1,0,0:0:0:0:
113,174,64791,1,0,0:0:0:0:
82,209,64876,1,2,0:0:0:0:
232,272,65048,1,8,0:0:0:0:
96,288,65219,1,0,0:0:0:0:
344,88,65391,6,0,L|456:88,2,95,2|0|0,0:0|0:0|0:0,0:0:0:0:
152,224,66077,2,0,L|304:224,1,142.5,2|0,0:0|0:0,0:0:0:0:
224,192,66419,2,0,L|224:97,1,95,2|0,0:0|0:0,0:0:0:0:
464,128,66762,6,0,L|464:240,1,95,2|0,0:0|0:0,0:0:0:0:
216,192,67105,2,0,L|24:192,1,190,8|0,0:0|0:0,0:0:0:0:
128,240,67619,1,2,0:0:0:0:
368,192,67791,1,8,0:0:0:0:
272,48,67962,1,0,0:0:0:0:
248,80,68047,1,0,0:0:0:0:
272,112,68134,1,2,0:0:0:0:
368,112,68305,1,0,0:0:0:0:
136,224,68477,6,0,L|136:344,1,95,8|0,0:0|0:0,0:0:0:0:
184,320,68733,1,0,0:0:0:0:
232,320,68819,1,0,0:0:0:0:
328,320,68990,1,2,0:0:0:0:
96,96,69162,2,0,L|96:192,1,95,8|0,0:0|0:0,0:0:0:0:
336,80,69505,6,0,L|448:80,1,95,2|0,0:0|0:0,0:0:0:0:
384,128,69762,1,0,0:0:0:0:
240,128,69848,2,0,L|144:128,1,95,8|0,0:0|0:0,0:0:0:0:
48,192,70191,2,0,L|144:192,1,95,0|2,0:0|0:0,0:0:0:0:
384,56,70534,1,8,0:0:0:0:
403,98,70619,1,0,0:0:0:0:
392,144,70705,1,0,0:0:0:0:
361,177,70791,1,0,0:0:0:0:
315,185,70877,6,0,L|416:192,1,95,2|0,0:0|0:0,0:0:0:0:
176,296,71219,1,8,0:0:0:0:
80,336,71391,2,0,L|136:336,1,47.5
288,248,71562,1,2,0:0:0:0:
352,248,71648,2,0,L|384:304,2,47.5
192,48,71905,1,8,0:0:0:0:
144,48,71990,1,0,0:0:0:0:
96,48,72076,1,0,0:0:0:0:
344,48,72248,6,0,L|440:48,1,95,2|0,0:0|0:0,0:0:0:0:
208,168,72591,2,0,L|208:264,1,95,8|0,0:0|0:0,0:0:0:0:
352,144,72934,2,0,L|352:248,1,95,0|2,0:0|0:0,0:0:0:0:
120,192,73277,2,0,L|120:304,1,95,8|0,0:0|0:0,0:0:0:0:
352,239,73619,6,0,L|448:240,1,95,2|2,0:0|0:0,0:0:0:0:
216,160,73962,1,8,0:0:0:0:
312,160,74134,2,0,L|376:240,2,95,0|0|2,0:0|0:0|0:0,0:0:0:0:
56,256,74648,2,0,L|56:160,1,95,8|0,0:0|0:0,0:0:0:0:
288,56,74991,6,0,L|392:56,1,95,2|0,0:0|0:0,0:0:0:0:
320,96,75248,1,0,0:0:0:0:
160,160,75334,1,8,0:0:0:0:
64,232,75505,1,0,0:0:0:0:
112,232,75591,1,0,0:0:0:0:
168,232,75677,2,0,L|168:344,1,95,0|2,0:0|0:0,0:0:0:0:
400,160,76019,1,8,0:0:0:0:
400,248,76191,1,0,0:0:0:0:
168,96,76362,6,0,L|128:144,2,47.5,2|0|0,0:0|0:0|0:0,0:0:0:0:
400,24,76705,2,0,L|400:120,1,95,8|0,0:0|0:0,0:0:0:0:
256,176,77048,2,0,L|351:176,3,95,2|2|2|2,0:0|0:0|0:0|0:0,0:0:0:0:
472,264,77734,6,0,L|472:168,1,95,2|0,0:0|0:0,0:0:0:0:
216,88,78077,2,0,L|432:88,1,190,8|0,0:0|0:0,0:0:0:0:
312,144,78591,1,2,0:0:0:0:
80,192,78763,1,8,0:0:0:0:
184,192,78934,2,0,L|216:256,2,47.5,0|0|2,0:0|0:0|0:0,0:0:0:0:
80,192,79277,1,0,0:0:0:0:
312,256,79449,6,0,L|408:256,1,95,8|0,0:0|0:0,0:0:0:0:
456,256,79705,1,0,0:0:0:0:
456,304,79791,1,0,0:0:0:0:
312,256,79962,1,2,0:0:0:0:
80,256,80134,2,0,L|80:152,1,95,8|0,0:0|0:0,0:0:0:0:
312,40,80477,6,0,L|407:40,1,95,2|0,0:0|0:0,0:0:0:0:
360,80,80734,1,0,0:0:0:0:
200,80,80820,2,0,L|200:184,1,95,8|0,0:0|0:0,0:0:0:0:
296,176,81163,2,0,L|400:176,1,95,0|2,0:0|0:0,0:0:0:0:
136,88,81506,1,8,0:0:0:0:
117,130,81591,1,0,0:0:0:0:
126,176,81677,1,0,0:0:0:0:
159,209,81763,1,0,0:0:0:0:
205,217,81849,6,0,L|104:224,1,95,2|0,0:0|0:0,0:0:0:0:
344,280,82191,1,8,0:0:0:0:
440,280,82363,2,0,L|440:336,1,47.5
280,152,82534,1,0,0:0:0:0:
216,152,82620,2,0,L|192:208,2,47.5,0|2|0,0:0|0:0|0:0,0:0:0:0:
384,48,82877,1,8,0:0:0:0:
424,48,82962,1,0,0:0:0:0:
384,48,83048,1,0,0:0:0:0:
152,72,83220,6,0,L|57:72,1,95,2|0,0:0|0:0,0:0:0:0:
288,192,83563,2,0,L|288:296,1,95,8|0,0:0|0:0,0:0:0:0:
432,192,83906,2,0,L|432:296,1,95,0|2,0:0|0:0,0:0:0:0:
200,88,84249,2,0,L|96:88,1,95,8|0,0:0|0:0,0:0:0:0:
360,40,84591,6,0,P|416:72|352:152,1,190,2|8,0:0|0:0,0:0:0:0:
216,192,85105,2,0,L|312:192,2,95,0|0|2,0:0|0:0|0:0,0:0:0:0:
360,192,85620,2,0,L|360:287,1,95,8|0,0:0|0:0,0:0:0:0:
240,88,85963,6,0,L|136:88,1,95,2|0,0:0|0:0,0:0:0:0:
384,88,86305,2,0,L|384:200,1,95,8|0,0:0|0:0,0:0:0:0:
240,192,86648,2,0,L|240:288,1,95,2|0,0:0|0:0,0:0:0:0:
96,192,86991,2,0,L|96:288,1,95,8|0,0:0|0:0,0:0:0:0:
224,112,87334,6,0,L|224:224,1,95,2|2,0:0|0:0,0:0:0:0:
136,112,87591,1,2,0:0:0:0:
48,112,87677,2,0,L|48:216,1,95,2|0,0:0|0:0,0:0:0:0:
168,192,88020,1,2,0:0:0:0:
232,240,88191,1,0,0:0:0:0:
184,304,88363,1,2,0:0:0:0:
64,312,88534,1,0,0:0:0:0:
216,56,88705,6,0,L|216:160,1,95,2|0,0:0|0:0,0:0:0:0:
488,240,89048,2,0,L|280:240,1,190,8|0,0:0|0:0,0:0:0:0:
192,240,89562,1,2,0:0:0:0:
424,40,89734,6,0,P|488:96|416:152,1,190,8|2,0:0|0:0,0:0:0:0:
328,152,90248,1,0,0:0:0:0:
96,136,90419,2,0,L|96:240,1,95,8|0,0:0|0:0,0:0:0:0:
224,304,90762,2,0,L|128:304,1,95,0|2,0:0|0:0,0:0:0:0:
360,88,91105,2,0,L|464:88,1,95,8|0,0:0|0:0,0:0:0:0:
176,56,91448,6,0,P|112:104|176:168,1,190,2|8,0:0|0:0,0:0:0:0:
400,168,92134,2,0,L|400:280,1,95,0|2,0:0|0:0,0:0:0:0:
168,192,92477,1,8,0:0:0:0:
64,192,92648,2,0,L|64:304,1,95,0|2,0:0|0:0,0:0:0:0:
168,192,92991,1,0,0:0:0:0:
400,144,93162,1,8,0:0:0:0:
496,144,93334,2,0,L|496:200,1,47.5
400,200,93505,2,0,L|305:200,1,95,0|2,0:0|0:0,0:0:0:0:
72,272,93848,2,0,L|167:272,1,95,8|0,0:0|0:0,0:0:0:0:
400,72,94191,6,0,L|512:72,1,95,2|0,0:0|0:0,0:0:0:0:
264,192,94534,2,0,B|264:288|264:288|360:288,1,190,8|0,0:0|0:0,0:0:0:0:
264,288,95048,1,2,0:0:0:0:
32,288,95219,2,0,L|32:192,1,95,8|0,0:0|0:0,0:0:0:0:
264,72,95562,6,0,L|74:72,1,190,2|8,0:0|0:0,0:0:0:0:
192,112,96077,1,0,0:0:0:0:
312,160,96248,2,0,L|312:256,1,95,0|2,0:0|0:0,0:0:0:0:
80,320,96591,2,0,L|176:320,1,95,8|0,0:0|0:0,0:0:0:0:
408,192,96934,6,0,P|472:248|408:304,1,190,2|8,0:0|0:0,0:0:0:0:
112,64,97619,2,0,L|112:176,1,95,0|2,0:0|0:0,0:0:0:0:
344,192,97962,2,0,L|344:296,1,95,8|0,0:0|0:0,0:0:0:0:
112,64,98305,6,0,L|312:64,1,190,2|8,0:0|0:0,0:0:0:0:
168,136,98819,1,0,0:0:0:0:
144,168,98904,1,0,0:0:0:0:
168,208,98990,1,0,0:0:0:0:
256,208,99162,1,2,0:0:0:0:
488,80,99334,2,0,L|488:184,1,95,8|0,0:0|0:0,0:0:0:0:
256,296,99677,6,0,L|64:296,1,190,2|8,0:0|0:0,0:0:0:0:
216,176,100191,1,0,0:0:0:0:
240,208,100276,1,0,0:0:0:0:
216,232,100362,1,0,0:0:0:0:
128,232,100534,1,2,0:0:0:0:
360,48,100705,2,0,L|456:48,1,95,8|0,0:0|0:0,0:0:0:0:
216,104,101048,6,0,B|136:160|136:160|216:208,1,190,2|8,0:0|0:0,0:0:0:0:
352,224,101562,2,0,L|392:272,2,47.5
256,224,101905,1,2,0:0:0:0:
488,144,102077,2,0,L|488:48,1,95,8|0,0:0|0:0,0:0:0:0:
256,56,102419,6,0,L|56:56,1,190,2|8,0:0|0:0,0:0:0:0:
176,120,102934,1,2,0:0:0:0:
296,120,103105,2,0,L|296:232,1,95,0|2,0:0|0:0,0:0:0:0:
64,264,103448,2,0,L|160:264,1,95,8|0,0:0|0:0,0:0:0:0:
392,56,103791,6,0,B|392:152|392:152|280:152,1,190,2|8,0:0|0:0,0:0:0:0:
192,160,104305,1,0,0:0:0:0:
88,160,104477,2,0,L|88:264,1,95,0|2,0:0|0:0,0:0:0:0:
320,232,104819,2,0,L|416:232,1,95,8|0,0:0|0:0,0:0:0:0:
184,288,105162,6,0,B|88:288|88:288|88:192,1,190,2|8,0:0|0:0,0:0:0:0:
216,72,105677,1,0,0:0:0:0:
264,72,105762,1,0,0:0:0:0:
312,72,105848,1,0,0:0:0:0:
176,136,106019,1,2,0:0:0:0:
408,128,106191,2,0,L|408:232,1,95,8|0,0:0|0:0,0:0:0:0:
168,296,106534,6,0,L|368:296,1,190,2|8,0:0|0:0,0:0:0:0:
232,240,107048,1,0,0:0:0:0:
104,104,107219,2,0,L|104:208,1,95,0|2,0:0|0:0,0:0:0:0:
336,64,107562,2,0,L|240:64,1,95,8|0,0:0|0:0,0:0:0:0:
472,72,107905,6,0,L|472:176,1,95,2|0,0:0|0:0,0:0:0:0:
336,240,108248,2,0,L|440:240,1,95,8|0,0:0|0:0,0:0:0:0:
296,224,108591,2,0,L|296:112,1,95,2|2,0:0|0:0,0:0:0:0:
392,64,108934,2,0,L|296:64,1,95,8|0,0:0|0:0,0:0:0:0:
64,64,109277,6,0,L|64:176,1,95,2|8,0:0|0:0,0:0:0:0:
176,160,109619,1,0,0:0:0:0:
64,200,109791,1,8,0:0:0:0:
296,208,109962,2,0,B|504:208,1,190,8|8,0:0|0:0,0:0:0:0:
400,256,110477,1,0,0:0:0:0:
168,256,110648,5,4,0:0:0:0:
304,192,121619,6,0,P|368:248|304:304,1,190,2|8,0:0|0:0,0:0:0:0:
56,80,122305,2,0,L|56:184,1,95,0|2,0:0|0:0,0:0:0:0:
208,80,122648,2,0,L|208:176,1,95,8|0,0:0|0:0,0:0:0:0:
360,176,122991,6,0,P|424:232|360:288,1,190,2|8,0:0|0:0,0:0:0:0:
128,208,123677,2,0,L|128:304,1,95,0|2,0:0|0:0,0:0:0:0:
272,240,124019,2,0,L|368:240,1,95,8|0,0:0|0:0,0:0:0:0:
136,64,124362,6,0,P|72:120|136:176,1,190,2|8,0:0|0:0,0:0:0:0:
384,120,125048,1,0,0:0:0:0:
432,200,125219,1,2,0:0:0:0:
360,272,125391,1,8,0:0:0:0:
240,232,125562,1,0,0:0:0:0:
408,336,125734,6,0,P|408:248|320:224,1,190,2|8,0:0|0:0,0:0:0:0:
224,192,126248,1,0,0:0:0:0:
400,56,126419,2,0,L|296:56,1,95,2|0,0:0|0:0,0:0:0:0:
248,56,126677,1,2,0:0:0:0:
204,65,126762,1,2,0:0:0:0:
183,106,126848,1,2,0:0:0:0:
203,148,126934,1,2,0:0:0:0:
248,168,127019,1,2,0:0:0:0:
432,192,127105,6,0,P|488:256|432:328,1,190,4|8,0:0|0:0,0:0:0:0:
312,152,127619,1,0,0:0:0:0:
200,152,127791,2,0,P|184:200|200:248,1,95,0|2,0:0|0:0,0:0:0:0:
352,264,128134,2,0,L|256:272,1,95,8|0,0:0|0:0,0:0:0:0:
24,192,128477,6,0,L|40:96,1,95,2|0,0:0|0:0,0:0:0:0:
200,88,128819,2,0,L|328:104,1,95,8|0,0:0|0:0,0:0:0:0:
448,176,129162,2,0,L|352:192,1,95,0|2,0:0|0:0,0:0:0:0:
224,280,129505,2,0,L|320:288,1,95,8|0,0:0|0:0,0:0:0:0:
80,192,129848,6,0,L|80:96,1,95,4|0,0:0|0:0,0:0:0:0:
200,96,130191,1,0,0:0:0:0:
320,96,130362,1,2,0:0:0:0:
192,192,130534,2,0,L|120:256,2,95,8|0|2,0:0|0:0|0:0,0:0:0:0:
328,192,131048,1,2,0:0:0:0:
384,192,131134,1,0,0:0:0:0:
384,240,131219,1,2,0:0:0:0:
152,240,131391,6,0,L|72:240,1,47.5
192,328,131562,2,0,L|288:328,1,95
184,48,131905,2,0,L|88:48,1,95,8|0,0:0|0:0,0:0:0:0:
232,48,132248,2,0,L|328:48,1,95,8|0,0:0|0:0,0:0:0:0:
80,192,132591,5,4,0:0:0:0:
256,192,132934,12,0,138248,0:0:0:0:
256,192,154534,12,0,160019,0:0:0:0:
352,96,160362,6,0,L|352:192,1,95,2|0,0:0|0:0,0:0:0:0:
224,120,160705,2,0,L|224:232,1,95,2|0,0:0|0:0,0:0:0:0:
96,192,161048,2,0,L|96:304,1,95,2|0,0:0|0:0,0:0:0:0:
240,192,161391,5,2,0:0:0:0:
320,240,161562,1,0,0:0:0:0:
320,288,161734,1,2,0:0:0:0:
240,232,161905,1,0,0:0:0:0:
384,80,162077,1,2,0:0:0:0:
464,128,162248,1,0,0:0:0:0:
464,176,162420,1,2,0:0:0:0:
384,120,162591,1,0,0:0:0:0:
144,192,162762,6,0,P|80:248|144:304,1,190,2|2,0:0|0:0,0:0:0:0:
272,304,163277,2,0,L|272:192,1,95,0|2,0:0|0:0,0:0:0:0:
400,104,163619,2,0,L|264:104,2,95,0|2|0,0:0|0:0|0:0,0:0:0:0:
248,192,164134,6,0,L|152:192,2,95,2|0|2,0:0|0:0|0:0,0:0:0:0:
376,192,164648,2,0,L|376:296,1,95,0|2,0:0|0:0,0:0:0:0:
248,256,164991,2,0,L|248:368,1,95,0|2,0:0|0:0,0:0:0:0:
376,287,165334,1,0,0:0:0:0:
136,56,165505,5,4,0:0:0:0:
240,56,165677,2,2,L|280:104,2,47.5,0|0|0,0:0|0:0|0:0,0:0:0:0:
80,184,166019,1,2,0:0:0:0:
66,229,166104,1,0,0:0:0:0:
52,274,166190,1,0,0:0:0:0:
200,184,166362,1,2,0:0:0:0:
248,184,166447,1,2,0:0:0:0:
296,184,166534,1,2,0:0:0:0:
152,184,166705,1,2,0:0:0:0:
392,64,166877,5,2,0:0:0:0:
272,64,167048,1,2,0:0:0:0:
248,112,167133,1,2,0:0:0:0:
224,160,167219,1,2,0:0:0:0:
368,192,167391,2,0,L|416:192,2,47.5
224,280,167734,2,2,L|160:280,2,47.5,0|0|0,0:0|0:0|0:0,0:0:0:0:
368,192,168077,1,0,0:0:0:0:
128,56,168248,6,0,L|32:56,1,95,2|2,0:0|0:0,0:0:0:0:
33,56,168505,1,2,0:0:0:0:
33,56,168591,1,2,0:0:0:0:
176,160,168762,1,0,0:0:0:0:
232,160,168848,1,0,0:0:0:0:
288,160,168934,2,0,L|288:256,1,95
176,256,169277,1,2,0:0:0:0:
64,256,169448,1,0,0:0:0:0:
304,192,169619,5,2,0:0:0:0:
200,48,169791,2,0,L|168:96,2,47.5,0|0|2,0:0|0:0|0:0,0:0:0:0:
344,48,170134,1,0,0:0:0:0:
200,192,170305,1,2,0:0:0:0:
304,192,170477,2,0,L|304:296,1,95,0|2,0:0|0:0,0:0:0:0:
160,288,170819,1,0,0:0:0:0:
408,40,170991,5,2,0:0:0:0:
452,53,171076,1,0,0:0:0:0:
471,94,171162,1,0,0:0:0:0:
453,137,171248,1,0,0:0:0:0:
410,152,171333,1,2,0:0:0:0:
256,120,171505,1,0,0:0:0:0:
208,120,171590,1,0,0:0:0:0:
160,120,171676,1,2,0:0:0:0:
304,192,171847,1,0,0:0:0:0:
352,192,171934,1,0,0:0:0:0:
400,192,172019,2,0,L|400:288,1,95,2|0,0:0|0:0,0:0:0:0:
112,192,172362,5,2,0:0:0:0:
115,239,172447,1,0,0:0:0:0:
119,286,172533,1,0,0:0:0:0:
264,64,172705,1,2,0:0:0:0:
267,111,172790,1,0,0:0:0:0:
271,158,172876,1,0,0:0:0:0:
416,40,173048,1,2,0:0:0:0:
419,87,173133,1,0,0:0:0:0:
423,134,173219,1,0,0:0:0:0:
280,208,173391,1,2,0:0:0:0:
336,200,173476,1,0,0:0:0:0:
392,192,173562,1,0,0:0:0:0:
136,56,173734,5,2,0:0:0:0:
91,69,173819,1,0,0:0:0:0:
72,110,173905,1,0,0:0:0:0:
90,153,173991,1,0,0:0:0:0:
133,168,174076,1,0,0:0:0:0:
376,160,174248,1,2,0:0:0:0:
420,173,174333,1,0,0:0:0:0:
439,214,174419,1,0,0:0:0:0:
421,257,174505,1,0,0:0:0:0:
378,272,174590,1,0,0:0:0:0:
133,168,174762,5,2,0:0:0:0:
88,168,174847,1,0,0:0:0:0:
133,168,174933,1,0,0:0:0:0:
376,160,175105,5,4,0:0:0:0:
232,192,176134,1,2,0:0:0:0:
384,192,176305,1,2,0:0:0:0:
144,272,176477,5,2,0:0:0:0:
24,272,176648,1,2,0:0:0:0:
264,40,176819,2,0,L|264:144,1,95,8|0,0:0|0:0,0:0:0:0:
216,136,177077,1,0,0:0:0:0:
168,136,177162,1,0,0:0:0:0:
312,136,177334,1,2,0:0:0:0:
72,192,177505,2,0,L|72:288,1,95,8|0,0:0|0:0,0:0:0:0:
167,287,177848,6,0,L|63:287,1,95,2|2,0:0|0:0,0:0:0:0:
304,40,178191,2,0,L|424:40,1,95,8|0,0:0|0:0,0:0:0:0:
344,80,178448,1,0,0:0:0:0:
288,80,178534,1,0,0:0:0:0:
168,80,178705,1,2,0:0:0:0:
408,192,178877,2,0,L|272:192,1,95,8|0,0:0|0:0,0:0:0:0:
408,192,179219,6,0,L|520:192,1,95,2|2,0:0|0:0,0:0:0:0:
256,192,179562,2,0,L|152:192,1,95,8|0,0:0|0:0,0:0:0:0:
112,192,179819,1,0,0:0:0:0:
168,192,179905,1,0,0:0:0:0:
296,192,180077,1,2,0:0:0:0:
56,296,180248,6,0,L|168:296,1,95,8|0,0:0|0:0,0:0:0:0:
272,296,180591,2,0,L|376:296,1,95,2|2,0:0|0:0,0:0:0:0:
128,152,180934,1,8,0:0:0:0:
256,152,181105,2,0,L|296:104,2,47.5
128,152,181448,1,2,0:0:0:0:
360,224,181619,2,0,L|464:224,1,95,8|0,0:0|0:0,0:0:0:0:
312,192,181962,5,2,0:0:0:0:
456,192,182134,1,2,0:0:0:0:
216,280,182305,2,0,L|16:280,1,190,8|0,0:0|0:0,0:0:0:0:
120,240,182819,1,2,0:0:0:0:
368,88,182991,2,0,L|480:88,1,95,8|0,0:0|0:0,0:0:0:0:
320,168,183334,6,0,L|200:168,1,95,2|2,0:0|0:0,0:0:0:0:
464,192,183677,2,0,P|464:280|368:280,1,190,8|0,0:0|0:0,0:0:0:0:
480,296,184191,1,2,0:0:0:0:
240,192,184362,6,0,P|176:248|248:304,1,190,8|2,0:0|0:0,0:0:0:0:
336,304,184877,1,2,0:0:0:0:
96,72,185048,2,0,L|96:176,1,95,8|0,0:0|0:0,0:0:0:0:
240,64,185391,2,0,L|240:184,1,95,0|2,0:0|0:0,0:0:0:0:
480,272,185734,6,0,L|280:272,1,190,8|2,0:0|0:0,0:0:0:0:
192,272,186248,1,2,0:0:0:0:
440,48,186419,2,0,L|440:144,1,95,8|0,0:0|0:0,0:0:0:0:
368,144,186677,1,0,0:0:0:0:
296,144,186762,2,0,L|408:144,1,95,0|2,0:0|0:0,0:0:0:0:
152,192,187105,2,0,L|48:192,1,95,8|0,0:0|0:0,0:0:0:0:
200,272,187448,5,2,0:0:0:0:
56,272,187619,1,2,0:0:0:0:
304,64,187791,2,0,L|496:64,1,190,8|0,0:0|0:0,0:0:0:0:
400,96,188305,1,2,0:0:0:0:
160,192,188477,2,0,L|160:304,1,95,8|0,0:0|0:0,0:0:0:0:
304,192,188819,6,0,L|416:192,1,95,2|2,0:0|0:0,0:0:0:0:
152,112,189162,2,0,L|360:112,1,190,8|0,0:0|0:0,0:0:0:0:
440,112,189677,1,2,0:0:0:0:
200,224,189848,2,0,L|72:224,1,95,8|0,0:0|0:0,0:0:0:0:
248,312,190191,6,0,L|248:192,1,95,2|2,0:0|0:0,0:0:0:0:
488,152,190534,2,0,L|288:152,1,190,8|0,0:0|0:0,0:0:0:0:
200,152,191048,1,2,0:0:0:0:
440,40,191219,2,0,L|440:136,1,95,8|0,0:0|0:0,0:0:0:0:
296,192,191562,6,0,P|232:248|304:304,1,190,2|8,0:0|0:0,0:0:0:0:
440,304,192077,2,0,L|496:304,2,47.5
312,304,192419,1,2,0:0:0:0:
64,192,192591,2,0,L|168:192,1,95,8|0,0:0|0:0,0:0:0:0:
288,104,192934,5,2,0:0:0:0:
144,104,193105,1,2,0:0:0:0:
384,192,193277,2,0,P|448:248|376:304,1,190,8|0,0:0|0:0,0:0:0:0:
288,192,193791,1,2,0:0:0:0:
48,288,193962,2,0,L|160:288,1,95,8|0,0:0|0:0,0:0:0:0:
288,296,194305,6,0,L|400:296,1,95,2|0,0:0|0:0,0:0:0:0:
144,192,194648,2,0,L|248:192,1,95,8|0,0:0|0:0,0:0:0:0:
104,192,194991,2,0,L|104:88,1,95,2|2,0:0|0:0,0:0:0:0:
344,56,195334,2,0,L|464:56,1,95,8|0,0:0|0:0,0:0:0:0:
192,256,195677,6,0,L|80:256,3,95,2|0|8|0,0:0|0:0|0:0|0:0,0:0:0:0:
224,64,196362,2,0,L|224:176,1,95,2|0,0:0|0:0,0:0:0:0:
456,176,196705,2,0,L|360:176,1,95,8|0,0:0|0:0,0:0:0:0:
96,192,197048,5,2,0:0:0:0:
143,192,197133,1,0,0:0:0:0:
191,192,197219,1,0,0:0:0:0:
238,192,197305,1,0,0:0:0:0:
286,192,197390,1,2,0:0:0:0:
333,192,197476,1,0,0:0:0:0:
381,192,197562,1,0,0:0:0:0:
428,192,197648,1,0,0:0:0:0:
476,192,197733,1,2,0:0:0:0:
184,72,198077,5,2,0:0:0:0:
231,72,198162,1,0,0:0:0:0:
279,72,198248,1,0,0:0:0:0:
326,72,198334,1,0,0:0:0:0:
374,72,198419,1,8,0:0:0:0:
280,144,198534,1,0,0:0:0:0:
184,144,198648,1,0,0:0:0:0:
280,144,198762,1,2,0:0:0:0:
96,192,199105,2,0,L|96:296,1,95,2|0,0:0|0:0,0:0:0:0:
368,192,199448,6,0,L|176:192,1,190,8|2,0:0|0:0,0:0:0:0:
80,192,199962,1,0,0:0:0:0:
320,48,200134,1,8,0:0:0:0:
224,48,200305,1,0,0:0:0:0:
192,96,200390,1,0,0:0:0:0:
224,144,200477,1,2,0:0:0:0:
320,48,200648,1,2,0:0:0:0:
80,232,200820,6,0,L|175:232,1,95,8|0,0:0|0:0,0:0:0:0:
432,224,201162,2,0,L|432:336,1,95,2|0,0:0|0:0,0:0:0:0:
200,312,201505,2,0,L|312:312,1,95,8|0,0:0|0:0,0:0:0:0:
200,72,201848,6,0,L|200:168,1,95,2|0,0:0|0:0,0:0:0:0:
448,72,202191,2,0,L|448:176,1,95,8|0,0:0|0:0,0:0:0:0:
304,168,202534,2,0,L|408:168,1,95,2|0,0:0|0:0,0:0:0:0:
160,176,202877,1,8,0:0:0:0:
141,218,202962,1,0,0:0:0:0:
150,264,203048,1,0,0:0:0:0:
183,297,203134,1,0,0:0:0:0:
232,304,203220,6,0,L|336:304,1,95,2|2,0:0|0:0,0:0:0:0:
88,56,203562,2,0,L|88:160,1,95,8|0,0:0|0:0,0:0:0:0:
176,152,203819,1,0,0:0:0:0:
264,152,203905,1,2,0:0:0:0:
320,152,203991,1,0,0:0:0:0:
320,208,204077,1,0,0:0:0:0:
264,208,204162,1,0,0:0:0:0:
96,208,204248,2,0,L|96:304,1,95,8|0,0:0|0:0,0:0:0:0:
232,64,204591,6,0,L|336:64,1,95,2|0,0:0|0:0,0:0:0:0:
80,128,204934,2,0,L|80:232,1,95,8|0,0:0|0:0,0:0:0:0:
224,240,205277,2,0,L|328:240,1,95,2|0,0:0|0:0,0:0:0:0:
88,160,205619,2,0,L|192:160,1,95,8|0,0:0|0:0,0:0:0:0:
328,104,205962,2,0,L|200:104,1,95,2|2,0:0|0:0,0:0:0:0:
472,192,206305,2,0,L|360:192,1,95,8|0,0:0|0:0,0:0:0:0:
144,296,206648,6,0,L|48:296,1,95,2|0,0:0|0:0,0:0:0:0:
280,192,206991,2,0,L|280:288,1,95,8|0,0:0|0:0,0:0:0:0:
128,192,207334,2,0,L|128:296,1,95,2|2,0:0|0:0,0:0:0:0:
360,88,207677,1,8,0:0:0:0:
224,88,207848,1,0,0:0:0:0:
96,168,208019,5,2,0:0:0:0:
328,168,208191,2,0,L|440:168,2,95,8|0|8,0:0|0:0|0:0,0:0:0:0:
176,176,208705,2,0,L|136:224,2,47.5,0|0|2,0:0|0:0|0:0,0:0:0:0:
423,168,209048,2,0,L|423:64,1,95,8|0,0:0|0:0,0:0:0:0:
168,192,209391,5,2,0:0:0:0:
296,192,209562,1,0,0:0:0:0:
424,192,209734,1,8,0:0:0:0:
296,128,209905,2,0,L|248:176,1,47.5,2|0,0:0|0:0,0:0:0:0:
296,128,210077,6,0,L|392:128,1,95,0|2,0:0|0:0,0:0:0:0:
152,192,210420,2,0,P|88:248|152:304,1,190,8|2,0:0|0:0,0:0:0:0:
264,192,210934,1,0,0:0:0:0:
376,192,211106,1,8,0:0:0:0:
224,80,211277,1,2,0:0:0:0:
184,136,211362,1,0,0:0:0:0:
227,135,211448,2,0,L|328:136,1,95,0|2,0:0|0:0,0:0:0:0:
88,288,211792,2,0,L|88:192,1,95,8|0,0:0|0:0,0:0:0:0:
320,248,212134,6,0,L|424:248,1,95,2|0,0:0|0:0,0:0:0:0:
184,272,212477,2,0,L|184:176,1,95,8|2,0:0|0:0,0:0:0:0:
240,176,212734,1,0,0:0:0:0:
296,176,212819,2,0,L|408:176,1,95,0|2,0:0|0:0,0:0:0:0:
144,64,213163,2,0,L|48:64,1,95,8|0,0:0|0:0,0:0:0:0:
280,64,213505,6,0,L|168:64,1,95,2|0,0:0|0:0,0:0:0:0:
456,48,213849,1,8,0:0:0:0:
475,90,213934,1,0,0:0:0:0:
466,136,214020,1,2,0:0:0:0:
433,169,214106,1,0,0:0:0:0:
387,177,214192,6,0,L|256:192,1,95,0|2,0:0|0:0,0:0:0:0:
64,136,214534,1,8,0:0:0:0:
160,136,214706,2,0,L|208:136,1,47.5
368,192,214877,5,0,0:0:0:0:
416,192,214963,2,0,L|440:240,2,47.5
256,192,215219,2,0,L|152:192,1,95,8|2,0:0|0:0,0:0:0:0:
256,48,215562,2,0,L|256:144,1,95
488,296,215906,2,0,L|384:296,1,95,8|0,0:0|0:0,0:0:0:0:
160,248,216249,6,0,L|56:248,1,95,2|0,0:0|0:0,0:0:0:0:
312,176,216592,2,0,L|312:80,1,95,8|0,0:0|0:0,0:0:0:0:
80,56,216934,2,0,P|120:176|184:176,1,190,0|8,0:0|0:0,0:0:0:0:
304,184,217448,6,0,L|424:192,2,95,0|2|0,0:0|0:0|0:0,0:0:0:0:
160,312,217963,2,0,L|160:216,1,95,8|0,0:0|0:0,0:0:0:0:
288,88,218306,6,0,L|392:88,1,95,2|0,0:0|0:0,0:0:0:0:
144,64,218648,2,0,L|152:192,1,95,8|0,0:0|0:0,0:0:0:0:
288,176,218991,2,0,L|296:272,1,95,2|0,0:0|0:0,0:0:0:0:
432,192,219334,2,0,L|440:288,1,95,2|0,0:0|0:0,0:0:0:0:
312,56,219677,2,0,L|320:160,1,95,2|0,0:0|0:0,0:0:0:0:
448,80,220020,2,0,L|456:184,1,95,2|0,0:0|0:0,0:0:0:0:
216,192,220363,5,2,0:0:0:0:
168,240,220534,1,0,0:0:0:0:
216,296,220706,1,8,0:0:0:0:
328,296,220877,1,0,0:0:0:0:
192,112,221048,2,0,L|288:120,1,95,2|0,0:0|0:0,0:0:0:0:
408,64,221391,2,0,L|400:160,1,95,8|0,0:0|0:0,0:0:0:0:
168,192,221734,6,0,P|104:248|176:296,1,190,2|8,0:0|0:0,0:0:0:0:
440,192,222419,2,0,L|240:192,1,190,2|8,0:0|0:0,0:0:0:0:
152,192,222934,1,2,0:0:0:0:
296,48,223105,6,0,P|360:104|288:152,1,190,2|8,0:0|0:0,0:0:0:0:
104,272,223791,2,0,L|304:272,1,190,2|8,0:0|0:0,0:0:0:0:
104,272,224477,6,0,L|104:82,1,190,2|8,0:0|0:0,0:0:0:0:
392,48,225162,1,2,0:0:0:0:
411,90,225247,1,0,0:0:0:0:
402,136,225333,1,0,0:0:0:0:
369,169,225419,1,0,0:0:0:0:
323,177,225505,2,0,L|216:184,1,95,2|2,0:0|0:0,0:0:0:0:
464,240,225848,5,4,0:0:0:0:
280,56,226191,2,0,L|488:56,2,190,8|2|8,0:0|0:0|0:0,0:0:0:0:
400,272,227219,6,0,L|280:272,1,95,2|0,0:0|0:0,0:0:0:0:
160,192,227562,2,0,L|160:304,1,95,8|0,0:0|0:0,0:0:0:0:
296,96,227905,2,0,L|400:96,2,95,2|0|8,0:0|0:0|0:0,0:0:0:0:
192,96,228419,1,0,0:0:0:0:
432,192,228591,6,0,P|432:280|336:280,1,190,2|8,0:0|0:0,0:0:0:0:
184,296,229105,2,0,L|184:352,1,47.5,2|0,0:0|0:0,0:0:0:0:
256,296,229277,2,0,L|256:352,1,47.5,2|0,0:0|0:0,0:0:0:0:
184,296,229448,2,0,L|112:296,1,47.5,2|0,0:0|0:0,0:0:0:0:
200,208,229619,1,8,0:0:0:0:
344,96,229791,1,2,0:0:0:0:
288,96,229877,1,0,0:0:0:0:
232,96,229962,5,2,0:0:0:0:
168,120,230048,1,0,0:0:0:0:
168,168,230134,1,0,0:0:0:0:
232,136,230219,1,0,0:0:0:0:
288,136,230305,1,8,0:0:0:0:
416,56,230477,5,8,0:0:0:0:
488,56,230562,1,0,0:0:0:0:
488,104,230648,1,0,0:0:0:0:
416,104,230734,1,0,0:0:0:0:
344,192,230819,2,0,L|344:256,1,47.5,2|0,0:0|0:0,0:0:0:0:
416,192,230991,2,0,L|472:192,2,47.5,8|0|0,0:0|0:0|0:0,0:0:0:0:
184,120,231334,5,4,0:0:0:0:
432,56,231677,2,0,L|432:176,1,95,8|0,0:0|0:0,0:0:0:0:
288,56,232019,2,0,L|288:160,1,95,2|0,0:0|0:0,0:0:0:0:
144,56,232362,2,0,L|144:168,1,95,8|0,0:0|0:0,0:0:0:0:
288,272,232705,6,0,L|80:272,1,190,2|8,0:0|0:0,0:0:0:0:
192,224,233219,1,0,0:0:0:0:
312,56,233391,2,0,L|312:176,1,95,2|0,0:0|0:0,0:0:0:0:
168,56,233734,2,0,L|168:160,1,95,8|0,0:0|0:0,0:0:0:0:
312,192,234077,6,0,P|376:248|312:304,1,190,2|8,0:0|0:0,0:0:0:0:
216,192,234591,1,0,0:0:0:0:
344,48,234762,2,0,L|448:48,1,95,2|0,0:0|0:0,0:0:0:0:
288,136,235105,2,0,L|184:136,1,95,8|0,0:0|0:0,0:0:0:0:
336,192,235448,6,0,L|112:192,1,190,2|8,0:0|0:0,0:0:0:0:
240,240,235962,1,0,0:0:0:0:
336,240,236134,2,0,L|224:240,1,95,2|0,0:0|0:0,0:0:0:0:
97,56,236477,1,8,0:0:0:0:
64,56,236562,1,0,0:0:0:0:
97,56,236648,1,8,0:0:0:0:
384,192,236819,6,0,L|176:192,1,190,4|8,0:0|0:0,0:0:0:0:
280,240,237334,1,0,0:0:0:0:
168,232,237505,2,0,L|168:336,1,95,2|0,0:0|0:0,0:0:0:0:
320,128,237848,2,0,L|216:128,1,95,8|0,0:0|0:0,0:0:0:0:
384,192,238191,6,0,P|440:224|376:304,1,190,2|8,0:0|0:0,0:0:0:0:
232,304,238705,2,0,L|232:208,1,95,0|2,0:0|0:0,0:0:0:0:
352,176,239048,2,0,L|248:176,1,95,0|8,0:0|0:0,0:0:0:0:
144,176,239391,1,8,0:0:0:0:
408,176,239562,5,4,0:0:0:0:
256,192,239734,12,0,241791,0:0:0:0:
280,192,241962,5,0,0:0:0:0:
328,216,242047,1,0,0:0:0:0:
384,240,242133,1,0,0:0:0:0:
144,192,242305,5,2,0:0:0:0:
16,192,242477,1,2,0:0:0:0:
160,56,242648,2,0,L|272:56,2,95,8|0|0,0:0|0:0|0:0,0:0:0:0:
64,56,243162,1,2,0:0:0:0:
208,144,243334,2,0,L|304:144,1,95,8|0,0:0|0:0,0:0:0:0:
160,192,243677,6,0,P|96:248|168:304,1,190,2|8,0:0|0:0,0:0:0:0:
272,192,244191,1,0,0:0:0:0:
160,192,244362,2,0,L|160:88,1,95,0|2,0:0|0:0,0:0:0:0:
304,64,244705,2,0,L|416:64,1,95,8|0,0:0|0:0,0:0:0:0:
160,192,245048,6,0,P|96:247|176:295,1,190,2|8,0:0|0:0,0:0:0:0:
256,192,245562,1,0,0:0:0:0:
112,56,245734,2,0,L|112:160,1,95,0|2,0:0|0:0,0:0:0:0:
240,104,246077,2,0,L|128:104,1,95,8|0,0:0|0:0,0:0:0:0:
288,192,246419,6,0,P|352:248|280:296,1,190,2|8,0:0|0:0,0:0:0:0:
192,192,246934,2,0,L|136:192,1,47.5
216,88,247105,2,0,L|336:88,1,95,0|2,0:0|0:0,0:0:0:0:
168,160,247448,2,0,L|64:160,1,95,8|0,0:0|0:0,0:0:0:0:
312,192,247791,6,0,P|376:248|304:304,1,190,2|8,0:0|0:0,0:0:0:0:
168,192,248305,1,0,0:0:0:0:
264,72,248477,2,0,L|264:176,1,95,0|2,0:0|0:0,0:0:0:0:
120,112,248819,2,0,L|216:112,1,95,8|0,0:0|0:0,0:0:0:0:
360,272,249162,6,0,L|168:272,1,190,2|8,0:0|0:0,0:0:0:0:
72,272,249677,1,0,0:0:0:0:
216,96,249848,2,0,L|216:208,1,95,0|2,0:0|0:0,0:0:0:0:
96,104,250191,2,0,L|96:208,1,95,8|0,0:0|0:0,0:0:0:0:
344,192,250534,6,0,P|408:248|336:304,1,190,2|8,0:0|0:0,0:0:0:0:
232,192,251048,1,0,0:0:0:0:
112,192,251219,2,0,L|112:296,1,95,0|2,0:0|0:0,0:0:0:0:
232,96,251562,2,0,L|128:96,1,95,8|0,0:0|0:0,0:0:0:0:
392,192,251905,6,0,L|176:192,1,190,2|8,0:0|0:0,0:0:0:0:
336,288,252419,2,0,L|416:288,1,47.5
312,352,252591,2,0,L|88:352,1,190,0|8,0:0|0:0,0:0:0:0:
216,352,253105,1,0,0:0:0:0:
472,192,253277,6,0,L|472:296,1,95,2|2,0:0|0:0,0:0:0:0:
240,128,253619,2,0,L|336:128,1,95,8|0,0:0|0:0,0:0:0:0:
392,128,253877,1,0,0:0:0:0:
392,64,253962,2,0,L|297:64,1,95,0|2,0:0|0:0,0:0:0:0:
64,192,254305,2,0,L|184:192,1,95,8|0,0:0|0:0,0:0:0:0:
392,192,254648,6,0,P|456:248|384:296,1,190,2|8,0:0|0:0,0:0:0:0:
256,232,255162,2,0,L|256:184,1,47.5
312,184,255334,2,0,L|407:184,1,95,0|2,0:0|0:0,0:0:0:0:
176,48,255677,2,0,L|176:152,1,95,8|0,0:0|0:0,0:0:0:0:
424,64,256019,5,2,0:0:0:0:
424,152,256191,1,2,0:0:0:0:
192,176,256362,2,0,L|296:176,1,95,8|0,0:0|0:0,0:0:0:0:
232,216,256619,1,0,0:0:0:0:
176,216,256705,2,0,L|81:216,1,95,0|2,0:0|0:0,0:0:0:0:
312,32,257048,2,0,L|424:32,1,95,8|0,0:0|0:0,0:0:0:0:
176,96,257391,5,2,0:0:0:0:
176,176,257562,1,2,0:0:0:0:
424,120,257734,2,0,L|424:224,1,95,8|0,0:0|0:0,0:0:0:0:
344,208,257991,1,0,0:0:0:0:
264,208,258077,2,0,L|264:312,1,95,0|2,0:0|0:0,0:0:0:0:
496,304,258419,2,0,L|400:303,1,95,8|0,0:0|0:0,0:0:0:0:
168,56,258762,6,0,L|64:56,1,95,2|0,0:0|0:0,0:0:0:0:
200,128,259105,2,0,L|200:224,1,95,8|0,0:0|0:0,0:0:0:0:
328,128,259448,2,0,L|328:240,1,95,2|0,0:0|0:0,0:0:0:0:
184,248,259791,2,0,L|184:360,1,95,8|0,0:0|0:0,0:0:0:0:
328,56,260134,6,0,L|128:56,1,190,2|8,0:0|0:0,0:0:0:0:
400,96,260819,2,0,L|400:304,1,190,2|8,0:0|0:0,0:0:0:0:
304,192,261334,1,8,0:0:0:0:
160,80,261505,5,2,0:0:0:0:
115,93,261590,1,0,0:0:0:0:
96,135,261676,1,0,0:0:0:0:
113,177,261762,1,0,0:0:0:0:
156,193,261847,1,0,0:0:0:0:
304,192,262019,1,2,0:0:0:0:
156,193,262191,1,2,0:0:0:0:
400,192,262534,5,2,0:0:0:0:
444,205,262619,1,0,0:0:0:0:
463,247,262705,1,0,0:0:0:0:
446,289,262791,1,0,0:0:0:0:
403,305,262876,1,0,0:0:0:0:
272,304,263048,1,2,0:0:0:0:
403,305,263219,1,8,0:0:0:0:
112,88,263562,6,0,L|112:200,1,95,2|0,0:0|0:0,0:0:0:0:
256,88,263905,2,0,L|368:88,1,95,8|0,0:0|0:0,0:0:0:0:
96,88,264248,5,4,0:0:0:0:
256,192,264591,12,0,271105,0:0:0:0:
