osu file format v14

[General]
AudioFilename: Mountains (feat. Veela).mp3
AudioLeadIn: 0
PreviewTime: 66645
Countdown: 0
SampleSet: Normal
StackLeniency: 0.7
Mode: 0
LetterboxInBreaks: 0
EpilepsyWarning: 1
WidescreenStoryboard: 1

[Editor]
Bookmarks: 22759,44702,132474,154417,165388,168131,286074,308016
DistanceSpacing: 1
BeatDivisor: 4
GridSize: 8
TimelineZoom: 2.4

[Metadata]
Title:Mountains (feat. Veela)
TitleUnicode:Mountains (feat. Veela)
Artist:Rameses B
ArtistUnicode:Rameses B
Creator:-Tochi
Version:Mountain
Source:
Tags:DnB drum and bass Monstercat Marathon Remix Long Extended
BeatmapID:713190
BeatmapSetID:320504

[Difficulty]
HPDrainRate:6
CircleSize:4.2
OverallDifficulty:8.5
ApproachRate:9.3
SliderMultiplier:2.1
SliderTickRate:2

[Events]
//Background and Video events
0,0,"BG.jpg",0,0
//Break Periods
//Storyboard Layer 0 (Background)
Sprite,Background,Centre,"BG.jpg",0,0
//Storyboard Layer 1 (Fail)
//Storyboard Layer 2 (Pass)
//Storyboard Layer 3 (Foreground)
//Storyboard Sound Samples

[TimingPoints]
817,342.857142857143,4,2,1,50,1,0
20359,-100,4,2,1,10,0,0
22588,-100,4,2,1,5,0,0
22759,-142.857142857143,4,2,1,50,0,0
24731,-142.857142857143,4,2,1,5,0,0
24817,-142.857142857143,4,2,1,50,0,0
25074,-142.857142857143,4,2,1,5,0,0
25159,-142.857142857143,4,2,1,50,0,0
28246,-142.857142857143,4,2,1,50,0,0
31245,-142.857142857143,4,2,1,5,0,0
31331,-142.857142857143,4,2,1,50,0,0
31759,-142.857142857143,4,2,1,5,0,0
31845,-142.857142857143,4,2,1,50,0,0
33302,-142.857142857143,4,2,1,5,0,0
33388,-142.857142857143,4,2,1,50,0,0
43159,-200,4,2,1,10,0,0
44703,-125,4,2,1,50,0,0
47445,-142.857142857143,4,2,1,50,0,0
47788,-125,4,2,1,50,0,0
55674,-125,4,2,1,50,0,0
56875,-125,4,2,1,50,0,0
57988,-125,4,2,1,5,0,0
58074,-100,4,2,1,50,0,0
58331,-100,4,2,1,5,0,0
58417,-125,4,2,1,50,0,0
58759,-100,4,2,1,50,0,0
59617,-125,4,2,1,50,0,0
59959,-100,4,2,1,50,0,0
60817,-125,4,2,1,50,0,0
61159,-100,4,2,1,50,0,0
63903,-125,4,2,1,50,0,0
65445,-200,4,2,1,50,0,0
65959,-166.666666666667,4,2,1,50,0,0
66302,-125,4,2,1,50,0,0
66645,-100,4,1,1,60,0,1
66902,-100,4,1,1,60,0,1
69302,-100,4,1,1,5,0,1
69388,-100,4,1,1,60,0,1
72131,-100,4,1,1,60,0,1
77017,-100,4,1,1,5,0,1
77102,-100,4,1,1,60,0,0
77617,-100,4,1,1,60,0,1
83359,-100,4,1,1,5,0,1
83445,-100,4,1,1,60,0,1
85845,-100,4,1,1,60,0,0
86017,-125,4,2,1,40,0,0
87045,-125,4,2,1,5,0,0
87131,-125,4,2,1,40,0,0
87302,-125,4,2,1,5,0,0
87388,-125,4,2,1,40,0,0
88245,-125,4,2,1,40,0,0
88588,-100,4,1,1,60,0,1
88931,-86.9565217391304,4,1,1,60,0,1
89188,-86.9565217391304,4,1,1,5,0,1
89274,-86.9565217391304,4,1,1,60,0,1
90217,-86.9565217391304,4,1,1,5,0,1
90302,-80,4,1,1,60,0,1
91331,-142.857142857143,4,1,1,60,0,1
91674,-86.9565217391304,4,1,1,60,0,1
92959,-86.9565217391304,4,1,1,5,0,1
93045,-80,4,1,1,60,0,1
93731,-105.263157894737,4,1,1,60,0,1
94074,-86.9565217391304,4,1,1,60,0,1
94759,-111.111111111111,4,1,1,60,0,1
95017,-111.111111111111,4,1,1,5,0,1
95102,-111.111111111111,4,1,1,60,0,1
95445,-111.111111111111,4,1,2,60,0,1
95788,-83.3333333333333,4,1,2,60,0,1
96045,-83.3333333333333,4,1,2,5,0,1
96131,-83.3333333333333,4,1,2,60,0,1
96474,-111.111111111111,4,1,1,60,0,1
96731,-111.111111111111,4,1,1,5,0,1
96817,-86.9565217391304,4,1,1,60,0,1
98102,-86.9565217391304,4,1,1,5,0,1
98188,-111.111111111111,4,1,1,60,0,1
98274,-111.111111111111,4,1,1,5,0,1
98359,-111.111111111111,4,1,1,60,0,1
98445,-111.111111111111,4,1,1,5,0,1
98531,-83.3333333333333,4,1,1,60,0,1
98959,-83.3333333333333,4,1,1,5,0,1
99045,-83.3333333333333,4,1,1,60,0,1
99131,-83.3333333333333,4,1,1,5,0,1
99217,-200,4,1,1,60,0,1
99474,-200,4,1,1,5,0,1
99559,-86.9565217391304,4,1,1,60,0,1
99817,-86.9565217391304,4,1,1,5,0,1
99902,-86.9565217391304,4,1,1,60,0,1
100588,-86.9565217391304,4,1,1,60,0,1
100845,-86.9565217391304,4,1,1,5,0,1
100931,-86.9565217391304,4,1,1,60,0,1
101188,-86.9565217391304,4,1,1,5,0,1
101274,-80,4,1,1,60,0,1
101617,-86.9565217391304,4,1,1,60,0,1
101702,-86.9565217391304,4,1,1,5,0,1
101788,-86.9565217391304,4,1,1,60,0,1
101874,-86.9565217391304,4,1,1,5,0,1
101959,-133.333333333333,4,1,1,60,0,1
102302,-142.857142857143,4,1,1,60,0,1
102902,-86.9565217391304,4,1,1,60,0,1
103074,-86.9565217391304,4,1,1,5,0,1
103159,-86.9565217391304,4,1,1,60,0,1
104359,-153.846153846154,4,1,1,60,0,1
104445,-153.846153846154,4,1,1,5,0,1
104531,-153.846153846154,4,1,1,60,0,1
104617,-153.846153846154,4,1,1,5,0,1
104702,-153.846153846154,4,1,1,60,0,1
104788,-166.666666666667,4,1,1,60,0,1
104959,-125,4,1,1,5,0,1
105045,-86.9565217391304,4,1,1,60,0,1
105302,-86.9565217391304,4,1,1,5,0,1
105388,-86.9565217391304,4,1,1,60,0,1
106074,-133.333333333333,4,1,1,60,0,1
106417,-86.9565217391304,4,1,1,60,0,1
106674,-86.9565217391304,4,1,1,5,0,1
106759,-86.9565217391304,4,1,1,60,0,1
107445,-111.111111111111,4,1,1,60,0,1
107702,-111.111111111111,4,1,1,5,0,1
107788,-111.111111111111,4,1,1,60,0,1
109845,-125,4,1,1,50,0,1
110531,-142.857142857143,4,2,1,50,0,0
110788,-142.857142857143,4,2,1,5,0,0
110874,-142.857142857143,4,2,1,50,0,0
114902,-142.857142857143,4,2,1,5,0,0
114988,-142.857142857143,4,2,1,50,0,0
121502,-200,4,2,1,50,0,0
121845,-166.666666666667,4,2,1,50,0,0
124245,-200,4,2,1,50,0,0
124588,-166.666666666667,4,2,1,50,0,0
126988,-200,4,2,1,50,0,0
127331,-166.666666666667,4,2,1,50,0,0
132474,689.655172413793,4,2,1,20,1,0
135232,-100,4,2,1,20,0,0
137588,-100,4,2,1,5,0,0
137991,-100,4,2,1,15,0,0
153048,-125,4,2,1,20,0,0
154416,342.857142857143,4,2,1,40,1,0
154416,-166.666666666667,4,2,1,40,0,0
165216,-166.666666666667,4,2,1,5,0,0
165388,-125,4,2,1,40,0,0
165645,-125,4,2,1,5,0,0
165731,-142.857142857143,4,2,1,40,0,0
166074,-125,4,2,1,40,0,0
166331,-125,4,2,1,5,0,0
166417,-142.857142857143,4,2,1,40,0,0
166759,-125,4,2,1,40,0,0
167017,-125,4,2,1,5,0,0
167102,-142.857142857143,4,2,1,40,0,0
167445,-111.111111111111,4,2,1,40,0,0
167702,-111.111111111111,4,2,1,5,0,0
167788,-200,4,2,1,40,0,0
168045,-200,4,2,1,5,0,0
168131,-111.111111111111,4,2,1,40,0,0
168388,-111.111111111111,4,2,1,5,0,0
168474,-142.857142857143,4,2,1,40,0,0
168817,-111.111111111111,4,2,1,40,0,0
169159,-142.857142857143,4,2,1,40,0,0
169502,-111.111111111111,4,2,1,40,0,0
169759,-111.111111111111,4,2,1,5,0,0
169845,-142.857142857143,4,2,1,40,0,0
170187,-111.111111111111,4,2,1,40,0,0
170444,-111.111111111111,4,2,1,5,0,0
170530,-200,4,2,1,40,0,0
170787,-111.111111111111,4,2,1,5,0,0
170873,-142.857142857143,4,2,1,40,0,0
176188,-142.857142857143,4,2,1,5,0,0
176358,-86.9565217391304,4,1,1,60,0,1
180473,-83.3333333333333,4,1,1,60,0,1
181844,-86.9565217391304,4,1,1,60,0,1
183817,-86.9565217391304,4,1,1,5,0,1
183901,-117.647058823529,4,1,1,60,0,1
186987,-142.857142857143,4,1,1,60,0,0
187330,-86.9565217391302,4,1,1,60,0,1
191702,-86.9565217391302,4,1,1,5,0,1
191788,-86.9565217391302,4,1,1,60,0,1
192217,-86.9565217391302,4,1,1,5,0,1
192302,-86.9565217391302,4,1,1,60,0,1
192559,-100,4,1,1,60,0,1
192731,-100,4,1,1,5,0,1
192817,-86.9565217391302,4,1,1,60,0,1
195217,-111.111111111111,4,1,1,60,0,1
195558,-86.9565217391302,4,1,1,60,0,0
197274,-166.666666666667,4,1,1,60,0,0
197617,-86.9565217391302,4,1,1,60,0,0
197874,-86.9565217391302,4,2,1,5,0,0
197959,-86.9565217391302,4,1,1,60,0,0
198302,-200,4,1,1,60,0,0
199330,-76.9230769230769,4,1,1,60,0,1
200445,-76.9230769230769,4,1,1,5,0,1
200531,-76.9230769230769,4,1,1,60,0,1
200617,-76.9230769230769,4,1,1,5,0,1
200702,-76.9230769230769,4,1,1,60,0,1
201044,-76.9230769230769,4,1,1,60,0,1
203017,-76.9230769230769,4,1,1,5,0,1
203102,-76.9230769230769,4,1,1,60,0,1
203788,-125,4,1,1,60,0,1
204131,-76.9230769230769,4,1,1,60,0,1
208073,-83.3333333333333,4,1,1,60,0,1
208244,-90.9090909090909,4,1,1,60,0,1
208416,-100,4,1,1,60,0,1
208930,-100,4,1,1,60,0,0
209273,-76.9230769230769,4,1,1,60,0,1
209530,-76.9230769230769,4,1,1,5,0,1
209616,-76.9230769230769,4,1,1,60,0,1
211674,-100,4,1,1,60,0,1
212017,-76.9230769230769,4,1,1,60,0,1
212788,-76.9230769230769,4,1,1,5,0,1
212874,-76.9230769230769,4,1,1,60,0,1
214674,-76.9230769230769,4,1,1,5,0,1
214759,-76.9230769230769,4,1,1,60,0,1
216131,-100,4,1,1,60,0,1
217501,-111.111111111111,4,1,1,50,0,0
219217,-166.666666666666,4,1,1,50,0,0
219559,-200,4,1,1,50,0,0
220159,-111.111111111111,4,2,1,5,0,0
220245,-111.111111111111,4,2,1,50,0,0
225045,-111.111111111111,4,2,1,35,0,0
225388,-111.111111111111,4,2,1,50,0,0
225731,-200,4,2,1,50,0,0
225988,-200,4,2,1,5,0,0
226074,-125,4,2,1,50,0,0
228730,-125,4,2,1,5,0,0
228816,-125,4,2,1,50,0,0
229502,-125,4,2,1,20,0,0
229845,-125,4,2,1,30,0,0
230188,-125,4,2,1,40,0,0
230531,-125,4,2,1,50,0,0
231559,-100,4,2,1,50,0,0
233959,-200,4,2,1,50,0,0
234302,-100,4,2,1,50,0,0
236702,-200,4,2,1,50,0,0
237045,-100,4,2,1,50,0,0
241843,-100,4,2,1,5,0,0
242187,-100,4,1,1,60,0,1
242531,-86.9565217391304,4,1,1,60,0,1
242788,-86.9565217391304,4,1,1,5,0,1
242874,-86.9565217391304,4,1,1,60,0,1
243817,-86.9565217391304,4,1,1,5,0,1
243902,-86.9565217391304,4,1,1,60,0,1
244930,-142.857142857143,4,1,1,60,0,1
245188,-142.857142857143,4,1,1,5,0,1
245274,-142.857142857143,4,1,1,60,0,1
246302,-100,4,1,1,60,0,1
246559,-100,4,1,1,5,0,1
246645,-83.3333333333333,4,1,1,60,0,1
246817,-83.3333333333333,4,1,1,5,0,1
246902,-83.3333333333333,4,1,1,60,0,1
247331,-100,4,1,1,60,0,1
247674,-100,4,1,1,60,0,1
247931,-100,4,1,1,5,0,1
248017,-100,4,1,1,60,0,1
248359,-111.111111111111,4,1,1,60,0,1
248617,-111.111111111111,4,1,1,5,0,1
248702,-111.111111111111,4,1,1,60,0,1
249388,-83.3333333333333,4,1,1,60,0,1
249645,-83.3333333333333,4,1,1,5,0,1
249731,-83.3333333333333,4,1,1,60,0,1
250074,-111.111111111111,4,1,1,60,0,1
250331,-111.111111111111,4,1,1,5,0,1
250417,-86.9565217391304,4,1,1,60,0,1
251702,-86.9565217391304,4,1,1,5,0,1
251788,-111.111111111111,4,1,1,60,0,1
251874,-111.111111111111,4,1,1,5,0,1
251959,-111.111111111111,4,1,1,60,0,1
252045,-111.111111111111,4,1,1,5,0,1
252131,-83.3333333333333,4,1,1,60,0,1
252559,-83.3333333333333,4,1,1,5,0,1
252645,-83.3333333333333,4,1,1,60,0,1
252731,-83.3333333333333,4,1,1,5,0,1
252816,-200,4,1,1,60,0,1
253074,-153.846153846154,4,2,1,5,0,1
253159,-86.9565217391305,4,1,1,60,0,1
253417,-86.9565217391305,4,1,1,5,0,1
253502,-86.9565217391305,4,1,1,60,0,1
254445,-86.9565217391305,4,1,1,5,0,1
254531,-86.9565217391305,4,1,1,60,0,1
254788,-86.9565217391305,4,1,1,5,0,1
254874,-76.9230769230769,4,1,1,60,0,1
255217,-86.9565217391304,4,1,1,60,0,1
255302,-86.9565217391304,4,1,1,5,0,1
255388,-86.9565217391304,4,1,1,60,0,1
255474,-86.9565217391304,4,1,1,5,0,1
255559,-86.9565217391304,4,1,1,60,0,1
255902,-142.857142857143,4,1,1,60,0,1
256159,-142.857142857143,4,1,1,5,0,1
256245,-142.857142857143,4,1,1,60,0,1
256502,-86.9565217391304,4,1,1,60,0,1
256674,-86.9565217391304,4,1,1,5,0,1
256759,-86.9565217391304,4,1,1,60,0,1
257531,-86.9565217391304,4,1,1,5,0,1
257617,-86.9565217391304,4,1,1,60,0,1
257874,-86.9565217391304,4,1,1,5,0,1
257959,-153.846153846154,4,1,1,60,0,1
258045,-153.846153846154,4,1,1,5,0,1
258131,-153.846153846154,4,1,1,60,0,1
258217,-153.846153846154,4,1,1,5,0,1
258302,-166.666666666667,4,1,1,60,0,1
258559,-166.666666666667,4,1,1,5,0,1
258645,-86.9565217391304,4,1,1,60,0,1
258902,-86.9565217391304,4,1,1,5,0,1
258988,-86.9565217391304,4,1,1,60,0,1
260274,-86.9565217391304,4,1,1,5,0,1
260359,-86.9565217391304,4,1,1,60,0,1
261045,-111.111111111111,4,1,1,60,0,1
261302,-111.111111111111,4,1,1,5,0,1
261388,-111.111111111111,4,1,1,60,0,1
263702,-111.111111111111,4,1,1,5,0,1
263788,-111.111111111111,4,1,1,60,0,1
264130,-125,4,2,1,45,0,0
275102,-200,4,2,1,45,0,0
275445,-142.857142857143,4,2,1,45,0,0
277845,-200,4,2,1,45,0,0
278188,-142.857142857143,4,2,1,45,0,0
280588,-200,4,2,1,45,0,0
280930,-142.857142857143,4,2,1,45,0,0
286073,689.655172413793,4,2,1,20,1,0
288831,-100,4,2,1,20,0,0
291187,-100,4,2,1,5,0,0
291590,-100,4,2,1,15,0,0
306647,-125,4,2,1,20,0,0
308016,342.857142857143,4,2,1,40,1,0
308016,-111.111111111111,4,2,1,40,0,0
309644,-111.111111111111,4,2,1,5,0,0
309730,-111.111111111111,4,2,1,40,0,0
310759,-133.333333333333,4,2,1,40,0,0
311101,-111.111111111111,4,2,1,40,0,0
313501,-142.857142857143,4,2,1,40,0,0
313844,-111.111111111111,4,2,1,40,0,0
318387,-111.111111111111,4,2,1,5,0,0
318473,-111.111111111111,4,2,1,40,0,0
319501,-111.111111111111,4,2,1,5,0,0
319587,-111.111111111111,4,2,1,40,0,0
319759,-111.111111111111,4,2,1,5,0,0
319844,-111.111111111111,4,2,1,40,0,0
320873,-111.111111111111,4,2,1,5,0,0
320959,-111.111111111111,4,2,1,40,0,0
321130,-111.111111111111,4,2,1,5,0,0
321216,-111.111111111111,4,2,1,40,0,0
321730,-142.857142857143,4,2,1,40,0,0
321987,-142.857142857143,4,2,1,5,0,0
322073,-111.111111111111,4,2,1,40,0,0
322501,-111.111111111111,4,2,1,5,0,0
322587,-111.111111111111,4,2,1,40,0,0
323873,-111.111111111111,4,2,1,5,0,0
323959,-111.111111111111,4,2,1,40,0,0
324473,-142.857142857143,4,2,1,40,0,0
324730,-142.857142857143,4,2,1,5,0,0
324816,-111.111111111111,4,2,1,40,0,0
327216,-111.111111111111,4,3,1,40,0,0

[Colours]
Combo1 : 132,230,154
Combo2 : 241,135,138
Combo3 : 116,216,224
Combo4 : 170,100,100
Combo5 : 124,156,216

[HitObjects]
256,192,17274,12,0,20359,0:0:0:0:
256,192,21474,12,0,22588,0:0:0:0:
304,160,22759,6,0,B|234:148|191:160|191:160|174:194,1,146.999995513916,4|0,0:0|0:0,0:0:0:0:
238,352,23274,2,0,B|272:336|272:336|276:280|256:229,1,146.999995513916,0|0,3:0|0:0,0:0:0:0:
112,232,23788,2,0,B|136:245|184:229|184:229|232:213|256:229,1,146.999995513916,0|0,3:0|0:0,0:0:0:0:
272,335,24302,1,0,3:0:0:0:
130,334,24474,2,0,B|104:295|104:295|113:225,1,110.249996635437,0|0,3:0|0:0,0:0:0:0:
122,202,24817,6,0,B|139:192|175:204|175:204|211:216|229:204,1,110.249996635437,0|0,3:0|0:0,0:0:0:0:
255,193,25159,1,0,3:0:0:0:
255,193,25502,6,0,L|247:114,1,73.4999977569581,0|0,3:0|0:0,0:0:0:0:
122,202,25845,1,0,0:0:0:0:
122,202,26017,1,0,3:0:0:0:
252,301,26188,6,0,L|256:228,1,73.4999977569581,0|0,3:0|0:0,0:0:0:0:
156,352,26531,1,0,3:0:0:0:
276,288,26702,54,0,L|279:214,1,73.4999977569581,0|0,3:0|0:0,0:0:0:0:
176,344,27045,1,0,3:0:0:0:
299,274,27217,6,0,L|302:200,1,73.4999977569581,0|0,3:0|0:0,0:0:0:0:
138,121,27559,2,0,P|121:173|140:224,1,110.249996635437,0|0,3:0|0:0,0:0:0:0:
100,288,27902,1,0,3:0:0:0:
205,172,28074,1,0,3:0:0:0:
33,261,28245,54,0,P|73:269|101:289,1,73.4999977569581,4|0,0:0|0:0,0:0:0:0:
126,326,28502,1,0,0:0:0:0:
126,326,28588,1,0,3:0:0:0:
274,251,28759,2,0,P|276:214|266:180,1,73.4999977569581,0|0,3:0|0:0,0:0:0:0:
358,291,29102,1,0,3:0:0:0:
369,158,29274,5,0,3:0:0:0:
369,158,29445,1,0,0:0:0:0:
174,166,29617,1,0,3:0:0:0:
204,288,29788,1,0,3:0:0:0:
204,288,29959,1,0,0:0:0:0:
80,252,30131,37,0,3:0:0:0:
284,284,30302,1,0,3:0:0:0:
143,186,30474,1,0,0:0:0:0:
289,174,30645,1,0,3:0:0:0:
204,288,30817,1,0,0:0:0:0:
181,65,30988,6,0,B|221:69|221:69|245:53|293:57,1,110.249996635437,4|0,0:0|0:0,0:0:0:0:
320,68,31331,1,0,3:0:0:0:
200,180,31502,2,0,P|192:234|204:288,1,110.249996635437,0|0,3:0|0:0,0:0:0:0:
248,316,31845,1,0,3:0:0:0:
362,274,32017,1,0,3:0:0:0:
375,133,32188,6,0,B|359:169|359:169|359:209|371:249|371:249|363:274,1,146.999995513916,8|8,3:0|3:0,0:0:0:0:
380,352,32617,1,8,3:0:0:0:
380,352,32702,1,8,3:0:0:0:
380,352,33045,2,0,B|329:347|329:347|312:328|312:328|272:320,1,110.249996635437,8|0,3:0|0:0,0:0:0:0:
208,280,33388,2,0,L|288:292,1,73.4999977569581,8|0,3:0|0:0,0:0:0:0:
428,152,33731,38,0,L|440:108,3,36.749998878479,4|0|0|0,0:0|0:0|0:0|0:0,0:0:0:0:
344,80,34074,2,0,L|303:66,1,36.749998878479,8|0,0:0|0:0,0:0:0:0:
240,156,34245,2,0,L|204:148,5,36.749998878479,8|0|0|0|0|0,0:0|0:0|0:0|0:0|0:0|0:0,0:0:0:0:
296,260,34759,2,0,L|296:300,5,36.749998878479,8|0|0|0|0|0,0:0|0:0|0:0|0:0|0:0|0:0,0:0:0:0:
336,168,35274,2,0,L|352:208,1,36.749998878479,8|0,0:0|0:0,0:0:0:0:
224,232,35445,2,0,L|216:276,3,36.749998878479,8|0|0|0,0:0|0:0|0:0|0:0,0:0:0:0:
116,264,35788,6,0,L|101:297,1,36.749998878479,8|0,0:0|0:0,0:0:0:0:
73,181,35959,2,0,L|37:189,1,36.749998878479,8|0,0:0|0:0,0:0:0:0:
108,93,36131,2,0,L|79:70,3,36.749998878479,8|0|0|0,0:0|0:0|0:0|0:0,0:0:0:0:
208,144,36474,5,4,0:0:0:0:
233,144,36559,1,0,0:0:0:0:
258,140,36645,1,0,0:0:0:0:
282,132,36731,1,0,0:0:0:0:
303,117,36817,2,0,L|325:84,1,36.749998878479,8|0,0:0|0:0,0:0:0:0:
423,113,36988,2,0,L|443:82,1,36.749998878479,8|0,0:0|0:0,0:0:0:0:
441,216,37159,2,0,L|442:252,3,36.749998878479,8|0|0|0,0:0|0:0|0:0|0:0,0:0:0:0:
339,242,37502,2,0,L|330:206,1,36.749998878479,8|0,0:0|0:0,0:0:0:0:
222,177,37674,38,0,L|208:144,3,36.749998878479,8|0|0|0,0:0|0:0|0:0|0:0,0:0:0:0:
140,248,38017,2,0,L|132:200,1,36.749998878479,8|0,0:0|0:0,0:0:0:0:
52,164,38188,2,0,L|68:124,3,36.749998878479,8|0|0|0,0:0|0:0|0:0|0:0,0:0:0:0:
48,264,38531,2,0,L|12:288,3,36.749998878479,8|0|0|0,0:0|0:0|0:0|0:0,0:0:0:0:
72,260,38874,1,0,0:0:0:0:
97,260,38959,1,0,0:0:0:0:
122,264,39045,1,0,0:0:0:0:
144,275,39131,1,0,0:0:0:0:
164,290,39217,6,0,L|248:288,1,73.4999977569581,8|0,0:0|0:0,0:0:0:0:
320,84,39559,2,0,L|236:82,1,73.4999977569581,8|0,0:0|0:0,0:0:0:0:
164,124,39817,1,0,0:0:0:0:
164,124,39902,2,0,L|156:168,1,36.749998878479,8|0,0:0|0:0,0:0:0:0:
236,252,40074,2,0,L|248:216,1,36.749998878479
352,168,40245,2,0,L|364:204,3,36.749998878479,8|0|0|0,0:0|0:0|0:0|0:0,0:0:0:0:
304,324,40588,5,8,0:0:0:0:
269,335,40674,1,0,0:0:0:0:
232,335,40759,1,0,0:0:0:0:
196,326,40845,1,0,0:0:0:0:
165,305,40931,1,8,0:0:0:0:
141,276,41017,1,0,0:0:0:0:
131,240,41102,1,0,0:0:0:0:
129,203,41188,1,0,0:0:0:0:
139,167,41274,38,0,L|152:124,1,36.749998878479,8|0,0:0|0:0,0:0:0:0:
236,252,41445,2,0,L|244:300,1,36.749998878479,8|0,0:0|0:0,0:0:0:0:
291,135,41617,1,0,3:0:0:0:
292,116,41702,1,0,3:0:0:0:
293,98,41788,1,0,3:0:0:0:
294,79,41874,1,0,3:0:0:0:
295,61,41959,1,0,3:0:0:0:
256,192,42045,12,2,43159,0:0:0:0:
476,136,43502,5,2,0:0:0:0:
381,183,43674,1,2,0:0:0:0:
287,25,44017,2,0,L|282:129,1,105,2|2,0:0|0:0,0:0:0:0:
200,216,44702,5,0,3:0:0:0:
184,195,45045,1,8,0:0:0:0:
380,200,45217,1,0,0:0:0:0:
324,288,45388,1,0,0:0:0:0:
280,96,45559,1,8,0:0:0:0:
280,96,45645,1,8,0:0:0:0:
280,96,45731,1,8,0:0:0:0:
216,292,45902,6,0,B|172:272|172:272|84:273,1,126,8|0,0:0|0:0,0:0:0:0:
59,249,46245,1,8,0:0:0:0:
128,112,46417,2,0,L|217:113,1,84,8|0,0:0|0:0,0:0:0:0:
349,114,46759,1,8,0:0:0:0:
303,239,46931,1,0,0:0:0:0:
192,146,47102,2,0,L|102:152,1,84,0|0,3:0|3:0,0:0:0:0:
216,292,47445,6,0,L|330:291,1,110.249996635437
397,203,47788,6,0,B|364:192|364:192|312:200|312:200|276:188,1,126,8|0,0:0|0:0,0:0:0:0:
235,172,48131,1,8,0:0:0:0:
320,80,48302,1,8,0:0:0:0:
336,272,48474,1,0,0:0:0:0:
211,123,48645,1,8,0:0:0:0:
196,246,48817,5,0,0:0:0:0:
196,246,48988,1,8,0:0:0:0:
339,109,49159,1,8,0:0:0:0:
381,240,49331,1,0,0:0:0:0:
256,180,49502,5,0,3:0:0:0:
219,170,49588,1,0,3:0:0:0:
181,168,49674,1,0,3:0:0:0:
143,170,49759,1,0,3:0:0:0:
106,178,49845,2,0,L|52:200,1,42,8|0,0:0|0:0,0:0:0:0:
204,80,50017,2,0,L|252:82,1,42,8|0,0:0|0:0,0:0:0:0:
336,200,50188,6,0,L|336:284,1,84,4|0,0:0|0:0,0:0:0:0:
214,345,50531,1,0,3:0:0:0:
219,170,50702,1,0,0:0:0:0:
336,284,50874,1,0,0:0:0:0:
161,269,51045,1,0,3:0:0:0:
204,80,51217,1,0,0:0:0:0:
252,207,51388,38,0,L|340:199,1,84,0|0,3:0|0:0,0:0:0:0:
456,88,51731,1,0,3:0:0:0:
456,88,51902,2,0,B|416:104|416:104|368:104|328:88,1,126,0|0,3:0|0:0,0:0:0:0:
293,99,52245,1,0,3:0:0:0:
335,199,52417,1,0,0:0:0:0:
228,281,52588,2,0,L|143:275,1,84,0|0,3:0|0:0,0:0:0:0:
76,163,52931,1,0,3:0:0:0:
80,148,53274,5,0,3:0:0:0:
219,130,53445,1,0,0:0:0:0:
40,125,53617,1,0,0:0:0:0:
188,53,53788,1,0,3:0:0:0:
163,212,53959,1,0,3:0:0:0:
99,52,54131,1,0,0:0:0:0:
84,192,54302,5,0,0:0:0:0:
83,222,54387,1,0,0:0:0:0:
83,252,54473,1,0,0:0:0:0:
87,282,54559,1,0,0:0:0:0:
95,311,54645,2,0,L|137:307,1,42
214,256,54817,2,0,L|255:256,1,42,0|2,0:0|0:0,0:0:0:0:
333,196,54988,37,2,0:0:0:0:
350,172,55073,1,0,0:0:0:0:
357,144,55159,1,0,0:0:0:0:
352,115,55245,1,0,0:0:0:0:
336,91,55331,2,0,L|289:94,1,42
245,13,55502,2,0,L|204:17,1,42
138,78,55674,6,0,B|99:67|99:67|6:98,1,126
0,117,56017,1,8,0:0:0:0:
186,178,56188,1,0,0:0:0:0:
48,296,56359,1,0,0:0:0:0:
72,168,56531,1,8,0:0:0:0:
208,344,56702,1,8,0:0:0:0:
290,187,56874,5,0,0:0:0:0:
290,187,56959,1,0,0:0:0:0:
290,187,57045,1,8,0:0:0:0:
159,209,57217,1,0,0:0:0:0:
157,77,57388,2,0,L|244:74,1,84,8|0,0:0|0:0,0:0:0:0:
159,209,57731,2,0,L|288:208,1,126,0|0,3:0|0:0,0:0:0:0:
348,156,58074,38,0,P|304:212|348:276,1,157.5,8|0,0:0|0:0,0:0:0:0:
428,256,58417,38,0,L|436:168,1,84,8|0,0:0|0:0,0:0:0:0:
268,72,58759,6,0,L|277:181,1,105,4|0,0:0|0:0,0:0:0:0:
192,336,59102,1,0,0:0:0:0:
148,128,59274,1,8,0:0:0:0:
120,264,59445,1,0,0:0:0:0:
275,267,59617,2,0,L|367:267,1,84,8|0,0:0|0:0,0:0:0:0:
429,157,59959,6,0,B|381:179|381:179|276:176,1,157.5,8|0,0:0|0:0,0:0:0:0:
235,179,60302,1,8,0:0:0:0:
164,328,60474,1,0,3:0:0:0:
198,341,60559,1,0,3:0:0:0:
234,345,60645,1,0,3:0:0:0:
270,343,60731,1,0,3:0:0:0:
306,337,60817,2,0,L|352:316,1,42
336,216,60988,2,0,L|365:186,1,42
208,248,61159,6,0,L|96:236,1,105,4|0,0:0|0:0,0:0:0:0:
16,120,61502,1,8,0:0:0:0:
198,57,61674,1,0,0:0:0:0:
208,248,61845,1,0,0:0:0:0:
300,136,62017,1,8,0:0:0:0:
120,156,62188,1,8,0:0:0:0:
279,170,62359,1,0,0:0:0:0:
168,360,62531,6,0,L|280:360,1,105,12|0,0:0|0:0,0:0:0:0:
344,244,62874,1,8,0:0:0:0:
208,248,63045,1,0,0:0:0:0:
336,216,63217,1,0,0:0:0:0:
200,276,63388,1,8,0:0:0:0:
328,188,63559,1,8,0:0:0:0:
192,304,63731,1,0,0:0:0:0:
320,160,63902,37,12,0:0:0:0:
340,324,64074,1,2,0:0:0:0:
340,324,64159,1,2,0:0:0:0:
340,324,64245,1,2,0:0:0:0:
248,220,64417,1,8,0:0:0:0:
402,111,64588,5,4,0:0:0:0:
433,251,64759,1,8,0:0:0:0:
297,142,64931,1,8,0:0:0:0:
473,186,65102,1,8,0:0:0:0:
301,219,65274,1,4,0:0:0:0:
471,81,65445,22,0,P|475:145|471:197,1,105,8|8,0:0|0:0,0:0:0:0:
395,345,65959,6,0,P|351:337|297:352,1,94.499997116089,8|0,0:0|0:0,0:0:0:0:
198,317,66302,2,0,L|210:269,1,42,0|0,3:0|3:0,0:0:0:0:
301,219,66474,2,0,L|309:267,1,42,0|0,3:0|3:0,0:0:0:0:
270,357,66645,6,0,B|222:369|222:369|118:337,1,157.5,4|0,0:0|0:0,0:0:0:0:
50,302,66988,1,8,0:0:0:0:
81,144,67159,1,0,0:0:0:0:
182,271,67331,1,0,0:0:0:0:
260,170,67502,1,2,0:0:0:0:
260,170,67588,1,2,0:0:0:0:
260,170,67674,1,10,0:0:0:0:
330,313,67845,1,0,0:0:0:0:
466,223,68017,5,2,0:0:0:0:
352,314,68188,1,0,0:0:0:0:
352,314,68274,1,0,0:0:0:0:
352,314,68359,1,8,0:0:0:0:
392,120,68531,1,0,0:0:0:0:
462,310,68702,1,0,0:0:0:0:
383,201,68874,1,2,0:0:0:0:
309,310,69045,2,0,B|272:298|272:298|144:310,1,157.5,8|0,0:0|0:0,0:0:0:0:
79,318,69388,5,6,0:0:0:0:
88,192,69559,1,0,0:0:0:0:
88,192,69645,1,2,0:0:0:0:
88,192,69731,1,8,0:0:0:0:
213,263,69902,1,0,0:0:0:0:
219,100,70074,1,0,0:0:0:0:
336,200,70245,1,2,0:0:0:0:
340,240,70331,1,2,0:0:0:0:
344,280,70417,38,0,L|236:292,1,105,10|0,0:0|0:0,0:0:0:0:
60,244,70759,1,2,0:0:0:0:
236,152,70931,1,0,0:0:0:0:
141,306,71102,1,8,0:0:0:0:
169,122,71274,2,0,L|225:126,1,52.5,2|2,0:0|0:0,0:0:0:0:
300,187,71445,5,0,3:0:0:0:
336,185,71531,1,0,3:0:0:0:
372,183,71617,1,0,3:0:0:0:
408,181,71702,1,0,3:0:0:0:
444,179,71788,2,0,L|499:177,1,52.5,8|8,0:0|0:0,0:0:0:0:
401,54,71959,2,0,L|336:55,1,52.5,8|8,0:0|0:0,0:0:0:0:
252,134,72131,6,0,P|236:219|287:259,1,157.5,6|2,0:0|0:0,0:0:0:0:
360,260,72474,1,8,0:0:0:0:
444,126,72645,1,0,0:0:0:0:
301,188,72817,1,0,0:0:0:0:
301,188,72988,1,2,0:0:0:0:
265,54,73159,1,8,0:0:0:0:
208,204,73331,1,0,0:0:0:0:
208,204,73417,1,0,0:0:0:0:
208,204,73502,37,2,0:0:0:0:
92,40,73674,1,0,0:0:0:0:
44,268,73845,1,8,0:0:0:0:
100,152,74017,1,0,0:0:0:0:
100,152,74102,1,0,0:0:0:0:
100,152,74188,1,0,0:0:0:0:
176,328,74359,1,2,0:0:0:0:
320,168,74531,1,0,0:0:0:0:
313,293,74702,1,0,0:0:0:0:
226,104,74874,5,2,0:0:0:0:
420,140,75045,1,2,0:0:0:0:
420,140,75131,1,2,0:0:0:0:
420,140,75217,2,0,B|404:192|404:192|416:248|416:304,1,157.5,8|2,0:0|0:0,0:0:0:0:
372,356,75559,1,2,0:0:0:0:
312,248,75731,1,2,0:0:0:0:
488,200,75902,2,0,P|494:255|494:315,1,105
345,355,76245,5,2,0:0:0:0:
345,355,76331,1,2,0:0:0:0:
345,355,76417,1,2,0:0:0:0:
174,326,76588,1,8,0:0:0:0:
250,201,76759,1,2,0:0:0:0:
250,201,76845,2,0,P|252:148|238:90,1,105,10|0,0:0|0:0,0:0:0:0:
265,31,77102,1,10,0:0:0:0:
421,122,77274,1,8,3:0:0:0:
440,166,77360,1,0,3:0:0:0:
448,213,77446,1,0,3:0:0:0:
446,260,77531,1,0,3:0:0:0:
430,305,77617,38,0,P|348:276|276:295,1,157.5
217,332,77959,2,0,L|109:326,1,105,12|0,0:0|0:0,0:0:0:0:
33,235,78302,1,0,0:0:0:0:
192,172,78474,1,2,0:0:0:0:
192,172,78559,1,2,0:0:0:0:
192,172,78645,1,10,0:0:0:0:
55,258,78817,1,0,0:0:0:0:
92,107,78988,5,2,0:0:0:0:
245,236,79159,1,0,0:0:0:0:
239,47,79330,1,8,0:0:0:0:
70,131,79502,1,0,0:0:0:0:
245,236,79674,1,0,0:0:0:0:
245,236,79845,1,2,0:0:0:0:
260,46,80017,1,8,0:0:0:0:
136,160,80188,1,2,0:0:0:0:
136,160,80274,1,2,0:0:0:0:
136,160,80359,6,0,P|200:148|292:176,1,157.5,4|0,0:0|0:0,0:0:0:0:
332,236,80702,1,8,0:0:0:0:
196,348,80874,1,0,0:0:0:0:
164,344,80959,1,0,0:0:0:0:
132,340,81045,1,0,0:0:0:0:
24,216,81217,1,2,0:0:0:0:
176,62,81388,1,8,0:0:0:0:
196,240,81559,1,0,0:0:0:0:
196,240,81645,1,0,0:0:0:0:
196,240,81731,37,2,0:0:0:0:
244,136,81902,1,0,0:0:0:0:
288,352,82074,1,8,0:0:0:0:
332,236,82245,1,2,0:0:0:0:
332,236,82331,2,0,P|381:229|445:238,1,105,2|0,0:0|0:0,0:0:0:0:
459,146,82588,2,0,L|403:139,1,52.5,2|0,0:0|0:0,0:0:0:0:
279,139,82759,5,8,0:0:0:0:
267,143,82844,1,10,0:0:0:0:
254,146,82930,1,8,0:0:0:0:
241,149,83016,1,8,0:0:0:0:
228,153,83102,6,0,B|200:200|200:200|192:252|248:300,1,157.5,4|0,0:0|0:0,0:0:0:0:
332,236,83445,2,0,L|312:124,1,105,8|0,0:0|0:0,0:0:0:0:
412,24,83788,1,0,0:0:0:0:
496,136,83959,1,2,0:0:0:0:
488,168,84045,1,2,0:0:0:0:
480,200,84131,1,10,0:0:0:0:
408,332,84302,1,0,0:0:0:0:
323,148,84474,38,0,P|272:136|220:144,1,105,2|0,0:0|0:0,0:0:0:0:
64,226,84817,1,8,0:0:0:0:
196,316,84988,1,0,0:0:0:0:
131,169,85159,5,2,0:0:0:0:
123,307,85331,1,2,0:0:0:0:
152,169,85502,1,8,0:0:0:0:
144,311,85674,2,0,L|252:312,1,105,2|0,0:0|0:0,0:0:0:0:
354,230,86017,5,0,0:0:0:0:
354,230,86102,1,0,0:0:0:0:
354,230,86188,1,2,0:0:0:0:
219,221,86359,1,2,0:0:0:0:
217,212,86445,1,0,0:0:0:0:
215,203,86531,1,2,0:0:0:0:
312,80,86702,1,0,0:0:0:0:
312,80,86788,1,0,0:0:0:0:
312,80,86874,38,0,P|344:104|400:104,1,84,0|0,3:0|0:0,0:0:0:0:
460,148,87131,2,0,L|468:236,1,84,4|0,3:0|0:0,0:0:0:0:
444,312,87388,1,0,3:0:0:0:
340,236,87559,1,8,3:0:0:0:
254,354,87731,1,0,3:0:0:0:
254,354,87817,1,0,3:0:0:0:
254,354,87902,6,0,L|243:263,1,84,0|0,3:0|0:0,0:0:0:0:
283,100,88245,1,8,0:0:0:0:
399,226,88417,1,8,0:0:0:0:
410,57,88587,5,4,0:0:0:0:
410,57,88759,1,0,0:0:0:0:
207,104,88931,38,4,P|227:193|302:187,1,181.125003454685,12|4,0:0|0:0,0:0:0:0:
360,132,89274,1,0,0:0:0:0:
122,137,89445,2,0,B|123:195|157:231|157:231|151:254,2,120.750002303124,6|8|0,0:0|0:0|0:0,0:0:0:0:
276,72,89959,6,0,B|303:187|303:187|284:252,1,181.125003454685,6|0,0:0|0:0,0:0:0:0:
202,284,90302,2,0,P|146:257|74:270,1,131.25,14|0,0:0|0:0,0:0:0:0:
9,230,90559,1,0,0:0:0:0:
9,230,90645,5,6,0:0:0:0:
210,126,90817,1,2,0:0:0:0:
131,344,90988,1,8,0:0:0:0:
65,101,91159,1,0,0:0:0:0:
340,184,91331,6,0,B|356:232|352:264|352:264|324:288,1,110.249996635437,6|0,0:0|0:0,0:0:0:0:
251,294,91674,5,8,0:0:0:0:
298,88,91845,1,0,0:0:0:0:
466,200,92017,1,0,0:0:0:0:
247,158,92188,1,2,0:0:0:0:
468,224,92359,1,8,0:0:0:0:
264,244,92531,1,0,0:0:0:0:
264,244,92617,1,0,0:0:0:0:
264,244,92702,6,0,P|342:264|387:184,1,181.125003454685,6|0,0:0|0:0,0:0:0:0:
362,98,93045,6,0,B|317:76|317:76|222:101,1,131.25,14|0,0:0|0:0,0:0:0:0:
167,143,93302,1,2,0:0:0:0:
167,143,93388,2,0,B|191:196|190:239|190:239|168:279,1,131.25,6|10,0:0|0:0,0:0:0:0:
86,278,93645,1,10,0:0:0:0:
86,278,93731,2,0,L|89:229,1,49.8749986681939,8|0,3:0|3:0,0:0:0:0:
159,93,93902,2,0,L|166:142,1,49.8749986681939,0|0,3:0|3:0,0:0:0:0:
264,264,94074,6,0,B|278:228|278:228|281:196|264:143,1,120.750002303124,4|0,0:0|0:0,0:0:0:0:
132,51,94417,1,8,0:0:0:0:
189,236,94588,1,0,0:0:0:0:
348,88,94759,38,0,B|304:72|304:72|264:88|208:80,1,141.749995674133
148,36,95102,2,0,L|244:32,1,94.499997116089,10|2,0:0|0:0,0:0:0:0:
404,184,95445,6,0,L|401:290,1,94.499997116089,6|0,0:0|0:0,0:0:0:0:
333,346,95702,1,0,0:0:0:0:
333,346,95788,6,0,P|254:320|285:233,1,188.999994232178,14|0,0:0|0:0,0:0:0:0:
302,226,96131,1,0,0:0:0:0:
498,226,96302,1,2,0:0:0:0:
337,163,96474,6,0,P|316:234|350:295,1,141.749995674133,14|0,0:0|0:0,0:0:0:0:
403,223,96817,38,0,P|311:247|227:231,1,181.125003454685,4|0,0:0|0:0,0:0:0:0:
167,183,97159,1,10,0:0:0:0:
340,24,97331,1,0,0:0:0:0:
403,223,97502,1,0,0:0:0:0:
244,150,97674,1,2,0:0:0:0:
264,344,97845,2,0,P|344:364|432:320,1,181.125003454685,8|0,0:0|0:0,0:0:0:0:
466,208,98188,6,0,L|454:156,1,47.2499985580445,6|0,0:0|0:0,0:0:0:0:
337,114,98359,2,0,L|329:170,1,47.2499985580445,0|2,0:0|0:0,0:0:0:0:
240,248,98531,38,10,P|216:184|208:120,1,125.999996154785,8|8,0:0|0:0,0:0:0:0:
288,52,98788,1,10,0:0:0:0:
288,52,98874,2,0,P|293:86|288:120,1,62.9999980773926,14|0,0:0|0:0,0:0:0:0:
144,204,99045,2,0,P|135:175|134:141,1,62.9999980773926,2|0,0:0|0:0,0:0:0:0:
184,12,99217,38,0,P|204:40|216:96,1,78.75,10|0,0:0|0:0,0:0:0:0:
216,160,99559,6,0,B|184:196|184:196|116:215|44:162,1,181.125003454685,4|0,0:0|0:0,0:0:0:0:
12,111,99902,1,10,0:0:0:0:
164,17,100074,1,0,0:0:0:0:
164,17,100159,1,2,0:0:0:0:
164,17,100245,1,2,0:0:0:0:
259,125,100417,1,2,0:0:0:0:
149,264,100588,38,0,B|185:240|185:240|254:232|331:275,1,181.125003454685,10|0,0:0|0:0,0:0:0:0:
430,254,100931,2,0,P|458:172|405:103,1,181.125003454685,4|0,0:0|0:0,0:0:0:0:
258,125,101274,2,0,P|282:210|367:187,1,196.875,12|2,0:0|0:0,0:0:0:0:
405,103,101617,38,0,B|402:73|402:73|385:37,1,60.3750011515618,2|0,0:0|0:0,0:0:0:0:
226,57,101788,2,0,B|201:73|201:73|179:107,1,60.3750011515618,2|0,0:0|0:0,0:0:0:0:
186,241,101959,1,2,0:0:0:0:
186,241,102131,1,0,0:0:0:0:
346,291,102302,38,0,B|377:281|377:281|390:248|381:198,1,110.249996635437,4|0,0:0|0:0,0:0:0:0:
346,138,102645,1,8,0:0:0:0:
280,318,102817,1,2,0:0:0:0:
280,318,102902,22,0,P|319:358|386:351,1,120.750002303124,2|0,0:0|0:0,0:0:0:0:
444,313,103159,1,2,0:0:0:0:
411,132,103331,1,8,0:0:0:0:
286,228,103502,1,0,0:0:0:0:
423,49,103674,6,0,P|492:108|470:193,1,181.125003454685,4|0,0:0|0:0,0:0:0:0:
392,245,104017,2,0,B|314:255|260:222|260:222|279:202|312:197,1,181.125003454685,14|0,0:0|0:0,0:0:0:0:
382,168,104359,6,0,L|425:172,1,34.1249984378815,2|2,0:0|0:0,0:0:0:0:
293,316,104531,2,0,L|260:308,1,34.1249984378815,2|2,0:0|0:0,0:0:0:0:
161,169,104702,1,8,3:0:0:0:
161,169,104788,22,0,B|97:181,1,62.9999980773926,8|0,3:0|0:0,0:0:0:0:
107,254,105045,6,0,B|172:236|228:256|228:256|220:232|232:188,1,181.125003454685,4|0,0:0|0:0,0:0:0:0:
245,122,105388,1,8,0:0:0:0:
200,348,105559,1,0,0:0:0:0:
200,348,105645,1,0,0:0:0:0:
200,348,105731,1,2,0:0:0:0:
300,232,105902,1,2,0:0:0:0:
120,163,106074,1,8,0:0:0:0:
199,327,106245,1,0,0:0:0:0:
280,148,106417,6,0,B|288:96|256:36|256:36|233:62|226:98,1,181.125003454685,6|0,0:0|0:0,0:0:0:0:
249,223,106759,2,0,B|284:230|284:230|389:207,1,120.750002303124,8|0,0:0|0:0,0:0:0:0:
434,65,107102,1,2,0:0:0:0:
256,36,107274,1,2,0:0:0:0:
249,223,107445,6,0,P|189:205|103:211,1,141.749995674133,10|0,0:0|0:0,0:0:0:0:
85,196,107788,5,8,3:0:0:0:
315,135,107959,1,2,0:0:0:0:
59,183,108131,37,2,0:0:0:0:
330,221,108302,1,8,3:0:0:0:
98,81,108474,5,2,0:0:0:0:
199,353,108645,1,2,0:0:0:0:
199,353,108731,1,2,0:0:0:0:
199,353,108817,1,8,3:0:0:0:
277,130,108988,1,2,0:0:0:0:
100,244,109159,1,2,0:0:0:0:
100,244,109245,1,2,0:0:0:0:
100,244,109331,1,10,3:0:0:0:
263,350,109502,5,2,0:0:0:0:
368,229,109674,1,2,3:0:0:0:
111,161,109845,2,0,P|101:201|100:249,1,84,8|0,0:0|0:0,0:0:0:0:
172,344,110188,37,8,0:0:0:0:
217,350,110273,1,8,0:0:0:0:
263,350,110359,1,8,0:0:0:0:
309,344,110445,1,8,0:0:0:0:
353,330,110531,6,0,B|376:304|376:304|368:276|368:224,1,110.249996635437
284,164,110874,2,0,L|276:116,3,36.749998878479,2|0|0|0,0:0|0:0|0:0|0:0,0:0:0:0:
212,236,111217,2,0,L|208:280,3,36.749998878479,0|0|2|0,0:0|0:0|0:0|0:0,0:0:0:0:
148,156,111559,2,0,L|148:76,1,73.4999977569581,2|0,0:0|0:0,0:0:0:0:
228,32,111817,1,0,0:0:0:0:
228,32,111902,6,0,P|268:48|308:48,1,73.4999977569581,2|0,0:0|0:0,0:0:0:0:
416,36,112245,1,2,0:0:0:0:
445,142,112417,1,0,0:0:0:0:
294,180,112588,5,0,0:0:0:0:
372,109,112759,1,2,0:0:0:0:
419,261,112931,5,2,0:0:0:0:
374,183,113102,1,0,0:0:0:0:
496,184,113274,38,0,L|492:304,1,110.249996635437,2|0,0:0|0:0,0:0:0:0:
480,321,113617,2,0,B|446:318|446:318|406:328,1,73.4999977569581,2|0,0:0|0:0,0:0:0:0:
299,363,113959,1,0,0:0:0:0:
299,363,114131,1,2,0:0:0:0:
198,276,114302,1,2,0:0:0:0:
307,167,114474,1,2,0:0:0:0:
307,167,114559,1,0,0:0:0:0:
307,167,114645,6,0,B|292:129|292:129|299:56,1,110.249996635437,2|0,0:0|0:0,0:0:0:0:
303,30,114988,1,2,0:0:0:0:
292,252,115159,2,0,P|228:240|180:256,1,110.249996635437,0|0,3:0|0:0,0:0:0:0:
128,302,115502,1,2,0:0:0:0:
128,302,115588,1,2,0:0:0:0:
128,302,115674,2,0,L|87:298,1,36.749998878479,2|2,0:0|0:0,0:0:0:0:
44,193,115845,2,0,L|98:192,1,36.749998878479,2|2,0:0|0:0,0:0:0:0:
188,153,116017,5,4,0:0:0:0:
48,232,116359,38,0,P|112:224|160:248,1,110.249996635437,2|0,0:0|0:0,0:0:0:0:
179,252,116702,2,0,B|217:255|217:255|257:246,1,73.4999977569581,0|2,0:0|0:0,0:0:0:0:
224,112,117045,1,2,0:0:0:0:
224,112,117217,1,0,0:0:0:0:
88,124,117388,5,2,0:0:0:0:
188,32,117559,1,0,0:0:0:0:
188,32,117645,1,0,0:0:0:0:
188,32,117731,2,0,L|272:40,1,73.4999977569581,2|0,0:0|0:0,0:0:0:0:
320,96,117988,1,0,0:0:0:0:
320,96,118074,2,0,P|356:84|400:88,1,73.4999977569581,0|2,0:0|0:0,0:0:0:0:
473,193,118417,1,2,0:0:0:0:
325,228,118588,1,0,0:0:0:0:
296,20,118759,5,2,0:0:0:0:
284,32,119102,2,0,P|228:40|172:28,1,110.249996635437,2|0,0:0|0:0,0:0:0:0:
149,42,119445,2,0,B|131:77|131:77|137:117,1,73.4999977569581,0|2,0:0|0:0,0:0:0:0:
79,223,119788,2,0,B|115:236|115:236|153:228,1,73.4999977569581,2|0,0:0|0:0,0:0:0:0:
272,164,120131,38,0,L|300:204,3,36.749998878479
224,276,120474,2,0,L|224:320,3,36.749998878479
136,356,120817,1,0,3:0:0:0:
113,353,120902,1,0,3:0:0:0:
90,351,120988,1,0,3:0:0:0:
67,349,121074,1,0,3:0:0:0:
44,323,121159,2,0,L|6:318,3,36.749998878479
80,228,121502,38,0,L|164:224,1,78.75,4|0,0:0|0:0,0:0:0:0:
208,152,121845,6,0,L|192:88,1,62.9999980773926,8|0,0:0|0:0,0:0:0:0:
324,260,122188,2,0,L|324:328,1,62.9999980773926
180,152,122531,2,0,L|176:88,1,62.9999980773926,8|0,0:0|0:0,0:0:0:0:
352,260,122874,2,0,L|352:328,1,62.9999980773926
420,212,123131,1,0,0:0:0:0:
420,212,123217,2,0,L|404:140,1,62.9999980773926,8|0,0:0|0:0,0:0:0:0:
304,20,123559,5,2,0:0:0:0:
300,44,123731,1,2,0:0:0:0:
208,200,123902,5,8,0:0:0:0:
192,180,124074,1,0,0:0:0:0:
128,16,124245,22,0,L|212:8,1,78.75,4|0,0:0|0:0,0:0:0:0:
224,92,124588,6,0,L|160:108,1,62.9999980773926,8|0,0:0|0:0,0:0:0:0:
80,220,124931,1,0,0:0:0:0:
288,224,125102,1,0,0:0:0:0:
200,304,125274,1,8,0:0:0:0:
160,152,125445,1,0,0:0:0:0:
376,184,125617,6,0,L|384:256,1,62.9999980773926
264,92,125959,2,0,L|270:29,1,62.9999980773926,8|0,0:0|0:0,0:0:0:0:
348,72,126217,1,0,0:0:0:0:
348,72,126302,2,0,L|356:112,1,31.4999990386963,8|0,3:0|0:0,0:0:0:0:
424,168,126474,2,0,L|416:208,1,31.4999990386963,8|0,3:0|0:0,0:0:0:0:
324,276,126645,5,0,3:0:0:0:
276,276,126731,1,0,3:0:0:0:
228,276,126817,1,0,3:0:0:0:
181,276,126902,1,0,3:0:0:0:
133,276,126988,22,0,B|120:228|120:228|128:196,1,78.75,4|0,0:0|0:0,0:0:0:0:
200,148,127331,6,0,P|232:156|268:152,1,62.9999980773926,8|2,0:0|0:0,0:0:0:0:
261,153,127588,1,2,0:0:0:0:
261,153,127674,1,2,0:0:0:0:
348,72,127845,1,2,0:0:0:0:
348,72,127931,1,2,0:0:0:0:
348,72,128017,1,8,0:0:0:0:
408,208,128188,1,2,0:0:0:0:
408,208,128274,1,2,0:0:0:0:
408,208,128359,6,0,P|372:204|340:208,1,62.9999980773926,2|0,0:0|0:0,0:0:0:0:
312,224,128617,1,0,0:0:0:0:
312,224,128702,1,8,0:0:0:0:
260,352,128874,1,2,0:0:0:0:
260,352,128959,1,2,0:0:0:0:
260,352,129045,1,2,0:0:0:0:
148,232,129217,1,10,0:0:0:0:
148,232,129302,1,10,0:0:0:0:
148,232,129388,1,2,0:0:0:0:
257,150,129559,1,8,0:0:0:0:
228,348,129731,5,8,3:0:0:0:
228,348,130245,1,8,3:0:0:0:
288,192,130417,1,8,3:0:0:0:
332,320,130588,1,8,3:0:0:0:
152,256,130759,1,8,3:0:0:0:
236,64,130931,1,8,0:0:0:0:
280,268,131102,5,0,0:0:0:0:
312,247,131188,1,0,0:0:0:0:
349,239,131274,1,8,0:0:0:0:
386,243,131359,1,0,0:0:0:0:
418,261,131445,2,0,L|422:221,1,31.4999990386963,8|0,0:0|0:0,0:0:0:0:
323,157,131617,2,0,L|319:121,1,31.4999990386963
405,26,131788,37,2,0:0:0:0:
406,44,131874,1,2,0:0:0:0:
407,62,131959,1,2,0:0:0:0:
408,80,132045,1,2,0:0:0:0:
409,98,132131,1,2,0:0:0:0:
368,81,132216,1,2,0:0:0:0:
324,77,132302,1,2,0:0:0:0:
281,85,132388,1,2,0:0:0:0:
242,105,132473,1,4,0:0:0:0:
256,192,132560,12,2,135232,0:0:0:0:
256,192,135347,12,2,137588,0:0:0:0:
379,293,137991,6,0,P|283:176|320:324,1,420,2|2,0:0|0:0,0:0:0:0:
319,246,140060,1,2,0:0:0:0:
282,229,140692,6,0,B|151:173|65:258|65:258|118:287|120:335|120:335|179:348|226:317,1,437.5,2|2,0:0|0:0,0:0:0:0:
231,314,142761,2,0,P|221:259|223:198,1,105,2|2,0:0|0:0,0:0:0:0:
370,167,143451,6,0,P|471:287|320:235,1,420,2|2,0:0|0:0,0:0:0:0:
402,243,145519,1,2,0:0:0:0:
413,54,146209,2,0,B|348:71|348:71|233:56|233:56|305:18|305:18|292:174,1,420,2|2,0:0|0:0,0:0:0:0:
293,174,148278,2,0,L|197:166,1,87.5,2|2,0:0|3:0,0:0:0:0:
133,297,148939,6,0,L|89:290,4,39.375,2|2|2|2|2,0:0|0:0|0:0|0:0|0:0,0:0:0:0:
133,297,150290,6,0,P|223:310|186:237,1,210,2|2,0:0|0:0,0:0:0:0:
133,297,153048,6,0,P|216:307|198:235,1,182,2|2,0:0|0:0,0:0:0:0:
424,148,154417,37,4,0:0:0:0:
404,148,154759,5,2,0:0:0:0:
266,169,154931,1,2,0:0:0:0:
296,328,155101,1,2,0:0:0:0:
296,328,155445,1,2,0:0:0:0:
190,273,155617,1,2,0:0:0:0:
308,316,155788,38,0,L|308:252,1,62.9999980773926,2|0,0:0|0:0,0:0:0:0:
199,123,156131,2,0,L|199:186,1,62.9999980773926,0|2,0:0|0:0,0:0:0:0:
104,244,156474,2,0,P|68:228|40:228,1,62.9999980773926,2|0,0:0|0:0,0:0:0:0:
48,332,156817,1,2,0:0:0:0:
188,292,156988,1,2,0:0:0:0:
72,116,157159,5,8,3:0:0:0:
88,128,157502,2,0,L|164:128,1,62.9999980773926,2|2,0:0|0:0,0:0:0:0:
256,88,157845,2,0,L|320:96,1,62.9999980773926,2|0,0:0|0:0,0:0:0:0:
336,240,158188,2,0,L|273:247,1,62.9999980773926,2|0,0:0|0:0,0:0:0:0:
156,232,158531,5,0,0:0:0:0:
272,332,158702,1,0,0:0:0:0:
300,168,158874,2,0,L|237:175,2,62.9999980773926,2|2|0,0:0|0:0|0:0,0:0:0:0:
388,180,159388,1,0,0:0:0:0:
476,192,159559,1,2,0:0:0:0:
396,280,159731,1,2,0:0:0:0:
384,64,159902,37,8,3:0:0:0:
376,80,160245,2,0,L|309:84,1,62.9999980773926,2|2,0:0|0:0,0:0:0:0:
200,52,160588,2,0,L|129:53,1,62.9999980773926,2|0,0:0|0:0,0:0:0:0:
28,98,160931,1,2,0:0:0:0:
66,204,161102,1,2,0:0:0:0:
168,156,161274,6,0,P|200:152|236:160,1,62.9999980773926
314,254,161617,1,2,0:0:0:0:
314,254,161788,1,2,0:0:0:0:
217,315,161959,1,2,0:0:0:0:
324,356,162131,1,0,0:0:0:0:
328,168,162302,1,2,0:0:0:0:
228,220,162474,1,2,0:0:0:0:
340,284,162645,6,0,B|384:276|384:276|420:280|468:276,1,125.999996154785,8|2,3:0|0:0,0:0:0:0:
506,197,163159,1,2,0:0:0:0:
472,115,163331,1,2,0:0:0:0:
256,192,163417,12,0,165217,0:0:0:0:
300,168,165388,6,0,B|259:159|259:159|164:172,1,126,8|0,0:0|0:0,0:0:0:0:
110,107,165731,2,0,L|183:98,1,73.4999977569581,8|0,0:0|0:0,0:0:0:0:
340,104,166074,6,0,B|332:152|332:152|352:192|352:236,1,126,8|0,0:0|0:0,0:0:0:0:
273,243,166417,2,0,B|238:240|238:240|193:253,1,73.4999977569581,8|0,0:0|0:0,0:0:0:0:
348,324,166759,2,0,B|356:256|356:256|346:186,1,126,8|0,0:0|0:0,0:0:0:0:
423,184,167102,2,0,L|435:264,1,73.4999977569581,8|0,0:0|0:0,0:0:0:0:
328,356,167445,6,0,B|280:344|280:344|240:356|208:344|208:344|180:344,1,141.749995674133,8|0,0:0|0:0,0:0:0:0:
166,270,167788,6,0,B|204:265|204:265|244:272,1,78.75,8|0,0:0|0:0,0:0:0:0:
320,244,168131,6,0,B|297:221|297:221|283:176|301:148|347:144,1,141.749995674133,12|0,0:0|0:0,0:0:0:0:
418,183,168474,2,0,P|453:191|496:181,1,73.4999977569581,8|0,0:0|0:0,0:0:0:0:
504,162,168731,1,0,0:0:0:0:
504,162,168817,6,0,P|512:84|438:57,1,141.749995674133,8|0,0:0|0:0,0:0:0:0:
384,76,169159,2,0,B|355:94|355:94|306:91,1,73.4999977569581,8|0,0:0|0:0,0:0:0:0:
190,75,169502,6,0,B|184:105|198:129|198:129|174:167|186:223,1,141.749995674133,8|0,0:0|0:0,0:0:0:0:
238,281,169845,2,0,B|264:260|264:260|269:215,1,73.4999977569581,8|0,0:0|0:0,0:0:0:0:
197,129,170188,6,0,B|154:149|154:149|109:152|55:128,1,141.749995674133,8|0,0:0|0:0,0:0:0:0:
7,192,170531,6,0,B|28:229|28:229|26:268,1,78.75
108,293,170874,38,0,L|152:293,3,36.749998878479,8|8|8|8,0:0|0:0|0:0|0:0,0:0:0:0:
232,218,171217,2,0,L|276:218,3,36.749998878479,8|8|8|8,0:0|0:0|0:0|0:0,0:0:0:0:
362,270,171559,6,0,L|375:320,1,36.749998878479,2|2,0:0|0:0,0:0:0:0:
304,380,171731,2,0,L|267:385,1,36.749998878479,2|2,0:0|0:0,0:0:0:0:
178,344,171902,2,0,L|173:297,1,36.749998878479,2|2,0:0|0:0,0:0:0:0:
122,209,172074,2,0,L|129:167,1,36.749998878479,2|2,0:0|0:0,0:0:0:0:
203,92,172245,5,8,0:0:0:0:
331,198,172417,1,8,0:0:0:0:
432,72,172588,1,8,0:0:0:0:
432,72,172759,1,8,0:0:0:0:
240,196,172931,37,8,0:0:0:0:
344,44,173102,1,8,0:0:0:0:
397,229,173274,1,8,0:0:0:0:
397,229,173445,1,8,0:0:0:0:
141,88,173617,5,8,0:0:0:0:
91,96,173702,1,8,0:0:0:0:
56,134,173788,1,8,0:0:0:0:
41,184,173874,1,8,0:0:0:0:
50,235,173959,1,8,0:0:0:0:
81,278,174045,1,8,0:0:0:0:
130,295,174131,1,8,0:0:0:0:
182,292,174217,1,8,0:0:0:0:
224,263,174302,5,8,0:0:0:0:
272,223,174388,1,8,0:0:0:0:
333,219,174474,1,8,0:0:0:0:
376,263,174559,1,8,0:0:0:0:
370,325,174645,37,8,0:0:0:0:
315,354,174730,1,8,0:0:0:0:
252,346,174816,1,8,0:0:0:0:
192,327,174902,1,8,0:0:0:0:
130,336,174988,1,8,0:0:0:0:
256,192,175074,12,0,176188,0:0:0:0:
191,264,176358,5,6,0:0:0:0:
317,74,176531,1,2,0:0:0:0:
404,276,176702,1,8,0:0:0:0:
224,177,176874,1,2,0:0:0:0:
224,177,176959,1,2,0:0:0:0:
224,177,177045,1,2,0:0:0:0:
419,178,177217,1,2,0:0:0:0:
360,360,177388,2,0,P|268:340|176:360,1,181.125003454685,8|0,0:0|0:0,0:0:0:0:
108,324,177731,5,0,0:0:0:0:
91,103,177902,1,2,0:0:0:0:
91,103,177988,1,2,0:0:0:0:
91,103,178074,1,8,0:0:0:0:
264,256,178245,1,0,0:0:0:0:
22,172,178417,1,0,0:0:0:0:
259,24,178588,1,2,0:0:0:0:
268,300,178759,1,8,0:0:0:0:
91,103,178931,1,0,0:0:0:0:
370,108,179102,37,6,0:0:0:0:
268,300,179274,1,2,0:0:0:0:
268,300,179359,1,0,0:0:0:0:
268,300,179445,1,10,0:0:0:0:
468,276,179617,1,0,0:0:0:0:
360,76,179788,1,0,0:0:0:0:
272,232,179959,1,2,0:0:0:0:
468,276,180131,1,8,0:0:0:0:
468,276,180302,1,0,0:0:0:0:
251,312,180474,6,0,P|203:280|191:211,1,125.999996154785,0|2,0:0|0:0,0:0:0:0:
272,232,180731,1,2,0:0:0:0:
272,232,180817,2,0,B|179:245|179:245|126:219|126:219|74:223,1,188.999994232178,10|2,0:0|0:0,0:0:0:0:
15,260,181159,1,2,0:0:0:0:
88,96,181331,1,2,0:0:0:0:
112,328,181502,1,0,3:0:0:0:
168,327,181588,1,0,3:0:0:0:
224,326,181674,1,0,3:0:0:0:
279,326,181759,1,0,3:0:0:0:
336,326,181845,5,6,0:0:0:0:
436,166,182017,1,2,0:0:0:0:
214,172,182188,1,8,0:0:0:0:
409,253,182359,1,0,0:0:0:0:
215,190,182531,1,0,0:0:0:0:
418,64,182702,1,2,0:0:0:0:
320,320,182874,1,8,0:0:0:0:
320,320,183045,1,0,0:0:0:0:
156,59,183217,38,0,L|283:56,1,120.750002303124,2|0,0:0|0:0,0:0:0:0:
348,116,183474,1,2,0:0:0:0:
348,116,183559,2,0,P|312:196|240:156,1,181.125003454685,10|0,0:0|0:0,0:0:0:0:
231,144,183902,5,2,0:0:0:0:
430,46,184074,1,2,0:0:0:0:
426,276,184245,1,8,0:0:0:0:
231,144,184417,1,0,0:0:0:0:
231,144,184502,1,0,0:0:0:0:
231,144,184588,5,6,0:0:0:0:
436,136,184759,1,2,0:0:0:0:
178,87,184931,2,0,P|154:132|163:188,1,89.2500017023087,8|0,0:0|0:0,0:0:0:0:
249,324,185274,1,0,0:0:0:0:
345,168,185445,1,2,0:0:0:0:
127,263,185617,1,8,0:0:0:0:
335,330,185788,1,0,0:0:0:0:
160,160,185959,37,0,0:0:0:0:
384,180,186131,1,2,0:0:0:0:
257,233,186302,1,0,0:0:0:0:
241,74,186474,1,2,0:0:0:0:
241,74,186559,1,2,0:0:0:0:
241,74,186645,1,2,0:0:0:0:
68,162,186817,1,2,0:0:0:0:
130,297,186987,38,0,B|167:290|167:290|203:295,1,73.4999977569581,2|0,0:0|3:0,3:0:0:0:
342,306,187330,6,0,L|344:184,1,120.750002303124,6|2,0:0|0:0,0:0:0:0:
192,64,187674,2,0,P|140:120|213:177,1,181.125003454685,8|0,0:0|0:0,0:0:0:0:
277,155,188017,1,0,0:0:0:0:
128,9,188188,1,2,0:0:0:0:
43,184,188359,1,8,0:0:0:0:
244,256,188531,1,0,0:0:0:0:
244,256,188617,1,0,0:0:0:0:
244,256,188702,6,0,L|248:136,1,120.750002303124,2|0,0:0|0:0,0:0:0:0:
336,288,189045,1,8,0:0:0:0:
400,120,189217,1,0,0:0:0:0:
400,120,189302,1,0,0:0:0:0:
400,120,189388,1,0,0:0:0:0:
429,236,189559,1,2,0:0:0:0:
276,128,189731,1,8,0:0:0:0:
489,156,189902,1,0,0:0:0:0:
312,335,190074,5,2,0:0:0:0:
192,168,190245,1,2,0:0:0:0:
192,168,190331,1,2,0:0:0:0:
192,168,190416,2,0,L|320:164,1,120.750002303124,8|0,0:0|0:0,0:0:0:0:
292,360,190759,2,0,L|168:352,1,120.750002303124,0|2,0:0|0:0,0:0:0:0:
28,212,191102,1,8,0:0:0:0:
151,56,191274,1,0,0:0:0:0:
151,56,191359,1,0,0:0:0:0:
151,56,191445,6,0,P|223:126|197:192,1,181.125003454685,2|0,0:0|0:0,0:0:0:0:
169,210,191788,1,10,0:0:0:0:
376,136,191959,1,2,0:0:0:0:
376,136,192045,2,0,P|400:186|399:253,1,120.750002303124,2|0,0:0|0:0,0:0:0:0:
386,284,192302,1,10,3:0:0:0:
199,175,192474,1,2,0:0:0:0:
199,175,192559,2,0,B|183:229|183:229|197:281,1,105,10|0,0:0|0:0,0:0:0:0:
149,338,192817,38,0,P|88:347|41:304,1,120.750002303124,4|2,0:0|0:0,0:0:0:0:
30,234,193074,1,2,0:0:0:0:
78,172,193159,2,0,L|205:175,1,120.750002303124,8|0,0:0|0:0,0:0:0:0:
272,354,193502,1,0,0:0:0:0:
446,207,193674,1,2,0:0:0:0:
245,85,193845,1,8,0:0:0:0:
363,296,194017,1,0,0:0:0:0:
400,64,194188,6,0,P|338:51|272:59,1,120.750002303124,2|0,0:0|0:0,0:0:0:0:
211,97,194445,1,0,0:0:0:0:
211,97,194531,1,8,0:0:0:0:
286,281,194702,1,0,0:0:0:0:
397,169,194874,1,0,0:0:0:0:
397,169,195045,1,2,0:0:0:0:
180,136,195217,2,0,P|146:193|186:261,1,141.749995674133
199,270,195558,5,10,0:0:0:0:
420,253,195731,1,10,0:0:0:0:
218,198,195902,1,10,0:0:0:0:
368,353,196074,1,10,0:0:0:0:
318,110,196245,1,10,0:0:0:0:
147,326,196417,1,10,0:0:0:0:
402,205,196588,1,10,0:0:0:0:
147,102,196759,1,10,0:0:0:0:
294,293,196931,5,2,0:0:0:0:
353,292,197016,1,2,0:0:0:0:
406,263,197102,1,2,0:0:0:0:
439,213,197188,1,2,0:0:0:0:
444,154,197274,6,0,L|441:117,1,31.4999990386963,2|2,0:0|0:0,0:0:0:0:
358,38,197445,2,0,L|350:-10,1,31.4999990386963,2|2,0:0|0:0,0:0:0:0:
254,89,197617,6,0,B|206:169|206:169|246:249,1,181.125003454685,2|0,0:0|0:0,0:0:0:0:
302,326,197959,5,0,3:0:0:0:
302,326,198045,1,0,3:0:0:0:
302,326,198131,1,0,3:0:0:0:
302,326,198217,1,0,3:0:0:0:
302,326,198302,22,0,L|305:360,2,35,6|2|2,0:0|0:0|0:0,0:0:0:0:
295,250,198645,5,2,0:0:0:0:
141,199,198817,1,2,0:0:0:0:
345,167,198988,1,2,0:0:0:0:
345,167,199330,5,2,0:0:0:0:
212,101,199502,1,2,0:0:0:0:
230,265,199673,2,0,L|366:269,1,136.499993751526,2|0,0:0|0:0,0:0:0:0:
489,134,200017,1,8,0:0:0:0:
336,24,200188,1,0,0:0:0:0:
235,212,200359,2,0,L|313:217,1,68.2499968757631,2|0,0:0|0:0,0:0:0:0:
390,103,200531,2,0,L|313:104,1,68.2499968757631,2|0,0:0|0:0,0:0:0:0:
190,127,200702,1,10,0:0:0:0:
350,303,200874,1,0,0:0:0:0:
396,73,201045,6,0,L|245:73,1,136.499993751526,6|0,0:0|0:0,0:0:0:0:
188,103,201302,1,0,0:0:0:0:
188,103,201388,1,0,0:0:0:0:
158,263,201559,1,0,0:0:0:0:
367,233,201731,1,2,0:0:0:0:
367,233,202074,2,0,P|379:140|289:115,1,204.749990627289,4|0,0:0|0:0,0:0:0:0:
224,172,202417,37,0,3:0:0:0:
212,365,202588,1,0,3:0:0:0:
48,308,202759,1,2,0:0:0:0:
48,308,202845,2,0,P|74:249|40:186,1,136.499993751526,10|0,0:0|0:0,0:0:0:0:
0,251,203102,1,2,0:0:0:0:
201,174,203274,1,2,0:0:0:0:
10,102,203445,1,8,0:0:0:0:
111,275,203617,1,2,0:0:0:0:
111,275,203702,1,2,0:0:0:0:
111,275,203788,38,0,L|245:271,1,126
265,355,204131,6,0,L|117:355,1,136.499993751526,8|0,0:0|0:0,0:0:0:0:
20,216,204474,1,2,0:0:0:0:
20,216,204817,6,0,B|100:232|175:193|175:193|160:139,1,204.749990627289,4|0,0:0|0:0,0:0:0:0:
130,78,205159,1,2,0:0:0:0:
108,312,205331,1,2,0:0:0:0:
300,172,205502,1,8,0:0:0:0:
60,124,205674,1,2,0:0:0:0:
60,124,205759,1,2,0:0:0:0:
60,124,205845,1,2,0:0:0:0:
122,357,206017,1,2,0:0:0:0:
333,256,206188,2,0,B|319:218|319:218|330:123,1,136.499993751526,8|0,0:0|0:0,0:0:0:0:
414,109,206445,1,0,0:0:0:0:
414,109,206531,6,0,P|373:197|277:191,1,204.749990627289,4|8,0:0|3:0,0:0:0:0:
214,143,206874,1,8,3:0:0:0:
125,284,207045,1,8,3:0:0:0:
267,369,207217,1,8,3:0:0:0:
408,224,207388,1,2,0:0:0:0:
168,96,207559,1,8,0:0:0:0:
240,340,207731,1,8,0:0:0:0:
308,100,207902,6,0,L|324:180,1,68.2499968757631,8|0,0:0|0:0,0:0:0:0:
176,280,208074,38,0,L|172:216,1,62.9999980773926,8|0,0:0|0:0,0:0:0:0:
348,96,208245,6,0,L|360:164,1,57.7500017623902,8|0,0:0|0:0,0:0:0:0:
136,272,208417,6,0,L|136:212,1,52.5,8|0,0:0|0:0,0:0:0:0:
400,94,208588,37,8,3:0:0:0:
407,129,208673,1,8,3:0:0:0:
415,164,208759,1,8,3:0:0:0:
359,329,208930,38,0,B|291:350|291:350|198:318,1,157.5,8|0,3:0|0:0,0:0:0:0:
152,210,209273,6,0,B|168:164|168:164|242:140|323:152,1,204.749990627289,4|0,0:0|0:0,0:0:0:0:
392,174,209616,1,8,0:0:0:0:
289,349,209788,1,2,0:0:0:0:
289,349,209874,2,0,B|236:335|236:335|153:340,1,136.499993751526,10|0,0:0|0:0,0:0:0:0:
83,345,210131,1,2,0:0:0:0:
158,152,210302,5,0,0:0:0:0:
322,337,210474,1,0,0:0:0:0:
322,337,210559,1,0,0:0:0:0:
322,337,210645,1,2,0:0:0:0:
361,102,210817,1,0,0:0:0:0:
185,245,210988,1,0,0:0:0:0:
446,241,211159,1,2,0:0:0:0:
316,23,211331,5,4,0:0:0:0:
425,137,211502,1,0,0:0:0:0:
278,206,211674,2,0,L|109:202,1,157.5,8|0,0:0|0:0,0:0:0:0:
67,283,212017,38,0,L|206:280,1,136.499993751526,6|0,0:0|0:0,0:0:0:0:
333,142,212359,1,8,0:0:0:0:
74,86,212531,1,2,0:0:0:0:
74,86,212617,2,0,L|215:80,1,136.499993751526,10|0,0:0|0:0,0:0:0:0:
281,89,212874,1,2,0:0:0:0:
423,192,213045,1,8,0:0:0:0:
280,283,213217,1,0,0:0:0:0:
360,125,213388,5,2,0:0:0:0:
406,291,213559,1,0,0:0:0:0:
512,191,213731,1,8,0:0:0:0:
369,83,213902,1,0,0:0:0:0:
369,83,213988,1,2,0:0:0:0:
369,83,214074,1,2,0:0:0:0:
255,276,214245,1,2,0:0:0:0:
106,180,214417,1,2,0:0:0:0:
106,180,214502,2,0,B|160:184|212:177|212:177|198:143,1,136.499993751526,2|0,0:0|0:0,0:0:0:0:
163,79,214759,6,0,B|220:96|220:96|366:80,1,204.749990627289,4|0,0:0|0:0,0:0:0:0:
440,101,215102,1,8,0:0:0:0:
466,282,215274,1,2,0:0:0:0:
466,282,215359,2,0,B|422:271|422:271|315:293,1,136.499993751526,2|0,0:0|0:0,0:0:0:0:
260,313,215617,1,2,0:0:0:0:
347,123,215788,1,8,0:0:0:0:
426,356,215959,1,0,0:0:0:0:
251,227,216131,37,2,0:0:0:0:
104,335,216302,1,0,0:0:0:0:
104,335,216387,1,0,0:0:0:0:
104,335,216474,2,0,L|99:228,1,105,8|0,0:0|0:0,0:0:0:0:
187,105,216817,5,0,0:0:0:0:
267,243,216988,1,2,0:0:0:0:
99,230,217159,1,8,0:0:0:0:
204,88,217331,1,0,0:0:0:0:
204,88,217417,1,0,0:0:0:0:
204,88,217501,6,0,L|302:91,1,94.499997116089,6|0,0:0|0:0,0:0:0:0:
399,185,217845,1,8,0:0:0:0:
301,282,218017,1,2,0:0:0:0:
301,282,218102,1,2,0:0:0:0:
301,282,218188,37,2,0:0:0:0:
227,178,218359,1,2,0:0:0:0:
160,309,218531,2,0,L|65:309,1,94.499997116089,8|2,0:0|0:0,0:0:0:0:
65,309,218788,1,2,0:0:0:0:
65,309,218874,1,2,0:0:0:0:
0,229,219045,1,2,0:0:0:0:
76,149,219217,6,0,L|80:82,1,62.9999980773926,2|2,0:0|0:0,0:0:0:0:
227,105,219559,22,0,P|275:169|202:202,1,183.75
153,207,220244,5,6,0:0:0:0:
186,310,220416,1,2,0:0:0:0:
72,359,220588,2,0,B|85:337|85:337|84:300|62:259,1,94.499997116089,2|0,0:0|0:0,0:0:0:0:
28,177,220845,1,0,0:0:0:0:
28,177,220931,2,0,B|72:190|72:190|119:178,1,94.499997116089,2|0,0:0|0:0,0:0:0:0:
227,105,221274,2,0,P|274:111|321:110,1,94.499997116089,2|0,0:0|0:0,0:0:0:0:
442,79,221617,5,2,0:0:0:0:
442,79,221788,1,0,0:0:0:0:
401,205,221959,2,0,B|355:203|355:203|314:231,1,94.499997116089,10|0,0:0|0:0,0:0:0:0:
281,346,222302,2,0,L|386:346,1,94.499997116089,2|0,0:0|0:0,0:0:0:0:
483,283,222645,1,2,0:0:0:0:
483,283,222817,1,2,0:0:0:0:
397,189,222988,6,0,B|355:175|355:175|305:184,1,94.499997116089,4|0,0:0|0:0,0:0:0:0:
190,211,223331,1,2,0:0:0:0:
190,211,223502,1,0,0:0:0:0:
287,91,223674,1,0,0:0:0:0:
293,281,223845,1,0,0:0:0:0:
293,281,223931,1,0,0:0:0:0:
293,281,224017,1,8,0:0:0:0:
184,185,224188,1,0,0:0:0:0:
8,256,224359,6,0,P|6:210|11:156,1,94.499997116089
75,50,224702,1,8,0:0:0:0:
161,132,224874,1,0,0:0:0:0:
304,88,225044,1,0,0:0:0:0:
312,92,225130,1,0,0:0:0:0:
320,96,225217,1,0,0:0:0:0:
328,100,225302,1,0,0:0:0:0:
336,104,225388,38,0,L|395:105,1,47.2499985580445,8|8,0:0|0:0,0:0:0:0:
297,213,225559,2,0,L|249:211,1,47.2499985580445,8|8,0:0|0:0,0:0:0:0:
194,110,225731,6,0,B|202:79|202:79|198:26,1,78.75,4|0,0:0|0:0,0:0:0:0:
276,0,226074,6,0,P|316:8|364:4,1,84,8|8,0:0|0:0,0:0:0:0:
427,38,226331,1,8,0:0:0:0:
427,38,226417,1,8,0:0:0:0:
497,163,226588,1,8,0:0:0:0:
340,184,226759,1,0,0:0:0:0:
490,149,226931,1,0,0:0:0:0:
475,300,227102,38,0,B|437:317|437:317|347:304,1,126,8|0,0:0|0:0,0:0:0:0:
274,340,227445,2,0,P|234:331|184:330,1,84,0|8,0:0|0:0,0:0:0:0:
135,276,227702,1,8,0:0:0:0:
135,276,227788,1,8,0:0:0:0:
124,112,227959,1,8,0:0:0:0:
308,116,228131,2,0,P|316:160|308:200,1,84
64,299,228474,6,0,B|20:255|20:255|40:190,1,126,6|0,0:0|0:0,0:0:0:0:
99,129,228816,2,0,P|118:168|124:212,1,84
172,264,229074,1,8,0:0:0:0:
172,264,229159,1,8,0:0:0:0:
223,167,229331,1,8,0:0:0:0:
184,52,229502,2,0,L|172:8,3,42
288,80,229845,6,0,L|336:72,3,42,8|0|0|0,0:0|0:0|0:0|0:0,0:0:0:0:
336,176,230188,2,0,L|384:196,1,42,8|0,0:0|0:0,0:0:0:0:
292,276,230359,2,0,L|316:320,1,42,8|0,0:0|0:0,0:0:0:0:
176,296,230531,2,0,L|168:340,3,42,8|0|0|0,0:0|0:0|0:0|0:0,0:0:0:0:
99,216,230874,2,0,L|91:168,1,42,8|0,0:0|0:0,0:0:0:0:
228,78,231045,1,2,0:0:0:0:
234,99,231131,1,2,0:0:0:0:
240,120,231217,38,0,B|208:152|208:152|228:192|227:229,1,126,4|0,0:0|0:0,0:0:0:0:
292,276,231559,6,0,L|408:248,1,105,8|8,0:0|0:0,0:0:0:0:
448,184,231817,1,8,0:0:0:0:
448,184,231902,1,8,0:0:0:0:
345,50,232074,1,8,0:0:0:0:
345,50,232245,1,8,0:0:0:0:
248,160,232417,2,0,L|256:212,1,52.5,8|0,0:0|0:0,0:0:0:0:
304,292,232588,6,0,P|365:275|412:275,1,105,8|8,0:0|0:0,0:0:0:0:
483,287,232845,1,8,0:0:0:0:
483,287,232931,1,8,0:0:0:0:
480,156,233102,1,8,0:0:0:0:
449,358,233274,2,0,P|395:348|342:357,1,105,8|8,0:0|0:0,0:0:0:0:
199,292,233617,1,8,0:0:0:0:
199,292,233788,1,0,0:0:0:0:
360,176,233959,6,0,B|376:200|376:200|380:228|372:249,1,78.75,4|0,0:0|0:0,0:0:0:0:
304,292,234302,6,0,L|196:292,1,105,8|8,0:0|0:0,0:0:0:0:
127,258,234559,1,8,0:0:0:0:
127,258,234645,1,8,0:0:0:0:
146,62,234817,1,8,0:0:0:0:
209,157,234988,1,0,0:0:0:0:
40,172,235159,1,8,0:0:0:0:
40,172,235245,1,8,0:0:0:0:
40,172,235331,6,0,P|34:226|37:279,1,105,8|8,0:0|0:0,0:0:0:0:
152,368,235674,1,0,0:0:0:0:
276,284,235845,1,8,0:0:0:0:
151,128,236017,1,8,0:0:0:0:
168,280,236188,1,0,0:0:0:0:
304,208,236359,2,0,L|368:212,1,52.5,2|2,0:0|0:0,0:0:0:0:
204,132,236531,2,0,L|148:128,1,52.5,2|2,0:0|0:0,0:0:0:0:
288,32,236702,6,0,P|328:32|372:36,1,78.75,4|0,0:0|0:0,0:0:0:0:
436,88,237045,6,0,B|446:127|446:127|432:192,1,105,8|8,0:0|0:0,0:0:0:0:
445,263,237302,1,8,0:0:0:0:
445,263,237388,1,8,0:0:0:0:
304,360,237559,1,8,0:0:0:0:
204,256,237731,2,0,L|216:148,1,105,0|8,0:0|0:0,0:0:0:0:
190,81,237988,1,0,0:0:0:0:
190,81,238074,37,4,0:0:0:0:
56,205,238245,1,0,0:0:0:0:
96,344,238417,2,0,B|140:360|140:360|204:344|256:352,1,157.5,8|0,0:0|0:0,0:0:0:0:
328,304,238759,2,0,L|336:192,1,105,8|0,0:0|0:0,0:0:0:0:
280,40,239102,1,8,0:0:0:0:
180,164,239274,1,0,0:0:0:0:
360,176,239445,5,12,0:0:0:0:
280,40,239616,1,0,0:0:0:0:
248,248,239788,1,8,0:0:0:0:
224,100,239959,1,8,0:0:0:0:
224,100,240045,1,8,0:0:0:0:
224,100,240131,1,8,0:0:0:0:
248,248,240302,1,0,0:0:0:0:
344,80,240474,1,8,3:0:0:0:
108,168,240645,1,0,3:0:0:0:
268,332,240817,5,6,0:0:0:0:
256,192,240902,12,0,241845,0:0:0:0:
175,83,242187,37,6,0:0:0:0:
365,146,242359,1,2,0:0:0:0:
247,317,242531,2,0,P|149:317|121:244,1,181.125003454685,6|4,0:0|0:0,0:0:0:0:
130,178,242873,1,0,0:0:0:0:
337,165,243045,2,0,B|350:213|341:257|341:257|352:294,2,120.750002303124,6|8|0,0:0|0:0|0:0,0:0:0:0:
176,52,243559,6,0,P|106:94|140:184,1,181.125003454685,6|0,0:0|0:0,0:0:0:0:
207,225,243902,2,0,B|240:204|240:204|327:208,1,120.750002303124,14|0,0:0|0:0,0:0:0:0:
378,154,244159,1,0,0:0:0:0:
378,154,244245,1,6,0:0:0:0:
161,126,244417,1,2,0:0:0:0:
270,320,244588,1,8,0:0:0:0:
383,127,244759,1,0,0:0:0:0:
383,127,244845,1,0,0:0:0:0:
383,127,244930,22,0,B|345:115|345:115|267:124,1,110.249996635437,6|0,0:0|0:0,0:0:0:0:
201,139,245274,5,8,0:0:0:0:
368,251,245445,1,0,0:0:0:0:
302,44,245616,1,0,0:0:0:0:
211,234,245788,1,2,0:0:0:0:
390,154,245959,1,8,0:0:0:0:
319,336,246130,1,0,0:0:0:0:
319,336,246216,1,0,0:0:0:0:
319,336,246302,6,0,B|271:319|271:319|227:336|158:330,1,157.5,6|2,0:0|0:0,0:0:0:0:
85,283,246645,2,0,B|72:242|72:242|97:159,1,125.999996154785,14|0,0:0|0:0,0:0:0:0:
166,111,246901,1,2,0:0:0:0:
166,111,246987,2,0,P|215:137|292:124,1,125.999996154785,6|10,0:0|0:0,0:0:0:0:
342,56,247245,1,10,0:0:0:0:
342,56,247331,2,0,L|399:61,1,52.5,8|0,3:0|3:0,0:0:0:0:
444,178,247501,2,0,L|381:180,1,52.5,0|0,3:0|3:0,0:0:0:0:
359,307,247674,38,0,P|432:316|466:251,1,157.5,4|0,0:0|0:0,0:0:0:0:
444,178,248017,1,8,0:0:0:0:
316,69,248188,1,0,0:0:0:0:
161,168,248359,6,0,B|140:210|140:210|148:307,1,141.749995674133
197,363,248702,2,0,L|197:262,1,94.499997116089,10|2,0:0|0:0,0:0:0:0:
358,197,249045,6,0,L|356:305,1,94.499997116089,6|0,0:0|0:0,0:0:0:0:
284,361,249302,1,0,0:0:0:0:
284,361,249388,6,0,P|198:354|197:268,1,188.999994232178,14|0,0:0|0:0,0:0:0:0:
218,254,249731,1,0,0:0:0:0:
371,190,249902,1,2,0:0:0:0:
183,133,250074,22,0,P|172:201|217:253,1,141.749995674133,10|0,0:0|0:0,0:0:0:0:
250,179,250417,6,0,P|144:168|62:197,1,181.125003454685,4|0,0:0|0:0,0:0:0:0:
3,248,250759,1,8,0:0:0:0:
131,71,250930,1,0,0:0:0:0:
210,283,251102,1,0,0:0:0:0:
336,157,251274,1,2,0:0:0:0:
106,100,251445,2,0,P|72:153|100:269,1,181.125003454685,8|0,0:0|0:0,0:0:0:0:
194,311,251788,6,0,L|247:306,1,47.2499985580445,6|0,0:0|0:0,0:0:0:0:
294,159,251959,2,0,L|246:163,1,47.2499985580445
164,243,252131,6,0,L|302:235,1,125.999996154785,8|8,0:0|0:0,0:0:0:0:
368,184,252388,1,8,0:0:0:0:
368,184,252474,2,0,P|373:149|365:118,1,62.9999980773926,14|0,0:0|0:0,0:0:0:0:
209,78,252645,2,0,P|202:108|207:139,1,62.9999980773926,10|0,0:0|0:0,0:0:0:0:
290,236,252817,22,0,B|300:213|300:213|294:155,1,78.75,10|0,0:0|0:0,0:0:0:0:
207,139,253159,6,0,B|259:155|259:155|401:131,1,181.125003454685,4|0,0:0|0:0,0:0:0:0:
458,117,253502,1,8,0:0:0:0:
434,319,253673,1,2,0:0:0:0:
434,319,253759,1,2,0:0:0:0:
434,319,253845,1,2,0:0:0:0:
226,198,254017,1,2,0:0:0:0:
425,141,254188,2,0,B|466:171|466:171|497:233|452:296,1,181.125003454685,8|0,0:0|0:0,0:0:0:0:
316,311,254531,6,0,P|278:248|361:214,1,181.125003454685,6|0,0:0|0:0,0:0:0:0:
382,344,254874,2,0,B|328:323|328:323|175:343,1,204.749990627289,14|2,0:0|0:0,0:0:0:0:
119,270,255217,2,0,L|186:261,1,60.3750011515618,2|0,0:0|0:0,0:0:0:0:
258,133,255388,2,0,L|198:141,1,60.3750011515618,2|0,0:0|0:0,0:0:0:0:
87,195,255559,1,10,0:0:0:0:
168,339,255731,1,0,0:0:0:0:
230,179,255902,38,0,B|257:206|257:206|263:244|251:290,1,110.249996635437,4|0,0:0|0:0,0:0:0:0:
225,343,256245,1,8,0:0:0:0:
159,161,256417,1,2,0:0:0:0:
159,161,256502,6,0,P|195:115|260:112,1,120.750002303124,10|0,0:0|0:0,0:0:0:0:
316,146,256759,1,2,0:0:0:0:
225,343,256931,1,8,0:0:0:0:
118,249,257102,1,0,0:0:0:0:
321,164,257274,6,0,P|370:224|327:315,1,181.125003454685,6|0,0:0|0:0,0:0:0:0:
163,252,257617,2,0,B|214:232|290:241|290:241|248:273,1,181.125003454685,14|0,0:0|0:0,0:0:0:0:
170,337,257959,2,0,L|129:333,1,34.1249984378815,4|0,0:0|0:0,0:0:0:0:
74,228,258131,2,0,L|40:224,1,34.1249984378815,2|0,0:0|0:0,0:0:0:0:
182,138,258302,1,2,0:0:0:0:
182,138,258388,38,0,L|252:145,1,62.9999980773926,8|0,0:0|0:0,0:0:0:0:
305,226,258645,6,0,B|229:220|167:220|167:220|161:270,1,181.125003454685,4|0,0:0|0:0,0:0:0:0:
178,335,258988,1,8,0:0:0:0:
346,224,259159,1,0,0:0:0:0:
346,224,259245,1,0,0:0:0:0:
346,224,259331,1,2,0:0:0:0:
182,138,259502,1,2,0:0:0:0:
269,333,259674,1,8,0:0:0:0:
395,142,259845,1,0,0:0:0:0:
167,152,260017,6,0,B|148:225|171:279|171:279|178:251|200:225,1,181.125003454685,6|0,0:0|0:0,0:0:0:0:
229,90,260358,2,0,P|172:65|112:82,1,120.750002303124,8|0,0:0|0:0,0:0:0:0:
32,260,260702,1,2,0:0:0:0:
256,293,260874,1,2,0:0:0:0:
167,152,261045,6,0,P|91:147|20:160,1,141.749995674133,10|0,0:0|0:0,0:0:0:0:
5,176,261388,5,8,3:0:0:0:
232,82,261559,1,2,0:0:0:0:
56,259,261731,37,2,0:0:0:0:
165,26,261902,1,10,3:0:0:0:
300,240,262074,1,2,0:0:0:0:
26,158,262245,1,2,0:0:0:0:
26,158,262331,1,2,0:0:0:0:
26,158,262417,1,8,3:0:0:0:
293,75,262588,1,2,0:0:0:0:
206,327,262759,5,2,0:0:0:0:
206,327,262845,1,2,0:0:0:0:
206,327,262931,1,10,3:0:0:0:
175,155,263102,1,2,0:0:0:0:
42,279,263274,1,2,3:0:0:0:
292,346,263445,6,0,P|320:294|305:206,1,141.749995674133,8|0,0:0|0:0,0:0:0:0:
240,168,263788,1,8,0:0:0:0:
213,147,263873,1,8,0:0:0:0:
203,113,263959,1,8,0:0:0:0:
213,80,264045,1,8,0:0:0:0:
240,58,264130,6,0,B|277:37|277:37|313:53|373:49,1,126
419,134,264473,2,0,L|467:130,3,42,2|0|0|0,0:0|0:0|0:0|0:0,0:0:0:0:
309,189,264816,2,0,L|261:185,3,42,0|0|0|0,0:0|0:0|0:0|0:0,0:0:0:0:
403,278,265159,2,0,B|441:274|441:274|482:252,1,84,2|0,0:0|0:0,0:0:0:0:
511,162,265416,1,0,0:0:0:0:
511,162,265502,6,0,P|497:123|495:70,1,84,2|0,0:0|0:0,0:0:0:0:
352,16,265845,1,2,0:0:0:0:
309,189,266016,1,0,0:0:0:0:
468,72,266188,1,0,0:0:0:0:
256,56,266359,1,2,0:0:0:0:
408,200,266530,1,2,0:0:0:0:
340,48,266702,1,0,0:0:0:0:
276,220,266873,6,0,P|272:268|292:344,1,126,2|0,0:0|0:0,0:0:0:0:
380,368,267216,2,0,L|476:360,1,84,2|0,0:0|0:0,0:0:0:0:
501,267,267559,1,0,0:0:0:0:
421,204,267731,1,2,0:0:0:0:
276,220,267902,2,0,P|271:182|283:127,1,84,2|0,0:0|0:0,0:0:0:0:
419,39,268245,5,2,0:0:0:0:
419,39,268588,1,2,0:0:0:0:
268,136,268759,1,0,0:0:0:0:
404,252,268931,2,0,L|352:244,1,42
304,344,269102,2,0,L|248:324,1,42,2|0,0:0|0:0,0:0:0:0:
184,260,269273,1,2,0:0:0:0:
181,239,269359,1,0,0:0:0:0:
178,218,269445,1,0,0:0:0:0:
175,197,269530,1,2,0:0:0:0:
172,176,269616,6,0,B|204:164|224:140|224:140|248:144|304:144,1,126,4|0,0:0|0:0,0:0:0:0:
360,104,269959,2,0,B|368:80|368:80|352:60|340:20,1,84,2|0,0:0|0:0,0:0:0:0:
252,40,270216,1,0,0:0:0:0:
252,40,270302,2,0,P|201:44|165:41,1,84
50,117,270645,2,0,P|56:160|51:206,1,84,2|0,0:0|0:0,0:0:0:0:
116,304,270988,37,2,0:0:0:0:
172,176,271159,1,0,0:0:0:0:
243,278,271330,2,0,P|284:271|333:276,1,84,2|0,0:0|0:0,0:0:0:0:
398,316,271588,1,0,0:0:0:0:
398,316,271673,1,0,0:0:0:0:
460,240,271844,1,0,0:0:0:0:
504,328,272016,1,2,0:0:0:0:
346,262,272188,1,0,0:0:0:0:
346,262,272273,1,0,0:0:0:0:
346,262,272359,6,0,P|328:196|340:136,1,126,2|0,0:0|0:0,0:0:0:0:
269,91,272702,2,0,P|225:95|179:90,1,84,2|0,0:0|0:0,0:0:0:0:
110,101,272959,1,0,0:0:0:0:
110,101,273045,1,0,0:0:0:0:
31,164,273217,1,2,0:0:0:0:
82,263,273388,5,2,0:0:0:0:
120,247,273473,1,0,0:0:0:0:
162,245,273559,1,0,0:0:0:0:
204,246,273645,1,0,0:0:0:0:
243,259,273731,2,0,L|245:206,1,42
308,103,273902,2,0,L|313:145,1,42
360,233,274073,38,0,L|408:232,3,42
228,179,274416,2,0,L|180:178,3,42,0|0|0|0,3:0|3:0|3:0|3:0,0:0:0:0:
120,247,274759,1,0,0:0:0:0:
123,267,274845,1,0,0:0:0:0:
126,287,274930,1,0,0:0:0:0:
129,307,275016,1,0,0:0:0:0:
132,327,275102,6,0,L|211:328,1,78.75,4|0,0:0|0:0,0:0:0:0:
285,274,275445,6,0,L|290:198,1,73.4999977569581,8|0,0:0|0:0,0:0:0:0:
204,96,275788,2,0,L|209:170,1,73.4999977569581,0|0,0:0|0:0,0:0:0:0:
320,284,276130,2,0,L|325:207,1,73.4999977569581,8|0,0:0|0:0,0:0:0:0:
172,88,276473,38,0,L|177:165,1,73.4999977569581
144,248,276730,1,0,0:0:0:0:
144,248,276816,2,0,B|112:256|112:256|60:248,1,73.4999977569581,8|0,0:0|0:0,0:0:0:0:
16,140,277159,1,2,0:0:0:0:
172,88,277330,1,2,0:0:0:0:
106,170,277502,1,8,0:0:0:0:
82,66,277673,1,0,0:0:0:0:
208,184,277845,6,0,P|248:184|300:172,1,78.75,4|0,0:0|0:0,0:0:0:0:
368,216,278188,6,0,L|376:292,1,73.4999977569581,8|0,0:0|0:0,0:0:0:0:
304,344,278445,1,0,0:0:0:0:
304,344,278530,2,0,P|260:340|224:352,1,73.4999977569581,0|0,0:0|0:0,0:0:0:0:
128,304,278873,1,8,0:0:0:0:
208,184,279045,1,0,0:0:0:0:
208,184,279130,1,0,0:0:0:0:
208,184,279216,38,0,P|245:191|289:186,1,73.4999977569581
388,132,279559,2,0,L|388:48,1,73.4999977569581,8|0,0:0|0:0,0:0:0:0:
304,24,279816,1,0,0:0:0:0:
304,24,279902,2,0,L|264:28,1,36.749998878479,8|0,3:0|0:0,0:0:0:0:
208,104,280073,2,0,L|164:96,1,36.749998878479,8|0,3:0|0:0,0:0:0:0:
60,140,280245,1,0,3:0:0:0:
53,183,280330,1,0,3:0:0:0:
55,227,280416,1,0,3:0:0:0:
61,270,280502,1,0,3:0:0:0:
75,311,280588,6,0,P|120:304|164:312,1,78.75,4|0,0:0|0:0,0:0:0:0:
232,265,280930,2,0,L|239:186,1,73.4999977569581,8|2,0:0|0:0,0:0:0:0:
238,191,281188,1,2,0:0:0:0:
238,191,281273,1,2,0:0:0:0:
336,304,281445,1,2,0:0:0:0:
336,304,281530,1,2,0:0:0:0:
336,304,281616,1,8,0:0:0:0:
204,352,281788,1,2,0:0:0:0:
204,352,281873,1,0,0:0:0:0:
204,352,281959,6,0,P|164:340|128:340,1,73.4999977569581,6|0,0:0|0:0,0:0:0:0:
126,343,282216,1,0,0:0:0:0:
119,346,282302,1,8,0:0:0:0:
68,184,282473,1,2,0:0:0:0:
68,184,282559,1,2,0:0:0:0:
68,184,282645,1,2,0:0:0:0:
238,191,282816,1,10,0:0:0:0:
238,191,282902,1,10,0:0:0:0:
238,191,282988,1,2,0:0:0:0:
108,255,283159,1,8,0:0:0:0:
75,35,283331,37,8,3:0:0:0:
66,48,283845,1,0,3:0:0:0:
179,170,284017,1,0,3:0:0:0:
16,138,284187,1,0,3:0:0:0:
167,67,284359,1,0,3:0:0:0:
86,213,284530,1,0,3:0:0:0:
221,144,284702,5,0,0:0:0:0:
265,145,284788,1,0,0:0:0:0:
309,146,284874,1,8,0:0:0:0:
352,148,284959,1,0,0:0:0:0:
396,150,285045,2,0,L|402:198,1,36.749998878479
316,295,285216,2,0,L|314:254,1,36.749998878479
427,149,285388,2,0,L|433:197,1,36.749998878479
290,298,285559,2,0,L|288:257,1,36.749998878479
190,173,285731,5,8,0:0:0:0:
192,143,285817,1,8,0:0:0:0:
194,113,285902,1,8,0:0:0:0:
197,83,285988,1,8,0:0:0:0:
200,53,286074,1,4,0:0:0:0:
256,192,286159,12,0,288831,0:0:0:0:
256,192,288946,12,2,291187,0:0:0:0:
328,236,291590,6,0,P|188:295|289:181,1,420,2|2,0:0|0:0,0:0:0:0:
252,250,293659,1,2,0:0:0:0:
252,250,294291,6,0,B|212:231|84:240|84:240|114:171|114:171|198:160|254:175|299:191,1,420,2|2,0:0|0:0,0:0:0:0:
262,54,296360,2,0,P|256:105|270:156,1,105,2|2,0:0|0:0,0:0:0:0:
448,99,297050,6,0,P|388:253|332:102,1,420,2|2,0:0|0:0,0:0:0:0:
392,166,299118,1,2,0:0:0:0:
392,166,299808,2,0,B|196:122|196:122|180:246|180:246|272:269,1,420,2|2,0:0|0:0,0:0:0:0:
272,269,301877,2,0,L|181:274,1,87.5,2|2,0:0|3:0,0:0:0:0:
91,114,302538,6,0,L|46:119,4,39.375,2|2|2|2|2,0:0|0:0|0:0|0:0|0:0,0:0:0:0:
273,125,303889,6,0,P|183:112|220:185,1,210,2|2,0:0|0:0,0:0:0:0:
273,125,306647,6,0,P|190:115|208:187,1,182,2|2,0:0|0:0,0:0:0:0:
150,339,308016,5,12,3:0:0:0:
265,284,308187,1,8,3:0:0:0:
183,167,308359,2,0,P|137:171|81:170,1,94.499997116089,2|0,0:0|0:0,0:0:0:0:
19,152,308616,1,0,0:0:0:0:
19,152,308701,1,0,0:0:0:0:
126,44,308873,1,2,0:0:0:0:
221,168,309044,2,0,L|219:273,1,94.499997116089,8|0,0:0|0:0,0:0:0:0:
370,365,309387,38,0,P|437:330|439:262,1,141.749995674133,4|0,0:0|0:0,0:0:0:0:
396,193,309730,2,0,B|352:185|352:185|292:195,1,94.499997116089,12|0,0:0|0:0,0:0:0:0:
208,315,310073,2,0,L|109:316,1,94.499997116089,4|2,0:0|0:0,0:0:0:0:
0,234,310416,1,8,0:0:0:0:
86,132,310587,1,0,0:0:0:0:
189,218,310759,6,0,L|272:215,1,78.7500030040742,8|0,0:0|0:0,0:0:0:0:
336,157,311016,1,0,0:0:0:0:
336,157,311101,2,0,B|383:148|383:148|437:160,1,94.499997116089,12|0,0:0|0:0,0:0:0:0:
481,276,311444,1,0,0:0:0:0:
339,341,311616,1,2,0:0:0:0:
267,215,311787,2,0,L|272:117,1,94.499997116089,8|0,0:0|0:0,0:0:0:0:
106,49,312130,5,0,0:0:0:0:
130,197,312301,1,2,0:0:0:0:
130,197,312387,1,2,0:0:0:0:
130,197,312473,1,8,0:0:0:0:
230,97,312644,2,0,L|285:103,1,47.2499985580445,2|2,0:0|0:0,0:0:0:0:
347,178,312816,2,0,L|443:177,1,94.499997116089,8|0,0:0|0:0,0:0:0:0:
348,313,313159,37,8,3:0:0:0:
319,311,313244,1,8,3:0:0:0:
290,309,313330,1,8,3:0:0:0:
261,307,313416,1,8,3:0:0:0:
232,305,313501,6,0,L|228:188,1,110.249996635437,4|0,0:0|0:0,0:0:0:0:
138,149,313844,6,0,B|132:203|132:203|157:258,1,94.499997116089,8|0,0:0|0:0,0:0:0:0:
318,258,314187,1,0,0:0:0:0:
318,258,314359,1,2,0:0:0:0:
298,120,314530,2,0,L|183:114,1,94.499997116089,8|0,0:0|0:0,0:0:0:0:
138,149,314787,1,0,0:0:0:0:
138,149,314873,37,2,0:0:0:0:
90,270,315044,1,0,0:0:0:0:
190,342,315216,2,0,L|296:340,1,94.499997116089,8|0,0:0|0:0,0:0:0:0:
386,258,315559,1,0,0:0:0:0:
255,141,315730,1,8,0:0:0:0:
255,141,315816,1,8,0:0:0:0:
255,141,315901,1,8,0:0:0:0:
228,251,316073,1,0,0:0:0:0:
359,187,316244,6,0,P|359:142|343:84,1,94.499997116089,4|0,0:0|0:0,0:0:0:0:
279,45,316501,1,0,0:0:0:0:
279,45,316587,1,8,0:0:0:0:
182,180,316759,1,0,0:0:0:0:
275,274,316930,2,0,L|383:265,1,94.499997116089,0|2,0:0|0:0,0:0:0:0:
269,122,317273,2,0,B|219:100|219:100|169:115|169:115|105:124,1,141.749995674133,8|0,0:0|0:0,0:0:0:0:
63,181,317616,6,0,P|66:231|65:283,1,94.499997116089,4|0,0:0|0:0,0:0:0:0:
165,362,317959,1,0,0:0:0:0:
267,251,318130,1,2,0:0:0:0:
267,251,318216,2,0,L|252:147,1,94.499997116089,10|0,0:0|0:0,0:0:0:0:
269,85,318473,1,2,0:0:0:0:
413,187,318644,37,0,3:0:0:0:
411,224,318730,1,0,3:0:0:0:
410,261,318816,1,0,3:0:0:0:
409,298,318901,1,0,3:0:0:0:
408,335,318987,6,0,L|346:333,1,47.2499985580445,6|0,0:0|0:0,0:0:0:0:
249,381,319159,2,0,L|197:372,1,47.2499985580445
101,274,319330,6,0,P|100:223|110:180,1,94.499997116089,8|0,0:0|0:0,0:0:0:0:
179,112,319587,2,0,L|285:116,1,94.499997116089,2|0,0:0|0:0,0:0:0:0:
305,135,319844,1,2,0:0:0:0:
246,264,320016,1,8,0:0:0:0:
411,238,320187,1,0,0:0:0:0:
411,238,320273,1,0,0:0:0:0:
411,238,320359,38,0,L|400:184,1,47.2499985580445,2|0,0:0|0:0,0:0:0:0:
473,111,320530,2,0,L|435:78,1,47.2499985580445
346,12,320701,2,0,L|239:15,1,94.499997116089,8|0,0:0|0:0,0:0:0:0:
165,56,320959,2,0,B|148:101|148:101|163:162,1,94.499997116089,2|0,0:0|0:0,0:0:0:0:
177,178,321216,1,2,0:0:0:0:
316,154,321387,1,8,0:0:0:0:
263,304,321559,1,0,3:0:0:0:
263,304,321644,1,0,3:0:0:0:
263,304,321730,6,0,P|208:298|138:305,1,110.249996635437,4|0,0:0|0:0,0:0:0:0:
92,272,322073,5,8,0:0:0:0:
157,142,322244,1,2,0:0:0:0:
157,142,322330,2,0,L|267:151,1,94.499997116089,10|0,0:0|0:0,0:0:0:0:
289,148,322587,1,2,0:0:0:0:
376,39,322759,1,8,0:0:0:0:
210,9,322930,1,0,0:0:0:0:
210,9,323016,1,0,0:0:0:0:
210,9,323101,38,0,P|201:58|203:115,1,94.499997116089,4|0,0:0|0:0,0:0:0:0:
333,230,323444,2,0,L|331:122,1,94.499997116089,2|0,0:0|0:0,0:0:0:0:
404,68,323701,2,0,B|428:113|428:113|421:177,1,94.499997116089,2|0,0:0|0:0,0:0:0:0:
417,194,323959,1,2,0:0:0:0:
301,251,324130,2,0,L|252:249,1,47.2499985580445,8|0,3:0|3:0,0:0:0:0:
406,324,324301,2,0,L|463:321,1,47.2499985580445,8|0,3:0|3:0,0:0:0:0:
272,382,324473,6,0,P|217:375|152:384,1,110.249996635437,4|0,0:0|0:0,0:0:0:0:
86,347,324816,6,0,B|72:308|72:308|80:256,1,94.499997116089,8|0,0:0|0:0,0:0:0:0:
151,147,325159,1,0,0:0:0:0:
254,257,325330,1,2,0:0:0:0:
254,257,325416,1,2,0:0:0:0:
254,257,325501,1,8,0:0:0:0:
333,181,325673,1,0,0:0:0:0:
290,352,325844,37,2,0:0:0:0:
169,288,326016,1,0,0:0:0:0:
169,288,326101,1,0,0:0:0:0:
169,288,326187,1,8,0:0:0:0:
328,254,326359,1,0,0:0:0:0:
262,154,326530,2,0,L|163:159,1,94.499997116089,0|2,0:0|0:0,0:0:0:0:
94,148,326787,1,2,0:0:0:0:
94,148,326873,1,8,0:0:0:0:
209,39,327044,1,0,0:0:0:0:
302,227,327216,5,8,0:0:0:0:
302,227,327730,1,8,0:0:0:0:
166,119,327901,1,8,0:0:0:0:
156,329,328244,1,8,0:0:0:0:
383,240,328759,5,8,0:0:0:0:
288,49,328930,1,8,0:0:0:0:
288,49,329273,2,0,L|350:55,1,47.2499985580445
420,157,329445,2,0,L|363:160,1,47.2499985580445
273,246,329616,5,0,0:0:0:0:
290,248,329702,1,0,0:0:0:0:
308,251,329788,1,0,0:0:0:0:
326,254,329873,1,0,0:0:0:0:
344,257,329959,5,4,0:0:0:0:
