osu file format v14

[General]
AudioFilename: audio.mp3
AudioLeadIn: 0
PreviewTime: 77138
Countdown: 0
SampleSet: Soft
StackLeniency: 0.7
Mode: 0
LetterboxInBreaks: 0
EpilepsyWarning: 1
WidescreenStoryboard: 1

[Editor]
DistanceSpacing: 0.85
BeatDivisor: 2
GridSize: 4
TimelineZoom: 1.8

[Metadata]
Title:Mountains
TitleUnicode:Mountains
Artist:Rameses B
ArtistUnicode:Rameses B
Creator:- Rain -
Version:Easy
Source:
Tags:generic dnb stole mp3 from taiko version
BeatmapID:1211098
BeatmapSetID:567237

[Difficulty]
HPDrainRate:4
CircleSize:3
OverallDifficulty:4
ApproachRate:5
SliderMultiplier:0.9
SliderTickRate:1

[Events]
//Background and Video events
0,0,"Mountains.jpg",0,0
//Break Periods
2,42195,43538
//Storyboard Layer 0 (Background)
//Storyboard Layer 1 (Fail)
//Storyboard Layer 2 (Pass)
//Storyboard Layer 3 (Foreground)
//Storyboard Sound Samples

[TimingPoints]
853,342.857142857143,4,2,69,40,1,0
22795,-100,4,2,69,40,0,0
33767,-100,4,2,69,60,0,0
39253,-100,4,3,69,60,0,0
41995,-100,4,2,68,60,0,0
42167,-100,4,2,68,60,0,0
44053,-100,4,2,68,60,0,0
44738,-100,4,2,67,60,0,0
65310,-100,4,2,69,40,0,0
65995,-100,4,3,0,60,0,0
66681,-100,4,2,68,80,0,1
77310,-100,4,2,68,60,0,0
77653,-100,4,2,68,80,0,1
87253,-100,4,2,68,60,0,1
88624,-100,4,2,68,80,0,0

[Colours]
Combo1 : 190,153,221
Combo2 : 134,205,232
Combo3 : 58,74,218
Combo4 : 114,57,219

[HitObjects]
143,112,22795,6,0,P|119:184|136:250,2,135,6|2|10,0:0|0:0|0:0,0:0:0:0:
256,93,24338,2,0,P|320:110|395:93,1,135,2|2,0:0|0:0,0:0:0:0:
451,57,25195,1,10,0:0:0:0:
472,130,25538,6,0,L|460:274,1,135,2|2,0:0|0:0,0:0:0:0:
386,351,26567,2,0,P|318:333|239:356,1,135,10|2,0:0|0:0,0:0:0:0:
143,326,27595,5,2,0:0:0:0:
112,255,27938,1,10,0:0:0:0:
144,185,28281,5,2,0:0:0:0:
144,185,28795,2,0,P|226:197|294:179,1,135,2|10,0:0|0:0,0:0:0:0:
321,124,29653,5,0,0:0:0:0:
372,67,29995,2,0,L|480:63,2,90,10|2|10,0:0|0:0|0:0,0:0:0:0:
308,23,31024,5,2,0:0:0:0:
194,41,31538,1,2,0:0:0:0:
85,79,32053,2,0,L|94:141,1,45,10|2,0:0|0:1,0:0:0:0:
173,204,32738,2,0,L|164:318,2,90,10|2|10,0:1|0:1|0:1,0:0:0:0:
192,129,33767,6,0,P|244:170|236:251,1,135,6|2,0:0|0:0,0:0:0:0:
263,347,34795,2,0,P|202:322|140:346,1,135,10|2,0:0|0:0,0:0:0:0:
41,287,35824,2,0,L|36:187,1,90,2|10,0:0|0:0,0:0:0:0:
47,121,36510,2,0,P|97:102|180:122,1,135,2|2,0:0|0:0,0:0:0:0:
273,61,37538,2,0,P|297:127|266:198,1,135,2|2,0:1|0:1,0:0:0:0:
228,289,38567,5,2,0:1:0:0:
289,334,38910,1,10,0:1:0:0:
355,296,39253,1,0,0:0:0:0:
256,192,39595,12,4,41995,0:2:0:0:
126,68,44738,5,2,0:0:0:0:
95,138,45081,2,0,B|91:198|91:198|110:254|110:254|106:334,1,180,8|8,0:3|0:3,0:0:0:0:
165,364,46110,2,0,L|272:371,1,90,0|8,0:0|0:3,0:0:0:0:
295,304,46795,2,0,L|402:311,1,90,2|8,0:0|3:0,0:0:0:0:
443,260,47481,5,2,0:3:0:0:
409,191,47824,2,0,L|411:102,1,90,8|2,0:3|0:0,0:0:0:0:
356,47,48510,1,8,0:3:0:0:
287,80,48853,2,0,P|239:87|194:79,1,90,0|8,0:0|0:3,0:0:0:0:
124,59,49538,6,0,B|102:108|102:108|115:248,1,180,2|2,0:0|0:3,0:0:0:0:
115,310,50567,6,0,P|70:304|27:317,2,90,8|2|10,0:3|0:0|0:3,0:0:0:0:
186,282,51595,2,0,P|198:239|189:195,1,90,0|8,0:0|0:3,0:0:0:0:
138,137,52281,2,0,P|174:119|233:132,1,90,2|8,0:0|0:3,0:0:0:0:
290,160,52967,5,2,0:3:0:0:
350,113,53310,2,0,P|374:74|378:30,2,90,8|2|8,0:3|0:0|0:3,0:0:0:0:
386,180,54338,1,0,0:0:0:0:
327,229,54681,2,0,B|284:224|284:224|221:230,2,90,8|8|8,0:3|0:3|0:3,0:0:0:0:
393,190,55710,5,4,0:0:0:0:
345,130,56053,1,8,0:3:0:0:
293,73,56395,2,0,P|250:82|206:76,1,90,2|8,0:0|0:3,0:0:0:0:
141,31,57081,2,0,P|127:74|150:130,1,90,0|8,0:0|0:3,0:0:0:0:
180,180,57767,1,2,0:0:0:0:
140,245,58110,1,10,0:3:0:0:
224,372,58795,6,0,B|272:377|272:377|313:373,2,90,8|2|8,0:3|0:0|0:3,0:0:0:0:
181,308,59824,2,0,P|171:265|181:221,1,90,0|8,0:0|0:3,0:0:0:0:
224,157,60510,2,0,B|329:124|295:190|413:157|412:157,1,180,2|4,0:0|0:0,0:0:0:0:
458,209,61538,6,0,L|455:316,2,90,8|2|8,0:3|0:0|0:3,0:0:0:0:
498,143,62567,2,0,P|481:90|434:55,1,90,2|8,0:3|0:3,0:0:0:0:
381,77,63253,2,0,P|336:86|292:80,1,90,2|10,0:0|0:3,0:0:0:0:
256,192,63938,12,0,65310,0:0:0:0:
64,338,66681,6,0,B|153:348|153:348|198:339,1,135,4|2,0:1|0:0,0:0:0:0:
291,273,67710,2,0,P|358:263|424:273,1,135,8|2,0:3|0:0,0:0:0:0:
351,361,68738,2,0,P|306:369|262:360,1,90,0|8,0:0|0:3,0:0:0:0:
213,302,69424,6,0,B|202:213|202:213|211:146,1,135,2|2,0:3|0:0,0:0:0:0:
275,74,70453,2,0,P|211:55|139:75,1,135,8|2,0:3|0:0,0:0:0:0:
97,174,71481,2,0,L|94:287,1,90,2|8,0:0|0:3,0:0:0:0:
150,316,72167,5,2,0:3:0:0:
218,282,72510,2,0,B|247:278|247:278|307:285,2,90,8|2|8,0:3|0:0|0:3,0:0:0:0:
167,224,73538,5,2,0:3:0:0:
203,156,73881,1,8,0:3:0:0:
277,174,74224,2,0,L|366:182,1,90,2|8,0:0|0:3,0:0:0:0:
439,158,74910,6,0,P|450:115|442:71,2,90,2|8|2,0:3|0:3|0:0,0:0:0:0:
474,225,75938,1,8,0:3:0:0:
444,295,76281,2,0,P|363:262|278:288,1,180,2|2,0:3|0:0,0:0:0:0:
224,343,77310,1,2,0:0:0:0:
147,343,77653,6,0,B|136:252|136:252|147:189,1,135,4|2,0:2|0:0,0:0:0:0:
75,117,78681,2,0,P|138:96|203:109,1,135,8|2,0:3|0:0,0:0:0:0:
289,185,79710,1,2,0:0:0:0:
354,145,80053,1,8,0:3:0:0:
413,192,80395,2,0,B|436:281|436:281|422:357,2,135,2|2|8,0:3|0:0|0:3,0:0:0:0:
410,115,81767,5,2,0:3:0:0:
343,77,82110,1,8,0:3:0:0:
270,101,82453,2,0,B|175:135|187:79|67:110,1,180,2|2,0:0|0:0,0:0:0:0:
99,180,83481,1,2,0:0:0:0:
50,238,83824,2,0,P|38:286|49:327,1,90,8|8,0:0|0:3,0:0:0:0:
113,363,84510,5,2,0:3:0:0:
178,324,84853,1,8,0:3:0:0:
245,359,85195,2,0,P|346:363|346:363,1,90,2|8,0:0|0:3,0:0:0:0:
256,192,85881,12,4,88624,0:0:0:0:
