osu file format v14

[General]
AudioFilename: [DnB] - Rameses B - Dream Catcher (feat. Charlotte Haining) [Monstercat EP Release].mp3
AudioLeadIn: 600
PreviewTime: 54807
Countdown: 0
SampleSet: Soft
StackLeniency: 0.7
Mode: 0
LetterboxInBreaks: 0
EpilepsyWarning: 1
WidescreenStoryboard: 1

[Editor]
Bookmarks: 11052,33083,55152,77221,99290,121359,132393,143428,165497,209635
DistanceSpacing: 1.4
BeatDivisor: 4
GridSize: 4
TimelineZoom: 4.299998

[Metadata]
Title:Dream Catcher (ft. Charlotte Haining)
TitleUnicode:Dream Catcher (ft. Charlotte Haining)
Artist:Rameses B
ArtistUnicode:Rameses B
Creator:CSLM
Version:Hard
Source:
Tags:bass dance drum & bass dnb d&b remix vocal drumstep dubstep edm electro electronic chillout monstercat 019 endeavour Milan- rossonero1899 ErunamoJAZZ
BeatmapID:599957
BeatmapSetID:262993

[Difficulty]
HPDrainRate:5.2
CircleSize:4
OverallDifficulty:6
ApproachRate:8
SliderMultiplier:1.4
SliderTickRate:1

[Events]
//Background and Video events
0,0,"BG dream catcher.jpg",0,0
//Break Periods
2,121359,131643
//Storyboard Layer 0 (Background)
Sprite,Background,TopLeft,"BG dream catcher.jpg",0,0
Sprite,Background,Centre,"BG dream catcher.jpg",320,240 L,0,4 F,0,44117,44807,0.6,0.3 F,0,44807,45497,0.3,0.6 L,0,4 F,0,204117,204462,0.5,0.2 F,0,204462,204807,0.2,0.5 F,0,-364,10324,0 S,0,926,,0.6266668 F,0,10324,11014,0,0.3 F,0,11014,21704,0.3 F,0,21704,22048,0.3,0.15 F,0,22048,27566,0.15 F,0,27566,30324,0.15,1 F,0,30324,31704,1,0.3 F,0,31704,33428,0.3,0.6 C,0,31962,32221,255,255,255,128,255,128 C,0,32221,32480,128,255,128,128,255,255 C,0,32480,32738,128,255,255,255,151,153 C,0,32738,32997,255,151,153,255,255,255 C,0,32997,53902,255,255,255 F,0,33428,44117,0.6 F,0,49635,52393,0.6,1 F,0,52393,53773,1,0.2 F,0,53773,54764,0.2 C,0,53902,53945,255,255,255,128,255,255 C,0,53945,54074,128,255,255 C,0,54074,54117,128,255,255,255,128,128 C,0,54117,54247,255,128,128 C,0,54247,54290,255,128,128,128,255,128 C,0,54290,54419,128,255,128 C,0,54419,54462,128,255,128,255,128,64 C,0,54462,54592,255,128,64 C,0,54592,54635,255,128,64,255,128,255 C,0,54635,54764,255,128,255 F,0,54764,54807,0.2,0 C,0,54764,54807,255,128,255,255,255,255 F,0,54807,55109,0 C,0,54807,87350,255,255,255 F,0,55109,55152,0,1 F,0,55152,86646,1 F,0,86646,86876,1,0.2 F,0,86876,87106,0.2,1 F,0,87106,87336,1,0.2 F,0,87336,88255,0.2 C,0,87350,87393,255,255,255,128,255,255 C,0,87393,87523,128,255,255 C,0,87523,87566,128,255,255,255,128,128 C,0,87566,87652,255,128,128 C,0,87652,87695,255,128,128,255,255,128 C,0,87695,87738,255,255,128,128,255,128 C,0,87738,87867,128,255,128 C,0,87867,87911,128,255,128,255,128,192 C,0,87911,88255,255,128,192,255,255,255 F,0,88255,88600,0.2,1 C,0,88255,154441,255,255,255 F,0,88600,121359,1 F,0,121359,122048,1,0.6 F,0,122048,132393,0.6 F,0,132393,133083,0.6,0.2 F,0,133083,143428,0.2 F,0,143428,144117,0.2,0.6 F,0,144117,159980,0.6 C,0,154441,154462,255,255,255,21,255,80 C,0,154462,154958,21,255,80,255,255,255 C,0,154958,154980,255,255,255,21,255,80 C,0,154980,155475,21,255,80,255,255,255 C,0,155475,155497,255,255,255,21,255,80 C,0,155497,155992,21,255,80,255,255,255 C,0,155992,156014,255,255,255,21,255,80 C,0,156014,156510,21,255,80,255,255,255 C,0,156510,156531,255,255,255,21,255,80 C,0,156531,157199,21,255,80,255,255,255 C,0,157199,157221,255,255,255,29,248,199 C,0,157221,157717,29,248,199,255,255,255 C,0,157717,157738,255,255,255,29,248,199 C,0,157738,158234,29,248,199,255,255,255 C,0,158234,158255,255,255,255,29,248,199 C,0,158255,158751,29,248,199,255,255,255 C,0,158751,158773,255,255,255,29,248,199 C,0,158773,159268,29,248,199,255,255,255 C,0,159268,159290,255,255,255,29,248,199 C,0,159290,159980,29,248,199,255,255,255 F,0,159980,162738,0.6,1 C,0,159980,165475,255,255,255 F,0,162738,164096,1 F,0,164096,164117,1,0 F,0,164117,165475,0 F,0,165475,165497,0,1 C,0,165475,165497,255,255,255,255,128,128 C,0,165497,166186,255,128,128,255,255,128 F,0,165497,184807,1 C,0,166186,166876,255,255,128,128,255,128 C,0,166876,167566,128,255,128,128,255,255 C,0,167566,168255,128,255,255,255,128,255 C,0,168255,168945,255,128,255,194,149,255 C,0,168945,169635,194,149,255,156,255,108 C,0,169635,170324,156,255,108,255,177,100 C,0,170324,171014,255,177,100,128,255,255 C,0,171014,171704,128,255,255,255,128,192 C,0,171704,172393,255,128,192,128,255,128 C,0,172393,173083,128,255,128,255,168,81 C,0,173083,173773,255,168,81,128,255,255 C,0,173773,174462,128,255,255,255,255,128 C,0,174462,175152,255,255,128,255,128,128 C,0,175152,175820,255,128,128,255,255,255 C,0,175820,175842,255,255,255,128,255,255 C,0,175842,176079,128,255,255 C,0,176079,176337,255,128,255 C,0,176337,176359,255,128,255,255,128,128 C,0,176359,176510,255,128,128 C,0,176510,176531,255,128,128,255,255,255 C,0,176531,208234,255,255,255 F,0,184807,185842,1,0 F,0,185842,187566,0 F,0,187566,188945,0,1 F,0,188945,198255,1 F,0,198255,198600,1,0.5 F,0,198600,204117,0.5 F,0,206876,207911,0.5,0.3 F,0,207911,209635,0.3 C,0,208234,208255,255,255,255,255,128,128 C,0,208255,208406,255,128,128 C,0,208406,208428,255,128,128,255,255,128 C,0,208428,208579,255,255,128 C,0,208579,208600,255,255,128,128,255,128 C,0,208600,208751,128,255,128 C,0,208751,208773,128,255,128,128,255,255 C,0,208773,208923,128,255,255 C,0,208923,208945,128,255,255,255,128,192 C,0,208945,209096,255,128,192 C,0,209096,209117,255,128,192,255,181,106 C,0,209117,209268,255,181,106 C,0,209268,209290,255,181,106,192,129,129 C,0,209290,209441,192,129,129 C,0,209441,209462,192,129,129,255,255,255
Sprite,Background,Centre,"sb\left.png",320,240 M,0,99635,,1,240 S,0,99635,,0.6266667 C,0,99635,,21,255,80 F,0,99635,99980,1,0
Sprite,Background,Centre,"sb\right.png",320,240 C,0,100324,,21,255,80 F,0,100324,100669,1,0 M,0,101014,,639,240 S,0,101014,,0.6266667
Sprite,Background,Centre,"sb\left.png",320,240 M,0,101014,,1,240 S,0,101014,,0.6266667 C,0,101014,,21,255,80 F,0,101014,101359,1,0
Sprite,Background,Centre,"sb\right.png",320,240 C,0,101704,,21,255,80 F,0,101704,102049,1,0 M,0,102394,,639,240 S,0,102394,,0.6266667
Sprite,Background,Centre,"sb\left.png",320,240 M,0,102393,,1,240 S,0,102393,,0.6266667 C,0,102393,,29,248,199 F,0,102393,102738,1,0
Sprite,Background,Centre,"sb\right.png",320,240 C,0,103083,,29,248,199 F,0,103083,103428,1,0 M,0,103773,,639,240 S,0,103773,,0.6266667
Sprite,Background,Centre,"sb\left.png",320,240 M,0,103773,,1,240 S,0,103773,,0.6266667 C,0,103773,,29,248,199 F,0,103773,104118,1,0
Sprite,Background,Centre,"sb\right.png",320,240 C,0,104462,,29,248,199 F,0,104462,104807,1,0 M,0,105152,,639,240 S,0,105152,,0.6266667
Sprite,Background,Centre,"sb\left.png",320,240 M,0,105152,,1,240 S,0,105152,,0.6266667 C,0,105152,,173,192,211 F,0,105152,105497,1,0
Sprite,Background,Centre,"sb\right.png",320,240 C,0,105842,,173,192,211 F,0,105842,106187,1,0 M,0,106532,,639,240 S,0,106532,,0.6266667
Sprite,Background,Centre,"sb\left.png",320,240 M,0,106531,,1,240 S,0,106531,,0.6266667 C,0,106531,,173,192,211 F,0,106531,106876,1,0
Sprite,Background,Centre,"sb\right.png",320,240 F,0,107221,107566,1,0 C,0,107221,108600,173,192,211,255,255,121 M,0,107911,,639,240 S,0,107911,,0.6266667
Sprite,Background,Centre,"sb\left.png",320,240 M,0,107911,,1,240 S,0,107911,,0.6266667 C,0,107911,,255,255,121 F,0,107911,108256,1,0
Sprite,Background,Centre,"sb\right.png",320,240 C,0,108600,,255,255,121 F,0,108600,108945,1,0 M,0,109290,,639,240 S,0,109290,,0.6266667
Sprite,Background,Centre,"sb\left.png",320,240 M,0,110669,,1,240 S,0,110669,,0.6266667 C,0,110669,,21,255,80 F,0,110669,111014,1,0
Sprite,Background,Centre,"sb\right.png",320,240 F,0,111359,111704,1,0 C,0,111359,114117,21,255,80,29,248,199 M,0,112049,,639,240 S,0,112049,,0.6266667
Sprite,Background,Centre,"sb\left.png",320,240 M,0,112048,,1,240 S,0,112048,,0.6266667 C,0,112048,,21,255,80 F,0,112048,112393,1,0
Sprite,Background,Centre,"sb\right.png",320,240 C,0,112738,,21,255,80 F,0,112738,113083,1,0 M,0,113428,,639,240 S,0,113428,,0.6266667
Sprite,Background,Centre,"sb\left.png",320,240 M,0,113428,,1,240 S,0,113428,,0.6266667 C,0,113428,,29,248,199 F,0,113428,113773,1,0
Sprite,Background,Centre,"sb\right.png",320,240 C,0,114117,,29,248,199 F,0,114117,114462,1,0 M,0,114807,,639,240 S,0,114807,,0.6266667
Sprite,Background,Centre,"sb\left.png",320,240 M,0,114807,,1,240 S,0,114807,,0.6266667 C,0,114807,,29,248,199 F,0,114807,115152,1,0
Sprite,Background,Centre,"sb\right.png",320,240 F,0,115497,115842,1,0 C,0,115497,116186,29,248,199,173,192,211 M,0,116187,,639,240 S,0,116187,,0.6266667
Sprite,Background,Centre,"sb\left.png",320,240 M,0,115842,,1,240 S,0,115842,,0.6266667 C,0,115842,,173,192,211 F,0,115842,116187,1,0
Sprite,Background,Centre,"sb\right.png",320,240 C,0,116186,,173,192,211 F,0,116186,116531,1,0 M,0,116876,,639,240 S,0,116876,,0.6266667
Sprite,Background,Centre,"sb\left.png",320,240 M,0,116531,,1,240 S,0,116531,,0.6266667 C,0,116531,,173,192,211 F,0,116531,116876,1,0
Sprite,Background,Centre,"sb\right.png",320,240 F,0,116876,117221,1,0 C,0,116876,117566,173,192,211,255,255,121 M,0,117566,,639,240 S,0,117566,,0.6266667
Sprite,Background,Centre,"sb\left.png",320,240 M,0,117221,,1,240 S,0,117221,,0.6266667 C,0,117221,,255,255,121 F,0,117221,117566,1,0
Sprite,Background,Centre,"sb\right.png",320,240 C,0,117566,,255,255,121 F,0,117566,117911,1,0 M,0,118256,,639,240 S,0,118256,,0.6266667
Sprite,Background,Centre,"sb\left.png",320,240 M,0,117911,,1,240 S,0,117911,,0.6266667 C,0,117911,,255,255,121 F,0,117911,118256,1,0
Sprite,Background,Centre,"sb\right.png",320,240 C,0,118255,,255,255,121 F,0,118255,118600,1,0 M,0,118945,,639,240 S,0,118945,,0.6266667
Sprite,Background,Centre,"sb\left.png",320,240 M,0,118945,,1,240 S,0,118945,,0.6266667 C,0,118945,,34,145,255 F,0,118945,119290,1,0
Sprite,Background,Centre,"sb\right.png",320,240 C,0,118945,,34,145,255 F,0,118945,119290,1,0 M,0,119635,,639,240 S,0,119635,,0.6266667
Sprite,Background,Centre,"sb\left.png",320,240 M,0,109290,,1,240 S,0,109290,,0.6266667 C,0,109290,,34,145,255 F,0,109290,109635,1,0
Sprite,Background,Centre,"sb\left.png",320,240 M,0,119290,,1,240 S,0,119290,,0.6266667 C,0,119290,,34,145,255 F,0,119290,119635,1,0
Sprite,Background,Centre,"sb\left.png",320,240 M,0,119635,,1,240 S,0,119635,,0.6266667 C,0,119635,,34,145,255 F,0,119635,119980,1,0
Sprite,Background,Centre,"sb\right.png",320,240 C,0,119290,,34,145,255 F,0,119290,119635,1,0 M,0,119980,,639,240 S,0,119980,,0.6266667
Sprite,Background,Centre,"sb\right.png",320,240 C,0,119635,,34,145,255 F,0,119635,119980,1,0 M,0,120325,,639,240 S,0,120325,,0.6266667
Sprite,Background,Centre,"sb\left.png",320,240 M,0,176876,,1,240 S,0,176876,,0.6266667 C,0,176876,,34,145,255 F,0,176876,177221,1,0
Sprite,Background,Centre,"sb\right.png",320,240 C,0,177566,,34,145,255 F,0,177566,177911,1,0 M,0,178256,,639,240 S,0,178256,,0.6266667
Sprite,Background,Centre,"sb\left.png",320,240 M,0,178255,,1,240 S,0,178255,,0.6266667 C,0,178255,,34,145,255 F,0,178255,178600,1,0
Sprite,Background,Centre,"sb\right.png",320,240 C,0,178945,,34,145,255 F,0,178945,179290,1,0 M,0,179635,,639,240 S,0,179635,,0.6266667
Sprite,Background,Centre,"sb\left.png",320,240 M,0,179635,,1,240 S,0,179635,,0.6266667 C,0,179635,,21,255,80 F,0,179635,179980,1,0
Sprite,Background,Centre,"sb\right.png",320,240 C,0,180324,,21,255,80 F,0,180324,180669,1,0 M,0,181014,,639,240 S,0,181014,,0.6266667
Sprite,Background,Centre,"sb\left.png",320,240 M,0,181014,,1,240 S,0,181014,,0.6266667 C,0,181014,,21,255,80 F,0,181014,181359,1,0
Sprite,Background,Centre,"sb\right.png",320,240 C,0,181704,,21,255,80 F,0,181704,182049,1,0 M,0,182394,,639,240 S,0,182394,,0.6266667
Sprite,Background,Centre,"sb\left.png",320,240 M,0,182393,,1,240 S,0,182393,,0.6266667 C,0,182393,,173,192,211 F,0,182393,182738,1,0
Sprite,Background,Centre,"sb\right.png",320,240 C,0,182393,,173,192,211 F,0,182393,182738,1,0 M,0,183083,,639,240 S,0,183083,,0.6266667
Sprite,Background,Centre,"sb\left.png",320,240 M,0,183083,,1,240 S,0,183083,,0.6266667 C,0,183083,,173,192,211 F,0,183083,183428,1,0
Sprite,Background,Centre,"sb\right.png",320,240 C,0,183083,,173,192,211 F,0,183083,183428,1,0 M,0,183773,,639,240 S,0,183773,,0.6266667
Sprite,Background,Centre,"sb\left.png",320,240 M,0,183773,,1,240 S,0,183773,,0.6266667 C,0,183773,,255,255,121 F,0,183773,184118,1,0
Sprite,Background,Centre,"sb\right.png",320,240 C,0,183773,,255,255,121 F,0,183773,184118,1,0 M,0,184463,,639,240 S,0,184463,,0.6266667
Sprite,Background,Centre,"sb\left.png",320,240 M,0,184462,,1,240 S,0,184462,,0.6266667 C,0,184462,,255,255,121 F,0,184462,184807,1,0
Sprite,Background,Centre,"sb\right.png",320,240 C,0,184462,,255,255,121 F,0,184462,184807,1,0 M,0,185152,,639,240 S,0,185152,,0.6266667
//Storyboard Layer 1 (Fail)
//Storyboard Layer 2 (Pass)
//Storyboard Layer 3 (Foreground)
Sprite,Foreground,Centre,"sb\BG-dream-catcher-b.jpg",320,240 C,0,170324,171014,255,177,100,128,255,255 M,0,170669,,320,240 S,0,170669,,0.6266667 F,2,170669,171014,0,1 F,0,171014,171704,1,0 C,0,171014,171704,128,255,255,255,128,192
Sprite,Foreground,Centre,"sb\ring.png",320,240 M,0,160324,,371,363 C,0,160324,,173,199,211 F,0,160324,161014,1,0 S,1,160324,161014,0.3,1 P,0,160324,161014,A
Sprite,Foreground,Centre,"sb\ring.png",320,240 M,0,161014,,272,155 C,0,161014,,173,199,211 F,0,161014,161704,1,0 S,1,161014,161704,0.3,1 P,0,161014,161704,A
Sprite,Foreground,Centre,"sb\ring.png",320,240 M,0,161704,,422,358 C,0,161704,,34,145,255 F,0,161704,162393,1,0 S,1,161704,162393,0.3,1 P,0,161704,162393,A
Sprite,Foreground,Centre,"sb\ring.png",320,240 M,0,162393,,218,135 C,0,162393,,34,145,255 F,0,162393,162738,1,0 S,1,162393,162738,0.3,0.8 P,0,162393,162738,A
Sprite,Foreground,Centre,"sb\ring.png",320,240 M,0,162738,,162,375 C,0,162738,,21,255,80 F,0,162738,163083,1,0 S,1,162738,163083,0.3,0.8 P,0,162738,163083,A
Sprite,Foreground,Centre,"sb\ring.png",320,240 M,0,163083,,379,323 C,0,163083,,21,255,80 F,0,163083,163428,1,0 S,1,163083,163428,0.3,0.8 P,0,163083,163428,A
Sprite,Foreground,Centre,"sb\ring.png",320,240 M,0,163428,,449,186 C,0,163428,,29,248,199 F,0,163428,163773,1,0 S,1,163428,163773,0.3,0.8 P,0,163428,163773,A
Sprite,Foreground,Centre,"sb\ring.png",320,240 M,0,163773,,191,100 C,0,163773,,29,248,199 F,0,163773,164118,1,0 S,1,163773,164118,0.3,0.8 P,0,163773,164118,A
Sprite,Foreground,Centre,"sb\highlight.png",320,240 M,0,165152,,273,169 C,0,165152,,255,111,111 F,0,165152,165238,0,1 S,0,165152,165497,0.4773331,0.7226663 P,0,165152,165497,A F,0,165238,165497,1,0
Sprite,Foreground,Centre,"sb\highlight.png",320,240 M,0,165152,,273,169 C,0,165152,,255,111,111 F,0,165152,165238,0,1 S,0,165152,165497,0.4773331,0.7226663 P,0,165152,165497,A F,0,165238,165497,1,0
Sprite,Foreground,Centre,"sb\ring.png",320,240 M,0,165152,,273,169 C,0,165152,,255,111,111 F,0,165152,165238,0,1 S,0,165152,165497,0.5200002,0.5840002 F,0,165238,165497,1,0
Sprite,Foreground,Centre,"sb\highlight.png",320,240 M,0,96704,,317,219 S,0,96704,,0.6480002 C,0,96704,,29,248,199 F,0,96704,97048,1,0 P,0,96704,97049,A
Sprite,Foreground,Centre,"sb\highlight.png",320,240 M,0,96704,,317,219 S,0,96704,,0.6480002 C,0,96704,,29,248,199 F,0,96704,97048,1,0 P,0,96704,97049,A
Sprite,Foreground,Centre,"sb\highlight.png",320,240 M,0,97221,,83,56 S,0,97221,,0.6480002 C,0,97221,,173,192,211 F,0,97221,97566,1,0 P,0,97221,97566,A
Sprite,Foreground,Centre,"sb\highlight.png",320,240 M,0,97221,,83,56 S,0,97221,,0.6480002 C,0,97221,,173,192,211 F,0,97221,97566,1,0 P,0,97221,97566,A
Sprite,Foreground,Centre,"sb\highlight.png",320,240 M,0,97911,,78,341 S,0,97911,,0.6480002 C,0,97911,,172,89,255 F,0,97911,99290,1,0 P,0,97911,99290,A
Sprite,Foreground,Centre,"sb\highlight.png",320,240 M,0,97911,,78,341 S,0,97911,,0.6480002 C,0,97911,,172,89,255 F,0,97911,99290,1,0 P,0,97911,99290,A
Sprite,Foreground,Centre,"sb\highlight.png",320,240 S,0,98945,,0.5413333 C,0,98945,,172,89,255 M,0,98945,99031,224,365,259,360 P,0,98945,99204,A M,0,99031,99117,259,360,292,357 M,0,99117,99204,292,357,328,353
Sprite,Foreground,Centre,"sb\highlight.png",320,240 S,0,98945,,0.5413333 C,0,98945,,172,89,255 M,0,98945,99031,224,365,259,360 P,0,98945,99204,A M,0,99031,99117,259,360,292,357 M,0,99117,99204,292,357,328,353
Sprite,Foreground,Centre,"sb\ring.png",246,166 C,0,173945,,173,192,211 F,0,173945,174462,1,0 S,1,173945,174462,0.3,1 P,0,173945,174462,A
Sprite,Foreground,Centre,"sb\ring.png",380,293 F,0,174462,174980,1,0 S,1,174462,174980,0.3,1 P,0,174462,174980,A C,0,174463,,173,192,211
Sprite,Foreground,Centre,"sb\ring.png",518,298 C,0,174980,,173,192,211 F,0,174980,175325,1,0 S,1,174980,175325,0.3,0.8 P,0,174980,175325,A
Sprite,Foreground,Centre,"sb\ring.png",476,129 C,0,175324,,173,192,211 F,0,175324,175669,1,0 S,1,175324,175669,0.3,0.8 P,0,175324,175669,A
Sprite,Foreground,Centre,"sb\highlight.png",320,240 S,0,175842,,0.5839999 M,0,175842,175928,262,290,226,325 F,0,175842,175928,0,1 P,0,175842,176532,A M,0,175928,176014,226,325,186,300 F,0,175928,176446,1 M,0,176014,176100,186,300,204,255 M,0,176100,176186,204,255,186,300 M,0,176186,176273,186,300,226,325 M,0,176273,176359,226,325,262,290 F,0,176446,176532,1,0.1733333
Sprite,Foreground,Centre,"sb\highlight.png",320,240 S,0,175842,,0.5839999 M,0,175842,175928,262,290,226,325 F,0,175842,175928,0,1 P,0,175842,176532,A M,0,175928,176014,226,325,186,300 F,0,175928,176446,1 M,0,176014,176100,186,300,204,255 M,0,176100,176186,204,255,186,300 M,0,176186,176273,186,300,226,325 M,0,176273,176359,226,325,262,290 F,0,176446,176532,1,0.1733333
Sprite,Foreground,Centre,"sb\circle.png",320,240 M,0,186876,,356,114 C,0,186876,186962,255,128,128,255,255,128 F,0,186876,187221,1,0 S,0,186876,187221,1,3 R,0,186876,187221,0,1.834667 C,0,186962,187048,255,255,128,128,255,128 C,0,187048,187135,128,255,128,128,255,255 C,0,187135,187221,128,255,255,255,128,128
Sprite,Foreground,Centre,"sb\circle.png",320,240 M,0,198600,,418,240 C,0,198600,198859,255,128,128,255,255,128 F,0,198600,199635,1,0 S,0,198600,199635,1,2.95942 R,0,198600,199635,0,1.834667 C,0,198686,199117,255,255,128,128,255,128 C,0,198772,199376,128,255,128,128,255,255 C,0,198859,198635,128,255,255,255,128,128
Sprite,Foreground,Centre,"sb\highlight.png",320,240 M,0,198600,,418,240 C,0,198600,,255,255,255 F,0,198600,198945,1,0 S,0,198600,198945,0.5093332,1.245333 P,0,198600,198945,A
Sprite,Foreground,Centre,"sb\highlight.png",320,240 M,0,199980,,115,231 C,0,199980,,255,255,255 F,0,199980,200325,1,0 S,0,199980,200325,0.5093332,1.245333 P,0,199980,200325,A
Sprite,Foreground,Centre,"sb\circle.png",320,240 M,0,199980,,115,234 C,0,199980,200239,255,128,128,255,255,128 F,0,199980,201015,1,0 S,0,199980,201015,1,2.95942 R,0,199980,201015,0,1.834667 C,0,200066,200497,255,255,128,128,255,128 C,0,200152,200756,128,255,128,128,255,255 C,0,200239,200015,128,255,255,255,128,128
Sprite,Foreground,Centre,"sb\highlight.png",320,240 M,0,201359,,399,322 C,0,201359,,255,255,255 F,0,201359,201704,1,0 S,0,201359,201704,0.5093332,1.245333 P,0,201359,201704,A
Sprite,Foreground,Centre,"sb\circle.png",320,240 M,0,201359,,399,322 C,0,201359,201618,255,128,128,255,255,128 F,0,201359,202394,1,0 S,0,201359,202394,1,2.95942 R,0,201359,202394,0,1.834667 C,0,201445,201876,255,255,128,128,255,128 C,0,201531,202135,128,255,128,128,255,255 C,0,201618,201394,128,255,255,255,128,128
Sprite,Foreground,Centre,"sb\highlight.png",320,240 M,0,202738,,390,110 C,0,202738,,255,255,255 F,0,202738,203083,1,0 S,0,202738,203083,0.5093332,1.245333 P,0,202738,203083,A
Sprite,Foreground,Centre,"sb\circle.png",320,240 M,0,202738,,390,110 C,0,202738,202997,255,128,128,255,255,128 F,0,202738,203773,1,0 S,0,202738,203773,1,2.95942 R,0,202738,203773,0,1.834667 C,0,202824,203255,255,255,128,128,255,128 C,0,202910,203514,128,255,128,128,255,255 C,0,202997,202773,128,255,255,255,128,128
Sprite,Foreground,Centre,"sb\ring.png",320,240 M,0,204117,,380,417 C,0,204117,,172,89,255 F,0,204117,204462,1,0 S,1,204117,204462,0.3,0.8 P,0,204117,204462,A
Sprite,Foreground,Centre,"sb\ring.png",320,240 M,0,204462,,380,417 C,0,204462,,172,89,255 F,0,204462,204807,1,0 S,1,204462,204807,0.3,0.8 P,0,204462,204807,A
Sprite,Foreground,Centre,"sb\ring.png",320,240 M,0,204807,,238,343 C,0,204807,,172,89,255 F,0,204807,205152,1,0 S,1,204807,205152,0.3,0.8 P,0,204807,205152,A
Sprite,Foreground,Centre,"sb\ring.png",320,240 M,0,205152,,238,343 C,0,205152,,172,89,255 F,0,205152,205497,1,0 S,1,205152,205497,0.3,0.8 P,0,205152,205497,A
Sprite,Foreground,Centre,"sb\ring.png",320,240 M,0,205497,,368,331 C,0,205497,,34,145,255 F,0,205497,205842,1,0 S,1,205497,205842,0.3,0.8 P,0,205497,205842,A
Sprite,Foreground,Centre,"sb\ring.png",320,240 M,0,205842,,319,231 C,0,205842,,34,145,255 F,0,205842,206187,1,0 S,1,205842,206187,0.3,0.8 P,0,205842,206187,A
Sprite,Foreground,Centre,"sb\ring.png",320,240 M,0,206186,,283,107 C,0,206186,,34,145,255 F,0,206186,206531,1,0 S,1,206186,206531,0.3,0.8 P,0,206186,206531,A
Sprite,Foreground,Centre,"sb\ring.png",320,240 M,0,206531,,283,107 C,0,206531,,34,145,255 F,0,206531,206876,1,0 S,1,206531,206876,0.3,0.8 P,0,206531,206876,A
Sprite,Foreground,Centre,"sb\highlight.png",320,240 S,0,186186,,0.6159998 C,0,186186,,172,89,255 M,0,186186,186273,452,93,462,126 P,0,186186,186704,A M,0,186273,186359,462,126,465,162 M,0,186359,186445,465,162,472,195 M,0,186445,186531,472,195,465,162 M,0,186531,186617,465,162,462,126 M,0,186617,186704,462,126,452,93
Sprite,Foreground,Centre,"sb\highlight.png",320,240 S,0,186186,,0.6159998 C,0,186186,,172,89,255 M,0,186186,186273,452,93,462,126 P,0,186186,186704,A M,0,186273,186359,462,126,465,162 M,0,186359,186445,465,162,472,195 M,0,186445,186531,472,195,465,162 M,0,186531,186617,465,162,462,126 M,0,186617,186704,462,126,452,93
Sprite,Foreground,Centre,"sb\highlight.png",320,240 L,0,2 M,0,186876,186962,357,115,321,122 M,0,186962,187048,321,122,357,115 S,0,186876,,0.6159998 C,0,186876,,34,145,255 P,0,186876,187566,A F,0,187221,187566,1,0
Sprite,Foreground,Centre,"sb\highlight.png",320,240 L,0,2 M,0,186876,186962,357,115,321,122 M,0,186962,187048,321,122,357,115 S,0,186876,,0.6159998 C,0,186876,,34,145,255 P,0,186876,187566,A F,0,187221,187566,1,0
Sprite,Foreground,Centre,"sb\highlight.png",320,240 M,0,96531,,221,207 S,0,96531,,0.6480002 C,0,96531,,29,248,199 F,0,96531,96875,1,0 P,0,96531,96875,A
Sprite,Foreground,Centre,"sb\highlight.png",320,240 M,0,96531,,221,207 S,0,96531,,0.6480002 C,0,96531,,29,248,199 F,0,96531,96875,1,0 P,0,96531,96875,A
Sprite,Foreground,Centre,"sb\highlight.png",320,240 M,0,97048,,139,136 S,0,97048,,0.6480002 C,0,97048,,173,192,211 F,0,97048,97392,1,0 P,0,97048,97392,A
Sprite,Foreground,Centre,"sb\highlight.png",320,240 M,0,97048,,139,136 S,0,97048,,0.6480002 C,0,97048,,173,192,211 F,0,97048,97392,1,0 P,0,97048,97392,A
Sprite,Foreground,Centre,"sb\highlight.png",320,240 M,0,97566,,114,249 S,0,97566,,0.6480002 C,0,97566,,255,255,121 F,0,97566,97910,1,0 P,0,97566,97910,A
Sprite,Foreground,Centre,"sb\highlight.png",320,240 M,0,97566,,114,249 S,0,97566,,0.6480002 C,0,97566,,255,255,121 F,0,97566,97910,1,0 P,0,97566,97910,A
Sprite,Foreground,Centre,"sb\highlight.png",320,240 S,0,164117,,0.5626668 M,0,164117,164204,88,219,76,235 P,0,164117,164807,A M,0,164204,164290,76,235,82,256 M,0,164290,164376,82,256,88,268 M,0,164376,164462,88,268,98,276 M,0,164462,164548,98,276,116,277 M,0,164548,164635,116,277,124,270 M,0,164635,164721,124,270,142,260 M,0,164721,164807,142,260,148,240
Sprite,Foreground,Centre,"sb\highlight.png",320,240 S,0,164117,,0.5626668 M,0,164117,164204,88,219,76,235 P,0,164117,164807,A M,0,164204,164290,76,235,82,256 M,0,164290,164376,82,256,88,268 M,0,164376,164462,88,268,98,276 M,0,164462,164548,98,276,116,277 M,0,164548,164635,116,277,124,270 M,0,164635,164721,124,270,142,260 M,0,164721,164807,142,260,148,240
Sprite,Foreground,Centre,"sb\ring.png",320,240 M,0,27566,,478,387 C,0,27566,,34,145,255 F,0,27566,28255,1,0 S,1,27566,28255,0.3,1 P,0,27566,28255,A
Sprite,Foreground,Centre,"sb\ring.png",320,240 M,0,28945,,159,131 C,0,28945,,34,145,255 F,0,28945,29635,1,0 S,1,28945,29635,0.3,1 P,0,28945,29635,A
Sprite,Foreground,Centre,"sb\ring.png",320,240 M,0,51014,,126,262 C,0,51014,,255,255,121 F,0,51014,51704,1,0 S,1,51014,51704,0.3,1 P,0,51014,51704,A
Sprite,Foreground,Centre,"sb\ring.png",320,240 M,0,49635,,216,67 C,0,49635,,34,145,255 F,0,49635,50324,1,0 S,1,49635,50324,0.3,1 P,0,49635,50324,A
Sprite,Foreground,Centre,"sb\ring.png",320,240 M,0,52393,,63,434 F,0,52393,53083,1,0 S,1,52393,53083,0.3,1 P,0,52393,53083,A
Sprite,Foreground,Centre,"sb\highlight.png",320,240 M,0,97738,,78,341 S,0,97738,,0.6480002 C,0,97738,,255,255,121 F,0,97738,98082,1,0 P,0,97738,98082,A
Sprite,Foreground,Centre,"sb\highlight.png",320,240 M,0,97738,,78,341 S,0,97738,,0.6480002 C,0,97738,,255,255,121 F,0,97738,98082,1,0 P,0,97738,98082,A
Sprite,Foreground,Centre,"sb\ring.png",320,240 M,0,171014,,560,153 C,0,171014,,21,255,80 F,0,171014,171703,1,0 S,1,171014,171703,0.3,1 P,0,171014,171703,A
//Storyboard Sound Samples

[TimingPoints]
9635,344.827586206897,4,2,1,50,1,0
11014,-133.333333333333,4,2,1,50,0,0
21014,-133.333333333333,4,2,1,60,0,0
22048,-133.333333333333,4,2,1,40,0,0
27566,-117.647058823529,4,2,1,60,0,0
28945,-105.263157894737,4,2,1,80,0,0
30324,-100,4,2,1,80,0,0
30669,-133.333333333333,4,2,1,70,0,0
31186,-100,4,2,1,63,0,0
31703,-133.333333333333,4,2,1,56,0,0
32048,-133.333333333333,4,2,1,50,0,0
35842,-133.333333333333,4,2,1,60,0,0
38600,-133.333333333333,4,2,1,70,0,0
41359,-133.333333333333,4,2,1,80,0,0
44117,-133.333333333333,4,2,1,90,0,0
46876,-117.647058823529,4,2,1,90,0,0
49635,-117.647058823529,4,2,1,93,0,0
51014,-100,4,2,1,60,0,0
54807,-100,4,1,1,80,0,0
55152,-100,4,2,1,100,0,1
77221,-100,4,2,1,80,0,0
99290,-100,4,2,1,90,0,1
109635,-66.6666666666667,4,1,1,90,0,1
110238,-50,4,1,1,90,0,0
110324,-100,4,2,1,90,0,1
119979,-100,4,2,1,80,0,0
132393,-133.333333333333,4,2,1,50,0,0
148945,-120.481927710843,4,2,1,50,0,0
154462,-109.89010989011,4,2,1,70,0,0
157221,-109.89010989011,4,2,1,80,0,0
159980,-100,4,2,1,90,0,0
161359,-90.9090909090909,4,2,1,95,0,0
162738,-83.3333333333333,4,2,1,100,0,0
163428,-76.9230769230769,4,2,1,100,0,0
164117,-200,4,2,1,50,0,0
165152,-66.6666666666667,4,2,1,50,0,0
165497,-100,4,2,1,100,0,1
175842,-66.6666666666667,4,1,1,100,0,1
176445,-50,4,2,1,100,0,0
176531,-100,4,2,1,100,0,1
184807,-100,4,2,1,70,0,0
186186,-100,4,1,1,100,0,0
186876,-100,4,2,1,80,0,0
198600,-133.333333333333,4,2,1,50,0,0
204117,-133.333333333333,4,2,1,80,0,0
208255,-133.333333333333,4,2,1,50,0,0

[Colours]
Combo1 : 173,192,211
Combo2 : 255,255,121
Combo3 : 255,111,111
Combo4 : 172,89,255
Combo5 : 34,145,255
Combo6 : 21,255,80
Combo7 : 29,248,199

[HitObjects]
40,68,11014,5,4,0:1:0:0:
26,78,11704,38,0,L|16:196,1,105.000004005432,2|0,0:0|0:0,0:0:0:0:
8,260,12221,1,2,0:0:0:0:
8,260,13083,2,0,P|72:248|120:256,1,105.000004005432,0|0,0:0|0:0,0:0:0:0:
188,276,13600,1,0,0:0:0:0:
188,276,13772,2,0,B|236:292|288:268|288:268|348:240|400:268,1,210.000008010865,2|2,0:0|0:0,0:0:0:0:
460,136,14807,1,2,0:0:0:0:
460,136,15842,54,0,P|420:112|348:120,1,105.000004005432,0|0,0:0|0:0,0:0:0:0:
312,56,16359,2,0,B|260:92|280:184|352:192|352:192|429:301|316:418|216:352,1,472.500018024445,0|0,0:0|0:0,0:0:0:0:
144,258,18428,38,0,L|96:236,2,52.5000020027161,0|2|2,0:0|0:0|0:0,0:0:0:0:
276,272,19117,1,0,0:0:0:0:
276,272,19290,2,0,B|308:292|336:280|336:280|355:240|403:242|438:283|402:323,1,210.000008010865,2|2,0:0|0:0,0:0:0:0:
276,272,20324,1,2,0:0:0:0:
279,250,21014,54,0,L|284:214,3,26.2500010013581,0|0|0|0,3:0|3:0|3:0|3:0,0:0:0:0:
287,202,21359,2,0,L|303:90,1,105.000004005432,0|0,3:0|0:0,0:0:0:0:
256,284,22048,38,0,P|312:312|444:268,1,210.000008010865,2|2,0:0|0:0,0:0:0:0:
256,104,23428,2,0,P|200:76|68:120,1,210.000008010865,2|2,0:0|0:0,0:0:0:0:
348,192,24807,54,0,P|376:136|332:4,1,210.000008010865,2|2,0:0|0:0,0:0:0:0:
168,192,26186,2,0,P|140:248|184:380,1,210.000008010865,2|0,0:0|0:0,0:0:0:0:
415,332,27566,38,0,L|388:72,1,238.00000453949,4|2,0:1|0:0,0:0:0:0:
96,76,28945,2,0,L|124:340,1,265.999992897034,2|2,0:0|0:0,0:0:0:0:
256,192,30324,53,4,1:0:0:0:
256,100,30669,2,0,L|266:55,11,26.2500010013581,0|0|0|0|0|0|0|0|0|0|0|0,3:0|3:0|3:0|3:0|3:0|3:0|3:0|3:0|3:0|3:0|3:0|3:0,0:0:0:0:
234,44,31703,2,0,L|231:12,4,26.2500010013581,2|2|2|2|0,3:2|3:2|3:2|3:2|3:0,0:0:0:0:
256,192,32135,12,4,33083,1:0:0:0:
84,72,33772,37,2,3:2:0:0:
332,40,34462,2,0,P|396:152|424:40,1,315.000012016297,2|2,0:0|3:2,0:0:0:0:
256,167,35841,2,0,B|288:212|339:228|339:228|296:272|309:334,1,210.000008010865,2|2,0:0|3:2,0:0:0:0:
204,324,37221,2,0,B|216:272|173:228|173:228|224:212|256:167,1,210.000008010865,2|2,0:0|3:2,0:0:0:0:
147,102,38255,1,2,3:2:0:0:
255,167,38600,54,0,P|311:179|367:159,1,105.000004005432,4|0,0:1|0:0,0:0:0:0:
397,46,39290,1,2,3:2:0:0:
421,296,39979,2,0,B|385:264|317:272|277:320|277:384|277:384|237:344|177:368,1,315.000012016297,2|2,0:0|3:2,0:0:0:0:
55,348,41359,2,0,B|75:300|75:300|63:136,1,210.000008010865,2|2,0:2|3:2,0:0:0:0:
172,79,42393,1,0,0:0:0:0:
62,15,42738,2,0,L|2:5,2,52.5000020027161,2|0|2,3:2|3:0|3:2,0:0:0:0:
172,79,43428,2,0,P|220:115|260:107,1,105.000004005432,2|2,0:0|3:2,0:0:0:0:
312,71,43945,1,0,3:0:0:0:
312,71,44117,38,0,L|344:175,1,105.000004005432,4|0,1:0|0:0,0:0:0:0:
461,127,44807,2,0,L|497:235,1,105.000004005432,0|0,1:0|0:0,0:0:0:0:
381,283,45497,2,0,L|417:387,1,105.000004005432,0|0,1:0|0:0,0:0:0:0:
291,358,46186,2,0,P|243:350|187:358,1,105.000004005432,0|0,1:0|0:0,0:0:0:0:
44,358,46876,54,0,P|28:302|28:238,1,119.000002269745,4|0,1:0|0:0,0:0:0:0:
166,206,47566,2,0,P|182:150|182:86,1,119.000002269745,0|0,1:0|0:0,0:0:0:0:
40,70,48255,2,0,L|28:6,2,59.5000011348725,0|2|2,1:0|0:0|0:0,0:0:0:0:
73,209,48945,2,0,L|61:273,2,59.5000011348725,0|2|2,1:0|0:0|0:0,0:0:0:0:
152,12,49635,37,4,1:0:0:0:
257,30,49980,1,0,1:0:0:0:
368,172,50324,1,0,1:0:0:0:
240,140,50669,1,0,1:0:0:0:
63,206,51014,53,4,1:0:0:0:
226,246,51359,1,0,1:0:0:0:
399,383,51704,1,0,1:0:0:0:
219,350,52049,1,0,1:0:0:0:
0,380,52393,85,4,1:0:0:0:
0,380,53773,86,0,L|-8:336,3,35,0|0|0|0,3:0|0:0|0:0|0:0,0:0:0:0:
20,316,54117,2,0,L|28:272,3,35,0|0|0|0,3:0|3:0|3:0|3:0,0:0:0:0:
0,252,54462,2,0,L|-12:196,3,35,0|0|0|0,3:0|0:0|3:0|3:0,0:0:0:0:
20,184,54807,1,0,0:0:0:0:
20,184,55152,86,0,P|96:168|160:176,1,140,4|0,0:0|1:0,0:0:0:0:
252,204,55669,1,0,3:0:0:0:
328,264,55842,2,0,P|358:261|404:240,1,70,0|0,0:0|3:0,0:0:0:0:
416,152,56186,2,0,P|408:124|404:80,1,70,0|0,1:0|0:0,0:0:0:0:
312,52,56531,2,0,P|304:128|280:204,1,140,0|2,3:0|1:0,0:0:0:0:
208,248,57048,1,2,0:1:0:0:
108,244,57221,2,0,L|20:236,1,70,2|0,0:1|3:0,0:0:0:0:
56,140,57566,2,0,L|0:68,1,70,2|0,1:0|0:0,0:0:0:0:
112,68,57911,6,0,P|144:116|128:192,1,140,0|0,3:0|1:0,0:0:0:0:
68,272,58428,1,0,0:0:0:0:
168,264,58600,2,0,L|256:256,1,70,0|0,0:0|3:0,0:0:0:0:
368,204,58945,2,0,L|296:196,1,70,0|0,1:0|0:0,0:0:0:0:
212,152,59290,2,0,P|200:104|208:68,1,70,2|0,0:1|3:0,0:0:0:0:
294,32,59635,2,0,P|305:63|304:107,1,70,2|0,1:0|3:0,0:0:0:0:
333,200,59979,2,0,L|367:198,4,35,2|0|2|0|2,3:1|3:0|3:1|3:0|1:0,0:0:0:0:
305,99,60497,1,0,0:0:0:0:
429,131,60669,6,0,B|448:199|448:199|429:275,1,140,0|0,3:0|1:0,0:0:0:0:
382,359,61186,1,0,3:0:0:0:
304,288,61359,2,0,L|312:216,1,70,0|0,0:0|3:0,0:0:0:0:
216,292,61704,2,0,L|224:368,1,70,0|0,1:0|0:0,0:0:0:0:
128,284,62048,2,0,B|136:224|136:224|112:188|116:140,1,140,0|2,3:0|1:0,0:0:0:0:
176,72,62566,1,2,0:1:0:0:
256,128,62738,2,0,P|224:156|184:168,1,70,2|0,0:1|3:0,0:0:0:0:
264,40,63083,2,0,P|300:52|327:77,1,70,2|0,1:0|0:0,0:0:0:0:
354,167,63428,70,0,P|398:175|494:143,1,140,0|0,3:0|0:0,0:0:0:0:
500,52,63945,1,0,0:0:0:0:
488,148,64117,2,0,L|480:228,1,70,0|0,0:0|3:0,0:0:0:0:
416,292,64462,2,0,L|408:368,1,70,0|0,1:0|0:0,0:0:0:0:
311,347,64807,2,0,P|271:363|231:363,1,70,2|2,0:1|3:1,0:0:0:0:
187,283,65152,2,0,P|223:267|263:267,1,70,2|0,1:0|3:0,0:0:0:0:
339,218,65497,2,0,L|331:170,4,35,2|0|0|0|2,3:1|3:0|3:0|3:0|1:0,0:0:0:0:
253,265,66014,1,0,0:0:0:0:
172,208,66186,6,0,B|136:216|136:216|104:212|104:212|68:224|28:216,1,140,4|0,0:0|1:0,0:0:0:0:
23,315,66704,1,0,0:0:0:0:
119,302,66876,2,0,P|151:288|191:284,1,70,0|0,0:0|3:0,0:0:0:0:
283,274,67221,2,0,P|315:266|351:238,1,70,0|0,1:0|0:0,0:0:0:0:
412,173,67566,2,0,B|460:80|460:80|488:57,1,140,0|2,3:0|1:0,0:0:0:0:
399,12,68083,1,2,0:1:0:0:
362,103,68255,2,0,L|330:167,1,70,2|0,0:1|3:0,0:0:0:0:
392,240,68600,2,0,L|360:308,1,70,2|0,1:0|0:0,0:0:0:0:
280,256,68945,6,0,L|220:384,1,140,0|0,0:0|1:0,0:0:0:0:
124,372,69462,1,0,0:0:0:0:
176,284,69635,2,0,P|168:244|152:220,1,70,0|0,0:0|3:0,0:0:0:0:
53,220,69980,2,0,P|61:255|82:284,1,70,0|0,1:0|0:0,0:0:0:0:
176,284,70324,2,0,L|246:273,1,70,2|2,0:1|0:1,0:0:0:0:
285,362,70669,2,0,L|360:371,1,70,2|0,1:0|0:0,0:0:0:0:
366,272,71014,2,0,L|408:262,4,35,2|0|2|0|2,3:1|3:0|0:1|3:0|1:0,0:0:0:0:
306,193,71531,1,0,0:0:0:0:
368,117,71704,70,0,P|375:85|376:45,1,70,4|0,3:2|0:0,0:0:0:0:
460,110,72048,2,0,P|463:147|476:182,1,70,0|0,1:0|0:0,0:0:0:0:
445,279,72393,2,0,P|409:279|373:291,1,70,0|0,3:0|3:0,0:0:0:0:
272,300,72738,2,0,L|284:372,1,70,0|0,1:0|0:0,0:0:0:0:
184,288,73083,6,0,L|196:220,1,70,0|2,3:0|0:1,0:0:0:0:
216,124,73428,2,0,P|180:120|148:108,1,70,2|0,1:0|0:0,0:0:0:0:
52,100,73773,2,0,L|40:168,1,70,2|2,3:1|0:1,0:0:0:0:
20,264,74117,2,0,P|56:268|88:280,1,70,2|0,1:0|0:0,0:0:0:0:
184,288,74462,6,0,P|192:327|212:356,2,70,0|0|0,3:0|0:0|1:0,0:0:0:0:
168,192,74980,1,0,0:0:0:0:
244,132,75152,70,0,P|273:105|289:78,2,70,0|0|0,3:0|0:0|1:0,0:0:0:0:
168,192,75670,1,0,0:0:0:0:
76,160,75842,6,0,P|38:147|6:147,2,70,0|0|0,3:0|0:0|1:0,0:0:0:0:
168,192,76359,2,0,L|180:244,6,35,0|0|0|0|0|0|0,0:0|0:0|3:0|3:0|3:0|3:0|1:0,0:0:0:0:
168,192,77221,22,0,P|224:188|288:136,1,140,2|0,3:2|1:0,0:0:0:0:
380,172,77738,2,0,P|416:144|456:136,1,70,2|0,0:0|0:0,0:0:0:0:
456,240,78083,2,0,L|460:320,1,70,2|2,0:0|0:0,0:0:0:0:
388,376,78428,1,0,0:0:0:0:
332,296,78600,38,0,B|324:248|324:248|296:220|296:220|284:168,1,140,2|0,3:2|1:0,0:0:0:0:
292,72,79117,2,0,P|256:84|220:84,1,70,2|0,0:0|0:0,0:0:0:0:
124,80,79462,2,0,P|84:84|56:96,1,70,2|2,3:2|1:2,0:0:0:0:
48,192,79807,1,0,0:0:0:0:
20,284,79980,6,0,L|0:144,1,140,2|0,3:2|1:0,0:0:0:0:
88,80,80497,2,0,L|84:152,1,70,2|0,0:0|0:0,0:0:0:0:
176,224,80842,2,0,L|164:136,1,70,2|2,3:2|1:2,0:0:0:0:
264,232,81186,1,0,0:0:0:0:
220,312,81359,6,0,L|228:392,1,70,2|0,3:2|3:0,0:0:0:0:
276,240,81704,1,2,1:2:0:0:
312,148,81876,2,0,L|352:140,6,35,2|0|0|0|2|0|0,3:2|3:0|3:0|3:0|3:2|3:0|1:0,0:0:0:0:
216,152,82566,1,0,3:0:0:0:
216,152,82652,1,0,3:0:0:0:
216,152,82738,6,0,P|168:144|140:128,1,70,2|0,0:0|0:0,0:0:0:0:
140,36,83083,2,0,P|188:44|216:60,1,70,0|0,1:0|0:0,0:0:0:0:
150,134,83428,2,0,L|136:211,1,70,0|0,3:0|0:0,0:0:0:0:
40,220,83773,2,0,L|56:144,1,70,0|0,1:0|0:0,0:0:0:0:
149,134,84117,6,0,P|181:148|216:152,1,70,0|0,3:0|0:0,0:0:0:0:
312,132,84462,2,0,P|368:124|396:132,1,70,0|0,1:0|0:0,0:0:0:0:
440,204,84807,2,0,L|464:132,1,70,0|0,3:0|0:0,0:0:0:0:
352,212,85152,2,0,L|368:288,1,70,0|0,1:0|0:0,0:0:0:0:
304,356,85497,38,0,P|264:352|220:360,1,70,0|0,3:0|0:0,0:0:0:0:
148,308,85842,2,0,L|124:240,1,70,0|0,1:0|0:0,0:0:0:0:
204,184,86186,2,0,L|180:112,1,70,0|0,3:0|0:0,0:0:0:0:
260,56,86531,6,0,L|244:-4,3,46.6666666666667,2|2|2|0,1:2|0:0|0:2|3:0,0:0:0:0:
348,4,87048,1,0,0:0:0:0:
348,104,87221,2,0,L|376:212,1,105,0|0,1:0|3:0,0:0:0:0:
328,216,87566,2,0,L|340:264,4,35,0|0|0|0|0,3:0|3:0|3:0|3:0|1:0,0:0:0:0:
328,216,88255,6,0,P|270:220|192:248,1,140,6|0,3:2|1:0,0:0:0:0:
120,324,88773,2,0,P|101:301|88:264,1,70,2|0,0:0|0:0,0:0:0:0:
36,172,89117,2,0,P|28:140|8:108,1,70,2|2,3:2|1:2,0:0:0:0:
4,4,89462,1,0,0:0:0:0:
100,52,89635,6,0,P|128:96|148:184,1,140,2|0,3:2|1:0,0:0:0:0:
116,280,90152,2,0,L|196:296,1,70,2|0,0:0|0:0,0:0:0:0:
316,200,90497,2,0,L|244:208,1,70,2|2,3:2|1:2,0:0:0:0:
288,296,90842,1,0,0:0:0:0:
384,280,91014,6,0,P|416:240|408:156,1,140,2|0,3:2|1:0,0:0:0:0:
324,104,91531,2,0,P|288:116|248:112,1,70,2|0,0:0|0:0,0:0:0:0:
276,20,91876,2,0,P|312:8|352:12,1,70,2|0,3:2|1:0,0:0:0:0:
420,72,92221,1,0,0:0:0:0:
324,104,92393,38,0,L|336:180,1,70,2|0,3:2|3:0,0:0:0:0:
360,268,92738,1,0,1:0:0:0:
268,236,92911,2,0,L|216:232,6,35,2|0|0|0|2|0|2,0:0|3:0|3:0|3:0|3:2|0:0|1:2,0:0:0:0:
252,332,93600,1,0,3:0:0:0:
252,332,93686,1,0,3:0:0:0:
252,332,93773,38,0,L|176:324,1,70,4|0,0:0|0:0,0:0:0:0:
216,232,94117,2,0,L|144:224,1,70,0|0,1:0|0:0,0:0:0:0:
108,316,94462,2,0,L|28:308,1,70,0|0,3:0|3:0,0:0:0:0:
72,216,94807,2,0,L|-8:208,1,70,0|0,0:0|0:0,0:0:0:0:
56,123,95152,6,0,P|96:95|112:71,1,70,0|0,3:0|0:0,0:0:0:0:
196,39,95497,2,0,P|224:79|248:95,1,70,0|0,1:0|0:0,0:0:0:0:
268,187,95842,2,0,P|228:215|212:239,1,70,0|0,3:0|3:0,0:0:0:0:
124,263,96186,2,0,P|96:223|72:207,1,70,0|0,1:0|0:0,0:0:0:0:
156,151,96531,69,2,3:1:0:0:
252,163,96704,1,2,0:1:0:0:
74,80,97048,5,0,3:0:0:0:
18,0,97221,1,2,0:1:0:0:
49,193,97566,5,0,1:0:0:0:
13,285,97738,1,2,3:1:0:0:
13,285,97911,22,0,L|-3:333,3,35,0|0|0|0,3:0|0:0|0:0|3:0,0:0:0:0:
26,360,98255,2,0,L|56:382,3,35,0|0|0|0,3:0|3:0|3:0|3:0,0:0:0:0:
104,372,98600,2,0,L|139:346,3,35,0|0|0|0,3:0|3:0|3:0|3:0,0:0:0:0:
159,309,98945,2,0,L|263:297,1,105,0|0,1:0|0:0,0:0:0:0:
263,296,99290,22,0,P|279:256|267:160,1,140,0|2,3:0|1:0,0:0:0:0:
132,168,99807,1,2,0:1:0:0:
197,94,99980,2,0,L|205:10,1,70,2|0,0:1|0:0,0:0:0:0:
267,161,100324,2,0,L|279:229,1,70,2|0,1:0|0:0,0:0:0:0:
365,277,100669,2,0,P|317:269|237:313,1,140,2|2,3:1|1:0,0:0:0:0:
163,372,101186,1,0,3:0:0:0:
96,300,101359,2,0,L|88:216,1,70,2|2,0:1|0:1,0:0:0:0:
80,132,101704,1,2,1:0:0:0:
80,132,102048,6,0,B|128:136|128:136|172:124|172:124|224:128,1,140,0|2,3:0|1:0,0:0:0:0:
416,176,102738,2,0,L|424:104,1,70,2|2,0:1|0:1,0:0:0:0:
336,148,103083,2,0,P|336:208|400:264,1,140,2|2,1:0|0:1,0:0:0:0:
390,261,103514,2,0,P|394:317|366:357,1,105,0|2,3:0|1:0,0:0:0:0:
268,356,103945,2,0,L|244:312,6,35,0|0|2|0|2|0|2,0:0|3:0|3:1|3:0|3:1|3:0|1:0,0:0:0:0:
99,254,104807,6,0,L|119:114,1,140,0|2,3:0|1:0,0:0:0:0:
100,20,105324,1,2,0:1:0:0:
52,108,105497,2,0,P|84:119|123:115,1,70,2|0,0:1|3:0,0:0:0:0:
204,68,105842,2,0,P|244:52|284:52,1,70,2|0,1:0|0:0,0:0:0:0:
348,112,106186,2,0,L|376:256,1,140,2|2,3:1|1:0,0:0:0:0:
386,347,106704,1,0,0:0:0:0:
288,343,106876,2,0,L|271:269,1,70,2|2,0:1|0:1,0:0:0:0:
224,188,107221,1,2,1:0:0:0:
224,188,107566,6,0,P|232:112|216:40,1,140,0|2,3:0|1:0,0:0:0:0:
312,20,108083,1,0,0:0:0:0:
348,112,108255,2,0,P|380:96|428:88,1,70,2|2,0:1|0:1,0:0:0:0:
380,196,108600,2,0,P|348:212|300:220,1,70,2|0,1:0|0:0,0:0:0:0:
224,188,108945,38,0,L|216:228,4,35,2|0|0|0|2,3:1|3:0|3:0|3:0|3:1,0:0:0:0:
212,320,109462,1,2,1:0:0:0:
116,336,109635,70,0,P|64:288|120:268,2,157.500006008148,2|2|2,0:0|0:0|0:0,0:0:0:0:
212,320,110324,38,0,P|268:300|348:312,1,140,4|2,0:0|1:0,0:0:0:0:
444,308,110842,2,0,P|460:268|460:240,1,70,0|2,0:0|0:1,0:0:0:0:
424,152,111186,2,0,P|400:108|392:16,1,140,2|2,3:1|0:1,0:0:0:0:
292,20,111704,1,2,3:1:0:0:
200,52,111876,2,0,L|216:132,1,70,0|2,0:0|1:0,0:0:0:0:
132,172,112221,2,0,L|104:32,1,140,2|2,0:1|3:1,0:0:0:0:
36,104,112738,2,0,P|20:148|0:172,1,70,0|2,1:0|0:1,0:0:0:0:
12,264,113083,6,0,P|36:284|56:328,1,70,2|0,3:1|0:0,0:0:0:0:
152,308,113428,2,0,L|140:388,1,70,2|0,1:0|0:0,0:0:0:0:
240,360,113773,1,2,0:1:0:0:
236,264,113945,2,0,L|220:124,1,140,2|2,3:1|0:1,0:0:0:0:
272,40,114462,2,0,P|308:20|348:12,1,70,2|0,0:1|3:0,0:0:0:0:
432,24,114807,1,2,1:0:0:0:
504,88,114980,2,0,L|496:140,5,35,2|0|0|0|2|0,3:1|3:0|3:0|3:0|3:1|0:0,0:0:0:0:
468,160,115497,2,0,L|480:293,1,105,2|0,1:0|0:0,0:0:0:0:
477,264,115841,6,0,P|437:264|404:274,1,70,2|0,1:2|0:0,0:0:0:0:
329,330,116186,2,0,P|285:334|245:326,1,70,2|0,1:2|0:0,0:0:0:0:
163,310,116531,2,0,P|123:294|95:266,1,70,2|0,1:2|0:0,0:0:0:0:
43,198,116876,2,0,P|35:166|35:114,1,70,2|0,1:2|0:0,0:0:0:0:
53,32,117221,6,0,L|118:4,1,70,2|0,1:2|0:0,0:0:0:0:
120,102,117566,2,0,L|196:118,1,70,2|0,1:2|0:0,0:0:0:0:
240,32,117911,2,0,L|328:24,1,70,2|0,1:2|0:0,0:0:0:0:
351,113,118255,2,0,L|427:133,1,70,2|0,1:2|0:0,0:0:0:0:
400,228,118600,38,0,P|388:280|376:300,1,70,2|0,1:2|1:0,0:0:0:0:
306,379,118945,2,0,P|254:367|234:355,1,70,0|0,1:0|1:0,0:0:0:0:
159,280,119290,2,0,P|171:228|183:208,1,70,0|0,1:0|1:0,0:0:0:0:
248,125,119635,2,0,P|300:137|320:149,1,70,0|0,1:0|1:0,0:0:0:0:
285,253,119980,1,0,0:0:0:0:
104,232,132393,54,0,L|136:20,1,210.000008010865,2|2,0:0|0:0,0:0:0:0:
376,24,133773,2,0,L|408:232,1,210.000008010865,2|2,0:0|0:0,0:0:0:0:
256,376,135152,38,0,B|200:336|200:232|256:192|256:192|312:152|312:48|256:8,1,420.000016021729,2|2,0:0|0:0,0:0:0:0:
255,7,137221,53,2,0:0:0:0:
256,192,137910,12,2,143428,0:0:0:0:
116,152,144117,38,0,P|164:172|216:168,1,105.000004005432,2|0,3:2|0:0,0:0:0:0:
320,128,144807,2,0,P|364:116|424:124,2,105.000004005432,2|2|2,0:0|3:2|3:2,0:0:0:0:
304,236,145841,1,2,0:0:0:0:
412,224,146186,54,0,L|432:12,1,210.000008010865,2|2,0:0|3:2,0:0:0:0:
328,32,147221,1,2,0:0:0:0:
296,132,147566,2,0,P|292:188|312:232,1,105.000004005432,2|0,0:0|0:0,0:0:0:0:
192,148,148255,2,0,P|212:100|212:40,1,105.000004005432,2|0,3:2|0:0,0:0:0:0:
112,12,148945,38,0,B|168:44|224:20|224:20|280:0|348:28,1,232.400003368835,4|2,0:0|3:2,0:0:0:0:
384,116,149980,1,0,0:0:0:0:
290,160,150324,2,0,L|280:276,1,116.200001684418,2|2,0:0|3:2,0:0:0:0:
384,116,151014,2,0,L|372:-4,1,116.200001684418,2|2,3:2|0:0,0:0:0:0:
284,68,151704,54,0,P|396:112|476:36,1,232.400003368835,2|2,0:0|3:2,0:0:0:0:
372,0,152738,1,2,0:0:0:0:
284,68,153083,2,0,L|300:244,2,174.300002526627,2|2|2,0:0|0:0|0:0,0:0:0:0:
188,128,154462,54,0,L|200:258,1,127.400004276734,0|0,1:0|3:0,0:0:0:0:
160,348,154980,2,0,P|120:360|36:340,1,127.400004276734,0|0,1:0|3:0,0:0:0:0:
12,248,155497,2,0,P|36:200|36:128,1,127.400004276734,0|0,1:0|3:0,0:0:0:0:
108,64,156014,2,0,B|172:48|172:48|232:64,1,127.400004276734,0|0,1:0|3:0,0:0:0:0:
272,152,156531,2,0,P|302:162|348:164,1,63.7000021383668,0|0,1:0|0:0,0:0:0:0:
396,100,156876,2,0,P|432:96|468:104,1,63.7000021383668,0|0,3:0|0:0,0:0:0:0:
504,184,157221,6,0,B|512:228|512:228|504:316,1,127.400004276734,0|0,1:0|3:0,0:0:0:0:
412,340,157738,2,0,B|372:332|372:332|276:344,1,127.400004276734,0|0,1:0|3:0,0:0:0:0:
212,284,158255,2,0,P|216:224|196:152,1,127.400004276734,0|0,1:0|3:0,0:0:0:0:
124,100,158773,2,0,P|76:124|0:112,1,127.400004276734,0|0,1:0|3:0,0:0:0:0:
196,84,159290,2,0,L|204:20,1,63.7000021383668,0|0,1:0|0:0,0:0:0:0:
124,100,159635,2,0,L|132:172,1,63.7000021383668,0|0,3:0|0:0,0:0:0:0:
144,268,159980,6,0,P|184:288|208:312,1,70,0|0,3:0|0:0,0:0:0:0:
308,308,160324,2,0,P|328:268|352:244,1,70,0|0,1:0|0:0,0:0:0:0:
372,148,160669,2,0,P|332:128|308:104,1,70,0|0,3:0|0:0,0:0:0:0:
208,100,161014,2,0,P|188:140|164:164,1,70,0|0,1:0|0:0,0:0:0:0:
144,293,161359,54,0,L|240:320,1,77.0000023498536,0|0,3:0|0:0,0:0:0:0:
357,303,161703,2,0,L|381:212,1,77.0000023498536,0|0,1:0|0:0,0:0:0:0:
367,90,162048,2,0,L|276:66,1,77.0000023498536,0|0,3:0|0:0,0:0:0:0:
154,80,162393,2,0,L|130:171,1,77.0000023498536,0|0,1:0|0:0,0:0:0:0:
100,320,162738,6,0,L|184:332,1,83.9999974365235,0|0,1:0|1:0,0:0:0:0:
316,268,163083,2,0,L|400:248,1,83.9999974365235,0|0,1:0|1:0,0:0:0:0:
386,131,163428,6,0,L|288:112,1,90.9999958343508,0|0,1:0|1:0,0:0:0:0:
128,44,163773,2,0,L|32:56,1,90.9999958343508,0|0,1:0|1:0,0:0:0:0:
24,164,164117,6,0,P|24:212|84:176,1,140,0|0,3:0|0:0,0:0:0:0:
208,116,165152,22,0,L|240:96,6,26.2500010013581,0|0|0|0|0|0|0,0:0|0:0|0:0|0:0|0:0|0:0|0:0,0:0:0:0:
208,116,165497,6,0,P|197:158|226:266,1,140,4|2,0:1|0:1,0:0:0:0:
300,314,166014,1,0,3:0:0:0:
402,294,166186,2,0,L|410:207,1,70,2|0,1:0|0:0,0:0:0:0:
455,129,166531,2,0,L|443:49,1,70,2|0,3:1|0:0,0:0:0:0:
345,25,166876,1,2,0:1:0:0:
258,84,167048,2,0,P|206:100|126:62,1,140,0|0,1:0|0:0,0:0:0:0:
41,125,167566,2,0,L|57:215,1,70,2|2,1:0|3:1,0:0:0:0:
87,293,167911,6,0,B|133:277|150:237|150:237|174:241|211:231,2,140,2|0|2,0:1|3:0|0:1,0:0:0:0:
295,318,168945,2,0,P|319:282|323:241,1,70,2|2,1:0|0:1,0:0:0:0:
337,151,169290,1,2,3:1:0:0:
245,99,169462,2,0,L|258:17,1,70,0|2,1:0|0:1,0:0:0:0:
150,31,169807,2,0,L|140:104,1,70,0|2,1:0|0:1,0:0:0:0:
118,203,170152,1,0,3:0:0:0:
221,219,170324,2,0,P|264:202|307:202,1,70,2|2,1:0|0:1,0:0:0:0:
392,209,170669,2,0,B|397:226|397:226|394:232|394:232|401:289,1,70,2|0,3:1|0:0,0:0:0:0:
497,145,171014,6,0,P|432:135|386:73,1,140,0|2,3:0|0:1,0:0:0:0:
285,54,171531,1,2,3:1:0:0:
207,125,171704,2,0,B|199:160|199:160|178:191,1,70,2|0,1:0|0:0,0:0:0:0:
116,262,172048,2,0,B|96:233|96:233|88:198,1,70,2|0,3:1|0:0,0:0:0:0:
50,108,172393,1,2,3:1:0:0:
129,50,172566,2,0,P|188:20|270:34,1,140,0|0,1:0|3:0,0:0:0:0:
328,98,173083,2,0,L|412:93,1,70,2|2,1:0|3:1,0:0:0:0:
396,192,173428,2,0,L|239:172,1,140,2|0,0:1|3:0,0:0:0:0:
181,112,173945,22,0,B|172:164|172:164|180:190,1,70,0|2,1:0|0:1,0:0:0:0:
218,277,174290,1,0,3:0:0:0:
315,239,174462,2,0,P|323:279|313:319,1,70,2|2,1:0|0:1,0:0:0:0:
416,343,174807,1,2,3:1:0:0:
453,244,174980,2,0,P|441:200|443:167,1,70,0|2,1:0|3:1,0:0:0:0:
411,75,175324,2,0,L|337:66,1,70,0|2,1:0|3:1,0:0:0:0:
246,112,175669,1,2,0:1:0:0:
200,236,175842,22,0,P|136:260|152:192,2,157.500006008148,2|2|2,0:0|0:0|0:0,0:0:0:0:
288,336,176531,22,0,L|432:344,1,140,0|2,0:0|1:0,0:0:0:0:
476,260,177048,2,0,P|488:224|484:180,1,70,0|2,0:0|0:1,0:0:0:0:
436,108,177393,2,0,P|376:132|300:112,1,140,2|2,3:1|0:1,0:0:0:0:
212,76,177911,1,2,3:1:0:0:
152,152,178083,2,0,P|136:192|136:220,1,70,0|2,0:0|1:0,0:0:0:0:
152,316,178428,2,0,L|296:308,1,140,2|2,0:1|3:1,0:0:0:0:
292,208,178945,2,0,L|364:212,1,70,0|2,1:0|0:1,0:0:0:0:
424,288,179290,6,0,P|420:328|428:368,1,70,2|0,3:1|0:0,0:0:0:0:
512,264,179635,2,0,P|492:228|464:204,1,70,2|0,1:0|0:0,0:0:0:0:
380,168,179980,1,2,0:1:0:0:
292,208,180152,2,0,P|213:254|168:244,1,140,2|2,3:1|0:1,0:0:0:0:
72,252,180669,2,0,L|64:324,1,70,2|0,0:1|3:0,0:0:0:0:
169,244,181014,1,2,1:0:0:0:
116,156,181186,1,2,3:1:0:0:
116,156,181273,1,0,3:0:0:0:
116,156,181359,2,0,L|108:112,3,35,0|0|0|0,3:0|0:0|0:0|3:0,0:0:0:0:
109,121,181704,2,0,P|144:108|168:84,1,70,2|0,1:0|0:0,0:0:0:0:
260,56,182048,22,0,L|272:128,1,70,2|0,3:1|0:0,0:0:0:0:
368,140,182393,2,0,L|360:212,1,70,2|0,1:0|0:0,0:0:0:0:
264,224,182738,2,0,L|276:300,1,70,2|2,3:1|0:1,0:0:0:0:
372,312,183083,2,0,L|364:384,1,70,0|2,1:0|3:1,0:0:0:0:
264,380,183428,6,0,P|232:372|184:376,1,70,2|0,3:1|0:0,0:0:0:0:
100,356,183773,2,0,P|80:320|72:284,1,70,2|2,1:0|0:1,0:0:0:0:
68,196,184117,2,0,P|80:156|100:124,1,70,0|0,3:0|3:0,0:0:0:0:
164,64,184462,2,0,P|220:84|300:52,1,140,0|2,3:0|0:0,0:0:0:0:
340,32,185497,1,0,0:0:0:0:
396,40,186186,22,0,L|416:148,2,105,0|0|0,0:0|0:0|0:0,0:0:0:0:
292,60,186876,6,0,P|280:64|256:68,4,35,0|0|0|0|0,3:0|3:0|3:0|3:0|1:0,0:0:0:0:
308,64,187566,6,0,L|320:204,1,140,2|0,3:2|1:0,0:0:0:0:
380,280,188083,2,0,P|340:300|300:304,1,70,2|0,0:0|0:0,0:0:0:0:
220,336,188428,2,0,L|212:252,1,70,2|0,3:2|1:0,0:0:0:0:
164,180,188773,1,0,0:0:0:0:
88,240,188945,6,0,P|144:276|224:260,1,140,2|0,3:2|1:0,0:0:0:0:
260,180,189462,2,0,L|352:200,1,70,2|0,0:0|0:0,0:0:0:0:
232,84,189807,2,0,L|152:88,1,70,2|0,3:2|1:0,0:0:0:0:
68,160,190152,1,0,0:0:0:0:
164,180,190324,6,0,L|152:320,1,140,2|0,3:2|1:0,0:0:0:0:
244,356,190842,2,0,P|284:348|324:352,1,70,2|0,0:0|0:0,0:0:0:0:
364,264,191186,2,0,P|404:268|448:256,1,70,2|0,3:2|1:0,0:0:0:0:
464,168,191531,1,0,0:0:0:0:
392,100,191704,6,0,L|316:88,1,70,2|0,0:0|3:0,0:0:0:0:
464,168,192048,1,0,1:0:0:0:
480,72,192221,2,0,L|484:32,6,35,0|0|0|0|0|0|0,3:0|3:0|3:0|3:0|3:0|3:0|1:0,0:0:0:0:
464,168,192911,1,0,0:0:0:0:
464,168,192997,1,0,0:0:0:0:
464,168,193083,22,0,P|456:216|460:256,1,70,0|0,3:0|0:0,0:0:0:0:
468,336,193428,2,0,L|392:344,1,70,0|0,1:0|0:0,0:0:0:0:
328,276,193773,2,0,L|248:264,2,70,0|0|0,0:0|0:0|1:0,0:0:0:0:
348,180,194290,1,0,0:0:0:0:
252,156,194462,6,0,P|220:136|192:96,1,70,0|0,0:0|0:0,0:0:0:0:
104,128,194807,2,0,P|100:176|108:212,1,70,0|0,1:0|0:0,0:0:0:0:
164,276,195152,2,0,P|168:312|164:348,2,70,0|0|0,0:0|0:0|1:0,0:0:0:0:
72,308,195669,1,0,0:0:0:0:
164,276,195842,6,0,L|240:272,1,70,0|0,0:0|0:0,0:0:0:0:
288,192,196186,2,0,L|376:200,1,70,0|0,1:0|0:0,0:0:0:0:
356,100,196531,2,0,L|280:108,1,70,0|0,0:0|0:0,0:0:0:0:
228,28,196876,2,0,L|144:24,1,70,0|0,1:0|0:0,0:0:0:0:
88,160,197221,6,0,P|92:124|80:68,1,70,2|0,0:0|0:0,0:0:0:0:
160,216,197566,2,0,P|172:256|192:284,1,70,2|0,1:2|0:0,0:0:0:0:
216,320,197824,2,0,L|220:364,5,35,0|0|0|0|0|0,0:0|0:0|0:0|0:0|0:0|1:0,0:0:0:0:
356,184,198600,22,0,P|376:140|380:64,1,105,6|0,0:0|0:0,0:0:0:0:
312,52,199117,2,0,L|252:64,1,52.5000020027161,0|0,3:0|1:0,0:0:0:0:
184,52,199462,2,0,L|120:68,1,52.5000020027161,2|0,0:0|3:0,0:0:0:0:
64,100,199807,1,0,0:0:0:0:
52,180,199980,38,0,B|48:216|48:216|64:248|64:248|56:292,1,105.000004005432,2|0,3:2|3:0,0:0:0:0:
92,352,200497,2,0,P|128:344|148:344,1,52.5000020027161,0|0,0:0|1:0,0:0:0:0:
220,356,200842,2,0,L|328:348,1,105.000004005432,0|0,3:0|1:0,0:0:0:0:
332,268,201359,54,0,L|216:276,1,105.000004005432,2|2,3:2|0:0,0:0:0:0:
152,256,201876,2,0,P|144:220|148:184,1,52.5000020027161,0|0,3:0|1:0,0:0:0:0:
200,156,202221,2,0,P|208:120|204:84,1,52.5000020027161,0|0,0:0|3:0,0:0:0:0:
252,46,202566,1,0,0:0:0:0:
324,56,202738,2,0,P|356:100|420:124,1,105.000004005432,0|0,3:0|3:0,0:0:0:0:
464,168,203255,2,0,L|476:232,1,52.5000020027161,0|0,0:0|0:0,0:0:0:0:
400,248,203600,2,0,L|396:364,1,105.000004005432,2|0,3:2|0:0,0:0:0:0:
316,364,204117,22,0,L|256:376,3,52.5000020027161,0|0|0|0,3:0|3:0|3:0|3:0,0:0:0:0:
176,288,204807,2,0,L|248:300,3,52.5000020027161,0|0|0|0,3:0|3:0|3:0|3:0,0:0:0:0:
304,276,205497,6,0,P|316:248|320:212,1,52.5000020027161,0|0,3:0|3:0,0:0:0:0:
256,176,205842,2,0,P|248:144|248:104,1,52.5000020027161,0|0,3:0|3:0,0:0:0:0:
220,52,206186,2,0,L|270:38,3,52.5000020027161,0|0|0|0,3:0|3:0|3:0|3:0,0:0:0:0:
332,88,206876,38,0,P|396:120|428:96,1,105.000004005432,4|0,0:0|0:0,0:0:0:0:
412,256,207566,1,0,0:0:0:0:
412,256,207738,2,0,B|388:236|388:236|312:220,1,105.000004005432,2|2,0:0|0:0,0:0:0:0:
244,216,208255,38,0,L|236:252,3,26.2500010013581,0|0|0|0,3:0|3:0|3:0|3:0,0:0:0:0:
208,268,208600,2,0,L|212:304,3,26.2500010013581,0|0|0|0,3:0|3:0|3:0|3:0,0:0:0:0:
240,324,208945,6,0,L|236:360,7,26.2500010013581,0|0|0|0|0|0|0|0,3:0|3:0|3:0|3:0|3:0|3:0|3:0|3:0,0:0:0:0:
211,377,209635,53,4,3:1:0:0:
