osu file format v14

[General]
AudioFilename: audio.mp3
AudioLeadIn: 0
PreviewTime: 53904
Countdown: 0
SampleSet: Soft
StackLeniency: 0.6
Mode: 0
LetterboxInBreaks: 0
WidescreenStoryboard: 0

[Editor]
Bookmarks: 22179,109421
DistanceSpacing: 1.2
BeatDivisor: 4
GridSize: 32
TimelineZoom: 1

[Metadata]
Title:Dream Catcher (feat. Charlotte Haining) (Cut Ver.)
TitleUnicode:Dream Catcher (feat. Charlotte Haining) (Cut Ver.)
Artist:Rameses B
ArtistUnicode:Rameses B
Creator:Fall
Version:Collab Normal
Source:
Tags:electronic english dnb drum and & bass _tranquility cut version female vocals vocalist castagne rvmathew plaudible xenon- xehn xen aia kowari
BeatmapID:2496935
BeatmapSetID:1174503

[Difficulty]
HPDrainRate:4
CircleSize:3
OverallDifficulty:4
ApproachRate:5
SliderMultiplier:1
SliderTickRate:1

[Events]
//Background and Video events
0,0,"1042405.jpg",0,0
//Break Periods
//Storyboard Layer 0 (Background)
//Storyboard Layer 1 (Fail)
//Storyboard Layer 2 (Pass)
//Storyboard Layer 3 (Foreground)
//Storyboard Layer 4 (Overlay)
//Storyboard Sound Samples

[TimingPoints]
111,344.827586206897,4,2,2,20,1,0
21145,-100,4,2,2,40,0,0
22179,-133.333333333333,4,2,2,45,0,0
27697,-133.333333333333,4,2,2,45,0,0
33214,-117.647058823529,4,2,2,45,0,0
44248,-117.647058823529,4,2,2,55,0,0
49766,-117.647058823529,4,2,2,60,0,0
55283,-100,4,2,2,80,0,1
77352,-117.647058823529,4,2,2,80,0,0
110455,-100,4,2,2,80,0,0
121490,-133.333333333333,4,2,2,45,0,0
132524,-133.333333333333,4,2,2,45,0,0
143214,-133.333333333333,4,2,2,5,0,0

[Colours]
Combo1 : 255,160,66
Combo2 : 0,0,255
Combo3 : 255,128,0
Combo4 : 79,79,255

[HitObjects]
256,192,11145,12,0,19421,0:0:0:0:
378,73,22179,6,0,P|294:62|236:33,1,150.000005722046,2|0,0:0|0:0,0:0:0:0:
236,33,23559,2,0,P|267:100|275:174,1,150.000005722046,2|0,0:0|0:0,0:0:0:0:
157,290,24938,2,0,P|226:293|287:348,2,150.000005722046,2|0|2,0:0|0:0|0:0,0:0:0:0:
3,354,27007,1,2,0:0:0:0:
104,224,27697,6,0,P|98:161|57:81,1,150.000005722046,6|2,1:2|0:0,0:0:0:0:
59,84,29076,2,0,P|124:119|198:128,1,150.000005722046,2|2,0:0|0:0,0:0:0:0:
342,46,30455,2,0,P|280:39|204:231,1,300.000011444092,2|0,0:0|0:0,0:0:0:0:
196,220,33214,6,0,B|270:212|281:281|358:271,1,170.000003242493,4|8,1:2|0:0,0:0:0:0:
237,103,34593,2,0,P|165:86|88:153,1,170.000003242493,8|8,0:0|0:0,0:0:0:0:
136,340,35973,1,8,0:0:0:0:
389,360,38731,6,0,B|402:284|340:271|358:194,1,170.000003242493,4|8,1:2|0:0,0:0:0:0:
450,34,40111,2,0,P|372:68|256:67,1,170.000003242493,8|8,0:0|0:0,0:0:0:0:
143,32,41490,1,8,0:0:0:0:
143,32,44248,6,0,B|195:82|195:82|177:198,2,170.000003242493,4|0|0,1:2|1:0|1:0,0:0:0:0:
6,159,46317,1,0,1:0:0:0:
177,234,47007,2,0,B|238:230|238:230|286:244|286:244|359:239,2,170.000003242493,0|0|0,1:0|1:0|1:0,0:0:0:0:
32,352,49076,1,0,1:0:0:0:
217,372,49766,6,0,L|211:274,1,85.0000016212464,4|8,1:2|0:0,0:0:0:0:
278,221,50455,2,0,L|284:123,1,85.0000016212464,0|8,1:0|0:0,0:0:0:0:
339,61,51145,1,0,1:0:0:0:
431,76,51490,1,8,0:0:0:0:
486,151,51835,1,0,1:0:0:0:
394,168,52179,1,8,0:0:0:0:
351,251,52524,5,4,1:3:0:0:
256,192,52611,12,4,53904,3:0:0:0:
322,155,54938,5,12,0:0:0:0:
351,251,55283,6,0,P|271:288|225:270,1,100,4|8,1:2|0:0,0:0:0:0:
213,252,55800,2,0,P|157:243|116:263,1,100,0|0,0:0|1:0,0:0:0:0:
82,308,56317,1,8,0:0:0:0:
24,202,56662,2,0,P|20:145|13:101,1,100,0|8,1:0|0:0,0:0:0:0:
4,53,57179,1,2,0:0:0:0:
4,53,57352,1,2,0:0:0:0:
114,100,57697,1,8,0:0:0:0:
220,45,58042,6,0,P|266:12|325:5,2,100,0|8|2,1:0|0:0|0:0,0:0:0:0:
227,104,58904,1,0,1:0:0:0:
227,104,59076,1,8,0:0:0:0:
325,172,59421,2,0,P|300:221|305:284,2,100,0|8|2,1:0|0:0|0:0,0:0:0:0:
371,134,60283,1,0,0:0:0:0:
371,134,60455,2,0,P|403:85|405:64,1,50,8|0,0:0|0:0,0:0:0:0:
411,35,60800,5,0,1:0:0:0:
503,111,61145,2,0,B|486:145|486:145|495:213,1,100,8|2,0:0|0:0,0:0:0:0:
505,265,61662,1,0,1:0:0:0:
505,265,61835,1,8,0:0:0:0:
393,307,62179,2,0,L|379:203,1,100,0|8,1:0|0:0,0:0:0:0:
355,160,62697,1,2,0:0:0:0:
355,160,62869,1,2,0:0:0:0:
269,243,63214,1,8,0:0:0:0:
186,158,63559,6,0,P|128:144|55:164,2,100,0|8|2,1:0|0:0|0:0,0:0:0:0:
208,213,64421,1,0,1:0:0:0:
208,213,64593,2,0,L|196:308,1,50,8|0,0:0|0:0,0:0:0:0:
238,310,64938,2,0,L|250:405,2,50,0|0|8,1:0|1:0|0:0,0:0:0:0:
117,312,65628,2,0,B|72:338|72:338|1:330,1,100,2|8,0:0|0:0,0:0:0:0:
6,213,66317,6,0,P|7:156|28:104,2,100,4|8|2,1:2|0:0|0:0,0:0:0:0:
44,258,67179,1,0,1:0:0:0:
44,258,67352,1,8,0:0:0:0:
125,169,67697,2,0,P|192:163|255:142,1,100,0|8,1:0|0:0,0:0:0:0:
285,142,68214,1,2,0:0:0:0:
285,142,68386,1,2,0:0:0:0:
361,49,68731,1,8,0:0:0:0:
453,125,69076,6,0,L|458:233,2,100,0|8|2,1:0|0:0|0:0,0:0:0:0:
448,69,69938,1,0,1:0:0:0:
448,69,70111,1,8,0:0:0:0:
353,142,70455,2,0,P|281:140|260:148,2,50,0|0|8,1:0|1:0|0:0,0:0:0:0:
310,255,71145,2,0,P|311:279|317:304,2,50,2|0|8,0:0|0:0|0:0,0:0:0:0:
189,251,71835,5,0,1:0:0:0:
109,161,72179,2,0,L|115:36,2,100,8|0|8,0:0|1:0|0:0,0:0:0:0:
44,262,73214,2,0,P|-16:238|-41:236,2,50,0|2|8,1:0|0:0|0:0,0:0:0:0:
123,352,73904,2,0,P|183:328|208:326,2,50,0|2|8,1:0|0:0|0:0,0:0:0:0:
164,239,74593,5,0,1:0:0:0:
271,292,74938,1,8,0:0:0:0:
382,248,75283,1,0,1:0:0:0:
431,138,75628,2,0,P|397:135|365:126,1,50,8|0,0:0|0:0,0:0:0:0:
356,76,75973,2,0,P|322:79|290:88,1,50,0|0,1:0|1:0,0:0:0:0:
248,95,76317,2,0,L|231:206,1,100,8|2,0:0|0:0,0:0:0:0:
223,253,76835,1,0,1:0:0:0:
223,253,77007,1,8,0:0:0:0:
156,330,77352,5,4,1:2:0:0:
83,260,77697,2,0,L|76:74,1,170.000003242493,8|8,0:0|0:0,0:0:0:0:
177,74,78731,1,0,1:0:0:0:
247,148,79076,2,0,B|329:141|327:205|406:198,1,170.000003242493,8|8,0:0|0:0,0:0:0:0:
424,97,80111,1,0,1:0:0:0:
500,166,80455,2,0,L|495:335,1,170.000003242493,8|8,0:0|0:0,0:0:0:0:
397,367,81490,1,0,1:0:0:0:
388,265,81835,2,0,P|294:254|235:322,1,170.000003242493,8|8,0:0|0:0,0:0:0:0:
150,344,82869,6,0,B|155:254|155:254|129:183|129:183|134:81,1,255.000004863739,0|8,1:0|0:0,0:0:0:0:
213,30,84248,1,0,1:0:0:0:
266,116,84593,1,8,0:0:0:0:
355,67,84938,2,0,L|344:20,2,42.5000008106232,2|0|8,0:0|1:0|0:0,0:0:0:0:
419,146,85628,6,0,P|472:139|511:122,2,85.0000016212464,0|8|2,1:0|0:0|0:0,0:0:0:0:
367,149,86490,1,0,1:0:0:0:
367,149,86662,1,8,0:0:0:0:
285,210,87007,6,0,L|229:205,2,42.5000008106232,0|0|8,1:0|1:0|0:0,0:0:0:0:
265,312,87697,2,0,L|167:320,1,85.0000016212464,2|8,0:0|0:0,0:0:0:0:
118,237,88386,5,4,1:2:0:0:
46,163,88731,2,0,B|0:120|0:120|29:-20,1,170.000003242493,8|8,0:0|0:0,0:0:0:0:
122,35,89766,1,0,1:0:0:0:
170,124,90111,2,0,P|252:121|330:57,1,170.000003242493,8|8,0:0|0:0,0:0:0:0:
404,12,91145,1,0,1:0:0:0:
461,96,91490,2,0,L|472:281,1,170.000003242493,8|8,0:0|0:0,0:0:0:0:
381,315,92524,1,0,1:0:0:0:
311,240,92869,2,0,B|225:235|225:235|153:278,1,170.000003242493,8|8,0:0|0:0,0:0:0:0:
79,349,93904,6,0,L|74:301,1,42.5000008106232,0|0,1:0|3:0,0:0:0:0:
55,259,94248,2,0,L|60:211,1,42.5000008106232,8|0,0:0|3:0,0:0:0:0:
85,172,94593,1,2,0:0:0:0:
59,73,94938,1,8,0:0:0:0:
160,83,95283,6,0,L|209:89,1,42.5000008106232,0|0,1:0|3:0,0:0:0:0:
246,63,95628,2,0,L|295:57,1,42.5000008106232,8|0,0:0|3:0,0:0:0:0:
334,78,95973,1,2,0:0:0:0:
425,32,96317,1,8,0:0:0:0:
504,105,96662,5,0,1:0:0:0:
504,105,96835,1,8,0:0:0:0:
415,151,97179,1,0,1:0:0:0:
415,151,97352,1,8,0:0:0:0:
481,236,97697,1,0,1:0:0:0:
481,236,97869,1,8,0:0:0:0:
481,236,98042,2,0,L|371:251,2,85.0000016212464,0|0|4,3:0|3:0|3:0,0:0:0:0:
507,334,99076,1,12,0:0:0:0:
408,361,99421,5,4,1:2:0:0:
317,313,99766,2,0,B|301:326|301:326|279:328,2,42.5000008106232,8|0|2,0:0|3:0|0:0,0:0:0:0:
383,235,100455,1,8,0:0:0:0:
287,199,100800,1,0,1:0:0:0:
347,116,101145,1,8,0:0:0:0:
251,57,101490,2,0,L|191:62,2,42.5000008106232,2|2|8,0:0|0:0|0:0,0:0:0:0:
334,0,102179,5,0,1:0:0:0:
418,57,102524,2,0,L|435:176,1,85.0000016212464,8|2,0:0|0:0,0:0:0:0:
438,191,103042,1,0,3:0:0:0:
438,191,103214,1,8,0:0:0:0:
382,276,103559,6,0,P|341:258|292:258,2,85.0000016212464,2|8|2,0:0|0:0|0:0,0:0:0:0:
424,314,104421,1,2,0:0:0:0:
424,314,104593,1,8,0:0:0:0:
338,369,104938,5,0,1:0:0:0:
241,335,105283,2,0,B|220:322|220:322|188:327,2,42.5000008106232,8|0|2,0:0|3:0|0:0,0:0:0:0:
301,256,105973,1,8,0:0:0:0:
235,178,106317,1,0,1:0:0:0:
302,101,106662,1,8,0:0:0:0:
243,17,107007,2,0,L|190:12,2,42.5000008106232,2|2|8,0:0|0:0|0:0,0:0:0:0:
176,95,107697,5,0,1:0:0:0:
78,125,108042,2,0,P|51:189|51:236,1,85.0000016212464,8|2,0:0|0:0,0:0:0:0:
58,254,108559,1,0,3:0:0:0:
58,254,108731,1,8,0:0:0:0:
158,235,109076,6,0,L|228:226,1,42.5000008106232,0|0,1:0|1:0,0:0:0:0:
234,267,109421,2,0,L|304:276,1,42.5000008106232,8|0,0:0|3:0,0:0:0:0:
298,226,109766,2,0,B|295:194|295:194|311:159,2,63.7500012159348,12|12|12,0:3|0:3|0:3,0:0:0:0:
352,251,110455,5,4,1:2:0:0:
450,181,110800,2,0,L|447:46,1,100,8|2,0:0|0:0,0:0:0:0:
448,20,111317,1,0,1:0:0:0:
340,67,111662,1,2,0:0:0:0:
340,67,111835,2,0,P|298:84|237:88,1,100,0|8,1:0|0:0,0:0:0:0:
185,75,112352,1,2,0:0:0:0:
87,144,112697,1,0,1:0:0:0:
151,251,113042,1,2,0:0:0:0:
151,251,113214,6,0,L|268:245,1,100,0|8,1:0|0:0,0:0:0:0:
373,227,113904,1,2,0:0:0:0:
373,227,114076,2,0,P|369:281|355:324,1,100,0|2,1:0|0:0,0:0:0:0:
322,375,114593,1,0,1:0:0:0:
214,321,114938,5,8,0:0:0:0:
214,321,115111,1,0,3:0:0:0:
119,257,115455,1,0,1:0:0:0:
119,257,115628,1,8,0:0:0:0:
162,145,115973,6,0,L|271:137,1,100,4|0,1:3|1:0,0:0:0:0:
359,67,116662,2,0,L|468:59,1,100,0|0,1:0|1:0,0:0:0:0:
510,168,117352,2,0,P|515:221|505:273,1,100,4|0,1:3|1:0,0:0:0:0:
399,320,118042,2,0,P|394:267|404:215,1,100,0|0,1:0|1:0,0:0:0:0:
301,156,118731,5,4,1:3:0:0:
255,47,119075,1,0,1:0:0:0:
144,10,119420,1,0,1:0:0:0:
43,71,119765,1,0,1:0:0:0:
28,187,120110,1,4,1:2:0:0:
191,0,121490,6,0,L|181:163,1,150.000005722046,4|2,1:2|0:0,0:0:0:0:
86,302,122869,2,0,B|154:310|158:260|228:265,1,150.000005722046,0|2,1:0|0:0,0:0:0:0:
376,362,124248,2,0,P|339:306|361:211,2,150.000005722046,0|2|0,1:0|0:0|1:0,0:0:0:0:
376,362,127007,6,0,L|389:180,1,150.000005722046,0|2,1:0|0:0,0:0:0:0:
380,62,128386,2,0,P|318:31|237:50,1,150.000005722046,0|0,1:0|0:0,0:0:0:0:
161,174,129766,2,0,P|99:205|18:186,2,150.000005722046,2|2|2,0:0|0:0|0:0,0:0:0:0:
280,292,132524,6,0,P|284:225|321:137,1,150.000005722046,4|2,1:2|0:0,0:0:0:0:
313,148,133904,2,0,P|243:176|169:181,1,150.000005722046,2|2,0:0|0:0,0:0:0:0:
25,140,135283,1,2,0:0:0:0:
25,140,138042,6,0,P|112:131|176:101,1,150.000005722046,2|2,0:0|0:0,0:0:0:0:
168,105,139421,6,0,P|139:174|138:223,1,112.500004291535,2|2,0:0|0:0,0:0:0:0:
173,292,140283,1,2,0:0:0:0:
256,192,140800,12,0,143214,0:0:0:0:
