osu file format v14

[General]
AudioFilename: audio.mp3
AudioLeadIn: 0
PreviewTime: 53904
Countdown: 0
SampleSet: Soft
StackLeniency: 0.4
Mode: 0
LetterboxInBreaks: 0
WidescreenStoryboard: 0

[Editor]
Bookmarks: 116317
DistanceSpacing: 0.5
BeatDivisor: 4
GridSize: 32
TimelineZoom: 1

[Metadata]
Title:Dream Catcher (feat. Charlotte Haining) (Cut Ver.)
TitleUnicode:Dream Catcher (feat. Charlotte Haining) (Cut Ver.)
Artist:Rameses B
ArtistUnicode:Rameses B
Creator:Fall
Version:Aspiration
Source:
Tags:electronic english dnb drum and & bass _tranquility cut version female vocals vocalist castagne rvmathew plaudible xenon- xehn xen aia kowari
BeatmapID:2449777
BeatmapSetID:1174503

[Difficulty]
HPDrainRate:6
CircleSize:4
OverallDifficulty:8.7
ApproachRate:9.2
SliderMultiplier:1.5
SliderTickRate:1

[Events]
//Background and Video events
0,0,"1042405.jpg",0,0
//Break Periods
2,33414,43506
//Storyboard Layer 0 (Background)
//Storyboard Layer 1 (Fail)
//Storyboard Layer 2 (Pass)
//Storyboard Layer 3 (Foreground)
//Storyboard Layer 4 (Overlay)
//Storyboard Sound Samples

[TimingPoints]
111,344.827586206897,4,2,2,20,1,0
21145,-100,4,2,2,40,0,0
22179,-133.333333333333,4,2,2,45,0,0
27697,-111.111111111111,4,2,2,45,0,0
44248,-111.111111111111,4,2,2,55,0,0
49766,-111.111111111111,4,2,2,60,0,0
55283,-76.9230769230769,4,2,2,80,0,1
77352,-83.3333333333333,4,2,2,80,0,0
88386,-76.9230769230769,4,2,2,80,0,0
99076,-250,4,2,2,80,0,0
99421,-250,4,2,2,80,0,1
99766,-100,4,2,2,80,0,1
100111,-100,4,2,2,80,0,0
100800,-100,4,2,2,80,0,1
101490,-100,4,2,2,80,0,0
102524,-100,4,2,2,80,0,1
103214,-100,4,2,2,80,0,0
103559,-100,4,2,2,80,0,1
104938,-100,4,2,2,80,0,0
105283,-100,4,2,2,80,0,1
105973,-100,4,2,2,80,0,0
106317,-100,4,2,2,80,0,1
107007,-100,4,2,2,80,0,0
108042,-100,4,2,2,80,0,1
108386,-100,4,2,2,80,0,0
109076,-100,4,2,2,80,0,1
110024,-71.4285714285714,4,2,2,80,0,0
110455,-66.6666666666667,4,2,2,80,0,0
121490,-100,4,2,2,45,0,0
132524,-200,4,2,2,45,0,0
138042,-200,4,2,2,45,0,0
140455,-100,4,2,2,45,0,0

[Colours]
Combo1 : 255,160,66
Combo2 : 0,0,255
Combo3 : 255,128,0
Combo4 : 79,79,255

[HitObjects]
256,192,19421,12,0,22007,0:0:0:0:
61,137,22179,6,0,L|301:94,2,225.000008583069,2|0|2,0:0|0:0|0:0,0:0:0:0:
61,137,24248,1,0,0:0:0:0:
282,97,24938,6,0,P|265:159|279:329,2,225.000008583069,2|0|2,0:0|0:0|0:0,0:0:0:0:
282,97,27007,2,0,B|307:83|307:83|348:102,1,56.2500021457673,2|0,0:0|0:0,0:0:0:0:
422,174,27352,2,0,P|406:137|444:141,1,84.3750032186509,2|0,0:0|0:0,0:0:0:0:
463,169,27697,6,0,P|450:209|446:319,1,134.999995880127,6|2,1:2|0:0,0:0:0:0:
213,145,28386,2,0,P|226:185|230:295,1,134.999995880127,2|2,0:0|0:0,0:0:0:0:
396,50,29076,6,0,P|383:90|379:200,1,134.999995880127,2|2,0:0|0:0,0:0:0:0:
66,4,29766,2,0,P|79:44|83:154,1,134.999995880127,2|2,0:0|0:0,0:0:0:0:
225,384,30455,5,2,0:0:0:0:
256,192,30542,12,0,32007,0:0:0:0:
451,194,32179,6,0,P|460:159|451:98,1,67.4999979400635,2|0,0:0|0:0,0:0:0:0:
299,142,32611,5,2,0:0:0:0:
299,142,32697,2,0,P|335:168|318:110,1,134.999995880127,2|0,0:0|0:0,0:0:0:0:
262,75,33214,1,4,1:2:0:0:
64,85,44076,5,0,3:0:0:0:
86,166,44248,5,4,1:2:0:0:
159,13,44938,1,0,1:0:0:0:
172,225,45628,5,0,1:0:0:0:
59,52,46317,1,0,1:0:0:0:
105,296,47007,6,0,P|151:322|235:301,1,134.999995880127,0|8,1:0|0:0,0:0:0:0:
244,93,47697,2,0,L|255:235,1,134.999995880127,0|8,1:0|0:0,0:0:0:0:
460,260,48386,2,0,P|414:234|330:255,1,134.999995880127,0|8,1:0|0:0,0:0:0:0:
253,94,49076,2,0,L|242:236,1,134.999995880127,0|8,1:0|0:0,0:0:0:0:
55,40,49766,5,4,1:2:0:0:
58,53,50111,1,8,0:0:0:0:
61,66,50455,1,0,1:0:0:0:
64,79,50800,1,8,0:0:0:0:
356,98,51145,5,0,1:0:0:0:
350,120,51490,1,8,0:0:0:0:
344,142,51835,1,0,1:0:0:0:
339,166,52179,5,8,0:0:0:0:
236,297,52352,1,0,3:0:0:0:
133,166,52524,6,0,P|164:143|108:93,1,134.999995880127,4|0,1:3|0:0,0:0:0:0:
52,229,53042,1,0,0:0:0:0:
52,229,53128,1,0,0:0:0:0:
52,229,53214,2,0,P|86:233|113:265,1,67.4999979400635,2|0,0:0|0:0,0:0:0:0:
247,338,53559,2,0,P|281:334|308:302,1,67.4999979400635,2|0,0:0|0:0,0:0:0:0:
305,135,53904,5,4,3:0:0:0:
288,164,53990,1,0,3:0:0:0:
289,197,54076,1,0,3:0:0:0:
306,226,54162,1,0,3:0:0:0:
334,243,54248,1,4,3:0:0:0:
368,244,54335,1,0,3:0:0:0:
397,228,54421,1,0,3:0:0:0:
415,200,54507,1,0,3:0:0:0:
417,167,54593,5,4,3:0:0:0:
409,125,54679,1,0,3:0:0:0:
401,84,54766,1,0,3:0:0:0:
393,42,54852,1,0,3:0:0:0:
385,2,54938,5,12,0:0:0:0:
89,40,55283,6,0,B|193:22|142:98|278:75,1,194.999991073609,4|8,1:2|0:0,0:0:0:0:
40,111,55800,1,0,0:0:0:0:
40,111,55886,1,0,0:0:0:0:
40,111,55973,2,0,P|26:163|30:227,1,97.4999955368044,2|0,0:0|1:0,0:0:0:0:
212,363,56317,1,8,0:0:0:0:
223,335,56404,1,0,0:0:0:0:
223,305,56490,1,0,0:0:0:0:
0,357,56662,6,0,P|55:356|85:283,1,97.4999955368044,0|0,1:0|0:0,0:0:0:0:
125,86,57007,2,0,L|132:184,1,97.4999955368044,8|2,0:0|0:0,0:0:0:0:
138,206,57266,1,0,0:0:0:0:
138,206,57352,1,2,0:0:0:0:
260,45,57524,1,0,1:0:0:0:
286,268,57697,1,8,0:0:0:0:
205,130,57869,1,0,0:0:0:0:
470,68,58042,6,0,P|446:144|311:178,1,194.999991073609,0|8,1:0|0:0,0:0:0:0:
120,67,58559,1,0,0:0:0:0:
120,67,58645,1,0,0:0:0:0:
120,67,58731,1,2,0:0:0:0:
178,309,58904,1,0,1:0:0:0:
300,123,59076,1,8,0:0:0:0:
117,212,59248,1,0,0:0:0:0:
382,279,59421,6,0,L|283:267,1,97.4999955368044,0|0,1:0|1:0,0:0:0:0:
154,100,59766,2,0,L|55:88,1,97.4999955368044,8|0,0:0|0:0,0:0:0:0:
28,83,60024,2,0,P|17:142|26:172,1,48.7499977684022,0|2,3:0|0:0,0:0:0:0:
102,268,60197,2,0,P|113:209|104:179,1,48.7499977684022,0|0,3:0|0:0,0:0:0:0:
16,49,60455,1,8,0:0:0:0:
107,207,60628,1,0,0:0:0:0:
201,32,60800,6,0,P|277:28|320:145,1,194.999991073609,0|8,1:0|0:0,0:0:0:0:
261,279,61317,1,0,0:0:0:0:
261,279,61404,1,0,0:0:0:0:
261,279,61490,1,2,0:0:0:0:
166,159,61662,1,0,1:0:0:0:
67,373,61835,2,0,L|118:366,1,48.7499977684022,8|0,0:0|0:0,0:0:0:0:
10,292,62007,1,0,0:0:0:0:
166,159,62179,6,0,P|186:108|195:54,1,97.4999955368044,0|0,1:0|0:0,0:0:0:0:
306,326,62524,2,0,P|286:275|277:221,1,97.4999955368044,8|2,0:0|0:0,0:0:0:0:
283,217,62783,1,0,0:0:0:0:
283,217,62869,1,2,0:0:0:0:
186,375,63042,1,0,1:0:0:0:
373,268,63214,1,8,0:0:0:0:
185,277,63386,1,0,0:0:0:0:
374,182,63559,6,0,P|388:123|283:126,1,194.999991073609,0|8,1:0|0:0,0:0:0:0:
126,216,64076,1,0,0:0:0:0:
126,216,64162,1,0,0:0:0:0:
126,216,64248,1,2,0:0:0:0:
186,50,64421,1,0,1:0:0:0:
280,276,64593,1,8,0:0:0:0:
182,127,64766,1,0,0:0:0:0:
32,314,64938,5,0,1:0:0:0:
269,193,65111,1,0,1:0:0:0:
1,99,65283,1,8,0:0:0:0:
212,337,65455,1,0,0:0:0:0:
212,337,65542,2,0,P|236:357|281:368,1,48.7499977684022,0|2,3:0|0:0,0:0:0:0:
120,180,65714,2,0,P|100:204|89:249,1,48.7499977684022,0|0,3:0|0:0,0:0:0:0:
335,308,65973,2,0,L|350:205,1,97.4999955368044,8|0,0:0|0:0,0:0:0:0:
400,84,66317,6,0,P|324:42|270:120,1,194.999991073609,4|8,1:2|0:0,0:0:0:0:
501,239,66835,1,0,0:0:0:0:
501,239,66921,1,0,0:0:0:0:
501,239,67007,2,0,L|492:141,1,97.4999955368044,2|0,0:0|1:0,0:0:0:0:
286,346,67352,2,0,L|292:296,2,48.7499977684022,8|0|0,0:0|0:0|0:0,0:0:0:0:
92,200,67697,6,0,L|204:190,1,97.4999955368044,0|0,1:0|0:0,0:0:0:0:
388,306,68042,2,0,L|276:296,1,97.4999955368044,8|2,0:0|0:0,0:0:0:0:
271,293,68300,1,0,0:0:0:0:
271,292,68386,1,2,0:0:0:0:
352,117,68559,1,0,1:0:0:0:
183,273,68731,1,8,0:0:0:0:
362,202,68904,1,0,0:0:0:0:
185,23,69076,6,0,P|148:79|202:198,1,194.999991073609,0|8,1:0|0:0,0:0:0:0:
388,306,69593,1,0,0:0:0:0:
388,306,69679,1,0,0:0:0:0:
388,306,69766,1,2,0:0:0:0:
296,137,69938,1,0,1:0:0:0:
183,273,70111,2,0,L|166:382,1,97.4999955368044,8|0,0:0|0:0,0:0:0:0:
1,136,70455,5,0,1:0:0:0:
63,301,70628,1,0,1:0:0:0:
168,47,70800,2,0,P|126:71|100:113,1,97.4999955368044,8|0,0:0|0:0,0:0:0:0:
102,146,71059,2,0,L|111:220,1,48.7499977684022,0|2,3:0|0:0,0:0:0:0:
220,301,71231,2,0,L|211:227,1,48.7499977684022,0|0,3:0|0:0,0:0:0:0:
68,125,71490,1,8,0:0:0:0:
138,320,71662,1,0,0:0:0:0:
342,263,71835,6,0,L|343:363,1,97.4999955368044,0|0,1:0|0:0,0:0:0:0:
215,155,72179,2,0,L|214:255,1,97.4999955368044,8|0,0:0|0:0,0:0:0:0:
485,114,72524,6,0,B|410:131|410:131|385:157|385:157|297:177,1,194.999991073609,0|8,1:0|0:0,0:0:0:0:
57,72,73042,1,0,0:0:0:0:
127,276,73214,5,0,1:0:0:0:
252,78,73386,1,2,0:0:0:0:
3,171,73559,2,0,L|102:174,1,97.4999955368044,8|0,0:0|0:0,0:0:0:0:
262,328,73904,5,0,1:0:0:0:
170,115,74076,1,2,0:0:0:0:
97,346,74248,1,8,0:0:0:0:
178,192,74421,1,0,0:0:0:0:
353,312,74593,6,0,P|309:330|261:327,1,97.4999955368044,0|0,1:0|0:0,0:0:0:0:
170,115,74938,2,0,P|214:96|262:99,1,97.4999955368044,8|0,0:0|0:0,0:0:0:0:
471,178,75283,6,0,L|372:181,1,97.4999955368044,0|2,1:0|0:0,0:0:0:0:
173,290,75628,1,8,0:0:0:0:
262,99,75800,1,0,0:0:0:0:
353,312,75973,5,0,1:0:0:0:
144,288,76145,1,0,1:0:0:0:
264,68,76317,1,8,0:0:0:0:
245,349,76490,1,0,1:0:0:0:
490,132,76662,1,2,0:0:0:0:
452,102,76748,1,0,3:0:0:0:
404,95,76835,1,0,1:0:0:0:
360,114,76921,1,0,3:0:0:0:
331,152,77007,2,0,L|345:256,1,97.4999955368044,8|0,0:0|0:0,0:0:0:0:
334,36,77352,6,0,P|262:93|244:192,1,179.999994506836,4|8,1:2|0:0,0:0:0:0:
156,314,77869,1,0,0:0:0:0:
75,187,78042,1,2,0:0:0:0:
8,320,78214,1,0,1:0:0:0:
190,239,78386,2,0,P|231:277|239:318,1,89.9999972534181,8|0,0:0|0:0,0:0:0:0:
21,113,78731,6,0,P|88:96|168:200,1,179.999994506836,0|8,1:0|0:0,0:0:0:0:
364,162,79248,1,0,0:0:0:0:
348,155,79335,1,0,0:0:0:0:
331,152,79421,1,2,0:0:0:0:
383,305,79593,1,0,1:0:0:0:
512,208,79766,2,0,L|410:229,1,89.9999972534181,8|0,0:0|0:0,0:0:0:0:
226,89,80111,6,0,L|425:130,1,179.999994506836,0|8,1:0|0:0,0:0:0:0:
310,238,80628,1,0,0:0:0:0:
402,125,80800,1,2,0:0:0:0:
462,299,80973,1,0,1:0:0:0:
274,171,81145,2,0,P|241:207|231:267,1,89.9999972534181,8|0,0:0|0:0,0:0:0:0:
108,161,81490,5,0,1:0:0:0:
136,277,81662,1,0,1:0:0:0:
211,123,81835,1,8,0:0:0:0:
110,338,82007,5,0,3:0:0:0:
116,305,82093,1,0,3:0:0:0:
136,277,82179,1,2,0:0:0:0:
165,260,82266,1,0,3:0:0:0:
198,256,82352,2,0,L|253:281,1,44.999998626709,0|0,1:0|3:0,0:0:0:0:
108,161,82524,1,8,0:0:0:0:
37,246,82697,1,0,0:0:0:0:
211,123,82869,6,0,P|271:100|375:146,1,179.999994506836,0|8,1:0|0:0,0:0:0:0:
335,333,83386,1,0,0:0:0:0:
324,318,83473,1,0,0:0:0:0:
320,295,83559,1,2,0:0:0:0:
474,172,83731,1,0,1:0:0:0:
423,321,83904,1,8,0:0:0:0:
345,214,84076,1,0,0:0:0:0:
196,324,84248,6,0,P|170:274|260:236,1,179.999994506836,0|8,1:0|0:0,0:0:0:0:
96,285,84766,1,0,0:0:0:0:
95,266,84852,1,0,0:0:0:0:
99,249,84938,1,2,0:0:0:0:
207,143,85111,1,0,1:0:0:0:
326,301,85283,2,0,P|342:240|344:191,1,89.9999972534181,8|0,0:0|0:0,0:0:0:0:
187,32,85628,6,0,P|199:94|295:148,1,179.999994506836,0|8,1:0|0:0,0:0:0:0:
406,44,86145,1,0,0:0:0:0:
409,61,86231,1,0,0:0:0:0:
412,78,86317,1,2,0:0:0:0:
443,207,86490,1,0,1:0:0:0:
299,114,86662,5,8,0:0:0:0:
296,131,86748,1,0,0:0:0:0:
293,148,86835,1,0,0:0:0:0:
200,349,87007,6,0,L|187:249,1,89.9999972534181,0|0,1:0|1:0,0:0:0:0:
185,241,87266,1,0,0:0:0:0:
182,223,87352,2,0,L|175:171,3,44.999998626709,8|0|0|0,0:0|0:0|3:0|3:0,0:0:0:0:
95,150,87697,5,2,0:0:0:0:
122,114,87783,1,0,3:0:0:0:
162,96,87869,1,0,1:0:0:0:
207,101,87955,1,0,3:0:0:0:
243,126,88042,1,8,0:0:0:0:
243,126,88386,6,0,P|303:153|420:83,1,194.999991073609,4|8,1:2|0:0,0:0:0:0:
231,0,88904,1,0,0:0:0:0:
217,13,88990,1,0,0:0:0:0:
206,29,89076,1,2,0:0:0:0:
316,226,89248,1,0,1:0:0:0:
401,19,89421,2,0,P|456:31|492:71,1,97.4999955368044,8|0,0:0|0:0,0:0:0:0:
504,281,89766,6,0,B|470:294|444:278|444:278|417:301|417:301|369:277|309:313,1,194.999991073609,0|8,1:0|0:0,0:0:0:0:
177,275,90283,1,0,0:0:0:0:
177,255,90369,1,0,0:0:0:0:
180,235,90455,1,2,0:0:0:0:
323,305,90628,1,0,1:0:0:0:
144,358,90800,2,0,L|37:360,1,97.4999955368044,8|0,0:0|0:0,0:0:0:0:
75,104,91145,5,0,1:0:0:0:
94,276,91317,1,0,0:0:0:0:
163,121,91490,1,8,0:0:0:0:
183,275,91662,1,0,0:0:0:0:
183,255,91748,1,0,0:0:0:0:
180,235,91835,1,2,0:0:0:0:
40,196,92007,1,0,1:0:0:0:
236,165,92179,2,0,L|337:157,1,97.4999955368044,8|0,0:0|0:0,0:0:0:0:
469,298,92524,5,0,1:0:0:0:
402,98,92697,1,0,1:0:0:0:
379,271,92869,1,8,0:0:0:0:
512,130,93042,1,0,3:0:0:0:
512,130,93128,2,0,L|456:134,1,48.7499977684022,0|2,3:0|0:0,0:0:0:0:
411,192,93300,1,0,3:0:0:0:
411,192,93386,2,0,L|355:196,1,48.7499977684022,0|0,1:0|3:0,0:0:0:0:
250,37,93559,1,8,0:0:0:0:
180,235,93731,1,0,0:0:0:0:
463,133,93904,6,0,L|467:81,3,48.7499977684022,0|0|0|0,1:0|3:0|3:0|3:0,0:0:0:0:
384,96,94248,2,0,L|380:44,3,48.7499977684022,8|0|0|0,0:0|3:0|3:0|3:0,0:0:0:0:
296,32,94593,6,0,L|292:84,3,48.7499977684022,2|0|0|0,0:0|3:0|1:0|3:0,0:0:0:0:
207,53,94938,2,0,L|211:105,3,48.7499977684022,8|0|0|0,0:0|3:0|3:0|3:0,0:0:0:0:
287,177,95283,5,0,1:0:0:0:
280,224,95369,1,0,3:0:0:0:
246,258,95455,1,0,3:0:0:0:
199,264,95542,1,0,3:0:0:0:
157,240,95628,1,8,0:0:0:0:
115,216,95714,1,0,3:0:0:0:
68,222,95800,1,0,3:0:0:0:
34,256,95886,1,0,3:0:0:0:
27,303,95973,6,0,L|34:353,3,48.7499977684022,2|0|0|0,0:0|3:0|1:0|3:0,0:0:0:0:
157,240,96317,2,0,L|160:178,1,48.7499977684022,8|0,0:0|3:0,0:0:0:0:
322,307,96490,2,0,L|325:369,1,48.7499977684022,0|0,3:0|3:0,0:0:0:0:
479,108,96662,5,0,1:0:0:0:
224,307,96835,1,8,0:0:0:0:
224,307,97179,5,0,1:0:0:0:
251,27,97352,1,8,0:0:0:0:
251,27,97697,5,0,1:0:0:0:
406,290,97869,1,8,0:0:0:0:
79,135,98042,5,0,3:0:0:0:
113,128,98128,1,0,3:0:0:0:
147,133,98214,1,0,3:0:0:0:
177,150,98300,1,0,3:0:0:0:
201,175,98386,1,0,3:0:0:0:
215,207,98473,1,0,3:0:0:0:
217,241,98559,1,0,3:0:0:0:
208,275,98645,1,0,3:0:0:0:
182,297,98731,2,0,L|139:326,1,48.7499977684022,4|0,3:0|3:0,0:0:0:0:
301,193,98904,2,0,L|344:222,1,48.7499977684022,0|0,3:0|3:0,0:0:0:0:
251,53,99076,6,0,P|245:75|249:102,1,45,12|0,0:0|0:0,0:0:0:0:
249,107,99421,1,4,1:2:0:0:
366,212,99766,6,0,P|327:182|299:178,1,75,8|0,0:0|3:0,0:0:0:0:
288,182,100024,1,0,1:0:0:0:
275,190,100111,1,2,0:0:0:0:
192,360,100455,6,0,L|201:277,1,75,8|0,0:0|0:0,0:0:0:0:
123,125,100800,2,0,L|132:208,1,75,0|0,1:0|0:0,0:0:0:0:
43,358,101145,2,0,L|52:275,1,75,8|0,0:0|3:0,0:0:0:0:
52,268,101404,1,0,1:0:0:0:
53,253,101490,1,2,0:0:0:0:
131,199,101662,1,2,0:0:0:0:
279,310,101835,1,8,0:0:0:0:
279,310,102179,5,0,1:0:0:0:
388,100,102524,2,0,P|356:130|336:179,1,75,8|0,0:0|0:0,0:0:0:0:
251,213,102869,1,2,0:0:0:0:
251,213,102955,2,0,P|219:183|199:134,1,75,0|0,1:0|0:0,0:0:0:0:
200,141,103214,1,8,0:0:0:0:
87,56,103559,5,2,0:0:0:0:
87,56,103645,2,0,L|80:136,1,75,0|0,1:0|0:0,0:0:0:0:
79,145,103904,1,8,0:0:0:0:
137,250,104076,1,2,0:0:0:0:
137,250,104162,1,0,1:0:0:0:
137,250,104248,5,2,0:0:0:0:
74,327,104421,1,2,0:0:0:0:
159,157,104593,1,8,0:0:0:0:
159,157,104938,5,0,1:0:0:0:
207,319,105283,2,0,L|297:312,1,75,8|0,0:0|3:0,0:0:0:0:
296,312,105542,1,0,1:0:0:0:
310,310,105628,1,2,0:0:0:0:
382,255,105800,1,0,1:0:0:0:
382,255,105886,1,0,0:0:0:0:
382,255,105973,2,0,P|355:216|348:184,1,75,8|0,0:0|0:0,0:0:0:0:
463,31,106317,6,0,P|436:70|429:102,1,75,0|0,1:0|0:0,0:0:0:0:
430,111,106576,1,0,0:0:0:0:
434,125,106662,1,8,0:0:0:0:
333,57,106835,1,0,3:0:0:0:
333,57,106921,1,0,1:0:0:0:
333,57,107007,5,2,0:0:0:0:
239,133,107179,1,2,0:0:0:0:
121,42,107352,2,0,L|200:29,1,75,8|0,0:0|0:0,0:0:0:0:
209,26,107611,1,0,0:0:0:0:
223,23,107697,5,0,1:0:0:0:
151,127,107869,1,0,0:0:0:0:
151,127,107955,1,0,0:0:0:0:
151,127,108042,6,0,P|172:187|231:222,1,112.5,8|0,0:0|0:0,0:0:0:0:
223,219,108386,1,2,0:0:0:0:
237,221,108473,1,0,1:0:0:0:
251,220,108559,1,0,3:0:0:0:
188,340,108731,1,8,0:0:0:0:
327,294,108904,5,0,0:0:0:0:
327,294,108990,1,0,0:0:0:0:
327,294,109076,2,0,L|329:250,1,37.5,0|0,1:0|3:0,0:0:0:0:
419,139,109248,2,0,L|421:183,1,37.5,0|0,1:0|3:0,0:0:0:0:
400,375,109421,2,0,L|398:331,1,37.5,8|0,0:0|3:0,0:0:0:0:
354,46,109593,2,0,L|352:90,1,37.5,0|0,3:0|3:0,0:0:0:0:
254,333,109766,6,0,P|209:304|161:304,1,75,12|0,0:3|0:0,0:0:0:0:
165,278,110024,2,0,P|143:311|197:332,1,104.999996795654,12|0,0:3|0:0,0:0:0:0:
227,227,110283,2,0,P|203:200|183:194,1,52.4999983978272,12|0,0:3|0:0,0:0:0:0:
48,81,110455,6,0,B|173:69|106:127|271:105,1,225.000008583069,4|8,1:2|0:0,0:0:0:0:
489,82,110973,1,0,0:0:0:0:
312,227,111145,1,2,0:0:0:0:
373,46,111317,1,0,1:0:0:0:
373,46,111404,1,0,0:0:0:0:
373,46,111490,1,8,0:0:0:0:
448,250,111662,1,2,0:0:0:0:
254,25,111835,6,0,P|208:44|185:103,1,112.500004291535,0|0,1:0|0:0,0:0:0:0:
220,271,112179,1,8,0:0:0:0:
82,141,112352,1,2,0:0:0:0:
82,141,112438,1,0,0:0:0:0:
82,141,112524,1,2,0:0:0:0:
32,319,112697,1,0,1:0:0:0:
184,99,112869,1,8,0:0:0:0:
23,240,113042,1,2,0:0:0:0:
220,271,113214,6,0,L|338:282,1,112.500004291535,0|0,1:0|0:0,0:0:0:0:
493,108,113559,2,0,L|375:119,1,112.500004291535,8|0,0:0|0:0,0:0:0:0:
341,123,113817,1,0,0:0:0:0:
341,123,113904,1,2,0:0:0:0:
332,281,114076,1,0,1:0:0:0:
369,42,114248,1,8,0:0:0:0:
412,247,114421,1,2,0:0:0:0:
138,83,114593,6,0,B|194:137|194:137|356:121,1,225.000008583069,0|8,1:0|0:0,0:0:0:0:
186,12,115111,1,0,3:0:0:0:
186,12,115197,2,0,P|114:3|92:16,1,56.2500021457673,0|0,3:0|3:0,0:0:0:0:
143,203,115369,2,0,P|215:212|237:199,1,56.2500021457673,0|0,3:0|3:0,0:0:0:0:
51,2,115628,1,8,0:0:0:0:
467,240,115973,6,0,L|343:268,1,112.500004291535,4|0,1:3|0:0,0:0:0:0:
72,192,116317,2,0,L|196:220,1,112.500004291535,0|0,1:0|0:0,0:0:0:0:
492,325,116662,6,0,L|368:353,1,112.500004291535,0|0,1:0|0:0,0:0:0:0:
101,112,117007,2,0,L|225:140,1,112.500004291535,0|0,1:0|0:0,0:0:0:0:
372,55,117352,6,0,L|394:167,1,112.500004291535,4|0,1:3|0:0,0:0:0:0:
181,216,117697,2,0,L|159:328,1,112.500004291535,0|0,1:0|0:0,0:0:0:0:
454,32,118042,6,0,L|476:144,1,112.500004291535,0|0,1:0|0:0,0:0:0:0:
72,192,118386,2,0,L|50:304,1,112.500004291535,0|0,1:0|0:0,0:0:0:0:
149,91,118731,5,4,1:3:0:0:
244,355,118904,1,0,1:0:0:0:
251,61,119076,1,0,1:0:0:0:
159,326,119248,1,0,1:0:0:0:
349,179,119421,5,0,1:0:0:0:
50,302,119593,1,0,1:0:0:0:
409,122,119766,1,0,1:0:0:0:
159,326,119938,1,0,1:0:0:0:
186,0,120111,5,4,1:2:0:0:
256,192,120197,12,0,121317,0:0:0:0:
46,82,121490,6,0,B|105:87|105:87|129:106|129:106|207:113,1,150,4|8,1:2|0:0,0:0:0:0:
293,45,122007,1,0,0:0:0:0:
284,55,122093,1,0,0:0:0:0:
290,67,122179,1,2,0:0:0:0:
303,67,122266,1,0,0:0:0:0:
309,55,122352,1,0,3:0:0:0:
257,165,122524,2,0,P|315:172|360:150,1,75,8|2,0:0|0:0,0:0:0:0:
179,187,122869,6,0,P|152:244|157:337,1,150,0|8,1:0|0:0,0:0:0:0:
287,282,123386,1,0,0:0:0:0:
293,290,123473,1,0,0:0:0:0:
289,299,123559,1,2,0:0:0:0:
278,299,123645,1,0,0:0:0:0:
274,290,123731,1,0,3:0:0:0:
393,249,123904,2,0,P|400:307|378:352,1,75,8|2,0:0|0:0,0:0:0:0:
331,196,124248,6,0,P|321:124|347:25,2,150,0|8|2,1:0|0:0|0:0,0:0:0:0:
422,168,125111,1,0,3:0:0:0:
422,168,125283,1,8,0:0:0:0:
245,67,125628,6,0,L|167:72,1,75,0|0,1:0|0:0,0:0:0:0:
78,79,125973,1,8,0:0:0:0:
119,223,126317,6,0,P|131:175|130:145,2,75,2|0|8,0:0|3:0|0:0,0:0:0:0:
69,282,126835,1,2,0:0:0:0:
69,282,127007,6,0,B|86:321|86:321|210:317,1,150,0|8,1:0|0:0,0:0:0:0:
337,164,127697,2,0,P|316:202|313:246,1,75,2|0,0:0|3:0,0:0:0:0:
383,269,128042,2,0,P|402:301|408:337,2,75,8|0|0,0:0|0:0|1:0,0:0:0:0:
311,232,128731,5,2,0:0:0:0:
258,291,128904,1,2,0:0:0:0:
174,237,129076,2,0,L|186:86,1,150,0|2,0:0|0:0,0:0:0:0:
185,87,129593,1,2,0:0:0:0:
256,192,129766,12,0,132352,0:0:0:0:
225,184,132524,6,0,P|273:211|226:204,3,150,4|2|2|2,1:2|0:0|0:0|0:0,0:0:0:0:
359,226,138042,6,0,B|356:178|356:178|259:173|245:288|303:352|396:346|433:296|431:234|431:234|424:142,1,487.5,2|2,0:0|0:0,0:0:0:0:
417,74,140455,2,0,B|357:77|357:77|334:98|334:98|265:101,1,150,2|2,0:0|0:0,0:0:0:0:
